  0
SECTION
  2
HEADER
  9
$ACADVER
  1
AC1015
  9
$ACADMAINTVER
 70
     6
  9
$DWGCODEPAGE
  3
ANSI_932
  9
$INSBASE
 10
0.0
 20
0.0
 30
0.0
  9
$EXTMIN
 10
15.233902
 20
16.749191
 30
0.0
  9
$EXTMAX
 10
213.368561
 20
208.392609
 30
0.0
  9
$LIMMIN
 10
0.0
 20
0.0
  9
$LIMMAX
 10
12.0
 20
9.0
  9
$ORTHOMODE
 70
     0
  9
$REGENMODE
 70
     1
  9
$FILLMODE
 70
     1
  9
$QTEXTMODE
 70
     0
  9
$MIRRTEXT
 70
     1
  9
$LTSCALE
 40
2.756529
  9
$ATTMODE
 70
     1
  9
$TEXTSIZE
 40
3.2
  9
$TRACEWID
 40
1.0
  9
$TEXTSTYLE
  7
Standard
  9
$CLAYER
  8
0
  9
$CELTYPE
  6
ByLayer
  9
$CECOLOR
 62
   256
  9
$CELTSCALE
 40
1.0
  9
$DISPSILH
 70
     0
  9
$DIMSCALE
 40
1.0
  9
$DIMASZ
 40
2.5
  9
$DIMEXO
 40
0.625
  9
$DIMDLI
 40
3.75
  9
$DIMRND
 40
0.0
  9
$DIMDLE
 40
0.0
  9
$DIMEXE
 40
1.25
  9
$DIMTP
 40
0.0
  9
$DIMTM
 40
0.0
  9
$DIMTXT
 40
2.5
  9
$DIMCEN
 40
0.09
  9
$DIMTSZ
 40
0.0
  9
$DIMTOL
 70
     0
  9
$DIMLIM
 70
     0
  9
$DIMTIH
 70
     0
  9
$DIMTOH
 70
     0
  9
$DIMSE1
 70
     0
  9
$DIMSE2
 70
     0
  9
$DIMTAD
 70
     0
  9
$DIMZIN
 70
     8
  9
$DIMBLK
  1

  9
$DIMASO
 70
     1
  9
$DIMSHO
 70
     0
  9
$DIMPOST
  1

  9
$DIMAPOST
  1

  9
$DIMALT
 70
     0
  9
$DIMALTD
 70
     3
  9
$DIMALTF
 40
0.03937
  9
$DIMLFAC
 40
1.0
  9
$DIMTOFL
 70
     1
  9
$DIMTVP
 40
0.0
  9
$DIMTIX
 70
     0
  9
$DIMSOXD
 70
     0
  9
$DIMSAH
 70
     0
  9
$DIMBLK1
  1

  9
$DIMBLK2
  1

  9
$DIMSTYLE
  2
ISO-25
  9
$DIMCLRD
 70
     0
  9
$DIMCLRE
 70
     0
  9
$DIMCLRT
 70
     0
  9
$DIMTFAC
 40
1.0
  9
$DIMGAP
 40
0.625
  9
$DIMJUST
 70
     0
  9
$DIMSD1
 70
     0
  9
$DIMSD2
 70
     0
  9
$DIMTOLJ
 70
     0
  9
$DIMTZIN
 70
     8
  9
$DIMALTZ
 70
     0
  9
$DIMALTTZ
 70
     0
  9
$DIMUPT
 70
     0
  9
$DIMDEC
 70
     2
  9
$DIMTDEC
 70
     2
  9
$DIMALTU
 70
     2
  9
$DIMALTTD
 70
     3
  9
$DIMTXSTY
  7
Standard
  9
$DIMAUNIT
 70
     0
  9
$DIMADEC
 70
     0
  9
$DIMALTRND
 40
0.0
  9
$DIMAZIN
 70
     0
  9
$DIMDSEP
 70
    44
  9
$DIMATFIT
 70
     3
  9
$DIMFRAC
 70
     0
  9
$DIMLDRBLK
  1

  9
$DIMLUNIT
 70
     2
  9
$DIMLWD
 70
    -2
  9
$DIMLWE
 70
    -2
  9
$DIMTMOVE
 70
     0
  9
$LUNITS
 70
     2
  9
$LUPREC
 70
     4
  9
$SKETCHINC
 40
1.0
  9
$FILLETRAD
 40
0.0
  9
$AUNITS
 70
     0
  9
$AUPREC
 70
     0
  9
$MENU
  1
.
  9
$ELEVATION
 40
0.0
  9
$PELEVATION
 40
0.0
  9
$THICKNESS
 40
0.0
  9
$LIMCHECK
 70
     0
  9
$CHAMFERA
 40
10.0
  9
$CHAMFERB
 40
10.0
  9
$CHAMFERC
 40
20.0
  9
$CHAMFERD
 40
0.0
  9
$SKPOLY
 70
     0
  9
$TDCREATE
 40
2455356.589518947
  9
$TDUCREATE
 40
2455356.214518947
  9
$TDUPDATE
 40
2455356.589518958
  9
$TDUUPDATE
 40
2455356.214518958
  9
$TDINDWG
 40
0.0000000116
  9
$TDUSRTIMER
 40
0.0000000116
  9
$USRTIMER
 70
     1
  9
$ANGBASE
 50
0.0
  9
$ANGDIR
 70
     0
  9
$PDMODE
 70
     0
  9
$PDSIZE
 40
0.0
  9
$PLINEWID
 40
0.0
  9
$SPLFRAME
 70
     0
  9
$SPLINETYPE
 70
     6
  9
$SPLINESEGS
 70
     8
  9
$HANDSEED
  5
1DC
  9
$SURFTAB1
 70
     6
  9
$SURFTAB2
 70
     6
  9
$SURFTYPE
 70
     6
  9
$SURFU
 70
     6
  9
$SURFV
 70
     6
  9
$UCSBASE
  2

  9
$UCSNAME
  2

  9
$UCSORG
 10
0.0
 20
0.0
 30
0.0
  9
$UCSXDIR
 10
1.0
 20
0.0
 30
0.0
  9
$UCSYDIR
 10
0.0
 20
1.0
 30
0.0
  9
$UCSORTHOREF
  2

  9
$UCSORTHOVIEW
 70
     0
  9
$UCSORGTOP
 10
0.0
 20
0.0
 30
0.0
  9
$UCSORGBOTTOM
 10
0.0
 20
0.0
 30
0.0
  9
$UCSORGLEFT
 10
0.0
 20
0.0
 30
0.0
  9
$UCSORGRIGHT
 10
0.0
 20
0.0
 30
0.0
  9
$UCSORGFRONT
 10
0.0
 20
0.0
 30
0.0
  9
$UCSORGBACK
 10
0.0
 20
0.0
 30
0.0
  9
$PUCSBASE
  2

  9
$PUCSNAME
  2

  9
$PUCSORG
 10
0.0
 20
0.0
 30
0.0
  9
$PUCSXDIR
 10
1.0
 20
0.0
 30
0.0
  9
$PUCSYDIR
 10
0.0
 20
1.0
 30
0.0
  9
$PUCSORTHOREF
  2

  9
$PUCSORTHOVIEW
 70
     0
  9
$PUCSORGTOP
 10
0.0
 20
0.0
 30
0.0
  9
$PUCSORGBOTTOM
 10
0.0
 20
0.0
 30
0.0
  9
$PUCSORGLEFT
 10
0.0
 20
0.0
 30
0.0
  9
$PUCSORGRIGHT
 10
0.0
 20
0.0
 30
0.0
  9
$PUCSORGFRONT
 10
0.0
 20
0.0
 30
0.0
  9
$PUCSORGBACK
 10
0.0
 20
0.0
 30
0.0
  9
$USERI1
 70
     0
  9
$USERI2
 70
     0
  9
$USERI3
 70
     0
  9
$USERI4
 70
     0
  9
$USERI5
 70
     0
  9
$USERR1
 40
0.0
  9
$USERR2
 40
0.0
  9
$USERR3
 40
0.0
  9
$USERR4
 40
0.0
  9
$USERR5
 40
0.0
  9
$WORLDVIEW
 70
     1
  9
$SHADEDGE
 70
     3
  9
$SHADEDIF
 70
    70
  9
$TILEMODE
 70
     1
  9
$MAXACTVP
 70
    64
  9
$PINSBASE
 10
0.0
 20
0.0
 30
0.0
  9
$PLIMCHECK
 70
     0
  9
$PEXTMIN
 10
1.000000E+20
 20
1.000000E+20
 30
0.0
  9
$PEXTMAX
 10
-1.000000E+20
 20
-1.000000E+20
 30
0.0
  9
$PLIMMIN
 10
0.0
 20
0.0
  9
$PLIMMAX
 10
12.0
 20
9.0
  9
$UNITMODE
 70
     0
  9
$VISRETAIN
 70
     1
  9
$PLINEGEN
 70
     0
  9
$PSLTSCALE
 70
     1
  9
$TREEDEPTH
 70
  3020
  9
$CMLSTYLE
  2
Standard
  9
$CMLJUST
 70
     0
  9
$CMLSCALE
 40
20.0
  9
$PROXYGRAPHICS
 70
     1
  9
$MEASUREMENT
 70
     1
  9
$CELWEIGHT
370
    -1
  9
$ENDCAPS
280
     0
  9
$JOINSTYLE
280
     0
  9
$LWDISPLAY
290
     0
  9
$INSUNITS
 70
     4
  9
$HYPERLINKBASE
  1

  9
$STYLESHEET
  1

  9
$XEDIT
290
     1
  9
$CEPSNTYPE
380
     0
  9
$PSTYLEMODE
290
     1
  9
$FINGERPRINTGUID
  2
{85A73027-66BE-4F63-8651-75EEE025D12E}
  9
$VERSIONGUID
  2
{FAEB1C32-E019-11D5-929B-00C0DF256EC4}
  9
$EXTNAMES
290
     1
  9
$PSVPSCALE
 40
0.0
  9
$OLESTARTUP
290
     0
  0
ENDSEC
  0
SECTION
  2
CLASSES
  0
CLASS
  1
ACDBDICTIONARYWDFLT
  2
AcDbDictionaryWithDefault
  3
ObjectDBX Classes
 90
        0
280
     0
281
     0
  0
CLASS
  1
VISUALSTYLE
  2
AcDbVisualStyle
  3
ObjectDBX Classes
 90
     4095
280
     0
281
     0
  0
CLASS
  1
SCALE
  2
AcDbScale
  3
ObjectDBX Classes
 90
     1153
280
     0
281
     0
  0
CLASS
  1
DICTIONARYVAR
  2
AcDbDictionaryVar
  3
ObjectDBX Classes
 90
        0
280
     0
281
     0
  0
CLASS
  1
ACDBPLACEHOLDER
  2
AcDbPlaceHolder
  3
ObjectDBX Classes
 90
        0
280
     0
281
     0
  0
CLASS
  1
LAYOUT
  2
AcDbLayout
  3
ObjectDBX Classes
 90
        0
280
     0
281
     0
  0
ENDSEC
  0
SECTION
  2
TABLES
  0
TABLE
  2
VPORT
  5
8
330
0
100
AcDbSymbolTable
 70
     1
  0
VPORT
  5
29
330
8
100
AcDbSymbolTableRecord
100
AcDbViewportTableRecord
  2
*Active
 70
     0
 10
0.0
 20
0.0
 11
1.0
 21
1.0
 12
114.301231
 22
112.5709
 13
0.0
 23
0.0
 14
1.0
 24
1.0
 15
0.0
 25
0.0
 16
0.0
 26
0.0
 36
1.0
 17
0.0
 27
0.0
 37
0.0
 40
193.559852
 41
1.691288
 42
50.0
 43
0.0
 44
0.0
 50
0.0
 51
0.0
 71
     0
 72
   100
 73
     1
 74
     3
 75
     0
 76
     0
 77
     0
 78
     0
281
     0
 65
     1
110
0.0
120
0.0
130
0.0
111
1.0
121
0.0
131
0.0
112
0.0
122
1.0
132
0.0
 79
     0
146
0.0
  0
ENDTAB
  0
TABLE
  2
LTYPE
  5
5
330
0
100
AcDbSymbolTable
 70
     5
  0
LTYPE
  5
14
330
5
100
AcDbSymbolTableRecord
100
AcDbLinetypeTableRecord
  2
ByBlock
 70
     0
  3

 72
    65
 73
     0
 40
0.0
  0
LTYPE
  5
15
330
5
100
AcDbSymbolTableRecord
100
AcDbLinetypeTableRecord
  2
ByLayer
 70
     0
  3

 72
    65
 73
     0
 40
0.0
  0
LTYPE
  5
16
330
5
100
AcDbSymbolTableRecord
100
AcDbLinetypeTableRecord
  2
Continuous
 70
     0
  3
Solid line
 72
    65
 73
     0
 40
0.0
  0
LTYPE
  5
5D
330
5
100
AcDbSymbolTableRecord
100
AcDbLinetypeTableRecord
  2
DASHED
 70
     0
  3
DASHED
 72
    83
 73
     2
 40
0.75
 49
0.5
 74
     0
 49
-0.25
 74
     0
  0
LTYPE
  5
5E
330
5
100
AcDbSymbolTableRecord
100
AcDbLinetypeTableRecord
  2
HIDDEN
 70
     0
  3
HIDDEN
 72
    83
 73
     2
 40
0.375
 49
0.25
 74
     0
 49
-0.125
 74
     0
  0
LTYPE
  5
5F
330
5
100
AcDbSymbolTableRecord
100
AcDbLinetypeTableRecord
  2
CENTER
 70
     0
  3
CENTER
 72
    83
 73
     4
 40
2.0
 49
1.25
 74
     0
 49
-0.25
 74
     0
 49
0.25
 74
     0
 49
-0.25
 74
     0
  0
LTYPE
  5
60
330
5
100
AcDbSymbolTableRecord
100
AcDbLinetypeTableRecord
  2
PHANTOM
 70
     0
  3
PHANTOM
 72
    83
 73
     6
 40
2.5
 49
1.25
 74
     0
 49
-0.25
 74
     0
 49
0.25
 74
     0
 49
-0.25
 74
     0
 49
0.25
 74
     0
 49
-0.25
 74
     0
  0
ENDTAB
  0
TABLE
  2
LAYER
  5
2
330
0
100
AcDbSymbolTable
 70
     2
  0
LAYER
  5
10
330
2
100
AcDbSymbolTableRecord
100
AcDbLayerTableRecord
  2
0
 70
     0
 62
     7
  6
Continuous
370
    -3
390
F
  0
LAYER
  5
61
330
2
100
AcDbSymbolTableRecord
100
AcDbLayerTableRecord
  2
001
 70
     0
 62
     7
  6
Continuous
370
    -3
390
F
  0
ENDTAB
  0
TABLE
  2
STYLE
  5
3
330
0
100
AcDbSymbolTable
 70
     2
  0
STYLE
  5
11
330
3
100
AcDbSymbolTableRecord
100
AcDbTextStyleTableRecord
  2
Standard
 70
     0
 40
0.0
 41
1.0
 50
0.0
 71
     0
 42
0.2
  3
TXT
  4
BIGFONT
  0
STYLE
  5
62
330
3
100
AcDbSymbolTableRecord
100
AcDbTextStyleTableRecord
  2
TATEGAKI
 70
     4
 40
1.0
 41
1.0
 50
0.0
 71
     0
 42
0.2
  3
TXT
  4
BIGFONT
  0
ENDTAB
  0
TABLE
  2
VIEW
  5
6
330
0
100
AcDbSymbolTable
 70
     0
  0
ENDTAB
  0
TABLE
  2
UCS
  5
7
330
0
100
AcDbSymbolTable
 70
     0
  0
ENDTAB
  0
TABLE
  2
APPID
  5
9
330
0
100
AcDbSymbolTable
 70
     1
  0
APPID
  5
12
330
9
100
AcDbSymbolTableRecord
100
AcDbRegAppTableRecord
  2
ACAD
 70
     0
  0
ENDTAB
  0
TABLE
  2
DIMSTYLE
  5
A
330
0
100
AcDbSymbolTable
 70
     2
100
AcDbDimStyleTable
  0
DIMSTYLE
105
27
330
A
100
AcDbSymbolTableRecord
100
AcDbDimStyleTableRecord
  2
ISO-25
 70
     0
 41
2.5
 42
0.625
 43
3.75
 44
1.25
 73
     0
 74
     0
 77
     1
 78
     8
140
2.5
141
2.5
143
0.03937
147
0.625
171
     3
172
     1
271
     2
272
     2
274
     3
278
    44
283
     0
284
     8
340
11
  0
DIMSTYLE
105
63
102
{ACAD_REACTORS
330
C0
330
C1
330
C2
330
C3
102
}
330
A
100
AcDbSymbolTableRecord
100
AcDbDimStyleTableRecord
  2
Standard
 70
     0
 41
1.5
 42
0.0
 44
2.75
 73
     0
 74
     0
 77
     1
 78
     8
 79
     2
140
4.0
146
0.8
147
1.0
172
     1
179
     1
271
     1
340
11
  0
ENDTAB
  0
TABLE
  2
BLOCK_RECORD
  5
1
330
0
100
AcDbSymbolTable
 70
     5
  0
BLOCK_RECORD
  5
1F
330
1
100
AcDbSymbolTableRecord
100
AcDbBlockTableRecord
  2
*Model_Space
340
22
  0
BLOCK_RECORD
  5
1B
330
1
100
AcDbSymbolTableRecord
100
AcDbBlockTableRecord
  2
*Paper_Space
340
1E
  0
BLOCK_RECORD
  5
23
330
1
100
AcDbSymbolTableRecord
100
AcDbBlockTableRecord
  2
*Paper_Space0
340
26
  0
BLOCK_RECORD
  5
64
330
1
100
AcDbSymbolTableRecord
100
AcDbBlockTableRecord
  2
*D1
340
0
  0
BLOCK_RECORD
  5
78
330
1
100
AcDbSymbolTableRecord
100
AcDbBlockTableRecord
  2
*D2
340
0
  0
BLOCK_RECORD
  5
8C
330
1
100
AcDbSymbolTableRecord
100
AcDbBlockTableRecord
  2
*D3
340
0
  0
BLOCK_RECORD
  5
A0
330
1
100
AcDbSymbolTableRecord
100
AcDbBlockTableRecord
  2
*D4
340
0
  0
ENDTAB
  0
ENDSEC
  0
SECTION
  2
BLOCKS
  0
BLOCK
  5
20
330
1F
100
AcDbEntity
  8
0
100
AcDbBlockBegin
  2
*Model_Space
 70
     0
 10
0.0
 20
0.0
 30
0.0
  3
*Model_Space
  1

  0
ENDBLK
  5
21
330
1F
100
AcDbEntity
  8
0
100
AcDbBlockEnd
  0
BLOCK
  5
1C
330
1B
100
AcDbEntity
 67
     1
  8
0
100
AcDbBlockBegin
  2
*Paper_Space
 70
     0
 10
0.0
 20
0.0
 30
0.0
  3
*Paper_Space
  1

  0
ENDBLK
  5
1D
330
1B
100
AcDbEntity
 67
     1
  8
0
100
AcDbBlockEnd
  0
BLOCK
  5
24
330
23
100
AcDbEntity
  8
0
100
AcDbBlockBegin
  2
*Paper_Space0
 70
     0
 10
0.0
 20
0.0
 30
0.0
  3
*Paper_Space0
  1

  0
ENDBLK
  5
25
330
23
100
AcDbEntity
  8
0
100
AcDbBlockEnd
  0
BLOCK
  5
65
330
64
100
AcDbEntity
  8
0
100
AcDbBlockBegin
  2
*D1
 70
     1
 10
0.0
 20
0.0
 30
0.0
  3
*D1
  1

  0
LINE
  5
67
330
64
100
AcDbEntity
  8
001
370
     9
100
AcDbLine
 10
95.840845
 20
82.010979
 30
0.0
 11
95.840845
 21
33.414308
 31
0.0
  0
LINE
  5
68
330
64
100
AcDbEntity
  8
001
370
     9
100
AcDbLine
 10
175.840845
 20
116.010979
 30
0.0
 11
175.840845
 21
33.414308
 31
0.0
  0
LINE
  5
69
330
64
100
AcDbEntity
  8
001
370
     9
100
AcDbLine
 10
95.840845
 20
36.164308
 30
0.0
 11
175.840845
 21
36.164308
 31
0.0
  0
POLYLINE
  5
6A
330
64
100
AcDbEntity
  8
001
370
     9
100
AcDb2dPolyline
 66
     1
 10
0.0
 20
0.0
 30
0.0
  0
VERTEX
  5
6C
330
6A
100
AcDbEntity
  8
001
370
     9
100
AcDbVertex
100
AcDb2dVertex
 10
97.340845
 20
35.762384
 30
0.0
  0
VERTEX
  5
6D
330
6A
100
AcDbEntity
  8
001
370
     9
100
AcDbVertex
100
AcDb2dVertex
 10
95.840845
 20
36.164308
 30
0.0
  0
VERTEX
  5
6E
330
6A
100
AcDbEntity
  8
001
370
     9
100
AcDbVertex
100
AcDb2dVertex
 10
97.340845
 20
36.566232
 30
0.0
  0
SEQEND
  5
6B
330
6A
100
AcDbEntity
  8
001
370
     9
  0
POLYLINE
  5
6F
330
64
100
AcDbEntity
  8
001
370
     9
100
AcDb2dPolyline
 66
     1
 10
0.0
 20
0.0
 30
0.0
  0
VERTEX
  5
71
330
6F
100
AcDbEntity
  8
001
370
     9
100
AcDbVertex
100
AcDb2dVertex
 10
174.340845
 20
36.566232
 30
0.0
  0
VERTEX
  5
72
330
6F
100
AcDbEntity
  8
001
370
     9
100
AcDbVertex
100
AcDb2dVertex
 10
175.840845
 20
36.164308
 30
0.0
  0
VERTEX
  5
73
330
6F
100
AcDbEntity
  8
001
370
     9
100
AcDbVertex
100
AcDb2dVertex
 10
174.340845
 20
35.762384
 30
0.0
  0
SEQEND
  5
70
330
6F
100
AcDbEntity
  8
001
370
     9
  0
TEXT
  5
74
330
64
100
AcDbEntity
  8
001
370
    30
100
AcDbText
 10
131.840845
 20
37.164308
 30
0.0
 40
4.0
  1
８０
 41
0.833333
100
AcDbText
  0
POINT
  5
75
330
64
100
AcDbEntity
  8
001
370
     9
100
AcDbPoint
 10
95.840845
 20
82.010979
 30
0.0
  0
POINT
  5
76
330
64
100
AcDbEntity
  8
001
370
     9
100
AcDbPoint
 10
175.840845
 20
116.010979
 30
0.0
  0
POINT
  5
77
330
64
100
AcDbEntity
  8
001
370
     9
100
AcDbPoint
 10
175.840845
 20
36.164308
 30
0.0
  0
ENDBLK
  5
66
330
64
100
AcDbEntity
  8
0
100
AcDbBlockEnd
  0
BLOCK
  5
79
330
78
100
AcDbEntity
  8
0
100
AcDbBlockBegin
  2
*D2
 70
     1
 10
0.0
 20
0.0
 30
0.0
  3
*D2
  1

  0
LINE
  5
7B
330
78
100
AcDbEntity
  8
001
370
     9
100
AcDbLine
 10
52.340845
 20
59.998155
 30
0.0
 11
52.340845
 21
33.414308
 31
0.0
  0
LINE
  5
7C
330
78
100
AcDbEntity
  8
001
370
     9
100
AcDbLine
 10
95.840845
 20
82.010979
 30
0.0
 11
95.840845
 21
33.414308
 31
0.0
  0
LINE
  5
7D
330
78
100
AcDbEntity
  8
001
370
     9
100
AcDbLine
 10
52.340845
 20
36.164308
 30
0.0
 11
95.840845
 21
36.164308
 31
0.0
  0
POLYLINE
  5
7E
330
78
100
AcDbEntity
  8
001
370
     9
100
AcDb2dPolyline
 66
     1
 10
0.0
 20
0.0
 30
0.0
  0
VERTEX
  5
80
330
7E
100
AcDbEntity
  8
001
370
     9
100
AcDbVertex
100
AcDb2dVertex
 10
53.840845
 20
35.762384
 30
0.0
  0
VERTEX
  5
81
330
7E
100
AcDbEntity
  8
001
370
     9
100
AcDbVertex
100
AcDb2dVertex
 10
52.340845
 20
36.164308
 30
0.0
  0
VERTEX
  5
82
330
7E
100
AcDbEntity
  8
001
370
     9
100
AcDbVertex
100
AcDb2dVertex
 10
53.840845
 20
36.566232
 30
0.0
  0
SEQEND
  5
7F
330
7E
100
AcDbEntity
  8
001
370
     9
  0
POLYLINE
  5
83
330
78
100
AcDbEntity
  8
001
370
     9
100
AcDb2dPolyline
 66
     1
 10
0.0
 20
0.0
 30
0.0
  0
VERTEX
  5
85
330
83
100
AcDbEntity
  8
001
370
     9
100
AcDbVertex
100
AcDb2dVertex
 10
94.340845
 20
36.566232
 30
0.0
  0
VERTEX
  5
86
330
83
100
AcDbEntity
  8
001
370
     9
100
AcDbVertex
100
AcDb2dVertex
 10
95.840845
 20
36.164308
 30
0.0
  0
VERTEX
  5
87
330
83
100
AcDbEntity
  8
001
370
     9
100
AcDbVertex
100
AcDb2dVertex
 10
94.340845
 20
35.762384
 30
0.0
  0
SEQEND
  5
84
330
83
100
AcDbEntity
  8
001
370
     9
  0
TEXT
  5
88
330
78
100
AcDbEntity
  8
001
370
    30
100
AcDbText
 10
66.090845
 20
37.164308
 30
0.0
 40
4.0
  1
４３．５
 41
0.833333
100
AcDbText
  0
POINT
  5
89
330
78
100
AcDbEntity
  8
001
370
     9
100
AcDbPoint
 10
52.340845
 20
59.998155
 30
0.0
  0
POINT
  5
8A
330
78
100
AcDbEntity
  8
001
370
     9
100
AcDbPoint
 10
95.840845
 20
82.010979
 30
0.0
  0
POINT
  5
8B
330
78
100
AcDbEntity
  8
001
370
     9
100
AcDbPoint
 10
95.840845
 20
36.164308
 30
0.0
  0
ENDBLK
  5
7A
330
78
100
AcDbEntity
  8
0
100
AcDbBlockEnd
  0
BLOCK
  5
8D
330
8C
100
AcDbEntity
  8
0
100
AcDbBlockBegin
  2
*D3
 70
     1
 10
0.0
 20
0.0
 30
0.0
  3
*D3
  1

  0
LINE
  5
8F
330
8C
100
AcDbEntity
  8
001
370
     9
100
AcDbLine
 10
167.840845
 20
142.010979
 30
0.0
 11
213.368555
 21
142.010979
 31
0.0
  0
LINE
  5
90
330
8C
100
AcDbEntity
  8
001
370
     9
100
AcDbLine
 10
167.840845
 20
110.010979
 30
0.0
 11
213.368555
 21
110.010979
 31
0.0
  0
LINE
  5
91
330
8C
100
AcDbEntity
  8
001
370
     9
100
AcDbLine
 10
210.618555
 20
142.010979
 30
0.0
 11
210.618555
 21
110.010979
 31
0.0
  0
POLYLINE
  5
92
330
8C
100
AcDbEntity
  8
001
370
     9
100
AcDb2dPolyline
 66
     1
 10
0.0
 20
0.0
 30
0.0
  0
VERTEX
  5
94
330
92
100
AcDbEntity
  8
001
370
     9
100
AcDbVertex
100
AcDb2dVertex
 10
210.216632
 20
140.510979
 30
0.0
  0
VERTEX
  5
95
330
92
100
AcDbEntity
  8
001
370
     9
100
AcDbVertex
100
AcDb2dVertex
 10
210.618555
 20
142.010979
 30
0.0
  0
VERTEX
  5
96
330
92
100
AcDbEntity
  8
001
370
     9
100
AcDbVertex
100
AcDb2dVertex
 10
211.020479
 20
140.510979
 30
0.0
  0
SEQEND
  5
93
330
92
100
AcDbEntity
  8
001
370
     9
  0
POLYLINE
  5
97
330
8C
100
AcDbEntity
  8
001
370
     9
100
AcDb2dPolyline
 66
     1
 10
0.0
 20
0.0
 30
0.0
  0
VERTEX
  5
99
330
97
100
AcDbEntity
  8
001
370
     9
100
AcDbVertex
100
AcDb2dVertex
 10
211.020479
 20
111.510979
 30
0.0
  0
VERTEX
  5
9A
330
97
100
AcDbEntity
  8
001
370
     9
100
AcDbVertex
100
AcDb2dVertex
 10
210.618555
 20
110.010979
 30
0.0
  0
VERTEX
  5
9B
330
97
100
AcDbEntity
  8
001
370
     9
100
AcDbVertex
100
AcDb2dVertex
 10
210.216632
 20
111.510979
 30
0.0
  0
SEQEND
  5
98
330
97
100
AcDbEntity
  8
001
370
     9
  0
TEXT
  5
9C
330
8C
100
AcDbEntity
  8
001
370
    30
100
AcDbText
 10
209.618555
 20
120.010979
 30
0.0
 40
4.0
  1
%%c３２
 50
90.000003
 41
0.882353
100
AcDbText
  0
POINT
  5
9D
330
8C
100
AcDbEntity
  8
001
370
     9
100
AcDbPoint
 10
167.840845
 20
142.010979
 30
0.0
  0
POINT
  5
9E
330
8C
100
AcDbEntity
  8
001
370
     9
100
AcDbPoint
 10
167.840845
 20
110.010979
 30
0.0
  0
POINT
  5
9F
330
8C
100
AcDbEntity
  8
001
370
     9
100
AcDbPoint
 10
210.618555
 20
110.010979
 30
0.0
  0
ENDBLK
  5
8E
330
8C
100
AcDbEntity
  8
0
100
AcDbBlockEnd
  0
BLOCK
  5
A1
330
A0
100
AcDbEntity
  8
0
100
AcDbBlockBegin
  2
*D4
 70
     1
 10
0.0
 20
0.0
 30
0.0
  3
*D4
  1

  0
LINE
  5
A3
330
A0
100
AcDbEntity
  8
001
370
     9
100
AcDbLine
 10
175.840845
 20
118.010979
 30
0.0
 11
175.840845
 21
16.74919
 31
0.0
  0
LINE
  5
A4
330
A0
100
AcDbEntity
  8
001
370
     9
100
AcDbLine
 10
52.340845
 20
61.010979
 30
0.0
 11
52.340845
 21
16.74919
 31
0.0
  0
LINE
  5
A5
330
A0
100
AcDbEntity
  8
001
370
     9
100
AcDbLine
 10
175.840845
 20
19.49919
 30
0.0
 11
52.340845
 21
19.49919
 31
0.0
  0
POLYLINE
  5
A6
330
A0
100
AcDbEntity
  8
001
370
     9
100
AcDb2dPolyline
 66
     1
 10
0.0
 20
0.0
 30
0.0
  0
VERTEX
  5
A8
330
A6
100
AcDbEntity
  8
001
370
     9
100
AcDbVertex
100
AcDb2dVertex
 10
174.340845
 20
19.901114
 30
0.0
  0
VERTEX
  5
A9
330
A6
100
AcDbEntity
  8
001
370
     9
100
AcDbVertex
100
AcDb2dVertex
 10
175.840845
 20
19.49919
 30
0.0
  0
VERTEX
  5
AA
330
A6
100
AcDbEntity
  8
001
370
     9
100
AcDbVertex
100
AcDb2dVertex
 10
174.340845
 20
19.097266
 30
0.0
  0
SEQEND
  5
A7
330
A6
100
AcDbEntity
  8
001
370
     9
  0
POLYLINE
  5
AB
330
A0
100
AcDbEntity
  8
001
370
     9
100
AcDb2dPolyline
 66
     1
 10
0.0
 20
0.0
 30
0.0
  0
VERTEX
  5
AD
330
AB
100
AcDbEntity
  8
001
370
     9
100
AcDbVertex
100
AcDb2dVertex
 10
53.840845
 20
19.097266
 30
0.0
  0
VERTEX
  5
AE
330
AB
100
AcDbEntity
  8
001
370
     9
100
AcDbVertex
100
AcDb2dVertex
 10
52.340845
 20
19.49919
 30
0.0
  0
VERTEX
  5
AF
330
AB
100
AcDbEntity
  8
001
370
     9
100
AcDbVertex
100
AcDb2dVertex
 10
53.840845
 20
19.901114
 30
0.0
  0
SEQEND
  5
AC
330
AB
100
AcDbEntity
  8
001
370
     9
  0
TEXT
  5
B0
330
A0
100
AcDbEntity
  8
001
370
    30
100
AcDbText
 10
104.090845
 20
20.49919
 30
0.0
 40
4.0
  1
１２３．５
 41
0.833333
100
AcDbText
  0
POINT
  5
B1
330
A0
100
AcDbEntity
  8
001
370
     9
100
AcDbPoint
 10
175.840845
 20
118.010979
 30
0.0
  0
POINT
  5
B2
330
A0
100
AcDbEntity
  8
001
370
     9
100
AcDbPoint
 10
52.340845
 20
61.010979
 30
0.0
  0
POINT
  5
B3
330
A0
100
AcDbEntity
  8
001
370
     9
100
AcDbPoint
 10
52.340845
 20
19.49919
 30
0.0
  0
ENDBLK
  5
A2
330
A0
100
AcDbEntity
  8
0
100
AcDbBlockEnd
  0
ENDSEC
  0
SECTION
  2
ENTITIES
  0
TEXT
  5
B4
330
1F
100
AcDbEntity
  8
001
370
    30
100
AcDbText
 10
19.233897
 20
118.010979
 30
0.0
 40
4.0
  1
%%c１３０
 50
90.000003
 41
0.869565
100
AcDbText
  0
POLYLINE
  5
B5
330
1F
100
AcDbEntity
  8
001
370
     9
100
AcDb2dPolyline
 66
     1
 10
0.0
 20
0.0
 30
0.0
  0
VERTEX
  5
B7
330
B5
100
AcDbEntity
  8
001
370
     9
100
AcDbVertex
100
AcDb2dVertex
 10
20.635821
 20
62.510979
 30
0.0
  0
VERTEX
  5
B8
330
B5
100
AcDbEntity
  8
001
370
     9
100
AcDbVertex
100
AcDb2dVertex
 10
20.233897
 20
61.010979
 30
0.0
  0
VERTEX
  5
B9
330
B5
100
AcDbEntity
  8
001
370
     9
100
AcDbVertex
100
AcDb2dVertex
 10
19.831974
 20
62.510979
 30
0.0
  0
SEQEND
  5
B6
330
B5
100
AcDbEntity
  8
001
370
     9
  0
LINE
  5
BA
330
1F
100
AcDbEntity
  8
001
370
     9
100
AcDbLine
 10
20.233897
 20
61.010979
 30
0.0
 11
20.233897
 21
191.010979
 31
0.0
  0
POLYLINE
  5
BB
330
1F
100
AcDbEntity
  8
001
370
     9
100
AcDb2dPolyline
 66
     1
 10
0.0
 20
0.0
 30
0.0
  0
VERTEX
  5
BD
330
BB
100
AcDbEntity
  8
001
370
     9
100
AcDbVertex
100
AcDb2dVertex
 10
52.340845
 20
61.010979
 30
0.0
  0
VERTEX
  5
BE
330
BB
100
AcDbEntity
  8
001
370
     9
100
AcDbVertex
100
AcDb2dVertex
 10
20.233897
 20
61.010979
 30
0.0
  0
VERTEX
  5
BF
330
BB
100
AcDbEntity
  8
001
370
     9
100
AcDbVertex
100
AcDb2dVertex
 10
17.483897
 20
61.010979
 30
0.0
  0
SEQEND
  5
BC
330
BB
100
AcDbEntity
  8
001
370
     9
  0
DIMENSION
  5
C0
330
1F
100
AcDbEntity
  8
001
370
     9
100
AcDbDimension
  2
*D1
 10
175.840845
 20
36.164308
 30
0.0
 11
135.840845
 21
39.164308
 31
0.0
 70
   160
 71
     5
 42
-1.0
  3
Standard
100
AcDbAlignedDimension
 13
95.840845
 23
82.010979
 33
0.0
 14
175.840845
 24
116.010979
 34
0.0
100
AcDbRotatedDimension
  0
DIMENSION
  5
C1
330
1F
100
AcDbEntity
  8
001
370
     9
100
AcDbDimension
  2
*D2
 10
95.840845
 20
36.164308
 30
0.0
 11
74.090845
 21
39.164308
 31
0.0
 70
   160
 71
     5
 42
-1.0
  3
Standard
100
AcDbAlignedDimension
 13
52.340845
 23
59.998155
 33
0.0
 14
95.840845
 24
82.010979
 34
0.0
100
AcDbRotatedDimension
  0
DIMENSION
  5
C2
330
1F
100
AcDbEntity
  8
001
370
     9
100
AcDbDimension
  2
*D3
 10
210.618555
 20
110.010979
 30
0.0
 11
207.618555
 21
126.010979
 31
0.0
 70
   160
 71
     5
 42
-1.0
  3
Standard
100
AcDbAlignedDimension
 13
167.840845
 23
142.010979
 33
0.0
 14
167.840845
 24
110.010979
 34
0.0
 50
270.0
100
AcDbRotatedDimension
  0
DIMENSION
  5
C3
330
1F
100
AcDbEntity
  8
001
370
     9
100
AcDbDimension
  2
*D4
 10
52.340845
 20
19.49919
 30
0.0
 11
114.090845
 21
22.49919
 31
0.0
 70
   160
 71
     5
 42
-1.0
  3
Standard
100
AcDbAlignedDimension
 13
175.840845
 23
118.010979
 33
0.0
 14
52.340845
 24
61.010979
 34
0.0
 50
180.0
100
AcDbRotatedDimension
  0
LINE
  5
C4
330
1F
100
AcDbEntity
  8
001
  6
CENTER
370
     9
100
AcDbLine
 10
43.774136
 20
126.010979
 30
0.0
 11
184.858192
 21
126.010979
 31
0.0
  0
LINE
  5
C5
330
1F
100
AcDbEntity
  8
001
370
    50
100
AcDbLine
 10
175.840845
 20
126.010979
 30
0.0
 11
183.739264
 21
130.571133
 31
0.0
  0
LINE
  5
C6
330
1F
100
AcDbEntity
  8
001
370
    50
100
AcDbLine
 10
175.840845
 20
126.010979
 30
0.0
 11
183.739264
 21
121.450825
 31
0.0
  0
LINE
  5
C7
330
1F
100
AcDbEntity
  8
001
370
    50
100
AcDbLine
 10
55.840845
 20
126.010979
 30
0.0
 11
47.942427
 21
130.571133
 31
0.0
  0
LINE
  5
C8
330
1F
100
AcDbEntity
  8
001
370
    50
100
AcDbLine
 10
55.840845
 20
126.010979
 30
0.0
 11
47.942427
 21
121.450825
 31
0.0
  0
LINE
  5
C9
330
1F
100
AcDbEntity
  8
001
 62
     4
370
    50
100
AcDbLine
 10
58.513484
 20
160.398913
 30
0.0
 11
60.472794
 21
159.931139
 31
0.0
  0
LINE
  5
CA
330
1F
100
AcDbEntity
  8
001
 62
     4
370
    50
100
AcDbLine
 10
60.472794
 20
159.931139
 30
0.0
 11
59.705321
 21
155.124166
 31
0.0
  0
LINE
  5
CB
330
1F
100
AcDbEntity
  8
001
 62
     4
370
    50
100
AcDbLine
 10
57.00335
 20
155.769246
 30
0.0
 11
57.287111
 21
155.7015
 31
0.0
  0
LINE
  5
CC
330
1F
100
AcDbEntity
  8
001
 62
     4
370
    50
100
AcDbLine
 10
57.413994
 20
155.671207
 30
0.0
 11
59.705321
 21
155.124166
 31
0.0
  0
LINE
  5
CD
330
1F
100
AcDbEntity
  8
001
 62
     4
370
    50
100
AcDbLine
 10
58.513484
 20
160.398913
 30
0.0
 11
57.00335
 21
155.769246
 31
0.0
  0
LINE
  5
CE
330
1F
100
AcDbEntity
  8
001
 62
     4
370
    50
100
AcDbLine
 10
53.183883
 20
154.753032
 30
0.0
 11
53.183883
 21
154.885952
 31
0.0
  0
LINE
  5
CF
330
1F
100
AcDbEntity
  8
001
 62
     4
370
    50
100
AcDbLine
 10
53.183883
 20
154.885952
 30
0.0
 11
57.00335
 21
155.769246
 31
0.0
  0
LINE
  5
D0
330
1F
100
AcDbEntity
  8
001
 62
     4
370
    50
100
AcDbLine
 10
59.705321
 20
155.124166
 30
0.0
 11
59.93123
 21
154.964053
 31
0.0
  0
LINE
  5
D1
330
1F
100
AcDbEntity
  8
001
 62
     4
370
    50
100
AcDbLine
 10
60.472794
 20
159.931139
 30
0.0
 11
62.98612
 21
158.149819
 31
0.0
  0
LINE
  5
D2
330
1F
100
AcDbEntity
  8
001
 62
     4
370
    50
100
AcDbLine
 10
52.340845
 20
158.971422
 30
0.0
 11
53.183883
 21
154.885952
 31
0.0
  0
LINE
  5
D3
330
1F
100
AcDbEntity
  8
001
 62
     4
370
    50
100
AcDbLine
 10
52.340845
 20
158.971422
 30
0.0
 11
58.513484
 21
160.398913
 31
0.0
  0
LINE
  5
D4
330
1F
100
AcDbEntity
  8
001
 62
     4
370
    50
100
AcDbLine
 10
52.340845
 20
158.050535
 30
0.0
 11
53.183883
 21
153.616011
 31
0.0
  0
POLYLINE
  5
D5
330
1F
100
AcDbEntity
  8
001
 62
   200
370
    50
100
AcDb2dPolyline
 66
     1
 10
0.0
 20
0.0
 30
0.0
  0
VERTEX
  5
D7
330
D5
100
AcDbEntity
  8
001
 62
   200
370
    50
100
AcDbVertex
100
AcDb2dVertex
 10
54.516866
 20
141.566786
 30
0.0
  0
VERTEX
  5
D8
330
D5
100
AcDbEntity
  8
001
 62
   200
370
    50
100
AcDbVertex
100
AcDb2dVertex
 10
54.147763
 20
142.936247
 30
0.0
  0
VERTEX
  5
D9
330
D5
100
AcDbEntity
  8
001
 62
   200
370
    50
100
AcDbVertex
100
AcDb2dVertex
 10
53.797517
 20
144.310289
 30
0.0
  0
VERTEX
  5
DA
330
D5
100
AcDbEntity
  8
001
 62
   200
370
    50
100
AcDbVertex
100
AcDb2dVertex
 10
53.481441
 20
145.679455
 30
0.0
  0
VERTEX
  5
DB
330
D5
100
AcDbEntity
  8
001
 62
   200
370
    50
100
AcDbVertex
100
AcDb2dVertex
 10
53.183883
 20
147.05312
 30
0.0
  0
SEQEND
  5
D6
330
D5
100
AcDbEntity
  8
001
370
    50
  0
LINE
  5
DC
330
1F
100
AcDbEntity
  8
001
 62
   200
370
    50
100
AcDbLine
 10
53.183883
 20
147.05312
 30
0.0
 11
53.183883
 21
154.753032
 31
0.0
  0
LINE
  5
DD
330
1F
100
AcDbEntity
  8
001
 62
   200
370
    50
100
AcDbLine
 10
53.183883
 20
154.753032
 30
0.0
 11
57.291013
 21
155.702402
 31
0.0
  0
LINE
  5
DE
330
1F
100
AcDbEntity
  8
001
 62
   200
370
    50
100
AcDbLine
 10
57.291013
 20
155.702402
 30
0.0
 11
57.293973
 21
155.686739
 31
0.0
  0
POLYLINE
  5
DF
330
1F
100
AcDbEntity
  8
001
 62
   200
370
    50
100
AcDb2dPolyline
 66
     1
 10
0.0
 20
0.0
 30
0.0
  0
VERTEX
  5
E1
330
DF
100
AcDbEntity
  8
001
 62
   200
370
    50
100
AcDbVertex
100
AcDb2dVertex
 10
57.293973
 20
155.686739
 30
0.0
  0
VERTEX
  5
E2
330
DF
100
AcDbEntity
  8
001
 62
   200
370
    50
100
AcDbVertex
100
AcDb2dVertex
 10
57.05269
 20
154.425301
 30
0.0
  0
VERTEX
  5
E3
330
DF
100
AcDbEntity
  8
001
 62
   200
370
    50
100
AcDbVertex
100
AcDb2dVertex
 10
56.810613
 20
153.164016
 30
0.0
  0
VERTEX
  5
E4
330
DF
100
AcDbEntity
  8
001
 62
   200
370
    50
100
AcDbVertex
100
AcDb2dVertex
 10
56.565804
 20
151.896283
 30
0.0
  0
VERTEX
  5
E5
330
DF
100
AcDbEntity
  8
001
 62
   200
370
    50
100
AcDbVertex
100
AcDb2dVertex
 10
56.319561
 20
150.628827
 30
0.0
  0
VERTEX
  5
E6
330
DF
100
AcDbEntity
  8
001
 62
   200
370
    50
100
AcDbVertex
100
AcDb2dVertex
 10
56.066535
 20
149.33368
 30
0.0
  0
VERTEX
  5
E7
330
DF
100
AcDbEntity
  8
001
 62
   200
370
    50
100
AcDbVertex
100
AcDb2dVertex
 10
55.812096
 20
148.038809
 30
0.0
  0
VERTEX
  5
E8
330
DF
100
AcDbEntity
  8
001
 62
   200
370
    50
100
AcDbVertex
100
AcDb2dVertex
 10
55.557594
 20
146.751403
 30
0.0
  0
VERTEX
  5
E9
330
DF
100
AcDbEntity
  8
001
 62
   200
370
    50
100
AcDbVertex
100
AcDb2dVertex
 10
55.301642
 20
145.464283
 30
0.0
  0
VERTEX
  5
EA
330
DF
100
AcDbEntity
  8
001
 62
   200
370
    50
100
AcDbVertex
100
AcDb2dVertex
 10
55.10597
 20
144.485398
 30
0.0
  0
VERTEX
  5
EB
330
DF
100
AcDbEntity
  8
001
 62
   200
370
    50
100
AcDbVertex
100
AcDb2dVertex
 10
54.909322
 20
143.506709
 30
0.0
  0
VERTEX
  5
EC
330
DF
100
AcDbEntity
  8
001
 62
   200
370
    50
100
AcDbVertex
100
AcDb2dVertex
 10
54.713373
 20
142.536691
 30
0.0
  0
VERTEX
  5
ED
330
DF
100
AcDbEntity
  8
001
 62
   200
370
    50
100
AcDbVertex
100
AcDb2dVertex
 10
54.516866
 20
141.566786
 30
0.0
  0
SEQEND
  5
E0
330
DF
100
AcDbEntity
  8
001
370
    50
  0
POLYLINE
  5
EE
330
1F
100
AcDbEntity
  8
001
 62
   200
370
    50
100
AcDb2dPolyline
 66
     1
 10
0.0
 20
0.0
 30
0.0
  0
VERTEX
  5
F0
330
EE
100
AcDbEntity
  8
001
 62
   200
370
    50
100
AcDbVertex
100
AcDb2dVertex
 10
67.840845
 20
155.686739
 30
0.0
  0
VERTEX
  5
F1
330
EE
100
AcDbEntity
  8
001
 62
   200
370
    50
100
AcDbVertex
100
AcDb2dVertex
 10
68.676283
 20
153.60808
 30
0.0
  0
VERTEX
  5
F2
330
EE
100
AcDbEntity
  8
001
 62
   200
370
    50
100
AcDbVertex
100
AcDb2dVertex
 10
70.041583
 20
150.63496
 30
0.0
  0
VERTEX
  5
F3
330
EE
100
AcDbEntity
  8
001
 62
   200
370
    50
100
AcDbVertex
100
AcDb2dVertex
 10
70.510806
 20
149.718768
 30
0.0
  0
VERTEX
  5
F4
330
EE
100
AcDbEntity
  8
001
 62
   200
370
    50
100
AcDbVertex
100
AcDb2dVertex
 10
70.840845
 20
149.096449
 30
0.0
  0
SEQEND
  5
EF
330
EE
100
AcDbEntity
  8
001
370
    50
  0
LINE
  5
F5
330
1F
100
AcDbEntity
  8
001
 62
   200
370
    50
100
AcDbLine
 10
67.840845
 20
157.02173
 30
0.0
 11
67.840845
 21
155.686739
 31
0.0
  0
LINE
  5
F6
330
1F
100
AcDbEntity
  8
001
 62
   200
370
    50
100
AcDbLine
 10
70.840845
 20
154.960782
 30
0.0
 11
67.840845
 21
157.02173
 31
0.0
  0
POLYLINE
  5
F7
330
1F
100
AcDbEntity
  8
001
 62
   200
370
    50
100
AcDb2dPolyline
 66
     1
 10
0.0
 20
0.0
 30
0.0
  0
VERTEX
  5
F9
330
F7
100
AcDbEntity
  8
001
 62
   200
370
    50
100
AcDbVertex
100
AcDb2dVertex
 10
59.93123
 20
154.964053
 30
0.0
  0
VERTEX
  5
FA
330
F7
100
AcDbEntity
  8
001
 62
   200
370
    50
100
AcDbVertex
100
AcDb2dVertex
 10
59.409647
 20
155.111147
 30
0.0
  0
VERTEX
  5
FB
330
F7
100
AcDbEntity
  8
001
 62
   200
370
    50
100
AcDbVertex
100
AcDb2dVertex
 10
58.647203
 20
155.325663
 30
0.0
  0
VERTEX
  5
FC
330
F7
100
AcDbEntity
  8
001
 62
   200
370
    50
100
AcDbVertex
100
AcDb2dVertex
 10
57.882041
 20
155.540242
 30
0.0
  0
VERTEX
  5
FD
330
F7
100
AcDbEntity
  8
001
 62
   200
370
    50
100
AcDbVertex
100
AcDb2dVertex
 10
57.358419
 20
155.686739
 30
0.0
  0
SEQEND
  5
F8
330
F7
100
AcDbEntity
  8
001
370
    50
  0
POLYLINE
  5
FE
330
1F
100
AcDbEntity
  8
001
 62
   200
370
    50
100
AcDb2dPolyline
 66
     1
 10
0.0
 20
0.0
 30
0.0
  0
VERTEX
  5
100
330
FE
100
AcDbEntity
  8
001
 62
   200
370
    50
100
AcDbVertex
100
AcDb2dVertex
 10
60.152342
 20
155.686739
 30
0.0
  0
VERTEX
  5
101
330
FE
100
AcDbEntity
  8
001
 62
   200
370
    50
100
AcDbVertex
100
AcDb2dVertex
 10
60.10585
 20
155.540217
 30
0.0
  0
VERTEX
  5
102
330
FE
100
AcDbEntity
  8
001
 62
   200
370
    50
100
AcDbVertex
100
AcDb2dVertex
 10
60.039207
 20
155.325663
 30
0.0
  0
VERTEX
  5
103
330
FE
100
AcDbEntity
  8
001
 62
   200
370
    50
100
AcDbVertex
100
AcDb2dVertex
 10
59.974563
 20
155.111118
 30
0.0
  0
VERTEX
  5
104
330
FE
100
AcDbEntity
  8
001
 62
   200
370
    50
100
AcDbVertex
100
AcDb2dVertex
 10
59.93123
 20
154.964053
 30
0.0
  0
SEQEND
  5
FF
330
FE
100
AcDbEntity
  8
001
370
    50
  0
LINE
  5
105
330
1F
100
AcDbEntity
  8
001
 62
   200
370
    50
100
AcDbLine
 10
67.840845
 20
155.686739
 30
0.0
 11
60.152342
 21
155.686739
 31
0.0
  0
LINE
  5
106
330
1F
100
AcDbEntity
  8
001
 62
   200
370
    50
100
AcDbLine
 10
70.840845
 20
137.456634
 30
0.0
 11
55.840845
 21
137.456634
 31
0.0
  0
POLYLINE
  5
107
330
1F
100
AcDbEntity
  8
001
 62
   200
370
    50
100
AcDb2dPolyline
 66
     1
 10
0.0
 20
0.0
 30
0.0
  0
VERTEX
  5
109
330
107
100
AcDbEntity
  8
001
 62
   200
370
    50
100
AcDbVertex
100
AcDb2dVertex
 10
54.516866
 20
141.566786
 30
0.0
  0
VERTEX
  5
10A
330
107
100
AcDbEntity
  8
001
 62
   200
370
    50
100
AcDbVertex
100
AcDb2dVertex
 10
54.899145
 20
141.03055
 30
0.0
  0
VERTEX
  5
10B
330
107
100
AcDbEntity
  8
001
 62
   200
370
    50
100
AcDbVertex
100
AcDb2dVertex
 10
55.466208
 20
140.252892
 30
0.0
  0
VERTEX
  5
10C
330
107
100
AcDbEntity
  8
001
 62
   200
370
    50
100
AcDbVertex
100
AcDb2dVertex
 10
55.68815
 20
139.955033
 30
0.0
  0
VERTEX
  5
10D
330
107
100
AcDbEntity
  8
001
 62
   200
370
    50
100
AcDbVertex
100
AcDb2dVertex
 10
55.840845
 20
139.751858
 30
0.0
  0
SEQEND
  5
108
330
107
100
AcDbEntity
  8
001
370
    50
  0
LINE
  5
10E
330
1F
100
AcDbEntity
  8
001
 62
   200
370
    50
100
AcDbLine
 10
57.358419
 20
155.686739
 30
0.0
 11
57.293973
 21
155.686739
 31
0.0
  0
LINE
  5
10F
330
1F
100
AcDbEntity
  8
001
 62
   200
370
    50
100
AcDbLine
 10
57.358419
 20
155.686739
 30
0.0
 11
57.291013
 21
155.702402
 31
0.0
  0
LINE
  5
110
330
1F
100
AcDbEntity
  8
001
 62
   200
370
    50
100
AcDbLine
 10
67.840845
 20
157.02173
 30
0.0
 11
62.475554
 21
158.268459
 31
0.0
  0
LINE
  5
111
330
1F
100
AcDbEntity
  8
001
 62
   200
370
    50
100
AcDbLine
 10
60.152342
 20
155.686739
 30
0.0
 11
62.475554
 21
158.268459
 31
0.0
  0
LINE
  5
112
330
1F
100
AcDbEntity
  8
001
 62
   200
370
    50
100
AcDbLine
 10
55.840845
 20
139.751858
 30
0.0
 11
55.840845
 21
135.801226
 31
0.0
  0
LINE
  5
113
330
1F
100
AcDbEntity
  8
001
 62
   200
370
    50
100
AcDbLine
 10
70.840845
 20
135.974885
 30
0.0
 11
70.840845
 21
154.960782
 31
0.0
  0
LINE
  5
114
330
1F
100
AcDbEntity
  8
001
 62
     4
370
    50
100
AcDbLine
 10
55.840845
 20
160.857939
 30
0.0
 11
53.183883
 21
161.758997
 31
0.0
  0
LINE
  5
115
330
1F
100
AcDbEntity
  8
001
 62
     4
370
    50
100
AcDbLine
 10
53.183883
 20
161.758997
 30
0.0
 11
53.183883
 21
161.916991
 31
0.0
  0
LINE
  5
116
330
1F
100
AcDbEntity
  8
001
 62
     4
370
    50
100
AcDbLine
 10
52.359528
 20
157.952263
 30
0.0
 11
52.340845
 21
157.958598
 31
0.0
  0
LINE
  5
117
330
1F
100
AcDbEntity
  8
001
 62
     4
370
    50
100
AcDbLine
 10
52.340845
 20
157.958598
 30
0.0
 11
52.350257
 21
158.001027
 31
0.0
  0
LINE
  5
118
330
1F
100
AcDbEntity
  8
001
 62
     4
370
    50
100
AcDbLine
 10
52.577668
 20
159.02619
 30
0.0
 11
53.183883
 21
161.758997
 31
0.0
  0
LINE
  5
119
330
1F
100
AcDbEntity
  8
001
 62
     4
370
    50
100
AcDbLine
 10
52.340845
 20
159.063359
 30
0.0
 11
53.183883
 21
163.282508
 31
0.0
  0
LINE
  5
11A
330
1F
100
AcDbEntity
  8
001
 62
     4
370
    50
100
AcDbLine
 10
52.340845
 20
157.958598
 30
0.0
 11
52.340845
 21
159.063359
 31
0.0
  0
LINE
  5
11B
330
1F
100
AcDbEntity
  8
001
 62
   200
370
    50
100
AcDbLine
 10
53.183883
 20
161.916991
 30
0.0
 11
55.840845
 21
161.015934
 31
0.0
  0
LINE
  5
11C
330
1F
100
AcDbEntity
  8
001
 62
   200
370
    50
100
AcDbLine
 10
53.183883
 20
161.916991
 30
0.0
 11
53.183883
 21
168.611581
 31
0.0
  0
POLYLINE
  5
11D
330
1F
100
AcDbEntity
  8
001
 62
   200
370
    50
100
AcDb2dPolyline
 66
     1
 10
0.0
 20
0.0
 30
0.0
  0
VERTEX
  5
11F
330
11D
100
AcDbEntity
  8
001
 62
   200
370
    50
100
AcDbVertex
100
AcDb2dVertex
 10
54.516866
 20
172.701108
 30
0.0
  0
VERTEX
  5
120
330
11D
100
AcDbEntity
  8
001
 62
   200
370
    50
100
AcDbVertex
100
AcDb2dVertex
 10
54.145588
 20
171.710041
 30
0.0
  0
VERTEX
  5
121
330
11D
100
AcDbEntity
  8
001
 62
   200
370
    50
100
AcDbVertex
100
AcDb2dVertex
 10
53.797517
 20
170.711396
 30
0.0
  0
VERTEX
  5
122
330
11D
100
AcDbEntity
  8
001
 62
   200
370
    50
100
AcDbVertex
100
AcDb2dVertex
 10
53.478294
 20
169.66554
 30
0.0
  0
VERTEX
  5
123
330
11D
100
AcDbEntity
  8
001
 62
   200
370
    50
100
AcDbVertex
100
AcDb2dVertex
 10
53.183883
 20
168.611581
 30
0.0
  0
SEQEND
  5
11E
330
11D
100
AcDbEntity
  8
001
370
    50
  0
POLYLINE
  5
124
330
1F
100
AcDbEntity
  8
001
 62
   200
370
    50
100
AcDb2dPolyline
 66
     1
 10
0.0
 20
0.0
 30
0.0
  0
VERTEX
  5
126
330
124
100
AcDbEntity
  8
001
 62
   200
370
    50
100
AcDbVertex
100
AcDb2dVertex
 10
55.840845
 20
173.128664
 30
0.0
  0
VERTEX
  5
127
330
124
100
AcDbEntity
  8
001
 62
   200
370
    50
100
AcDbVertex
100
AcDb2dVertex
 10
55.567469
 20
173.05014
 30
0.0
  0
VERTEX
  5
128
330
124
100
AcDbEntity
  8
001
 62
   200
370
    50
100
AcDbVertex
100
AcDb2dVertex
 10
55.170278
 20
172.927721
 30
0.0
  0
VERTEX
  5
129
330
124
100
AcDbEntity
  8
001
 62
   200
370
    50
100
AcDbVertex
100
AcDb2dVertex
 10
54.781275
 20
172.796241
 30
0.0
  0
VERTEX
  5
12A
330
124
100
AcDbEntity
  8
001
 62
   200
370
    50
100
AcDbVertex
100
AcDb2dVertex
 10
54.516866
 20
172.701108
 30
0.0
  0
SEQEND
  5
125
330
124
100
AcDbEntity
  8
001
370
    50
  0
LINE
  5
12B
330
1F
100
AcDbEntity
  8
001
 62
     4
370
    50
100
AcDbLine
 10
60.472794
 20
53.730564
 30
0.0
 11
66.645433
 21
60.198754
 31
0.0
  0
LINE
  5
12C
330
1F
100
AcDbEntity
  8
001
 62
     4
370
    50
100
AcDbLine
 10
58.513484
 20
53.703088
 30
0.0
 11
60.472794
 21
53.730564
 31
0.0
  0
LINE
  5
12D
330
1F
100
AcDbEntity
  8
001
 62
     4
370
    50
100
AcDbLine
 10
52.340845
 20
59.998155
 30
0.0
 11
58.513484
 21
53.703088
 31
0.0
  0
LINE
  5
12E
330
1F
100
AcDbEntity
  8
001
 62
     4
370
    50
100
AcDbLine
 10
58.513484
 20
68.491992
 30
0.0
 11
52.340845
 21
62.023802
 31
0.0
  0
LINE
  5
12F
330
1F
100
AcDbEntity
  8
001
 62
     4
370
    50
100
AcDbLine
 10
60.472794
 20
68.519468
 30
0.0
 11
58.513484
 21
68.491992
 31
0.0
  0
LINE
  5
130
330
1F
100
AcDbEntity
  8
001
 62
     4
370
    50
100
AcDbLine
 10
66.645433
 20
62.224401
 30
0.0
 11
60.472794
 21
68.519468
 31
0.0
  0
LINE
  5
131
330
1F
100
AcDbEntity
  8
001
 62
     4
370
    50
100
AcDbLine
 10
66.645433
 20
60.198754
 30
0.0
 11
66.645433
 21
62.224401
 31
0.0
  0
POLYLINE
  5
132
330
1F
100
AcDbEntity
  8
001
 62
     4
370
    50
100
AcDb2dPolyline
 66
     1
 10
0.0
 20
0.0
 30
0.0
  0
VERTEX
  5
134
330
132
100
AcDbEntity
  8
001
 62
     4
370
    50
100
AcDbVertex
100
AcDb2dVertex
 10
59.493139
 20
58.11539
 30
0.0
  0
VERTEX
  5
135
330
132
100
AcDbEntity
  8
001
 62
     4
370
    50
100
AcDbVertex
100
AcDb2dVertex
 10
59.674271
 20
58.126316
 30
0.0
  0
VERTEX
  5
136
330
132
100
AcDbEntity
  8
001
 62
     4
370
    50
100
AcDbVertex
100
AcDb2dVertex
 10
59.924112
 20
58.154752
 30
0.0
  0
VERTEX
  5
137
330
132
100
AcDbEntity
  8
001
 62
     4
370
    50
100
AcDbVertex
100
AcDb2dVertex
 10
60.185417
 20
58.208409
 30
0.0
  0
VERTEX
  5
138
330
132
100
AcDbEntity
  8
001
 62
     4
370
    50
100
AcDbVertex
100
AcDb2dVertex
 10
60.415162
 20
58.284017
 30
0.0
  0
VERTEX
  5
139
330
132
100
AcDbEntity
  8
001
 62
     4
370
    50
100
AcDbVertex
100
AcDb2dVertex
 10
61.082379
 20
58.639666
 30
0.0
  0
VERTEX
  5
13A
330
132
100
AcDbEntity
  8
001
 62
     4
370
    50
100
AcDbVertex
100
AcDb2dVertex
 10
61.665224
 20
59.158681
 30
0.0
  0
VERTEX
  5
13B
330
132
100
AcDbEntity
  8
001
 62
     4
370
    50
100
AcDbVertex
100
AcDb2dVertex
 10
61.96841
 20
59.584491
 30
0.0
  0
VERTEX
  5
13C
330
132
100
AcDbEntity
  8
001
 62
     4
370
    50
100
AcDbVertex
100
AcDb2dVertex
 10
62.190265
 20
60.053686
 30
0.0
  0
VERTEX
  5
13D
330
132
100
AcDbEntity
  8
001
 62
     4
370
    50
100
AcDbVertex
100
AcDb2dVertex
 10
62.272164
 20
60.30218
 30
0.0
  0
VERTEX
  5
13E
330
132
100
AcDbEntity
  8
001
 62
     4
370
    50
100
AcDbVertex
100
AcDb2dVertex
 10
62.333277
 20
60.556541
 30
0.0
  0
VERTEX
  5
13F
330
132
100
AcDbEntity
  8
001
 62
     4
370
    50
100
AcDbVertex
100
AcDb2dVertex
 10
62.372656
 20
60.81512
 30
0.0
  0
VERTEX
  5
140
330
132
100
AcDbEntity
  8
001
 62
     4
370
    50
100
AcDbVertex
100
AcDb2dVertex
 10
62.389993
 20
61.076252
 30
0.0
  0
VERTEX
  5
141
330
132
100
AcDbEntity
  8
001
 62
     4
370
    50
100
AcDbVertex
100
AcDb2dVertex
 10
62.358754
 20
61.595268
 30
0.0
  0
VERTEX
  5
142
330
132
100
AcDbEntity
  8
001
 62
     4
370
    50
100
AcDbVertex
100
AcDb2dVertex
 10
62.240318
 20
62.103043
 30
0.0
  0
VERTEX
  5
143
330
132
100
AcDbEntity
  8
001
 62
     4
370
    50
100
AcDbVertex
100
AcDb2dVertex
 10
61.911083
 20
62.797429
 30
0.0
  0
VERTEX
  5
144
330
132
100
AcDbEntity
  8
001
 62
     4
370
    50
100
AcDbVertex
100
AcDb2dVertex
 10
61.411254
 20
63.383802
 30
0.0
  0
VERTEX
  5
145
330
132
100
AcDbEntity
  8
001
 62
     4
370
    50
100
AcDbVertex
100
AcDb2dVertex
 10
61.211614
 20
63.546015
 30
0.0
  0
VERTEX
  5
146
330
132
100
AcDbEntity
  8
001
 62
     4
370
    50
100
AcDbVertex
100
AcDb2dVertex
 10
61.004935
 20
63.688342
 30
0.0
  0
VERTEX
  5
147
330
132
100
AcDbEntity
  8
001
 62
     4
370
    50
100
AcDbVertex
100
AcDb2dVertex
 10
60.794593
 20
63.809487
 30
0.0
  0
VERTEX
  5
148
330
132
100
AcDbEntity
  8
001
 62
     4
370
    50
100
AcDbVertex
100
AcDb2dVertex
 10
60.552681
 20
63.914579
 30
0.0
  0
VERTEX
  5
149
330
132
100
AcDbEntity
  8
001
 62
     4
370
    50
100
AcDbVertex
100
AcDb2dVertex
 10
60.274263
 20
64.003762
 30
0.0
  0
VERTEX
  5
14A
330
132
100
AcDbEntity
  8
001
 62
     4
370
    50
100
AcDbVertex
100
AcDb2dVertex
 10
60.068233
 20
64.05564
 30
0.0
  0
SEQEND
  5
133
330
132
100
AcDbEntity
  8
001
370
    50
  0
LINE
  5
14B
330
1F
100
AcDbEntity
  8
001
 62
     4
370
    50
100
AcDbLine
 10
52.340845
 20
62.023802
 30
0.0
 11
52.340845
 21
59.998155
 31
0.0
  0
POLYLINE
  5
14C
330
1F
100
AcDbEntity
  8
001
 62
     4
370
    50
100
AcDb2dPolyline
 66
     1
 10
0.0
 20
0.0
 30
0.0
  0
VERTEX
  5
14E
330
14C
100
AcDbEntity
  8
001
 62
     4
370
    50
100
AcDbVertex
100
AcDb2dVertex
 10
58.918046
 20
58.166916
 30
0.0
  0
VERTEX
  5
14F
330
14C
100
AcDbEntity
  8
001
 62
     4
370
    50
100
AcDbVertex
100
AcDb2dVertex
 10
59.121143
 20
58.136028
 30
0.0
  0
VERTEX
  5
150
330
14C
100
AcDbEntity
  8
001
 62
     4
370
    50
100
AcDbVertex
100
AcDb2dVertex
 10
59.419967
 20
58.115319
 30
0.0
  0
VERTEX
  5
151
330
14C
100
AcDbEntity
  8
001
 62
     4
370
    50
100
AcDbVertex
100
AcDb2dVertex
 10
59.46341
 20
58.115151
 30
0.0
  0
VERTEX
  5
152
330
14C
100
AcDbEntity
  8
001
 62
     4
370
    50
100
AcDbVertex
100
AcDb2dVertex
 10
59.493139
 20
58.11539
 30
0.0
  0
SEQEND
  5
14D
330
14C
100
AcDbEntity
  8
001
370
    50
  0
POLYLINE
  5
153
330
1F
100
AcDbEntity
  8
001
 62
     4
370
    50
100
AcDb2dPolyline
 66
     1
 10
0.0
 20
0.0
 30
0.0
  0
VERTEX
  5
155
330
153
100
AcDbEntity
  8
001
 62
     4
370
    50
100
AcDbVertex
100
AcDb2dVertex
 10
60.068233
 20
64.05564
 30
0.0
  0
VERTEX
  5
156
330
153
100
AcDbEntity
  8
001
 62
     4
370
    50
100
AcDbVertex
100
AcDb2dVertex
 10
59.857825
 20
64.085101
 30
0.0
  0
VERTEX
  5
157
330
153
100
AcDbEntity
  8
001
 62
     4
370
    50
100
AcDbVertex
100
AcDb2dVertex
 10
59.566312
 20
64.107238
 30
0.0
  0
VERTEX
  5
158
330
153
100
AcDbEntity
  8
001
 62
     4
370
    50
100
AcDbVertex
100
AcDb2dVertex
 10
59.302635
 20
64.100896
 30
0.0
  0
VERTEX
  5
159
330
153
100
AcDbEntity
  8
001
 62
     4
370
    50
100
AcDbVertex
100
AcDb2dVertex
 10
59.062167
 20
64.067804
 30
0.0
  0
VERTEX
  5
15A
330
153
100
AcDbEntity
  8
001
 62
     4
370
    50
100
AcDbVertex
100
AcDb2dVertex
 10
58.817121
 20
64.013709
 30
0.0
  0
VERTEX
  5
15B
330
153
100
AcDbEntity
  8
001
 62
     4
370
    50
100
AcDbVertex
100
AcDb2dVertex
 10
58.571117
 20
63.938539
 30
0.0
  0
VERTEX
  5
15C
330
153
100
AcDbEntity
  8
001
 62
     4
370
    50
100
AcDbVertex
100
AcDb2dVertex
 10
57.887396
 20
63.583334
 30
0.0
  0
VERTEX
  5
15D
330
153
100
AcDbEntity
  8
001
 62
     4
370
    50
100
AcDbVertex
100
AcDb2dVertex
 10
57.321055
 20
63.063875
 30
0.0
  0
VERTEX
  5
15E
330
153
100
AcDbEntity
  8
001
 62
     4
370
    50
100
AcDbVertex
100
AcDb2dVertex
 10
57.020213
 20
62.638002
 30
0.0
  0
VERTEX
  5
15F
330
153
100
AcDbEntity
  8
001
 62
     4
370
    50
100
AcDbVertex
100
AcDb2dVertex
 10
56.796014
 20
62.16887
 30
0.0
  0
VERTEX
  5
160
330
153
100
AcDbEntity
  8
001
 62
     4
370
    50
100
AcDbVertex
100
AcDb2dVertex
 10
56.71388
 20
61.920383
 30
0.0
  0
VERTEX
  5
161
330
153
100
AcDbEntity
  8
001
 62
     4
370
    50
100
AcDbVertex
100
AcDb2dVertex
 10
56.653002
 20
61.666015
 30
0.0
  0
VERTEX
  5
162
330
153
100
AcDbEntity
  8
001
 62
     4
370
    50
100
AcDbVertex
100
AcDb2dVertex
 10
56.613691
 20
61.407435
 30
0.0
  0
VERTEX
  5
163
330
153
100
AcDbEntity
  8
001
 62
     4
370
    50
100
AcDbVertex
100
AcDb2dVertex
 10
56.596286
 20
61.146304
 30
0.0
  0
VERTEX
  5
164
330
153
100
AcDbEntity
  8
001
 62
     4
370
    50
100
AcDbVertex
100
AcDb2dVertex
 10
56.627479
 20
60.627289
 30
0.0
  0
VERTEX
  5
165
330
153
100
AcDbEntity
  8
001
 62
     4
370
    50
100
AcDbVertex
100
AcDb2dVertex
 10
56.745961
 20
60.119513
 30
0.0
  0
VERTEX
  5
166
330
153
100
AcDbEntity
  8
001
 62
     4
370
    50
100
AcDbVertex
100
AcDb2dVertex
 10
57.075213
 20
59.425127
 30
0.0
  0
VERTEX
  5
167
330
153
100
AcDbEntity
  8
001
 62
     4
370
    50
100
AcDbVertex
100
AcDb2dVertex
 10
57.575024
 20
58.838754
 30
0.0
  0
VERTEX
  5
168
330
153
100
AcDbEntity
  8
001
 62
     4
370
    50
100
AcDbVertex
100
AcDb2dVertex
 10
57.774663
 20
58.676541
 30
0.0
  0
VERTEX
  5
169
330
153
100
AcDbEntity
  8
001
 62
     4
370
    50
100
AcDbVertex
100
AcDb2dVertex
 10
57.981343
 20
58.534214
 30
0.0
  0
VERTEX
  5
16A
330
153
100
AcDbEntity
  8
001
 62
     4
370
    50
100
AcDbVertex
100
AcDb2dVertex
 10
58.191686
 20
58.41307
 30
0.0
  0
VERTEX
  5
16B
330
153
100
AcDbEntity
  8
001
 62
     4
370
    50
100
AcDbVertex
100
AcDb2dVertex
 10
58.433597
 20
58.307977
 30
0.0
  0
VERTEX
  5
16C
330
153
100
AcDbEntity
  8
001
 62
     4
370
    50
100
AcDbVertex
100
AcDb2dVertex
 10
58.712016
 20
58.218794
 30
0.0
  0
VERTEX
  5
16D
330
153
100
AcDbEntity
  8
001
 62
     4
370
    50
100
AcDbVertex
100
AcDb2dVertex
 10
58.918046
 20
58.166916
 30
0.0
  0
SEQEND
  5
154
330
153
100
AcDbEntity
  8
001
370
    50
  0
POLYLINE
  5
16E
330
1F
100
AcDbEntity
  8
001
 62
     4
370
    50
100
AcDb2dPolyline
 66
     1
 10
0.0
 20
0.0
 30
0.0
  0
VERTEX
  5
170
330
16E
100
AcDbEntity
  8
001
 62
     4
370
    50
100
AcDbVertex
100
AcDb2dVertex
 10
58.789233
 20
58.195251
 30
0.0
  0
VERTEX
  5
171
330
16E
100
AcDbEntity
  8
001
 62
     4
370
    50
100
AcDbVertex
100
AcDb2dVertex
 10
58.939982
 20
58.177883
 30
0.0
  0
VERTEX
  5
172
330
16E
100
AcDbEntity
  8
001
 62
     4
370
    50
100
AcDbVertex
100
AcDb2dVertex
 10
59.161148
 20
58.165871
 30
0.0
  0
VERTEX
  5
173
330
16E
100
AcDbEntity
  8
001
 62
     4
370
    50
100
AcDbVertex
100
AcDb2dVertex
 10
59.204592
 20
58.165704
 30
0.0
  0
VERTEX
  5
174
330
16E
100
AcDbEntity
  8
001
 62
     4
370
    50
100
AcDbVertex
100
AcDb2dVertex
 10
59.23432
 20
58.165942
 30
0.0
  0
SEQEND
  5
16F
330
16E
100
AcDbEntity
  8
001
370
    50
  0
LINE
  5
175
330
1F
100
AcDbEntity
  8
001
 62
   200
370
    50
100
AcDbLine
 10
70.840845
 20
58.969254
 30
0.0
 11
67.840845
 21
55.969254
 31
0.0
  0
LINE
  5
176
330
1F
100
AcDbEntity
  8
001
 62
   200
370
    50
100
AcDbLine
 10
67.840845
 20
55.969254
 30
0.0
 11
62.609192
 21
55.969254
 31
0.0
  0
POLYLINE
  5
177
330
1F
100
AcDbEntity
  8
001
 62
   200
370
    50
100
AcDb2dPolyline
 66
     1
 10
0.0
 20
0.0
 30
0.0
  0
VERTEX
  5
179
330
177
100
AcDbEntity
  8
001
 62
   200
370
    50
100
AcDbVertex
100
AcDb2dVertex
 10
65.186921
 20
64.138258
 30
0.0
  0
VERTEX
  5
17A
330
177
100
AcDbEntity
  8
001
 62
   200
370
    50
100
AcDbVertex
100
AcDb2dVertex
 10
65.09259
 20
64.154779
 30
0.0
  0
VERTEX
  5
17B
330
177
100
AcDbEntity
  8
001
 62
   200
370
    50
100
AcDbVertex
100
AcDb2dVertex
 10
64.953997
 20
64.173624
 30
0.0
  0
VERTEX
  5
17C
330
177
100
AcDbEntity
  8
001
 62
   200
370
    50
100
AcDbVertex
100
AcDb2dVertex
 10
64.814528
 20
64.185064
 30
0.0
  0
VERTEX
  5
17D
330
177
100
AcDbEntity
  8
001
 62
   200
370
    50
100
AcDbVertex
100
AcDb2dVertex
 10
64.718805
 20
64.189242
 30
0.0
  0
SEQEND
  5
178
330
177
100
AcDbEntity
  8
001
370
    50
  0
LINE
  5
17E
330
1F
100
AcDbEntity
  8
001
 62
   200
370
    50
100
AcDbLine
 10
60.358307
 20
68.517863
 30
0.0
 11
56.933126
 21
72.010979
 31
0.0
  0
LINE
  5
17F
330
1F
100
AcDbEntity
  8
001
 62
   200
370
    50
100
AcDbLine
 10
70.840845
 20
72.010979
 30
0.0
 11
70.840845
 21
58.969254
 31
0.0
  0
LINE
  5
180
330
1F
100
AcDbEntity
  8
001
 62
   200
370
    50
100
AcDbLine
 10
58.233779
 20
68.198894
 30
0.0
 11
55.840845
 21
70.639289
 31
0.0
  0
POLYLINE
  5
181
330
1F
100
AcDbEntity
  8
001
 62
   200
370
    50
100
AcDb2dPolyline
 66
     1
 10
0.0
 20
0.0
 30
0.0
  0
VERTEX
  5
183
330
181
100
AcDbEntity
  8
001
 62
   200
370
    50
100
AcDbVertex
100
AcDb2dVertex
 10
66.134104
 20
62.745872
 30
0.0
  0
VERTEX
  5
184
330
181
100
AcDbEntity
  8
001
 62
   200
370
    50
100
AcDbVertex
100
AcDb2dVertex
 10
65.863157
 20
63.173542
 30
0.0
  0
VERTEX
  5
185
330
181
100
AcDbEntity
  8
001
 62
   200
370
    50
100
AcDbVertex
100
AcDb2dVertex
 10
65.442903
 20
63.678741
 30
0.0
  0
VERTEX
  5
186
330
181
100
AcDbEntity
  8
001
 62
   200
370
    50
100
AcDbVertex
100
AcDb2dVertex
 10
65.256944
 20
63.839422
 30
0.0
  0
VERTEX
  5
187
330
181
100
AcDbEntity
  8
001
 62
   200
370
    50
100
AcDbVertex
100
AcDb2dVertex
 10
65.036584
 20
63.983281
 30
0.0
  0
VERTEX
  5
188
330
181
100
AcDbEntity
  8
001
 62
   200
370
    50
100
AcDbVertex
100
AcDb2dVertex
 10
64.891214
 20
64.065641
 30
0.0
  0
VERTEX
  5
189
330
181
100
AcDbEntity
  8
001
 62
   200
370
    50
100
AcDbVertex
100
AcDb2dVertex
 10
64.785178
 20
64.121553
 30
0.0
  0
SEQEND
  5
182
330
181
100
AcDbEntity
  8
001
370
    50
  0
POLYLINE
  5
18A
330
1F
100
AcDbEntity
  8
001
 62
   200
370
    50
100
AcDb2dPolyline
 66
     1
 10
0.0
 20
0.0
 30
0.0
  0
VERTEX
  5
18C
330
18A
100
AcDbEntity
  8
001
 62
   200
370
    50
100
AcDbVertex
100
AcDb2dVertex
 10
64.740658
 20
58.202776
 30
0.0
  0
VERTEX
  5
18D
330
18A
100
AcDbEntity
  8
001
 62
   200
370
    50
100
AcDbVertex
100
AcDb2dVertex
 10
64.866805
 20
58.214485
 30
0.0
  0
VERTEX
  5
18E
330
18A
100
AcDbEntity
  8
001
 62
   200
370
    50
100
AcDbVertex
100
AcDb2dVertex
 10
65.0428
 20
58.23737
 30
0.0
  0
VERTEX
  5
18F
330
18A
100
AcDbEntity
  8
001
 62
   200
370
    50
100
AcDbVertex
100
AcDb2dVertex
 10
65.305839
 20
58.291741
 30
0.0
  0
VERTEX
  5
190
330
18A
100
AcDbEntity
  8
001
 62
   200
370
    50
100
AcDbVertex
100
AcDb2dVertex
 10
65.53385
 20
58.366635
 30
0.0
  0
VERTEX
  5
191
330
18A
100
AcDbEntity
  8
001
 62
   200
370
    50
100
AcDbVertex
100
AcDb2dVertex
 10
66.199308
 20
58.72156
 30
0.0
  0
VERTEX
  5
192
330
18A
100
AcDbEntity
  8
001
 62
   200
370
    50
100
AcDbVertex
100
AcDb2dVertex
 10
66.783912
 20
59.241299
 30
0.0
  0
VERTEX
  5
193
330
18A
100
AcDbEntity
  8
001
 62
   200
370
    50
100
AcDbVertex
100
AcDb2dVertex
 10
67.087349
 20
59.667212
 30
0.0
  0
VERTEX
  5
194
330
18A
100
AcDbEntity
  8
001
 62
   200
370
    50
100
AcDbVertex
100
AcDb2dVertex
 10
67.308953
 20
60.136304
 30
0.0
  0
VERTEX
  5
195
330
18A
100
AcDbEntity
  8
001
 62
   200
370
    50
100
AcDbVertex
100
AcDb2dVertex
 10
67.390828
 20
60.384787
 30
0.0
  0
VERTEX
  5
196
330
18A
100
AcDbEntity
  8
001
 62
   200
370
    50
100
AcDbVertex
100
AcDb2dVertex
 10
67.451965
 20
60.639159
 30
0.0
  0
VERTEX
  5
197
330
18A
100
AcDbEntity
  8
001
 62
   200
370
    50
100
AcDbVertex
100
AcDb2dVertex
 10
67.491352
 20
60.89774
 30
0.0
  0
VERTEX
  5
198
330
18A
100
AcDbEntity
  8
001
 62
   200
370
    50
100
AcDbVertex
100
AcDb2dVertex
 10
67.508681
 20
61.15887
 30
0.0
  0
VERTEX
  5
199
330
18A
100
AcDbEntity
  8
001
 62
   200
370
    50
100
AcDbVertex
100
AcDb2dVertex
 10
67.477437
 20
61.677884
 30
0.0
  0
VERTEX
  5
19A
330
18A
100
AcDbEntity
  8
001
 62
   200
370
    50
100
AcDbVertex
100
AcDb2dVertex
 10
67.359006
 20
62.185661
 30
0.0
  0
VERTEX
  5
19B
330
18A
100
AcDbEntity
  8
001
 62
   200
370
    50
100
AcDbVertex
100
AcDb2dVertex
 10
67.029773
 20
62.880048
 30
0.0
  0
VERTEX
  5
19C
330
18A
100
AcDbEntity
  8
001
 62
   200
370
    50
100
AcDbVertex
100
AcDb2dVertex
 10
66.529943
 20
63.46642
 30
0.0
  0
VERTEX
  5
19D
330
18A
100
AcDbEntity
  8
001
 62
   200
370
    50
100
AcDbVertex
100
AcDb2dVertex
 10
66.330303
 20
63.628633
 30
0.0
  0
VERTEX
  5
19E
330
18A
100
AcDbEntity
  8
001
 62
   200
370
    50
100
AcDbVertex
100
AcDb2dVertex
 10
66.123624
 20
63.77096
 30
0.0
  0
VERTEX
  5
19F
330
18A
100
AcDbEntity
  8
001
 62
   200
370
    50
100
AcDbVertex
100
AcDb2dVertex
 10
65.913281
 20
63.892104
 30
0.0
  0
VERTEX
  5
1A0
330
18A
100
AcDbEntity
  8
001
 62
   200
370
    50
100
AcDbVertex
100
AcDb2dVertex
 10
65.67137
 20
63.997197
 30
0.0
  0
VERTEX
  5
1A1
330
18A
100
AcDbEntity
  8
001
 62
   200
370
    50
100
AcDbVertex
100
AcDb2dVertex
 10
65.392952
 20
64.08638
 30
0.0
  0
VERTEX
  5
1A2
330
18A
100
AcDbEntity
  8
001
 62
   200
370
    50
100
AcDbVertex
100
AcDb2dVertex
 10
65.186922
 20
64.138258
 30
0.0
  0
SEQEND
  5
18B
330
18A
100
AcDbEntity
  8
001
370
    50
  0
LINE
  5
1A3
330
1F
100
AcDbEntity
  8
001
 62
   200
370
    50
100
AcDbLine
 10
55.840845
 20
65.691385
 30
0.0
 11
55.840845
 21
73.010979
 31
0.0
  0
LINE
  5
1A4
330
1F
100
AcDbEntity
  8
001
 62
   253
370
    50
100
AcDbLine
 10
55.840845
 20
73.010979
 30
0.0
 11
55.840845
 21
135.801226
 31
0.0
  0
ARC
  5
1A5
330
1F
100
AcDbEntity
  8
001
 62
   253
370
    50
100
AcDbCircle
 10
56.840845
 20
73.010979
 30
0.0
 40
1.0
100
AcDbArc
 50
180.0
 51
229.689594
  0
POLYLINE
  5
1A6
330
1F
100
AcDbEntity
  8
001
 62
   253
370
    50
100
AcDb2dPolyline
 66
     1
 10
0.0
 20
0.0
 30
0.0
  0
VERTEX
  5
1A8
330
1A6
100
AcDbEntity
  8
001
 62
   253
370
    50
100
AcDbVertex
100
AcDb2dVertex
 10
56.840845
 20
72.010979
 30
0.0
  0
VERTEX
  5
1A9
330
1A6
100
AcDbEntity
  8
001
 62
   253
370
    50
100
AcDbVertex
100
AcDb2dVertex
 10
56.673672
 20
72.030238
 30
0.0
  0
VERTEX
  5
1AA
330
1A6
100
AcDbEntity
  8
001
 62
   253
370
    50
100
AcDbVertex
100
AcDb2dVertex
 10
56.510979
 20
72.066952
 30
0.0
  0
VERTEX
  5
1AB
330
1A6
100
AcDbEntity
  8
001
 62
   253
370
    50
100
AcDbVertex
100
AcDb2dVertex
 10
56.357422
 20
72.134309
 30
0.0
  0
VERTEX
  5
1AC
330
1A6
100
AcDbEntity
  8
001
 62
   253
370
    50
100
AcDbVertex
100
AcDb2dVertex
 10
56.218109
 20
72.228552
 30
0.0
  0
VERTEX
  5
1AD
330
1A6
100
AcDbEntity
  8
001
 62
   253
370
    50
100
AcDbVertex
100
AcDb2dVertex
 10
56.205905
 20
72.238506
 30
0.0
  0
VERTEX
  5
1AE
330
1A6
100
AcDbEntity
  8
001
 62
   253
370
    50
100
AcDbVertex
100
AcDb2dVertex
 10
56.193787
 20
72.248544
 30
0.0
  0
SEQEND
  5
1A7
330
1A6
100
AcDbEntity
  8
001
370
    50
  0
POLYLINE
  5
1AF
330
1F
100
AcDbEntity
  8
001
 62
   253
370
    50
100
AcDb2dPolyline
 66
     1
 10
0.0
 20
0.0
 30
0.0
  0
VERTEX
  5
1B1
330
1AF
100
AcDbEntity
  8
001
 62
   253
370
    50
100
AcDbVertex
100
AcDb2dVertex
 10
55.840845
 20
135.801226
 30
0.0
  0
VERTEX
  5
1B2
330
1AF
100
AcDbEntity
  8
001
 62
   253
370
    50
100
AcDbVertex
100
AcDb2dVertex
 10
55.843829
 20
135.81153
 30
0.0
  0
VERTEX
  5
1B3
330
1AF
100
AcDbEntity
  8
001
 62
   253
370
    50
100
AcDbVertex
100
AcDb2dVertex
 10
55.847542
 20
135.821291
 30
0.0
  0
VERTEX
  5
1B4
330
1AF
100
AcDbEntity
  8
001
 62
   253
370
    50
100
AcDbVertex
100
AcDb2dVertex
 10
55.8859
 20
135.85716
 30
0.0
  0
VERTEX
  5
1B5
330
1AF
100
AcDbEntity
  8
001
 62
   253
370
    50
100
AcDbVertex
100
AcDb2dVertex
 10
55.94179
 20
135.87726
 30
0.0
  0
VERTEX
  5
1B6
330
1AF
100
AcDbEntity
  8
001
 62
   253
370
    50
100
AcDbVertex
100
AcDb2dVertex
 10
56.041928
 20
135.904198
 30
0.0
  0
VERTEX
  5
1B7
330
1AF
100
AcDbEntity
  8
001
 62
   253
370
    50
100
AcDbVertex
100
AcDb2dVertex
 10
56.137414
 20
135.924657
 30
0.0
  0
VERTEX
  5
1B8
330
1AF
100
AcDbEntity
  8
001
 62
   253
370
    50
100
AcDbVertex
100
AcDb2dVertex
 10
56.273161
 20
135.944701
 30
0.0
  0
VERTEX
  5
1B9
330
1AF
100
AcDbEntity
  8
001
 62
   253
370
    50
100
AcDbVertex
100
AcDb2dVertex
 10
56.412347
 20
135.958134
 30
0.0
  0
VERTEX
  5
1BA
330
1AF
100
AcDbEntity
  8
001
 62
   253
370
    50
100
AcDbVertex
100
AcDb2dVertex
 10
56.57424
 20
135.968613
 30
0.0
  0
VERTEX
  5
1BB
330
1AF
100
AcDbEntity
  8
001
 62
   253
370
    50
100
AcDbVertex
100
AcDb2dVertex
 10
56.735578
 20
135.97392
 30
0.0
  0
VERTEX
  5
1BC
330
1AF
100
AcDbEntity
  8
001
 62
   253
370
    50
100
AcDbVertex
100
AcDb2dVertex
 10
56.788185
 20
135.974545
 30
0.0
  0
VERTEX
  5
1BD
330
1AF
100
AcDbEntity
  8
001
 62
   253
370
    50
100
AcDbVertex
100
AcDb2dVertex
 10
56.840845
 20
135.974885
 30
0.0
  0
SEQEND
  5
1B0
330
1AF
100
AcDbEntity
  8
001
370
    50
  0
LINE
  5
1BE
330
1F
100
AcDbEntity
  8
001
 62
   253
370
    50
100
AcDbLine
 10
79.840845
 20
180.010979
 30
0.0
 11
56.840845
 21
180.010979
 31
0.0
  0
LINE
  5
1BF
330
1F
100
AcDbEntity
  8
001
 62
   253
370
    50
100
AcDbLine
 10
56.840845
 20
72.010979
 30
0.0
 11
79.840845
 21
72.010979
 31
0.0
  0
LINE
  5
1C0
330
1F
100
AcDbEntity
  8
001
 62
   253
370
    50
100
AcDbLine
 10
56.840845
 20
135.974885
 30
0.0
 11
70.840845
 21
135.974885
 31
0.0
  0
ARC
  5
1C1
330
1F
100
AcDbEntity
  8
001
 62
   253
370
    50
100
AcDbCircle
 10
79.840845
 20
179.010979
 30
0.0
 40
0.9999999999999929
100
AcDbArc
 50
0.0
 51
90.0
  0
ARC
  5
1C2
330
1F
100
AcDbEntity
  8
001
 62
   253
370
    50
100
AcDbCircle
 10
79.840845
 20
73.010979
 30
0.0
 40
0.9999999999999929
100
AcDbArc
 50
270.0
 51
0.0
  0
LINE
  5
1C3
330
1F
100
AcDbEntity
  8
001
 62
   253
370
    50
100
AcDbLine
 10
80.840845
 20
73.010979
 30
0.0
 11
80.840845
 21
179.010979
 31
0.0
  0
ARC
  5
1C4
330
1F
100
AcDbEntity
  8
001
 62
   253
370
    50
100
AcDbCircle
 10
88.840845
 20
179.010979
 30
0.0
 40
8.000000000000007
100
AcDbArc
 50
180.0
 51
270.0
  0
ARC
  5
1C5
330
1F
100
AcDbEntity
  8
001
 62
   253
370
    50
100
AcDbCircle
 10
88.840845
 20
73.010979
 30
0.0
 40
8.000000000000007
100
AcDbArc
 50
90.0
 51
180.0
  0
ARC
  5
1C6
330
1F
100
AcDbEntity
  8
001
 62
   253
370
    50
100
AcDbCircle
 10
56.840845
 20
179.010979
 30
0.0
 40
1.0
100
AcDbArc
 50
90.0
 51
180.0
  0
LINE
  5
1C7
330
1F
100
AcDbEntity
  8
001
 62
   253
370
    50
100
AcDbLine
 10
55.840845
 20
159.780836
 30
0.0
 11
55.840845
 21
179.010979
 31
0.0
  0
ARC
  5
1C8
330
1F
100
AcDbEntity
  8
001
 62
   253
370
    50
100
AcDbCircle
 10
94.840845
 20
170.010979
 30
0.0
 40
1.0
100
AcDbArc
 50
0.0
 51
90.0
  0
ARC
  5
1C9
330
1F
100
AcDbEntity
  8
001
 62
   253
370
    50
100
AcDbCircle
 10
94.840845
 20
82.010979
 30
0.0
 40
1.0
100
AcDbArc
 50
270.0
 51
0.0
  0
LINE
  5
1CA
330
1F
100
AcDbEntity
  8
001
 62
   253
370
    50
100
AcDbLine
 10
95.840845
 20
170.010979
 30
0.0
 11
95.840845
 21
82.010979
 31
0.0
  0
LINE
  5
1CB
330
1F
100
AcDbEntity
  8
001
 62
   253
370
    50
100
AcDbLine
 10
94.840845
 20
171.010979
 30
0.0
 11
88.840845
 21
171.010979
 31
0.0
  0
LINE
  5
1CC
330
1F
100
AcDbEntity
  8
001
 62
   253
370
    50
100
AcDbLine
 10
88.840845
 20
81.010979
 30
0.0
 11
94.840845
 21
81.010979
 31
0.0
  0
LINE
  5
1CD
330
1F
100
AcDbEntity
  8
001
 62
   253
370
    50
100
AcDbLine
 10
175.840845
 20
118.010979
 30
0.0
 11
175.840845
 21
134.010979
 31
0.0
  0
LINE
  5
1CE
330
1F
100
AcDbEntity
  8
001
 62
   253
370
    50
100
AcDbLine
 10
167.840845
 20
142.010979
 30
0.0
 11
98.840845
 21
142.010979
 31
0.0
  0
LINE
  5
1CF
330
1F
100
AcDbEntity
  8
001
 62
   253
370
    50
100
AcDbLine
 10
167.840845
 20
110.010979
 30
0.0
 11
98.840845
 21
110.010979
 31
0.0
  0
LINE
  5
1D0
330
1F
100
AcDbEntity
  8
001
 62
   253
370
    50
100
AcDbLine
 10
98.840845
 20
142.010979
 30
0.0
 11
98.840845
 21
110.010979
 31
0.0
  0
LINE
  5
1D1
330
1F
100
AcDbEntity
  8
001
 62
   253
370
    50
100
AcDbLine
 10
98.840845
 20
141.510979
 30
0.0
 11
95.840845
 21
141.510979
 31
0.0
  0
LINE
  5
1D2
330
1F
100
AcDbEntity
  8
001
 62
   253
370
    50
100
AcDbLine
 10
95.840845
 20
110.510979
 30
0.0
 11
98.840845
 21
110.510979
 31
0.0
  0
TEXT
  5
1D3
330
1F
100
AcDbEntity
  8
001
370
    30
100
AcDbText
 10
58.787498
 20
200.392612
 30
0.0
 40
8.0
  1
ＮＫＰ３２－１３０Ｓ－０３
 41
0.833333
100
AcDbText
  0
ARC
  5
1D4
330
1F
100
AcDbEntity
  8
001
 62
   253
370
    50
100
AcDbCircle
 10
167.840845
 20
134.010979
 30
0.0
 40
8.0
100
AcDbArc
 50
0.0
 51
90.0
  0
ARC
  5
1D5
330
1F
100
AcDbEntity
  8
001
 62
   253
370
    50
100
AcDbCircle
 10
167.840845
 20
118.010979
 30
0.0
 40
8.0
100
AcDbArc
 50
270.0
 51
0.0
  0
ENDSEC
  0
SECTION
  2
OBJECTS
  0
DICTIONARY
  5
C
330
0
100
AcDbDictionary
281
     1
  3
ACAD_GROUP
350
D
  3
ACAD_LAYOUT
350
1A
  3
ACAD_MLEADERSTYLE
350
1D9
  3
ACAD_MLINESTYLE
350
17
  3
ACAD_PLOTSETTINGS
350
19
  3
ACAD_PLOTSTYLENAME
350
E
  3
ACAD_SCALELIST
350
3B
  3
ACAD_TABLESTYLE
350
1D8
  3
ACAD_VISUALSTYLE
350
2A
  3
AcDbVariableDictionary
350
1D6
  0
DICTIONARY
  5
D
102
{ACAD_REACTORS
330
C
102
}
330
C
100
AcDbDictionary
281
     1
  0
DICTIONARY
  5
1A
102
{ACAD_REACTORS
330
C
102
}
330
C
100
AcDbDictionary
281
     1
  3
Layout1
350
1E
  3
Layout2
350
26
  3
Model
350
22
  0
DICTIONARY
  5
1D9
102
{ACAD_REACTORS
330
C
102
}
330
C
100
AcDbDictionary
281
     1
  0
DICTIONARY
  5
17
102
{ACAD_REACTORS
330
C
102
}
330
C
100
AcDbDictionary
281
     1
  3
Standard
350
18
  0
DICTIONARY
  5
19
102
{ACAD_REACTORS
330
C
102
}
330
C
100
AcDbDictionary
281
     1
  0
ACDBDICTIONARYWDFLT
  5
E
102
{ACAD_REACTORS
330
C
102
}
330
C
100
AcDbDictionary
281
     1
  3
Normal
350
F
100
AcDbDictionaryWithDefault
340
F
  0
DICTIONARY
  5
3B
102
{ACAD_REACTORS
330
C
102
}
330
C
100
AcDbDictionary
281
     1
  3
A0
350
3C
  3
A1
350
3D
  3
A2
350
3E
  3
A3
350
3F
  3
A4
350
40
  3
A5
350
41
  3
A6
350
42
  3
A7
350
43
  3
A8
350
44
  3
A9
350
45
  3
B0
350
46
  3
B1
350
47
  3
B2
350
48
  3
B3
350
49
  3
B4
350
4A
  3
B5
350
4B
  3
B6
350
4C
  3
B7
350
4D
  3
B8
350
4E
  3
B9
350
4F
  3
C0
350
50
  3
C1
350
51
  3
C2
350
52
  3
C3
350
53
  3
C4
350
54
  3
C5
350
55
  3
C6
350
56
  3
C7
350
57
  3
C8
350
58
  3
C9
350
59
  3
D0
350
5A
  3
D1
350
5B
  3
D2
350
5C
  0
DICTIONARY
  5
1D8
102
{ACAD_REACTORS
330
C
102
}
330
C
100
AcDbDictionary
281
     1
  0
DICTIONARY
  5
2A
102
{ACAD_REACTORS
330
C
102
}
330
C
100
AcDbDictionary
281
     1
  3
2dWireframe
350
2F
  3
3D Hidden
350
31
  3
3dWireframe
350
30
  3
Basic
350
32
  3
Brighten
350
36
  3
ColorChange
350
3A
  3
Conceptual
350
34
  3
Dim
350
35
  3
Facepattern
350
39
  3
Flat
350
2B
  3
FlatWithEdges
350
2C
  3
Gouraud
350
2D
  3
GouraudWithEdges
350
2E
  3
Linepattern
350
38
  3
Realistic
350
33
  3
Thicken
350
37
  0
DICTIONARY
  5
1D6
102
{ACAD_REACTORS
330
C
102
}
330
C
100
AcDbDictionary
281
     1
  3
CANNOSCALE
350
1D7
  3
PSOLHEIGHT
350
1DB
  3
PSOLWIDTH
350
1DA
  0
LAYOUT
  5
1E
102
{ACAD_REACTORS
330
1A
102
}
330
1A
100
AcDbPlotSettings
  1

  2
none_device
  4

  6

 40
0.0
 41
0.0
 42
0.0
 43
0.0
 44
0.0
 45
0.0
 46
0.0
 47
0.0
 48
0.0
 49
0.0
140
0.0
141
0.0
142
1.0
143
1.0
 70
   688
 72
     0
 73
     0
 74
     5
  7

 75
    16
147
1.0
148
0.0
149
0.0
100
AcDbLayout
  1
Layout1
 70
     1
 71
     1
 10
0.0
 20
0.0
 11
12.0
 21
9.0
 12
0.0
 22
0.0
 32
0.0
 14
1.000000E+20
 24
1.000000E+20
 34
0.0
 15
-1.000000E+20
 25
-1.000000E+20
 35
0.0
146
0.0
 13
0.0
 23
0.0
 33
0.0
 16
1.0
 26
0.0
 36
0.0
 17
0.0
 27
1.0
 37
0.0
 76
     0
330
1B
  0
LAYOUT
  5
26
102
{ACAD_REACTORS
330
1A
102
}
330
1A
100
AcDbPlotSettings
  1

  2
none_device
  4

  6

 40
0.0
 41
0.0
 42
0.0
 43
0.0
 44
0.0
 45
0.0
 46
0.0
 47
0.0
 48
0.0
 49
0.0
140
0.0
141
0.0
142
1.0
143
1.0
 70
   688
 72
     0
 73
     0
 74
     5
  7

 75
    16
147
1.0
148
0.0
149
0.0
100
AcDbLayout
  1
Layout2
 70
     1
 71
     2
 10
0.0
 20
0.0
 11
0.0
 21
0.0
 12
0.0
 22
0.0
 32
0.0
 14
0.0
 24
0.0
 34
0.0
 15
0.0
 25
0.0
 35
0.0
146
0.0
 13
0.0
 23
0.0
 33
0.0
 16
1.0
 26
0.0
 36
0.0
 17
0.0
 27
1.0
 37
0.0
 76
     0
330
23
  0
LAYOUT
  5
22
102
{ACAD_REACTORS
330
1A
102
}
330
1A
100
AcDbPlotSettings
  1

  2
none_device
  4

  6

 40
0.0
 41
0.0
 42
0.0
 43
0.0
 44
0.0
 45
0.0
 46
0.0
 47
0.0
 48
0.0
 49
0.0
140
0.0
141
0.0
142
1.0
143
1.0
 70
  1712
 72
     0
 73
     0
 74
     0
  7

 75
     0
147
1.0
148
0.0
149
0.0
100
AcDbLayout
  1
Model
 70
     1
 71
     0
 10
0.0
 20
0.0
 11
12.0
 21
9.0
 12
0.0
 22
0.0
 32
0.0
 14
15.233902
 24
16.749191
 34
0.0
 15
213.368561
 25
208.392609
 35
0.0
146
0.0
 13
0.0
 23
0.0
 33
0.0
 16
1.0
 26
0.0
 36
0.0
 17
0.0
 27
1.0
 37
0.0
 76
     0
330
1F
331
29
  0
MLINESTYLE
  5
18
102
{ACAD_REACTORS
330
17
102
}
330
17
100
AcDbMlineStyle
  2
Standard
 70
     0
  3

 62
   256
 51
90.0
 52
90.0
 71
     2
 49
0.5
 62
   256
  6
BYLAYER
 49
-0.5
 62
   256
  6
BYLAYER
  0
ACDBPLACEHOLDER
  5
F
102
{ACAD_REACTORS
330
E
102
}
330
E
  0
SCALE
  5
3C
102
{ACAD_REACTORS
330
3B
102
}
330
3B
100
AcDbScale
 70
     0
300
1:1
140
1.0
141
1.0
290
     1
  0
SCALE
  5
3D
102
{ACAD_REACTORS
330
3B
102
}
330
3B
100
AcDbScale
 70
     0
300
1:2
140
1.0
141
2.0
290
     0
  0
SCALE
  5
3E
102
{ACAD_REACTORS
330
3B
102
}
330
3B
100
AcDbScale
 70
     0
300
1:4
140
1.0
141
4.0
290
     0
  0
SCALE
  5
3F
102
{ACAD_REACTORS
330
3B
102
}
330
3B
100
AcDbScale
 70
     0
300
1:5
140
1.0
141
5.0
290
     0
  0
SCALE
  5
40
102
{ACAD_REACTORS
330
3B
102
}
330
3B
100
AcDbScale
 70
     0
300
1:8
140
1.0
141
8.0
290
     0
  0
SCALE
  5
41
102
{ACAD_REACTORS
330
3B
102
}
330
3B
100
AcDbScale
 70
     0
300
1:10
140
1.0
141
10.0
290
     0
  0
SCALE
  5
42
102
{ACAD_REACTORS
330
3B
102
}
330
3B
100
AcDbScale
 70
     0
300
1:16
140
1.0
141
16.0
290
     0
  0
SCALE
  5
43
102
{ACAD_REACTORS
330
3B
102
}
330
3B
100
AcDbScale
 70
     0
300
1:20
140
1.0
141
20.0
290
     0
  0
SCALE
  5
44
102
{ACAD_REACTORS
330
3B
102
}
330
3B
100
AcDbScale
 70
     0
300
1:30
140
1.0
141
30.0
290
     0
  0
SCALE
  5
45
102
{ACAD_REACTORS
330
3B
102
}
330
3B
100
AcDbScale
 70
     0
300
1:40
140
1.0
141
40.0
290
     0
  0
SCALE
  5
46
102
{ACAD_REACTORS
330
3B
102
}
330
3B
100
AcDbScale
 70
     0
300
1:50
140
1.0
141
50.0
290
     0
  0
SCALE
  5
47
102
{ACAD_REACTORS
330
3B
102
}
330
3B
100
AcDbScale
 70
     0
300
1:100
140
1.0
141
100.0
290
     0
  0
SCALE
  5
48
102
{ACAD_REACTORS
330
3B
102
}
330
3B
100
AcDbScale
 70
     0
300
2:1
140
2.0
141
1.0
290
     0
  0
SCALE
  5
49
102
{ACAD_REACTORS
330
3B
102
}
330
3B
100
AcDbScale
 70
     0
300
4:1
140
4.0
141
1.0
290
     0
  0
SCALE
  5
4A
102
{ACAD_REACTORS
330
3B
102
}
330
3B
100
AcDbScale
 70
     0
300
8:1
140
8.0
141
1.0
290
     0
  0
SCALE
  5
4B
102
{ACAD_REACTORS
330
3B
102
}
330
3B
100
AcDbScale
 70
     0
300
10:1
140
10.0
141
1.0
290
     0
  0
SCALE
  5
4C
102
{ACAD_REACTORS
330
3B
102
}
330
3B
100
AcDbScale
 70
     0
300
100:1
140
100.0
141
1.0
290
     0
  0
SCALE
  5
4D
102
{ACAD_REACTORS
330
3B
102
}
330
3B
100
AcDbScale
 70
     0
300
1/128" = 1'-0"
140
0.007812
141
12.0
290
     0
  0
SCALE
  5
4E
102
{ACAD_REACTORS
330
3B
102
}
330
3B
100
AcDbScale
 70
     0
300
1/64" = 1'-0"
140
0.015625
141
12.0
290
     0
  0
SCALE
  5
4F
102
{ACAD_REACTORS
330
3B
102
}
330
3B
100
AcDbScale
 70
     0
300
1/32" = 1'-0"
140
0.03125
141
12.0
290
     0
  0
SCALE
  5
50
102
{ACAD_REACTORS
330
3B
102
}
330
3B
100
AcDbScale
 70
     0
300
1/16" = 1'-0"
140
0.0625
141
12.0
290
     0
  0
SCALE
  5
51
102
{ACAD_REACTORS
330
3B
102
}
330
3B
100
AcDbScale
 70
     0
300
3/32" = 1'-0"
140
0.09375
141
12.0
290
     0
  0
SCALE
  5
52
102
{ACAD_REACTORS
330
3B
102
}
330
3B
100
AcDbScale
 70
     0
300
1/8" = 1'-0"
140
0.125
141
12.0
290
     0
  0
SCALE
  5
53
102
{ACAD_REACTORS
330
3B
102
}
330
3B
100
AcDbScale
 70
     0
300
3/16" = 1'-0"
140
0.1875
141
12.0
290
     0
  0
SCALE
  5
54
102
{ACAD_REACTORS
330
3B
102
}
330
3B
100
AcDbScale
 70
     0
300
1/4" = 1'-0"
140
0.25
141
12.0
290
     0
  0
SCALE
  5
55
102
{ACAD_REACTORS
330
3B
102
}
330
3B
100
AcDbScale
 70
     0
300
3/8" = 1'-0"
140
0.375
141
12.0
290
     0
  0
SCALE
  5
56
102
{ACAD_REACTORS
330
3B
102
}
330
3B
100
AcDbScale
 70
     0
300
1/2" = 1'-0"
140
0.5
141
12.0
290
     0
  0
SCALE
  5
57
102
{ACAD_REACTORS
330
3B
102
}
330
3B
100
AcDbScale
 70
     0
300
3/4" = 1'-0"
140
0.75
141
12.0
290
     0
  0
SCALE
  5
58
102
{ACAD_REACTORS
330
3B
102
}
330
3B
100
AcDbScale
 70
     0
300
1" = 1'-0"
140
1.0
141
12.0
290
     0
  0
SCALE
  5
59
102
{ACAD_REACTORS
330
3B
102
}
330
3B
100
AcDbScale
 70
     0
300
1-1/2" = 1'-0"
140
1.5
141
12.0
290
     0
  0
SCALE
  5
5A
102
{ACAD_REACTORS
330
3B
102
}
330
3B
100
AcDbScale
 70
     0
300
3" = 1'-0"
140
3.0
141
12.0
290
     0
  0
SCALE
  5
5B
102
{ACAD_REACTORS
330
3B
102
}
330
3B
100
AcDbScale
 70
     0
300
6" = 1'-0"
140
6.0
141
12.0
290
     0
  0
SCALE
  5
5C
102
{ACAD_REACTORS
330
3B
102
}
330
3B
100
AcDbScale
 70
     0
300
1'-0" = 1'-0"
140
12.0
141
12.0
290
     0
  0
VISUALSTYLE
  5
2F
102
{ACAD_REACTORS
330
2A
102
}
330
2A
100
AcDbVisualStyle
  2
2dWireframe
 70
     4
 71
     0
 72
     2
 73
     0
 90
        0
 40
-0.6
 41
-30.0
 62
     5
 63
     7
 74
     1
 91
        4
 64
     7
 65
   257
 75
     1
175
     1
 42
1.0
 92
        0
 66
   257
 43
1.0
 76
     1
 77
     6
 78
     2
 67
     7
 79
     5
170
     0
171
     0
290
     0
174
     0
 93
        1
 44
0.0
173
     0
291
     0
 45
0.0
1001
ACAD
1000
AcDbSavedByObjectVersion
1070
     0
  0
VISUALSTYLE
  5
31
102
{ACAD_REACTORS
330
2A
102
}
330
2A
100
AcDbVisualStyle
  2
3D Hidden
 70
     6
 71
     1
 72
     2
 73
     2
 90
        0
 40
-0.6
 41
-30.0
 62
     5
 63
     7
 74
     2
 91
        2
 64
     7
 65
   257
 75
     2
175
     1
 42
40.0
 92
        0
 66
   257
 43
1.0
 76
     1
 77
     6
 78
     2
 67
     7
 79
     3
170
     0
171
     0
290
     0
174
     0
 93
        1
 44
0.0
173
     0
291
     0
 45
0.0
1001
ACAD
1000
AcDbSavedByObjectVersion
1070
     0
  0
VISUALSTYLE
  5
30
102
{ACAD_REACTORS
330
2A
102
}
330
2A
100
AcDbVisualStyle
  2
3dWireframe
 70
     5
 71
     0
 72
     2
 73
     0
 90
        0
 40
-0.6
 41
-30.0
 62
     5
 63
     7
 74
     1
 91
        4
 64
     7
 65
   257
 75
     1
175
     1
 42
1.0
 92
        0
 66
   257
 43
1.0
 76
     1
 77
     6
 78
     2
 67
     7
 79
     5
170
     0
171
     0
290
     0
174
     0
 93
        1
 44
0.0
173
     0
291
     0
 45
0.0
1001
ACAD
1000
AcDbSavedByObjectVersion
1070
     0
  0
VISUALSTYLE
  5
32
102
{ACAD_REACTORS
330
2A
102
}
330
2A
100
AcDbVisualStyle
  2
Basic
 70
     7
 71
     1
 72
     0
 73
     1
 90
        0
 40
-0.6
 41
-30.0
 62
     5
 63
     7
 74
     0
 91
        4
 64
     7
 65
   257
 75
     1
175
     1
 42
1.0
 92
        8
 66
     7
 43
1.0
 76
     1
 77
     6
 78
     2
 67
     7
 79
     5
170
     0
171
     0
290
     0
174
     0
 93
        1
 44
0.0
173
     0
291
     1
 45
0.0
1001
ACAD
1000
AcDbSavedByObjectVersion
1070
     0
  0
VISUALSTYLE
  5
36
102
{ACAD_REACTORS
330
2A
102
}
330
2A
100
AcDbVisualStyle
  2
Brighten
 70
    12
 71
     2
 72
     2
 73
     0
 90
        0
 40
-0.6
 41
-30.0
 62
     5
 63
     7
 74
     1
 91
        4
 64
     7
 65
   257
 75
     1
175
     1
 42
1.0
 92
        8
 66
     7
 43
1.0
 76
     1
 77
     6
 78
     2
 67
     7
 79
     5
170
     0
171
     0
290
     0
174
     0
 93
        1
 44
50.0
173
     0
291
     1
 45
0.0
1001
ACAD
1000
AcDbSavedByObjectVersion
1070
     0
  0
VISUALSTYLE
  5
3A
102
{ACAD_REACTORS
330
2A
102
}
330
2A
100
AcDbVisualStyle
  2
ColorChange
 70
    16
 71
     2
 72
     2
 73
     3
 90
        0
 40
-0.6
 41
-30.0
 62
     5
 63
     8
 74
     1
 91
        4
 64
     7
 65
   257
 75
     1
175
     1
 42
1.0
 92
        8
 66
     8
 43
1.0
 76
     1
 77
     6
 78
     2
 67
     7
 79
     5
170
     0
171
     0
290
     0
174
     0
 93
        1
 44
0.0
173
     0
291
     1
 45
0.0
1001
ACAD
1000
AcDbSavedByObjectVersion
1070
     0
  0
VISUALSTYLE
  5
34
102
{ACAD_REACTORS
330
2A
102
}
330
2A
100
AcDbVisualStyle
  2
Conceptual
 70
     9
 71
     3
 72
     2
 73
     0
 90
        0
 40
-0.6
 41
-30.0
 62
     5
 63
     7
 74
     2
 91
        2
 64
     7
 65
   257
 75
     1
175
     1
 42
40.0
 92
        8
 66
     7
 43
1.0
 76
     1
 77
     6
 78
     2
 67
     7
 79
     3
170
     0
171
     0
290
     0
174
     0
 93
        1
 44
0.0
173
     0
291
     0
 45
0.0
1001
ACAD
1000
AcDbSavedByObjectVersion
1070
     0
  0
VISUALSTYLE
  5
35
102
{ACAD_REACTORS
330
2A
102
}
330
2A
100
AcDbVisualStyle
  2
Dim
 70
    11
 71
     2
 72
     2
 73
     0
 90
        0
 40
-0.6
 41
-30.0
 62
     5
 63
     7
 74
     1
 91
        4
 64
     7
 65
   257
 75
     1
175
     1
 42
1.0
 92
        8
 66
     7
 43
1.0
 76
     1
 77
     6
 78
     2
 67
     7
 79
     5
170
     0
171
     0
290
     0
174
     0
 93
        1
 44
-50.0
173
     0
291
     1
 45
0.0
1001
ACAD
1000
AcDbSavedByObjectVersion
1070
     0
  0
VISUALSTYLE
  5
39
102
{ACAD_REACTORS
330
2A
102
}
330
2A
100
AcDbVisualStyle
  2
Facepattern
 70
    15
 71
     2
 72
     2
 73
     0
 90
        0
 40
-0.6
 41
-30.0
 62
     5
 63
     7
 74
     1
 91
        4
 64
     7
 65
   257
 75
     1
175
     1
 42
1.0
 92
        8
 66
     7
 43
1.0
 76
     1
 77
     6
 78
     2
 67
     7
 79
     5
170
     0
171
     0
290
     0
174
     0
 93
        1
 44
0.0
173
     0
291
     1
 45
0.0
1001
ACAD
1000
AcDbSavedByObjectVersion
1070
     0
  0
VISUALSTYLE
  5
2B
102
{ACAD_REACTORS
330
2A
102
}
330
2A
100
AcDbVisualStyle
  2
Flat
 70
     0
 71
     2
 72
     1
 73
     1
 90
        2
 40
-0.6
 41
30.0
 62
     5
 63
     7
 74
     0
 91
        4
 64
     7
 65
   257
 75
     1
175
     1
 42
1.0
 92
        8
 66
     7
 43
1.0
 76
     1
 77
     6
 78
     2
 67
     7
 79
     5
170
     0
171
     0
290
     0
174
     0
 93
       13
 44
0.0
173
     0
291
     1
 45
0.0
1001
ACAD
1000
AcDbSavedByObjectVersion
1070
     0
  0
VISUALSTYLE
  5
2C
102
{ACAD_REACTORS
330
2A
102
}
330
2A
100
AcDbVisualStyle
  2
FlatWithEdges
 70
     1
 71
     2
 72
     1
 73
     1
 90
        2
 40
-0.6
 41
30.0
 62
     5
 63
     7
 74
     1
 91
        4
 64
     7
 65
   257
 75
     1
175
     1
 42
1.0
 92
        0
 66
   257
 43
1.0
 76
     1
 77
     6
 78
     2
 67
     7
 79
     5
170
     0
171
     0
290
     0
174
     0
 93
       13
 44
0.0
173
     0
291
     1
 45
0.0
1001
ACAD
1000
AcDbSavedByObjectVersion
1070
     0
  0
VISUALSTYLE
  5
2D
102
{ACAD_REACTORS
330
2A
102
}
330
2A
100
AcDbVisualStyle
  2
Gouraud
 70
     2
 71
     2
 72
     2
 73
     1
 90
        2
 40
-0.6
 41
30.0
 62
     5
 63
     7
 74
     0
 91
        4
 64
     7
 65
   257
 75
     1
175
     1
 42
1.0
 92
        0
 66
     7
 43
1.0
 76
     1
 77
     6
 78
     2
 67
     7
 79
     5
170
     0
171
     0
290
     0
174
     0
 93
       13
 44
0.0
173
     0
291
     1
 45
0.0
1001
ACAD
1000
AcDbSavedByObjectVersion
1070
     0
  0
VISUALSTYLE
  5
2E
102
{ACAD_REACTORS
330
2A
102
}
330
2A
100
AcDbVisualStyle
  2
GouraudWithEdges
 70
     3
 71
     2
 72
     2
 73
     1
 90
        2
 40
-0.6
 41
30.0
 62
     5
 63
     7
 74
     1
 91
        4
 64
     7
 65
   257
 75
     1
175
     1
 42
1.0
 92
        0
 66
   257
 43
1.0
 76
     1
 77
     6
 78
     2
 67
     7
 79
     5
170
     0
171
     0
290
     0
174
     0
 93
       13
 44
0.0
173
     0
291
     1
 45
0.0
1001
ACAD
1000
AcDbSavedByObjectVersion
1070
     0
  0
VISUALSTYLE
  5
38
102
{ACAD_REACTORS
330
2A
102
}
330
2A
100
AcDbVisualStyle
  2
Linepattern
 70
    14
 71
     2
 72
     2
 73
     0
 90
        0
 40
-0.6
 41
-30.0
 62
     5
 63
     7
 74
     1
 91
        4
 64
     7
 65
   257
 75
     7
175
     7
 42
1.0
 92
        8
 66
     7
 43
1.0
 76
     1
 77
     6
 78
     2
 67
     7
 79
     5
170
     0
171
     0
290
     0
174
     0
 93
        1
 44
0.0
173
     0
291
     1
 45
0.0
1001
ACAD
1000
AcDbSavedByObjectVersion
1070
     0
  0
VISUALSTYLE
  5
33
102
{ACAD_REACTORS
330
2A
102
}
330
2A
100
AcDbVisualStyle
  2
Realistic
 70
     8
 71
     2
 72
     2
 73
     0
 90
        0
 40
-0.6
 41
-30.0
 62
     5
 63
     7
 74
     1
 91
        0
 64
     7
 65
   257
 75
     1
175
     1
 42
1.0
 92
        8
 66
     8
 43
1.0
 76
     1
 77
     6
 78
     2
 67
     7
 79
     5
170
     0
171
     0
290
     0
174
     0
 93
       13
 44
0.0
173
     0
291
     0
 45
0.0
1001
ACAD
1000
AcDbSavedByObjectVersion
1070
     0
  0
VISUALSTYLE
  5
37
102
{ACAD_REACTORS
330
2A
102
}
330
2A
100
AcDbVisualStyle
  2
Thicken
 70
    13
 71
     2
 72
     2
 73
     0
 90
        0
 40
-0.6
 41
-30.0
 62
     5
 63
     7
 74
     1
 91
        4
 64
     7
 65
   257
 75
     1
175
     1
 42
1.0
 92
       12
 66
     7
 43
1.0
 76
     1
 77
     6
 78
     2
 67
     7
 79
     5
170
     0
171
     0
290
     0
174
     0
 93
        1
 44
0.0
173
     0
291
     1
 45
0.0
1001
ACAD
1000
AcDbSavedByObjectVersion
1070
     0
  0
DICTIONARYVAR
  5
1D7
102
{ACAD_REACTORS
330
1D6
102
}
330
1D6
100
DictionaryVariables
280
     0
  1
1:1
  0
DICTIONARYVAR
  5
1DB
102
{ACAD_REACTORS
330
1D6
102
}
330
1D6
100
DictionaryVariables
280
     0
  1
80.000000
  0
DICTIONARYVAR
  5
1DA
102
{ACAD_REACTORS
330
1D6
102
}
330
1D6
100
DictionaryVariables
280
     0
  1
5.000000
  0
ENDSEC
  0
EOF
