  0
SECTION
  2
HEADER
  9
$ACADVER
  1
AC1015
  9
$ACADMAINTVER
 70
     6
  9
$DWGCODEPAGE
  3
ANSI_932
  9
$INSBASE
 10
0.0
 20
0.0
 30
0.0
  9
$EXTMIN
 10
-7.618454
 20
-105.822784
 30
0.0
  9
$EXTMAX
 10
202.381546
 20
151.645752
 30
0.0
  9
$LIMMIN
 10
0.0
 20
0.0
  9
$LIMMAX
 10
12.0
 20
9.0
  9
$ORTHOMODE
 70
     0
  9
$REGENMODE
 70
     1
  9
$FILLMODE
 70
     1
  9
$QTEXTMODE
 70
     0
  9
$MIRRTEXT
 70
     1
  9
$LTSCALE
 40
3.3225
  9
$ATTMODE
 70
     1
  9
$TEXTSIZE
 40
3.2
  9
$TRACEWID
 40
1.0
  9
$TEXTSTYLE
  7
Standard
  9
$CLAYER
  8
0
  9
$CELTYPE
  6
ByLayer
  9
$CECOLOR
 62
   256
  9
$CELTSCALE
 40
1.0
  9
$DISPSILH
 70
     0
  9
$DIMSCALE
 40
1.0
  9
$DIMASZ
 40
2.5
  9
$DIMEXO
 40
0.625
  9
$DIMDLI
 40
3.75
  9
$DIMRND
 40
0.0
  9
$DIMDLE
 40
0.0
  9
$DIMEXE
 40
1.25
  9
$DIMTP
 40
0.0
  9
$DIMTM
 40
0.0
  9
$DIMTXT
 40
2.5
  9
$DIMCEN
 40
0.09
  9
$DIMTSZ
 40
0.0
  9
$DIMTOL
 70
     0
  9
$DIMLIM
 70
     0
  9
$DIMTIH
 70
     0
  9
$DIMTOH
 70
     0
  9
$DIMSE1
 70
     0
  9
$DIMSE2
 70
     0
  9
$DIMTAD
 70
     0
  9
$DIMZIN
 70
     8
  9
$DIMBLK
  1

  9
$DIMASO
 70
     1
  9
$DIMSHO
 70
     0
  9
$DIMPOST
  1

  9
$DIMAPOST
  1

  9
$DIMALT
 70
     0
  9
$DIMALTD
 70
     3
  9
$DIMALTF
 40
0.03937
  9
$DIMLFAC
 40
1.0
  9
$DIMTOFL
 70
     1
  9
$DIMTVP
 40
0.0
  9
$DIMTIX
 70
     0
  9
$DIMSOXD
 70
     0
  9
$DIMSAH
 70
     0
  9
$DIMBLK1
  1

  9
$DIMBLK2
  1

  9
$DIMSTYLE
  2
ISO-25
  9
$DIMCLRD
 70
     0
  9
$DIMCLRE
 70
     0
  9
$DIMCLRT
 70
     0
  9
$DIMTFAC
 40
1.0
  9
$DIMGAP
 40
0.625
  9
$DIMJUST
 70
     0
  9
$DIMSD1
 70
     0
  9
$DIMSD2
 70
     0
  9
$DIMTOLJ
 70
     0
  9
$DIMTZIN
 70
     8
  9
$DIMALTZ
 70
     0
  9
$DIMALTTZ
 70
     0
  9
$DIMUPT
 70
     0
  9
$DIMDEC
 70
     2
  9
$DIMTDEC
 70
     2
  9
$DIMALTU
 70
     2
  9
$DIMALTTD
 70
     3
  9
$DIMTXSTY
  7
Standard
  9
$DIMAUNIT
 70
     0
  9
$DIMADEC
 70
     0
  9
$DIMALTRND
 40
0.0
  9
$DIMAZIN
 70
     0
  9
$DIMDSEP
 70
    44
  9
$DIMATFIT
 70
     3
  9
$DIMFRAC
 70
     0
  9
$DIMLDRBLK
  1

  9
$DIMLUNIT
 70
     2
  9
$DIMLWD
 70
    -2
  9
$DIMLWE
 70
    -2
  9
$DIMTMOVE
 70
     0
  9
$LUNITS
 70
     2
  9
$LUPREC
 70
     4
  9
$SKETCHINC
 40
1.0
  9
$FILLETRAD
 40
0.0
  9
$AUNITS
 70
     0
  9
$AUPREC
 70
     0
  9
$MENU
  1
.
  9
$ELEVATION
 40
0.0
  9
$PELEVATION
 40
0.0
  9
$THICKNESS
 40
0.0
  9
$LIMCHECK
 70
     0
  9
$CHAMFERA
 40
10.0
  9
$CHAMFERB
 40
10.0
  9
$CHAMFERC
 40
20.0
  9
$CHAMFERD
 40
0.0
  9
$SKPOLY
 70
     0
  9
$TDCREATE
 40
2454818.810036076
  9
$TDUCREATE
 40
2454818.435036076
  9
$TDUPDATE
 40
2454818.810036088
  9
$TDUUPDATE
 40
2454818.435036088
  9
$TDINDWG
 40
0.0000000116
  9
$TDUSRTIMER
 40
0.0000000116
  9
$USRTIMER
 70
     1
  9
$ANGBASE
 50
0.0
  9
$ANGDIR
 70
     0
  9
$PDMODE
 70
     0
  9
$PDSIZE
 40
0.0
  9
$PLINEWID
 40
0.0
  9
$SPLFRAME
 70
     0
  9
$SPLINETYPE
 70
     6
  9
$SPLINESEGS
 70
     8
  9
$HANDSEED
  5
865
  9
$SURFTAB1
 70
     6
  9
$SURFTAB2
 70
     6
  9
$SURFTYPE
 70
     6
  9
$SURFU
 70
     6
  9
$SURFV
 70
     6
  9
$UCSBASE
  2

  9
$UCSNAME
  2

  9
$UCSORG
 10
0.0
 20
0.0
 30
0.0
  9
$UCSXDIR
 10
1.0
 20
0.0
 30
0.0
  9
$UCSYDIR
 10
0.0
 20
1.0
 30
0.0
  9
$UCSORTHOREF
  2

  9
$UCSORTHOVIEW
 70
     0
  9
$UCSORGTOP
 10
0.0
 20
0.0
 30
0.0
  9
$UCSORGBOTTOM
 10
0.0
 20
0.0
 30
0.0
  9
$UCSORGLEFT
 10
0.0
 20
0.0
 30
0.0
  9
$UCSORGRIGHT
 10
0.0
 20
0.0
 30
0.0
  9
$UCSORGFRONT
 10
0.0
 20
0.0
 30
0.0
  9
$UCSORGBACK
 10
0.0
 20
0.0
 30
0.0
  9
$PUCSBASE
  2

  9
$PUCSNAME
  2

  9
$PUCSORG
 10
0.0
 20
0.0
 30
0.0
  9
$PUCSXDIR
 10
1.0
 20
0.0
 30
0.0
  9
$PUCSYDIR
 10
0.0
 20
1.0
 30
0.0
  9
$PUCSORTHOREF
  2

  9
$PUCSORTHOVIEW
 70
     0
  9
$PUCSORGTOP
 10
0.0
 20
0.0
 30
0.0
  9
$PUCSORGBOTTOM
 10
0.0
 20
0.0
 30
0.0
  9
$PUCSORGLEFT
 10
0.0
 20
0.0
 30
0.0
  9
$PUCSORGRIGHT
 10
0.0
 20
0.0
 30
0.0
  9
$PUCSORGFRONT
 10
0.0
 20
0.0
 30
0.0
  9
$PUCSORGBACK
 10
0.0
 20
0.0
 30
0.0
  9
$USERI1
 70
     0
  9
$USERI2
 70
     0
  9
$USERI3
 70
     0
  9
$USERI4
 70
     0
  9
$USERI5
 70
     0
  9
$USERR1
 40
0.0
  9
$USERR2
 40
0.0
  9
$USERR3
 40
0.0
  9
$USERR4
 40
0.0
  9
$USERR5
 40
0.0
  9
$WORLDVIEW
 70
     1
  9
$SHADEDGE
 70
     3
  9
$SHADEDIF
 70
    70
  9
$TILEMODE
 70
     1
  9
$MAXACTVP
 70
    64
  9
$PINSBASE
 10
0.0
 20
0.0
 30
0.0
  9
$PLIMCHECK
 70
     0
  9
$PEXTMIN
 10
1.000000E+20
 20
1.000000E+20
 30
0.0
  9
$PEXTMAX
 10
-1.000000E+20
 20
-1.000000E+20
 30
0.0
  9
$PLIMMIN
 10
0.0
 20
0.0
  9
$PLIMMAX
 10
12.0
 20
9.0
  9
$UNITMODE
 70
     0
  9
$VISRETAIN
 70
     1
  9
$PLINEGEN
 70
     0
  9
$PSLTSCALE
 70
     1
  9
$TREEDEPTH
 70
  3020
  9
$CMLSTYLE
  2
Standard
  9
$CMLJUST
 70
     0
  9
$CMLSCALE
 40
20.0
  9
$PROXYGRAPHICS
 70
     1
  9
$MEASUREMENT
 70
     1
  9
$CELWEIGHT
370
    -1
  9
$ENDCAPS
280
     0
  9
$JOINSTYLE
280
     0
  9
$LWDISPLAY
290
     0
  9
$INSUNITS
 70
     4
  9
$HYPERLINKBASE
  1

  9
$STYLESHEET
  1

  9
$XEDIT
290
     1
  9
$CEPSNTYPE
380
     0
  9
$PSTYLEMODE
290
     1
  9
$FINGERPRINTGUID
  2
{C88B442B-5ABB-45FF-B96E-03F171022B51}
  9
$VERSIONGUID
  2
{FAEB1C32-E019-11D5-929B-00C0DF256EC4}
  9
$EXTNAMES
290
     1
  9
$PSVPSCALE
 40
0.0
  9
$OLESTARTUP
290
     0
  0
ENDSEC
  0
SECTION
  2
CLASSES
  0
CLASS
  1
ACDBDICTIONARYWDFLT
  2
AcDbDictionaryWithDefault
  3
ObjectDBX Classes
 90
        0
280
     0
281
     0
  0
CLASS
  1
VISUALSTYLE
  2
AcDbVisualStyle
  3
ObjectDBX Classes
 90
     4095
280
     0
281
     0
  0
CLASS
  1
SCALE
  2
AcDbScale
  3
ObjectDBX Classes
 90
     1153
280
     0
281
     0
  0
CLASS
  1
DICTIONARYVAR
  2
AcDbDictionaryVar
  3
ObjectDBX Classes
 90
        0
280
     0
281
     0
  0
CLASS
  1
ACDBPLACEHOLDER
  2
AcDbPlaceHolder
  3
ObjectDBX Classes
 90
        0
280
     0
281
     0
  0
CLASS
  1
LAYOUT
  2
AcDbLayout
  3
ObjectDBX Classes
 90
        0
280
     0
281
     0
  0
ENDSEC
  0
SECTION
  2
TABLES
  0
TABLE
  2
VPORT
  5
8
330
0
100
AcDbSymbolTable
 70
     1
  0
VPORT
  5
29
330
8
100
AcDbSymbolTableRecord
100
AcDbViewportTableRecord
  2
*Active
 70
     0
 10
0.0
 20
0.0
 11
1.0
 21
1.0
 12
97.381546
 22
22.911484
 13
0.0
 23
0.0
 14
1.0
 24
1.0
 15
0.0
 25
0.0
 16
0.0
 26
0.0
 36
1.0
 17
0.0
 27
0.0
 37
0.0
 40
260.043222
 41
1.691288
 42
50.0
 43
0.0
 44
0.0
 50
0.0
 51
0.0
 71
     0
 72
   100
 73
     1
 74
     3
 75
     0
 76
     0
 77
     0
 78
     0
281
     0
 65
     1
110
0.0
120
0.0
130
0.0
111
1.0
121
0.0
131
0.0
112
0.0
122
1.0
132
0.0
 79
     0
146
0.0
  0
ENDTAB
  0
TABLE
  2
LTYPE
  5
5
330
0
100
AcDbSymbolTable
 70
     5
  0
LTYPE
  5
14
330
5
100
AcDbSymbolTableRecord
100
AcDbLinetypeTableRecord
  2
ByBlock
 70
     0
  3

 72
    65
 73
     0
 40
0.0
  0
LTYPE
  5
15
330
5
100
AcDbSymbolTableRecord
100
AcDbLinetypeTableRecord
  2
ByLayer
 70
     0
  3

 72
    65
 73
     0
 40
0.0
  0
LTYPE
  5
16
330
5
100
AcDbSymbolTableRecord
100
AcDbLinetypeTableRecord
  2
Continuous
 70
     0
  3
Solid line
 72
    65
 73
     0
 40
0.0
  0
LTYPE
  5
5D
330
5
100
AcDbSymbolTableRecord
100
AcDbLinetypeTableRecord
  2
DASHED
 70
     0
  3
DASHED
 72
    83
 73
     2
 40
0.75
 49
0.5
 74
     0
 49
-0.25
 74
     0
  0
LTYPE
  5
5E
330
5
100
AcDbSymbolTableRecord
100
AcDbLinetypeTableRecord
  2
HIDDEN
 70
     0
  3
HIDDEN
 72
    83
 73
     2
 40
0.375
 49
0.25
 74
     0
 49
-0.125
 74
     0
  0
LTYPE
  5
5F
330
5
100
AcDbSymbolTableRecord
100
AcDbLinetypeTableRecord
  2
CENTER
 70
     0
  3
CENTER
 72
    83
 73
     4
 40
2.0
 49
1.25
 74
     0
 49
-0.25
 74
     0
 49
0.25
 74
     0
 49
-0.25
 74
     0
  0
LTYPE
  5
60
330
5
100
AcDbSymbolTableRecord
100
AcDbLinetypeTableRecord
  2
PHANTOM
 70
     0
  3
PHANTOM
 72
    83
 73
     6
 40
2.5
 49
1.25
 74
     0
 49
-0.25
 74
     0
 49
0.25
 74
     0
 49
-0.25
 74
     0
 49
0.25
 74
     0
 49
-0.25
 74
     0
  0
ENDTAB
  0
TABLE
  2
LAYER
  5
2
330
0
100
AcDbSymbolTable
 70
     2
  0
LAYER
  5
10
330
2
100
AcDbSymbolTableRecord
100
AcDbLayerTableRecord
  2
0
 70
     0
 62
     7
  6
Continuous
370
    -3
390
F
  0
LAYER
  5
61
330
2
100
AcDbSymbolTableRecord
100
AcDbLayerTableRecord
  2
001
 70
     0
 62
     7
  6
Continuous
370
    -3
390
F
  0
ENDTAB
  0
TABLE
  2
STYLE
  5
3
330
0
100
AcDbSymbolTable
 70
     2
  0
STYLE
  5
11
330
3
100
AcDbSymbolTableRecord
100
AcDbTextStyleTableRecord
  2
Standard
 70
     0
 40
0.0
 41
1.0
 50
0.0
 71
     0
 42
0.2
  3
TXT
  4
BIGFONT
  0
STYLE
  5
62
330
3
100
AcDbSymbolTableRecord
100
AcDbTextStyleTableRecord
  2
TATEGAKI
 70
     4
 40
1.0
 41
1.0
 50
0.0
 71
     0
 42
0.2
  3
TXT
  4
BIGFONT
  0
ENDTAB
  0
TABLE
  2
VIEW
  5
6
330
0
100
AcDbSymbolTable
 70
     0
  0
ENDTAB
  0
TABLE
  2
UCS
  5
7
330
0
100
AcDbSymbolTable
 70
     0
  0
ENDTAB
  0
TABLE
  2
APPID
  5
9
330
0
100
AcDbSymbolTable
 70
     1
  0
APPID
  5
12
330
9
100
AcDbSymbolTableRecord
100
AcDbRegAppTableRecord
  2
ACAD
 70
     0
  0
ENDTAB
  0
TABLE
  2
DIMSTYLE
  5
A
330
0
100
AcDbSymbolTable
 70
     2
100
AcDbDimStyleTable
  0
DIMSTYLE
105
27
330
A
100
AcDbSymbolTableRecord
100
AcDbDimStyleTableRecord
  2
ISO-25
 70
     0
 41
2.5
 42
0.625
 43
3.75
 44
1.25
 73
     0
 74
     0
 77
     1
 78
     8
140
2.5
141
2.5
143
0.03937
147
0.625
171
     3
172
     1
271
     2
272
     2
274
     3
278
    44
283
     0
284
     8
340
11
  0
DIMSTYLE
105
63
102
{ACAD_REACTORS
330
107
330
108
330
109
330
10A
330
117
330
118
330
119
330
11A
102
}
330
A
100
AcDbSymbolTableRecord
100
AcDbDimStyleTableRecord
  2
Standard
 70
     0
 41
1.5
 42
0.0
 44
2.75
 73
     0
 74
     0
 77
     1
 78
     8
 79
     2
140
4.0
146
0.8
147
1.0
172
     1
179
     1
271
     1
340
11
  0
ENDTAB
  0
TABLE
  2
BLOCK_RECORD
  5
1
330
0
100
AcDbSymbolTable
 70
     9
  0
BLOCK_RECORD
  5
1F
330
1
100
AcDbSymbolTableRecord
100
AcDbBlockTableRecord
  2
*Model_Space
340
22
  0
BLOCK_RECORD
  5
1B
330
1
100
AcDbSymbolTableRecord
100
AcDbBlockTableRecord
  2
*Paper_Space
340
1E
  0
BLOCK_RECORD
  5
23
330
1
100
AcDbSymbolTableRecord
100
AcDbBlockTableRecord
  2
*Paper_Space0
340
26
  0
BLOCK_RECORD
  5
64
330
1
100
AcDbSymbolTableRecord
100
AcDbBlockTableRecord
  2
*D1
340
0
  0
BLOCK_RECORD
  5
78
330
1
100
AcDbSymbolTableRecord
100
AcDbBlockTableRecord
  2
*D2
340
0
  0
BLOCK_RECORD
  5
8C
330
1
100
AcDbSymbolTableRecord
100
AcDbBlockTableRecord
  2
*D3
340
0
  0
BLOCK_RECORD
  5
A0
330
1
100
AcDbSymbolTableRecord
100
AcDbBlockTableRecord
  2
*D4
340
0
  0
BLOCK_RECORD
  5
B4
330
1
100
AcDbSymbolTableRecord
100
AcDbBlockTableRecord
  2
*D5
340
0
  0
BLOCK_RECORD
  5
C9
330
1
100
AcDbSymbolTableRecord
100
AcDbBlockTableRecord
  2
*D6
340
0
  0
BLOCK_RECORD
  5
DF
330
1
100
AcDbSymbolTableRecord
100
AcDbBlockTableRecord
  2
*D7
340
0
  0
BLOCK_RECORD
  5
F3
330
1
100
AcDbSymbolTableRecord
100
AcDbBlockTableRecord
  2
*D8
340
0
  0
ENDTAB
  0
ENDSEC
  0
SECTION
  2
BLOCKS
  0
BLOCK
  5
20
330
1F
100
AcDbEntity
  8
0
100
AcDbBlockBegin
  2
*Model_Space
 70
     0
 10
0.0
 20
0.0
 30
0.0
  3
*Model_Space
  1

  0
ENDBLK
  5
21
330
1F
100
AcDbEntity
  8
0
100
AcDbBlockEnd
  0
BLOCK
  5
1C
330
1B
100
AcDbEntity
 67
     1
  8
0
100
AcDbBlockBegin
  2
*Paper_Space
 70
     0
 10
0.0
 20
0.0
 30
0.0
  3
*Paper_Space
  1

  0
ENDBLK
  5
1D
330
1B
100
AcDbEntity
 67
     1
  8
0
100
AcDbBlockEnd
  0
BLOCK
  5
24
330
23
100
AcDbEntity
  8
0
100
AcDbBlockBegin
  2
*Paper_Space0
 70
     0
 10
0.0
 20
0.0
 30
0.0
  3
*Paper_Space0
  1

  0
ENDBLK
  5
25
330
23
100
AcDbEntity
  8
0
100
AcDbBlockEnd
  0
BLOCK
  5
65
330
64
100
AcDbEntity
  8
0
100
AcDbBlockBegin
  2
*D1
 70
     1
 10
0.0
 20
0.0
 30
0.0
  3
*D1
  1

  0
LINE
  5
67
330
64
100
AcDbEntity
  8
001
370
     9
100
AcDbLine
 10
66.599068
 20
79.469814
 30
0.0
 11
66.599068
 21
45.696439
 31
0.0
  0
LINE
  5
68
330
64
100
AcDbEntity
  8
001
370
     9
100
AcDbLine
 10
31.599068
 20
68.328883
 30
0.0
 11
31.599068
 21
45.696439
 31
0.0
  0
LINE
  5
69
330
64
100
AcDbEntity
  8
001
370
     9
100
AcDbLine
 10
66.599068
 20
48.446439
 30
0.0
 11
31.599068
 21
48.446439
 31
0.0
  0
POLYLINE
  5
6A
330
64
100
AcDbEntity
  8
001
370
     9
100
AcDb2dPolyline
 66
     1
 10
0.0
 20
0.0
 30
0.0
  0
VERTEX
  5
6C
330
6A
100
AcDbEntity
  8
001
370
     9
100
AcDbVertex
100
AcDb2dVertex
 10
65.099068
 20
48.848363
 30
0.0
  0
VERTEX
  5
6D
330
6A
100
AcDbEntity
  8
001
370
     9
100
AcDbVertex
100
AcDb2dVertex
 10
66.599068
 20
48.446439
 30
0.0
  0
VERTEX
  5
6E
330
6A
100
AcDbEntity
  8
001
370
     9
100
AcDbVertex
100
AcDb2dVertex
 10
65.099068
 20
48.044515
 30
0.0
  0
SEQEND
  5
6B
330
6A
100
AcDbEntity
  8
001
370
     9
  0
POLYLINE
  5
6F
330
64
100
AcDbEntity
  8
001
370
     9
100
AcDb2dPolyline
 66
     1
 10
0.0
 20
0.0
 30
0.0
  0
VERTEX
  5
71
330
6F
100
AcDbEntity
  8
001
370
     9
100
AcDbVertex
100
AcDb2dVertex
 10
33.099068
 20
48.044515
 30
0.0
  0
VERTEX
  5
72
330
6F
100
AcDbEntity
  8
001
370
     9
100
AcDbVertex
100
AcDb2dVertex
 10
31.599068
 20
48.446439
 30
0.0
  0
VERTEX
  5
73
330
6F
100
AcDbEntity
  8
001
370
     9
100
AcDbVertex
100
AcDb2dVertex
 10
33.099068
 20
48.848363
 30
0.0
  0
SEQEND
  5
70
330
6F
100
AcDbEntity
  8
001
370
     9
  0
TEXT
  5
74
330
64
100
AcDbEntity
  8
001
370
    30
100
AcDbText
 10
45.099068
 20
49.446439
 30
0.0
 40
4.0
  1
３５
 41
0.833333
100
AcDbText
  0
POINT
  5
75
330
64
100
AcDbEntity
  8
001
370
     9
100
AcDbPoint
 10
66.599068
 20
79.469814
 30
0.0
  0
POINT
  5
76
330
64
100
AcDbEntity
  8
001
370
     9
100
AcDbPoint
 10
31.599068
 20
68.328883
 30
0.0
  0
POINT
  5
77
330
64
100
AcDbEntity
  8
001
370
     9
100
AcDbPoint
 10
31.599068
 20
48.446439
 30
0.0
  0
ENDBLK
  5
66
330
64
100
AcDbEntity
  8
0
100
AcDbBlockEnd
  0
BLOCK
  5
79
330
78
100
AcDbEntity
  8
0
100
AcDbBlockBegin
  2
*D2
 70
     1
 10
0.0
 20
0.0
 30
0.0
  3
*D2
  1

  0
LINE
  5
7B
330
78
100
AcDbEntity
  8
001
370
     9
100
AcDbLine
 10
151.599068
 20
88.19417
 30
0.0
 11
151.599068
 21
45.696439
 31
0.0
  0
LINE
  5
7C
330
78
100
AcDbEntity
  8
001
370
     9
100
AcDbLine
 10
66.599068
 20
79.469814
 30
0.0
 11
66.599068
 21
45.696439
 31
0.0
  0
LINE
  5
7D
330
78
100
AcDbEntity
  8
001
370
     9
100
AcDbLine
 10
151.599068
 20
48.446439
 30
0.0
 11
66.599068
 21
48.446439
 31
0.0
  0
POLYLINE
  5
7E
330
78
100
AcDbEntity
  8
001
370
     9
100
AcDb2dPolyline
 66
     1
 10
0.0
 20
0.0
 30
0.0
  0
VERTEX
  5
80
330
7E
100
AcDbEntity
  8
001
370
     9
100
AcDbVertex
100
AcDb2dVertex
 10
150.099068
 20
48.848363
 30
0.0
  0
VERTEX
  5
81
330
7E
100
AcDbEntity
  8
001
370
     9
100
AcDbVertex
100
AcDb2dVertex
 10
151.599068
 20
48.446439
 30
0.0
  0
VERTEX
  5
82
330
7E
100
AcDbEntity
  8
001
370
     9
100
AcDbVertex
100
AcDb2dVertex
 10
150.099068
 20
48.044515
 30
0.0
  0
SEQEND
  5
7F
330
7E
100
AcDbEntity
  8
001
370
     9
  0
POLYLINE
  5
83
330
78
100
AcDbEntity
  8
001
370
     9
100
AcDb2dPolyline
 66
     1
 10
0.0
 20
0.0
 30
0.0
  0
VERTEX
  5
85
330
83
100
AcDbEntity
  8
001
370
     9
100
AcDbVertex
100
AcDb2dVertex
 10
68.099068
 20
48.044515
 30
0.0
  0
VERTEX
  5
86
330
83
100
AcDbEntity
  8
001
370
     9
100
AcDbVertex
100
AcDb2dVertex
 10
66.599068
 20
48.446439
 30
0.0
  0
VERTEX
  5
87
330
83
100
AcDbEntity
  8
001
370
     9
100
AcDbVertex
100
AcDb2dVertex
 10
68.099068
 20
48.848363
 30
0.0
  0
SEQEND
  5
84
330
83
100
AcDbEntity
  8
001
370
     9
  0
TEXT
  5
88
330
78
100
AcDbEntity
  8
001
370
    30
100
AcDbText
 10
105.099068
 20
49.446439
 30
0.0
 40
4.0
  1
８５
 41
0.833333
100
AcDbText
  0
POINT
  5
89
330
78
100
AcDbEntity
  8
001
370
     9
100
AcDbPoint
 10
151.599068
 20
88.19417
 30
0.0
  0
POINT
  5
8A
330
78
100
AcDbEntity
  8
001
370
     9
100
AcDbPoint
 10
66.599068
 20
79.469814
 30
0.0
  0
POINT
  5
8B
330
78
100
AcDbEntity
  8
001
370
     9
100
AcDbPoint
 10
66.599068
 20
48.446439
 30
0.0
  0
ENDBLK
  5
7A
330
78
100
AcDbEntity
  8
0
100
AcDbBlockEnd
  0
BLOCK
  5
8D
330
8C
100
AcDbEntity
  8
0
100
AcDbBlockBegin
  2
*D3
 70
     1
 10
0.0
 20
0.0
 30
0.0
  3
*D3
  1

  0
LINE
  5
8F
330
8C
100
AcDbEntity
  8
001
370
     9
100
AcDbLine
 10
31.599068
 20
68.328883
 30
0.0
 11
31.599068
 21
35.062167
 31
0.0
  0
LINE
  5
90
330
8C
100
AcDbEntity
  8
001
370
     9
100
AcDbLine
 10
151.599068
 20
88.19417
 30
0.0
 11
151.599068
 21
35.062167
 31
0.0
  0
LINE
  5
91
330
8C
100
AcDbEntity
  8
001
370
     9
100
AcDbLine
 10
31.599068
 20
37.812167
 30
0.0
 11
151.599068
 21
37.812167
 31
0.0
  0
POLYLINE
  5
92
330
8C
100
AcDbEntity
  8
001
370
     9
100
AcDb2dPolyline
 66
     1
 10
0.0
 20
0.0
 30
0.0
  0
VERTEX
  5
94
330
92
100
AcDbEntity
  8
001
370
     9
100
AcDbVertex
100
AcDb2dVertex
 10
33.099068
 20
37.410243
 30
0.0
  0
VERTEX
  5
95
330
92
100
AcDbEntity
  8
001
370
     9
100
AcDbVertex
100
AcDb2dVertex
 10
31.599068
 20
37.812167
 30
0.0
  0
VERTEX
  5
96
330
92
100
AcDbEntity
  8
001
370
     9
100
AcDbVertex
100
AcDb2dVertex
 10
33.099068
 20
38.214091
 30
0.0
  0
SEQEND
  5
93
330
92
100
AcDbEntity
  8
001
370
     9
  0
POLYLINE
  5
97
330
8C
100
AcDbEntity
  8
001
370
     9
100
AcDb2dPolyline
 66
     1
 10
0.0
 20
0.0
 30
0.0
  0
VERTEX
  5
99
330
97
100
AcDbEntity
  8
001
370
     9
100
AcDbVertex
100
AcDb2dVertex
 10
150.099068
 20
38.214091
 30
0.0
  0
VERTEX
  5
9A
330
97
100
AcDbEntity
  8
001
370
     9
100
AcDbVertex
100
AcDb2dVertex
 10
151.599068
 20
37.812167
 30
0.0
  0
VERTEX
  5
9B
330
97
100
AcDbEntity
  8
001
370
     9
100
AcDbVertex
100
AcDb2dVertex
 10
150.099068
 20
37.410243
 30
0.0
  0
SEQEND
  5
98
330
97
100
AcDbEntity
  8
001
370
     9
  0
TEXT
  5
9C
330
8C
100
AcDbEntity
  8
001
370
    30
100
AcDbText
 10
85.599068
 20
38.812167
 30
0.0
 40
4.0
  1
１２０
 41
0.833333
100
AcDbText
  0
POINT
  5
9D
330
8C
100
AcDbEntity
  8
001
370
     9
100
AcDbPoint
 10
31.599068
 20
68.328883
 30
0.0
  0
POINT
  5
9E
330
8C
100
AcDbEntity
  8
001
370
     9
100
AcDbPoint
 10
151.599068
 20
88.19417
 30
0.0
  0
POINT
  5
9F
330
8C
100
AcDbEntity
  8
001
370
     9
100
AcDbPoint
 10
151.599068
 20
37.812167
 30
0.0
  0
ENDBLK
  5
8E
330
8C
100
AcDbEntity
  8
0
100
AcDbBlockEnd
  0
BLOCK
  5
A1
330
A0
100
AcDbEntity
  8
0
100
AcDbBlockBegin
  2
*D4
 70
     1
 10
0.0
 20
0.0
 30
0.0
  3
*D4
  1

  0
LINE
  5
A3
330
A0
100
AcDbEntity
  8
001
370
     9
100
AcDbLine
 10
143.599068
 20
112.19417
 30
0.0
 11
176.818054
 21
112.19417
 31
0.0
  0
LINE
  5
A4
330
A0
100
AcDbEntity
  8
001
370
     9
100
AcDbLine
 10
143.599068
 20
80.19417
 30
0.0
 11
176.818054
 21
80.19417
 31
0.0
  0
LINE
  5
A5
330
A0
100
AcDbEntity
  8
001
370
     9
100
AcDbLine
 10
174.068054
 20
112.19417
 30
0.0
 11
174.068054
 21
80.19417
 31
0.0
  0
POLYLINE
  5
A6
330
A0
100
AcDbEntity
  8
001
370
     9
100
AcDb2dPolyline
 66
     1
 10
0.0
 20
0.0
 30
0.0
  0
VERTEX
  5
A8
330
A6
100
AcDbEntity
  8
001
370
     9
100
AcDbVertex
100
AcDb2dVertex
 10
173.66613
 20
110.69417
 30
0.0
  0
VERTEX
  5
A9
330
A6
100
AcDbEntity
  8
001
370
     9
100
AcDbVertex
100
AcDb2dVertex
 10
174.068054
 20
112.19417
 30
0.0
  0
VERTEX
  5
AA
330
A6
100
AcDbEntity
  8
001
370
     9
100
AcDbVertex
100
AcDb2dVertex
 10
174.469977
 20
110.69417
 30
0.0
  0
SEQEND
  5
A7
330
A6
100
AcDbEntity
  8
001
370
     9
  0
POLYLINE
  5
AB
330
A0
100
AcDbEntity
  8
001
370
     9
100
AcDb2dPolyline
 66
     1
 10
0.0
 20
0.0
 30
0.0
  0
VERTEX
  5
AD
330
AB
100
AcDbEntity
  8
001
370
     9
100
AcDbVertex
100
AcDb2dVertex
 10
174.469977
 20
81.69417
 30
0.0
  0
VERTEX
  5
AE
330
AB
100
AcDbEntity
  8
001
370
     9
100
AcDbVertex
100
AcDb2dVertex
 10
174.068054
 20
80.19417
 30
0.0
  0
VERTEX
  5
AF
330
AB
100
AcDbEntity
  8
001
370
     9
100
AcDbVertex
100
AcDb2dVertex
 10
173.66613
 20
81.69417
 30
0.0
  0
SEQEND
  5
AC
330
AB
100
AcDbEntity
  8
001
370
     9
  0
TEXT
  5
B0
330
A0
100
AcDbEntity
  8
001
370
    30
100
AcDbText
 10
173.068054
 20
90.19417
 30
0.0
 40
4.0
  1
%%c３２
 50
90.000003
 41
0.882353
100
AcDbText
  0
POINT
  5
B1
330
A0
100
AcDbEntity
  8
001
370
     9
100
AcDbPoint
 10
143.599068
 20
112.19417
 30
0.0
  0
POINT
  5
B2
330
A0
100
AcDbEntity
  8
001
370
     9
100
AcDbPoint
 10
143.599068
 20
80.19417
 30
0.0
  0
POINT
  5
B3
330
A0
100
AcDbEntity
  8
001
370
     9
100
AcDbPoint
 10
174.068054
 20
80.19417
 30
0.0
  0
ENDBLK
  5
A2
330
A0
100
AcDbEntity
  8
0
100
AcDbBlockEnd
  0
BLOCK
  5
B5
330
B4
100
AcDbEntity
  8
0
100
AcDbBlockBegin
  2
*D5
 70
     1
 10
0.0
 20
0.0
 30
0.0
  3
*D5
  1

  0
LINE
  5
B7
330
B4
100
AcDbEntity
  8
001
370
     9
100
AcDbLine
 10
31.599068
 20
68.328883
 30
0.0
 11
31.599068
 21
58.063903
 31
0.0
  0
LINE
  5
B8
330
B4
100
AcDbEntity
  8
001
370
     9
100
AcDbLine
 10
23.930971
 20
76.19417
 30
0.0
 11
13.468801
 21
76.19417
 31
0.0
  0
ARC
  5
B9
330
B4
100
AcDbEntity
  8
001
370
     9
100
AcDbCircle
 10
31.599068
 20
76.19417
 30
0.0
 40
15.38026673650091
100
AcDbArc
 50
180.0
 51
270.0
  0
POLYLINE
  5
BA
330
B4
100
AcDbEntity
  8
001
370
     9
100
AcDb2dPolyline
 66
     1
 10
0.0
 20
0.0
 30
0.0
  0
VERTEX
  5
BC
330
BA
100
AcDbEntity
  8
001
370
     9
100
AcDbVertex
100
AcDb2dVertex
 10
30.120442
 20
61.288466
 30
0.0
  0
VERTEX
  5
BD
330
BA
100
AcDbEntity
  8
001
370
     9
100
AcDbVertex
100
AcDb2dVertex
 10
31.599068
 20
60.813903
 30
0.0
  0
VERTEX
  5
BE
330
BA
100
AcDbEntity
  8
001
370
     9
100
AcDbVertex
100
AcDb2dVertex
 10
30.081259
 20
60.485574
 30
0.0
  0
SEQEND
  5
BB
330
BA
100
AcDbEntity
  8
001
370
     9
  0
POLYLINE
  5
BF
330
B4
100
AcDbEntity
  8
001
370
     9
100
AcDb2dPolyline
 66
     1
 10
0.0
 20
0.0
 30
0.0
  0
VERTEX
  5
C1
330
BF
100
AcDbEntity
  8
001
370
     9
100
AcDbVertex
100
AcDb2dVertex
 10
15.890472
 20
74.676361
 30
0.0
  0
VERTEX
  5
C2
330
BF
100
AcDbEntity
  8
001
370
     9
100
AcDbVertex
100
AcDb2dVertex
 10
16.218801
 20
76.19417
 30
0.0
  0
VERTEX
  5
C3
330
BF
100
AcDbEntity
  8
001
370
     9
100
AcDbVertex
100
AcDb2dVertex
 10
16.693364
 20
74.715544
 30
0.0
  0
SEQEND
  5
C0
330
BF
100
AcDbEntity
  8
001
370
     9
  0
TEXT
  5
C4
330
B4
100
AcDbEntity
  8
001
370
    30
100
AcDbText
 10
17.188043
 20
70.268426
 30
0.0
 40
4.0
  1
９０%%d
 50
314.999992
 41
0.978261
100
AcDbText
  0
POINT
  5
C5
330
B4
100
AcDbEntity
  8
001
370
     9
100
AcDbPoint
 10
31.599068
 20
68.328883
 30
0.0
  0
POINT
  5
C6
330
B4
100
AcDbEntity
  8
001
370
     9
100
AcDbPoint
 10
31.599068
 20
76.19417
 30
0.0
  0
POINT
  5
C7
330
B4
100
AcDbEntity
  8
001
370
     9
100
AcDbPoint
 10
31.599068
 20
76.19417
 30
0.0
  0
POINT
  5
C8
330
B4
100
AcDbEntity
  8
001
370
     9
100
AcDbPoint
 10
23.930971
 20
76.19417
 30
0.0
  0
ENDBLK
  5
B6
330
B4
100
AcDbEntity
  8
0
100
AcDbBlockEnd
  0
BLOCK
  5
CA
330
C9
100
AcDbEntity
  8
0
100
AcDbBlockBegin
  2
*D6
 70
     1
 10
0.0
 20
0.0
 30
0.0
  3
*D6
  1

  0
LINE
  5
CC
330
C9
100
AcDbEntity
  8
001
370
     9
100
AcDbLine
 10
46.127618
 20
76.230108
 30
0.0
 11
46.127618
 21
56.981079
 31
0.0
  0
LINE
  5
CD
330
C9
100
AcDbEntity
  8
001
370
     9
100
AcDbLine
 10
31.599068
 20
68.328883
 30
0.0
 11
31.599068
 21
56.981079
 31
0.0
  0
LINE
  5
CE
330
C9
100
AcDbEntity
  8
001
370
     9
100
AcDbLine
 10
46.127618
 20
59.731079
 30
0.0
 11
31.599068
 21
59.731079
 31
0.0
  0
POLYLINE
  5
CF
330
C9
100
AcDbEntity
  8
001
370
     9
100
AcDb2dPolyline
 66
     1
 10
0.0
 20
0.0
 30
0.0
  0
VERTEX
  5
D1
330
CF
100
AcDbEntity
  8
001
370
     9
100
AcDbVertex
100
AcDb2dVertex
 10
47.627618
 20
59.329155
 30
0.0
  0
VERTEX
  5
D2
330
CF
100
AcDbEntity
  8
001
370
     9
100
AcDbVertex
100
AcDb2dVertex
 10
46.127618
 20
59.731079
 30
0.0
  0
VERTEX
  5
D3
330
CF
100
AcDbEntity
  8
001
370
     9
100
AcDbVertex
100
AcDb2dVertex
 10
47.627618
 20
60.133003
 30
0.0
  0
SEQEND
  5
D0
330
CF
100
AcDbEntity
  8
001
370
     9
  0
POLYLINE
  5
D4
330
C9
100
AcDbEntity
  8
001
370
     9
100
AcDb2dPolyline
 66
     1
 10
0.0
 20
0.0
 30
0.0
  0
VERTEX
  5
D6
330
D4
100
AcDbEntity
  8
001
370
     9
100
AcDbVertex
100
AcDb2dVertex
 10
30.099068
 20
60.133003
 30
0.0
  0
VERTEX
  5
D7
330
D4
100
AcDbEntity
  8
001
370
     9
100
AcDbVertex
100
AcDb2dVertex
 10
31.599068
 20
59.731079
 30
0.0
  0
VERTEX
  5
D8
330
D4
100
AcDbEntity
  8
001
370
     9
100
AcDbVertex
100
AcDb2dVertex
 10
30.099068
 20
59.329155
 30
0.0
  0
SEQEND
  5
D5
330
D4
100
AcDbEntity
  8
001
370
     9
  0
TEXT
  5
D9
330
C9
100
AcDbEntity
  8
001
370
    30
100
AcDbText
 10
51.494933
 20
60.731079
 30
0.0
 40
4.0
  1
（１４．５）
 41
0.833333
100
AcDbText
  0
POINT
  5
DA
330
C9
100
AcDbEntity
  8
001
370
     9
100
AcDbPoint
 10
46.127618
 20
76.230108
 30
0.0
  0
POINT
  5
DB
330
C9
100
AcDbEntity
  8
001
370
     9
100
AcDbPoint
 10
31.599068
 20
68.328883
 30
0.0
  0
POINT
  5
DC
330
C9
100
AcDbEntity
  8
001
370
     9
100
AcDbPoint
 10
31.599068
 20
59.731079
 30
0.0
  0
LINE
  5
DD
330
C9
100
AcDbEntity
  8
001
370
     9
100
AcDbLine
 10
46.127618
 20
59.731079
 30
0.0
 11
78.494933
 21
59.731079
 31
0.0
  0
LINE
  5
DE
330
C9
100
AcDbEntity
  8
001
370
     9
100
AcDbLine
 10
31.599068
 20
59.731079
 30
0.0
 11
29.099068
 21
59.731079
 31
0.0
  0
ENDBLK
  5
CB
330
C9
100
AcDbEntity
  8
0
100
AcDbBlockEnd
  0
BLOCK
  5
E0
330
DF
100
AcDbEntity
  8
0
100
AcDbBlockBegin
  2
*D7
 70
     1
 10
0.0
 20
0.0
 30
0.0
  3
*D7
  1

  0
LINE
  5
E2
330
DF
100
AcDbEntity
  8
001
370
     9
100
AcDbLine
 10
147.599068
 20
-24.041461
 30
0.0
 11
178.666085
 21
-24.041461
 31
0.0
  0
LINE
  5
E3
330
DF
100
AcDbEntity
  8
001
370
     9
100
AcDbLine
 10
147.599068
 20
-4.041461
 30
0.0
 11
178.666085
 21
-4.041461
 31
0.0
  0
LINE
  5
E4
330
DF
100
AcDbEntity
  8
001
370
     9
100
AcDbLine
 10
175.916085
 20
-24.041461
 30
0.0
 11
175.916085
 21
-4.041461
 31
0.0
  0
POLYLINE
  5
E5
330
DF
100
AcDbEntity
  8
001
370
     9
100
AcDb2dPolyline
 66
     1
 10
0.0
 20
0.0
 30
0.0
  0
VERTEX
  5
E7
330
E5
100
AcDbEntity
  8
001
370
     9
100
AcDbVertex
100
AcDb2dVertex
 10
176.318009
 20
-22.541461
 30
0.0
  0
VERTEX
  5
E8
330
E5
100
AcDbEntity
  8
001
370
     9
100
AcDbVertex
100
AcDb2dVertex
 10
175.916085
 20
-24.041461
 30
0.0
  0
VERTEX
  5
E9
330
E5
100
AcDbEntity
  8
001
370
     9
100
AcDbVertex
100
AcDb2dVertex
 10
175.514161
 20
-22.541461
 30
0.0
  0
SEQEND
  5
E6
330
E5
100
AcDbEntity
  8
001
370
     9
  0
POLYLINE
  5
EA
330
DF
100
AcDbEntity
  8
001
370
     9
100
AcDb2dPolyline
 66
     1
 10
0.0
 20
0.0
 30
0.0
  0
VERTEX
  5
EC
330
EA
100
AcDbEntity
  8
001
370
     9
100
AcDbVertex
100
AcDb2dVertex
 10
175.514161
 20
-5.541461
 30
0.0
  0
VERTEX
  5
ED
330
EA
100
AcDbEntity
  8
001
370
     9
100
AcDbVertex
100
AcDb2dVertex
 10
175.916085
 20
-4.041461
 30
0.0
  0
VERTEX
  5
EE
330
EA
100
AcDbEntity
  8
001
370
     9
100
AcDbVertex
100
AcDb2dVertex
 10
176.318009
 20
-5.541461
 30
0.0
  0
SEQEND
  5
EB
330
EA
100
AcDbEntity
  8
001
370
     9
  0
TEXT
  5
EF
330
DF
100
AcDbEntity
  8
001
370
    30
100
AcDbText
 10
174.916085
 20
-20.041461
 30
0.0
 40
4.0
  1
%%c２０
 50
90.000003
 41
0.882353
100
AcDbText
  0
POINT
  5
F0
330
DF
100
AcDbEntity
  8
001
370
     9
100
AcDbPoint
 10
147.599068
 20
-24.041461
 30
0.0
  0
POINT
  5
F1
330
DF
100
AcDbEntity
  8
001
370
     9
100
AcDbPoint
 10
147.599068
 20
-4.041461
 30
0.0
  0
POINT
  5
F2
330
DF
100
AcDbEntity
  8
001
370
     9
100
AcDbPoint
 10
175.916085
 20
-4.041461
 30
0.0
  0
ENDBLK
  5
E1
330
DF
100
AcDbEntity
  8
0
100
AcDbBlockEnd
  0
BLOCK
  5
F4
330
F3
100
AcDbEntity
  8
0
100
AcDbBlockBegin
  2
*D8
 70
     1
 10
0.0
 20
0.0
 30
0.0
  3
*D8
  1

  0
LINE
  5
F6
330
F3
100
AcDbEntity
  8
001
370
     9
100
AcDbLine
 10
147.599068
 20
-98.322793
 30
0.0
 11
179.477087
 21
-98.322793
 31
0.0
  0
LINE
  5
F7
330
F3
100
AcDbEntity
  8
001
370
     9
100
AcDbLine
 10
147.599068
 20
-73.322793
 30
0.0
 11
179.477087
 21
-73.322793
 31
0.0
  0
LINE
  5
F8
330
F3
100
AcDbEntity
  8
001
370
     9
100
AcDbLine
 10
176.727087
 20
-98.322793
 30
0.0
 11
176.727087
 21
-73.322793
 31
0.0
  0
POLYLINE
  5
F9
330
F3
100
AcDbEntity
  8
001
370
     9
100
AcDb2dPolyline
 66
     1
 10
0.0
 20
0.0
 30
0.0
  0
VERTEX
  5
FB
330
F9
100
AcDbEntity
  8
001
370
     9
100
AcDbVertex
100
AcDb2dVertex
 10
177.12901
 20
-96.822793
 30
0.0
  0
VERTEX
  5
FC
330
F9
100
AcDbEntity
  8
001
370
     9
100
AcDbVertex
100
AcDb2dVertex
 10
176.727087
 20
-98.322793
 30
0.0
  0
VERTEX
  5
FD
330
F9
100
AcDbEntity
  8
001
370
     9
100
AcDbVertex
100
AcDb2dVertex
 10
176.325163
 20
-96.822793
 30
0.0
  0
SEQEND
  5
FA
330
F9
100
AcDbEntity
  8
001
370
     9
  0
POLYLINE
  5
FE
330
F3
100
AcDbEntity
  8
001
370
     9
100
AcDb2dPolyline
 66
     1
 10
0.0
 20
0.0
 30
0.0
  0
VERTEX
  5
100
330
FE
100
AcDbEntity
  8
001
370
     9
100
AcDbVertex
100
AcDb2dVertex
 10
176.325163
 20
-74.822793
 30
0.0
  0
VERTEX
  5
101
330
FE
100
AcDbEntity
  8
001
370
     9
100
AcDbVertex
100
AcDb2dVertex
 10
176.727087
 20
-73.322793
 30
0.0
  0
VERTEX
  5
102
330
FE
100
AcDbEntity
  8
001
370
     9
100
AcDbVertex
100
AcDb2dVertex
 10
177.12901
 20
-74.822793
 30
0.0
  0
SEQEND
  5
FF
330
FE
100
AcDbEntity
  8
001
370
     9
  0
TEXT
  5
103
330
F3
100
AcDbEntity
  8
001
370
    30
100
AcDbText
 10
175.727087
 20
-91.822793
 30
0.0
 40
4.0
  1
%%c２５
 50
90.000003
 41
0.882353
100
AcDbText
  0
POINT
  5
104
330
F3
100
AcDbEntity
  8
001
370
     9
100
AcDbPoint
 10
147.599068
 20
-98.322793
 30
0.0
  0
POINT
  5
105
330
F3
100
AcDbEntity
  8
001
370
     9
100
AcDbPoint
 10
147.599068
 20
-73.322793
 30
0.0
  0
POINT
  5
106
330
F3
100
AcDbEntity
  8
001
370
     9
100
AcDbPoint
 10
176.727087
 20
-73.322793
 30
0.0
  0
ENDBLK
  5
F5
330
F3
100
AcDbEntity
  8
0
100
AcDbBlockEnd
  0
ENDSEC
  0
SECTION
  2
ENTITIES
  0
DIMENSION
  5
107
330
1F
100
AcDbEntity
  8
001
370
     9
100
AcDbDimension
  2
*D1
 10
31.599068
 20
48.446439
 30
0.0
 11
49.099068
 21
51.446439
 31
0.0
 70
   160
 71
     5
 42
-1.0
  3
Standard
100
AcDbAlignedDimension
 13
66.599068
 23
79.469814
 33
0.0
 14
31.599068
 24
68.328883
 34
0.0
 50
180.0
100
AcDbRotatedDimension
  0
DIMENSION
  5
108
330
1F
100
AcDbEntity
  8
001
370
     9
100
AcDbDimension
  2
*D2
 10
66.599068
 20
48.446439
 30
0.0
 11
109.099068
 21
51.446439
 31
0.0
 70
   160
 71
     5
 42
-1.0
  3
Standard
100
AcDbAlignedDimension
 13
151.599068
 23
88.19417
 33
0.0
 14
66.599068
 24
79.469814
 34
0.0
 50
180.0
100
AcDbRotatedDimension
  0
DIMENSION
  5
109
330
1F
100
AcDbEntity
  8
001
370
     9
100
AcDbDimension
  2
*D3
 10
151.599068
 20
37.812167
 30
0.0
 11
91.599068
 21
40.812167
 31
0.0
 70
   160
 71
     5
 42
-1.0
  3
Standard
100
AcDbAlignedDimension
 13
31.599068
 23
68.328883
 33
0.0
 14
151.599068
 24
88.19417
 34
0.0
100
AcDbRotatedDimension
  0
DIMENSION
  5
10A
330
1F
100
AcDbEntity
  8
001
370
     9
100
AcDbDimension
  2
*D4
 10
174.068054
 20
80.19417
 30
0.0
 11
171.068053
 21
96.19417
 31
0.0
 70
   160
 71
     5
 42
-1.0
  3
Standard
100
AcDbAlignedDimension
 13
143.599068
 23
112.19417
 33
0.0
 14
143.599068
 24
80.19417
 34
0.0
 50
270.0
100
AcDbRotatedDimension
  0
TEXT
  5
10B
330
1F
100
AcDbEntity
  8
001
370
    30
100
AcDbText
 10
10.697911
 20
90.19417
 30
0.0
 40
4.0
  1
%%c４０
 50
90.000003
 41
0.882353
100
AcDbText
  0
POLYLINE
  5
10C
330
1F
100
AcDbEntity
  8
001
370
     9
100
AcDb2dPolyline
 66
     1
 10
0.0
 20
0.0
 30
0.0
  0
VERTEX
  5
10E
330
10C
100
AcDbEntity
  8
001
370
     9
100
AcDbVertex
100
AcDb2dVertex
 10
12.099835
 20
77.69417
 30
0.0
  0
VERTEX
  5
10F
330
10C
100
AcDbEntity
  8
001
370
     9
100
AcDbVertex
100
AcDb2dVertex
 10
11.697911
 20
76.19417
 30
0.0
  0
VERTEX
  5
110
330
10C
100
AcDbEntity
  8
001
370
     9
100
AcDbVertex
100
AcDb2dVertex
 10
11.295987
 20
77.69417
 30
0.0
  0
SEQEND
  5
10D
330
10C
100
AcDbEntity
  8
001
370
     9
  0
LINE
  5
111
330
1F
100
AcDbEntity
  8
001
370
     9
100
AcDbLine
 10
11.697911
 20
76.19417
 30
0.0
 11
11.697911
 21
116.19417
 31
0.0
  0
POLYLINE
  5
112
330
1F
100
AcDbEntity
  8
001
370
     9
100
AcDb2dPolyline
 66
     1
 10
0.0
 20
0.0
 30
0.0
  0
VERTEX
  5
114
330
112
100
AcDbEntity
  8
001
370
     9
100
AcDbVertex
100
AcDb2dVertex
 10
23.930971
 20
76.19417
 30
0.0
  0
VERTEX
  5
115
330
112
100
AcDbEntity
  8
001
370
     9
100
AcDbVertex
100
AcDb2dVertex
 10
11.697911
 20
76.19417
 30
0.0
  0
VERTEX
  5
116
330
112
100
AcDbEntity
  8
001
370
     9
100
AcDbVertex
100
AcDb2dVertex
 10
8.947911
 20
76.19417
 30
0.0
  0
SEQEND
  5
113
330
112
100
AcDbEntity
  8
001
370
     9
  0
DIMENSION
  5
117
330
1F
100
AcDbEntity
  8
001
370
     9
100
AcDbDimension
  2
*D5
 10
31.599068
 20
76.19417
 30
0.0
 11
22.844897
 21
67.439998
 31
0.0
 70
    34
 71
     5
 42
-1.0
  3
Standard
100
AcDb2LineAngularDimension
 13
31.599068
 23
68.328883
 33
0.0
 14
31.599068
 24
76.19417
 34
0.0
 15
23.930971
 25
76.19417
 35
0.0
 16
20.723577
 26
65.318679
 36
0.0
  0
DIMENSION
  5
118
330
1F
100
AcDbEntity
  8
001
370
     9
100
AcDbDimension
  2
*D6
 10
31.599068
 20
59.731079
 30
0.0
 11
63.494933
 21
62.731079
 31
0.0
 70
   160
 71
     5
 42
-1.0
  3
Standard
100
AcDbAlignedDimension
 13
46.127618
 23
76.230108
 33
0.0
 14
31.599068
 24
68.328883
 34
0.0
 50
180.0
100
AcDbRotatedDimension
  0
DIMENSION
  5
119
330
1F
100
AcDbEntity
  8
001
370
     9
100
AcDbDimension
  2
*D7
 10
175.916085
 20
-4.041461
 30
0.0
 11
172.916085
 21
-14.041461
 31
0.0
 70
   160
 71
     5
 42
-1.0
  3
Standard
100
AcDbAlignedDimension
 13
147.599068
 23
-24.041461
 33
0.0
 14
147.599068
 24
-4.041461
 34
0.0
 50
90.0
100
AcDbRotatedDimension
  0
DIMENSION
  5
11A
330
1F
100
AcDbEntity
  8
001
370
     9
100
AcDbDimension
  2
*D8
 10
176.727087
 20
-73.322793
 30
0.0
 11
173.727086
 21
-85.822793
 31
0.0
 70
   160
 71
     5
 42
-1.0
  3
Standard
100
AcDbAlignedDimension
 13
147.599068
 23
-98.322793
 33
0.0
 14
147.599068
 24
-73.322793
 34
0.0
 50
90.0
100
AcDbRotatedDimension
  0
LINE
  5
11B
330
1F
100
AcDbEntity
  8
001
370
    50
100
AcDbLine
 10
43.129546
 20
111.640015
 30
0.0
 11
42.368426
 21
110.937915
 31
0.0
  0
LINE
  5
11C
330
1F
100
AcDbEntity
  8
001
370
    50
100
AcDbLine
 10
43.203723
 20
110.996415
 30
0.0
 11
43.129546
 21
111.640015
 31
0.0
  0
LINE
  5
11D
330
1F
100
AcDbEntity
  8
001
370
    50
100
AcDbLine
 10
50.31143
 20
110.658204
 30
0.0
 11
50.26887
 21
111.027473
 31
0.0
  0
LINE
  5
11E
330
1F
100
AcDbEntity
  8
001
370
    50
100
AcDbLine
 10
43.891969
 20
112.326249
 30
0.0
 11
43.129546
 21
111.640015
 31
0.0
  0
LINE
  5
11F
330
1F
100
AcDbEntity
  8
001
370
    50
100
AcDbLine
 10
43.891969
 20
112.326249
 30
0.0
 11
50.26887
 21
111.027473
 31
0.0
  0
LINE
  5
120
330
1F
100
AcDbEntity
  8
001
370
    50
100
AcDbLine
 10
50.26887
 20
111.027473
 30
0.0
 11
50.470561
 21
110.666677
 31
0.0
  0
LINE
  5
121
330
1F
100
AcDbEntity
  8
001
370
    50
100
AcDbLine
 10
32.887685
 20
106.138922
 30
0.0
 11
46.559715
 21
107.096443
 31
0.0
  0
POLYLINE
  5
122
330
1F
100
AcDbEntity
  8
001
370
    50
100
AcDb2dPolyline
 66
     1
 10
0.0
 20
0.0
 30
0.0
  0
VERTEX
  5
124
330
122
100
AcDbEntity
  8
001
370
    50
100
AcDbVertex
100
AcDb2dVertex
 10
47.086986
 20
107.028747
 30
0.0
  0
VERTEX
  5
125
330
122
100
AcDbEntity
  8
001
370
    50
100
AcDbVertex
100
AcDb2dVertex
 10
47.003832
 20
107.054883
 30
0.0
  0
VERTEX
  5
126
330
122
100
AcDbEntity
  8
001
370
    50
100
AcDbVertex
100
AcDb2dVertex
 10
46.889152
 20
107.082744
 30
0.0
  0
VERTEX
  5
127
330
122
100
AcDbEntity
  8
001
370
    50
100
AcDbVertex
100
AcDb2dVertex
 10
46.761438
 20
107.10007
 30
0.0
  0
VERTEX
  5
128
330
122
100
AcDbEntity
  8
001
370
    50
100
AcDbVertex
100
AcDb2dVertex
 10
46.62636
 20
107.09969
 30
0.0
  0
VERTEX
  5
129
330
122
100
AcDbEntity
  8
001
370
    50
100
AcDbVertex
100
AcDb2dVertex
 10
46.587273
 20
107.097964
 30
0.0
  0
VERTEX
  5
12A
330
122
100
AcDbEntity
  8
001
370
    50
100
AcDbVertex
100
AcDb2dVertex
 10
46.559715
 20
107.096443
 30
0.0
  0
SEQEND
  5
123
330
122
100
AcDbEntity
  8
001
370
    50
  0
LINE
  5
12B
330
1F
100
AcDbEntity
  8
001
370
    50
100
AcDbLine
 10
32.799068
 20
104.951491
 30
0.0
 11
32.165153
 21
105.492502
 31
0.0
  0
POLYLINE
  5
12C
330
1F
100
AcDbEntity
  8
001
370
    50
100
AcDb2dPolyline
 66
     1
 10
0.0
 20
0.0
 30
0.0
  0
VERTEX
  5
12E
330
12C
100
AcDbEntity
  8
001
370
    50
100
AcDbVertex
100
AcDb2dVertex
 10
32.073125
 20
105.648994
 30
0.0
  0
VERTEX
  5
12F
330
12C
100
AcDbEntity
  8
001
370
    50
100
AcDbVertex
100
AcDb2dVertex
 10
32.07984
 20
105.620096
 30
0.0
  0
VERTEX
  5
130
330
12C
100
AcDbEntity
  8
001
370
    50
100
AcDbVertex
100
AcDb2dVertex
 10
32.092963
 20
105.582229
 30
0.0
  0
VERTEX
  5
131
330
12C
100
AcDbEntity
  8
001
370
    50
100
AcDbVertex
100
AcDb2dVertex
 10
32.110956
 20
105.549457
 30
0.0
  0
VERTEX
  5
132
330
12C
100
AcDbEntity
  8
001
370
    50
100
AcDbVertex
100
AcDb2dVertex
 10
32.136164
 20
105.520255
 30
0.0
  0
VERTEX
  5
133
330
12C
100
AcDbEntity
  8
001
370
    50
100
AcDbVertex
100
AcDb2dVertex
 10
32.1528
 20
105.503879
 30
0.0
  0
VERTEX
  5
134
330
12C
100
AcDbEntity
  8
001
370
    50
100
AcDbVertex
100
AcDb2dVertex
 10
32.165153
 20
105.492502
 30
0.0
  0
SEQEND
  5
12D
330
12C
100
AcDbEntity
  8
001
370
    50
  0
POLYLINE
  5
135
330
1F
100
AcDbEntity
  8
001
370
    50
100
AcDb2dPolyline
 66
     1
 10
0.0
 20
0.0
 30
0.0
  0
VERTEX
  5
137
330
135
100
AcDbEntity
  8
001
370
    50
100
AcDbVertex
100
AcDb2dVertex
 10
32.887685
 20
106.138922
 30
0.0
  0
VERTEX
  5
138
330
135
100
AcDbEntity
  8
001
370
    50
100
AcDbVertex
100
AcDb2dVertex
 10
32.85815
 20
106.13645
 30
0.0
  0
VERTEX
  5
139
330
135
100
AcDbEntity
  8
001
370
    50
100
AcDbVertex
100
AcDb2dVertex
 10
32.816674
 20
106.132344
 30
0.0
  0
VERTEX
  5
13A
330
135
100
AcDbEntity
  8
001
370
    50
100
AcDbVertex
100
AcDb2dVertex
 10
32.744221
 20
106.122687
 30
0.0
  0
VERTEX
  5
13B
330
135
100
AcDbEntity
  8
001
370
    50
100
AcDbVertex
100
AcDb2dVertex
 10
32.680391
 20
106.110595
 30
0.0
  0
VERTEX
  5
13C
330
135
100
AcDbEntity
  8
001
370
    50
100
AcDbVertex
100
AcDb2dVertex
 10
32.555464
 20
106.078552
 30
0.0
  0
VERTEX
  5
13D
330
135
100
AcDbEntity
  8
001
370
    50
100
AcDbVertex
100
AcDb2dVertex
 10
32.428344
 20
106.034312
 30
0.0
  0
VERTEX
  5
13E
330
135
100
AcDbEntity
  8
001
370
    50
100
AcDbVertex
100
AcDb2dVertex
 10
32.280905
 20
105.960983
 30
0.0
  0
VERTEX
  5
13F
330
135
100
AcDbEntity
  8
001
370
    50
100
AcDbVertex
100
AcDb2dVertex
 10
32.156187
 20
105.857394
 30
0.0
  0
VERTEX
  5
140
330
135
100
AcDbEntity
  8
001
370
    50
100
AcDbVertex
100
AcDb2dVertex
 10
32.128883
 20
105.823851
 30
0.0
  0
VERTEX
  5
141
330
135
100
AcDbEntity
  8
001
370
    50
100
AcDbVertex
100
AcDb2dVertex
 10
32.105225
 20
105.788699
 30
0.0
  0
VERTEX
  5
142
330
135
100
AcDbEntity
  8
001
370
    50
100
AcDbVertex
100
AcDb2dVertex
 10
32.088462
 20
105.756334
 30
0.0
  0
VERTEX
  5
143
330
135
100
AcDbEntity
  8
001
370
    50
100
AcDbVertex
100
AcDb2dVertex
 10
32.077255
 20
105.718522
 30
0.0
  0
VERTEX
  5
144
330
135
100
AcDbEntity
  8
001
370
    50
100
AcDbVertex
100
AcDb2dVertex
 10
32.072887
 20
105.67834
 30
0.0
  0
VERTEX
  5
145
330
135
100
AcDbEntity
  8
001
370
    50
100
AcDbVertex
100
AcDb2dVertex
 10
32.073125
 20
105.648994
 30
0.0
  0
SEQEND
  5
136
330
135
100
AcDbEntity
  8
001
370
    50
  0
POLYLINE
  5
146
330
1F
100
AcDbEntity
  8
001
370
    50
100
AcDb2dPolyline
 66
     1
 10
0.0
 20
0.0
 30
0.0
  0
VERTEX
  5
148
330
146
100
AcDbEntity
  8
001
370
    50
100
AcDbVertex
100
AcDb2dVertex
 10
32.414923
 20
110.24082
 30
0.0
  0
VERTEX
  5
149
330
146
100
AcDbEntity
  8
001
370
    50
100
AcDbVertex
100
AcDb2dVertex
 10
32.385388
 20
110.238349
 30
0.0
  0
VERTEX
  5
14A
330
146
100
AcDbEntity
  8
001
370
    50
100
AcDbVertex
100
AcDb2dVertex
 10
32.343912
 20
110.234242
 30
0.0
  0
VERTEX
  5
14B
330
146
100
AcDbEntity
  8
001
370
    50
100
AcDbVertex
100
AcDb2dVertex
 10
32.271459
 20
110.224585
 30
0.0
  0
VERTEX
  5
14C
330
146
100
AcDbEntity
  8
001
370
    50
100
AcDbVertex
100
AcDb2dVertex
 10
32.207629
 20
110.212494
 30
0.0
  0
VERTEX
  5
14D
330
146
100
AcDbEntity
  8
001
370
    50
100
AcDbVertex
100
AcDb2dVertex
 10
32.082702
 20
110.18045
 30
0.0
  0
VERTEX
  5
14E
330
146
100
AcDbEntity
  8
001
370
    50
100
AcDbVertex
100
AcDb2dVertex
 10
31.955582
 20
110.13621
 30
0.0
  0
VERTEX
  5
14F
330
146
100
AcDbEntity
  8
001
370
    50
100
AcDbVertex
100
AcDb2dVertex
 10
31.808143
 20
110.062881
 30
0.0
  0
VERTEX
  5
150
330
146
100
AcDbEntity
  8
001
370
    50
100
AcDbVertex
100
AcDb2dVertex
 10
31.683425
 20
109.959292
 30
0.0
  0
VERTEX
  5
151
330
146
100
AcDbEntity
  8
001
370
    50
100
AcDbVertex
100
AcDb2dVertex
 10
31.656121
 20
109.92575
 30
0.0
  0
VERTEX
  5
152
330
146
100
AcDbEntity
  8
001
370
    50
100
AcDbVertex
100
AcDb2dVertex
 10
31.632463
 20
109.890598
 30
0.0
  0
VERTEX
  5
153
330
146
100
AcDbEntity
  8
001
370
    50
100
AcDbVertex
100
AcDb2dVertex
 10
31.6157
 20
109.858232
 30
0.0
  0
VERTEX
  5
154
330
146
100
AcDbEntity
  8
001
370
    50
100
AcDbVertex
100
AcDb2dVertex
 10
31.604493
 20
109.82042
 30
0.0
  0
VERTEX
  5
155
330
146
100
AcDbEntity
  8
001
370
    50
100
AcDbVertex
100
AcDb2dVertex
 10
31.600125
 20
109.780238
 30
0.0
  0
VERTEX
  5
156
330
146
100
AcDbEntity
  8
001
370
    50
100
AcDbVertex
100
AcDb2dVertex
 10
31.600363
 20
109.750893
 30
0.0
  0
SEQEND
  5
147
330
146
100
AcDbEntity
  8
001
370
    50
  0
LINE
  5
157
330
1F
100
AcDbEntity
  8
001
370
    50
100
AcDbLine
 10
31.600363
 20
109.750893
 30
0.0
 11
32.073125
 21
105.648994
 31
0.0
  0
LINE
  5
158
330
1F
100
AcDbEntity
  8
001
370
    50
100
AcDbLine
 10
32.414923
 20
110.24082
 30
0.0
 11
46.086953
 21
111.198342
 31
0.0
  0
LINE
  5
159
330
1F
100
AcDbEntity
  8
001
370
    50
100
AcDbLine
 10
47.293373
 20
107.042892
 30
0.0
 11
46.84995
 21
110.890235
 31
0.0
  0
POLYLINE
  5
15A
330
1F
100
AcDbEntity
  8
001
370
    50
100
AcDb2dPolyline
 66
     1
 10
0.0
 20
0.0
 30
0.0
  0
VERTEX
  5
15C
330
15A
100
AcDbEntity
  8
001
370
    50
100
AcDbVertex
100
AcDb2dVertex
 10
46.84995
 20
110.890235
 30
0.0
  0
VERTEX
  5
15D
330
15A
100
AcDbEntity
  8
001
370
    50
100
AcDbVertex
100
AcDb2dVertex
 10
46.843511
 20
110.918866
 30
0.0
  0
VERTEX
  5
15E
330
15A
100
AcDbEntity
  8
001
370
    50
100
AcDbVertex
100
AcDb2dVertex
 10
46.830112
 20
110.957
 30
0.0
  0
VERTEX
  5
15F
330
15A
100
AcDbEntity
  8
001
370
    50
100
AcDbVertex
100
AcDb2dVertex
 10
46.810572
 20
110.991269
 30
0.0
  0
VERTEX
  5
160
330
15A
100
AcDbEntity
  8
001
370
    50
100
AcDbVertex
100
AcDb2dVertex
 10
46.786911
 20
111.018975
 30
0.0
  0
VERTEX
  5
161
330
15A
100
AcDbEntity
  8
001
370
    50
100
AcDbVertex
100
AcDb2dVertex
 10
46.755992
 20
111.047834
 30
0.0
  0
VERTEX
  5
162
330
15A
100
AcDbEntity
  8
001
370
    50
100
AcDbVertex
100
AcDb2dVertex
 10
46.721658
 20
111.074275
 30
0.0
  0
VERTEX
  5
163
330
15A
100
AcDbEntity
  8
001
370
    50
100
AcDbVertex
100
AcDb2dVertex
 10
46.573248
 20
111.146464
 30
0.0
  0
VERTEX
  5
164
330
15A
100
AcDbEntity
  8
001
370
    50
100
AcDbVertex
100
AcDb2dVertex
 10
46.41639
 20
111.184642
 30
0.0
  0
VERTEX
  5
165
330
15A
100
AcDbEntity
  8
001
370
    50
100
AcDbVertex
100
AcDb2dVertex
 10
46.293723
 20
111.199831
 30
0.0
  0
VERTEX
  5
166
330
15A
100
AcDbEntity
  8
001
370
    50
100
AcDbVertex
100
AcDb2dVertex
 10
46.153598
 20
111.201588
 30
0.0
  0
VERTEX
  5
167
330
15A
100
AcDbEntity
  8
001
370
    50
100
AcDbVertex
100
AcDb2dVertex
 10
46.114393
 20
111.199913
 30
0.0
  0
VERTEX
  5
168
330
15A
100
AcDbEntity
  8
001
370
    50
100
AcDbVertex
100
AcDb2dVertex
 10
46.086953
 20
111.198342
 30
0.0
  0
SEQEND
  5
15B
330
15A
100
AcDbEntity
  8
001
370
    50
  0
ARC
  5
169
330
1F
100
AcDbEntity
  8
001
370
    50
100
AcDbCircle
 10
46.067558
 20
106.928831
 30
0.0
 40
5.3
100
AcDbArc
 50
54.832291
 51
102.143895
  0
POLYLINE
  5
16A
330
1F
100
AcDbEntity
  8
001
370
    50
100
AcDb2dPolyline
 66
     1
 10
0.0
 20
0.0
 30
0.0
  0
VERTEX
  5
16C
330
16A
100
AcDbEntity
  8
001
370
    50
100
AcDbVertex
100
AcDb2dVertex
 10
43.550587
 20
90.131684
 30
0.0
  0
VERTEX
  5
16D
330
16A
100
AcDbEntity
  8
001
370
    50
100
AcDbVertex
100
AcDb2dVertex
 10
42.778954
 20
89.504856
 30
0.0
  0
VERTEX
  5
16E
330
16A
100
AcDbEntity
  8
001
370
    50
100
AcDbVertex
100
AcDb2dVertex
 10
41.911617
 20
88.48457
 30
0.0
  0
VERTEX
  5
16F
330
16A
100
AcDbEntity
  8
001
370
    50
100
AcDbVertex
100
AcDb2dVertex
 10
41.55952
 20
87.759811
 30
0.0
  0
VERTEX
  5
170
330
16A
100
AcDbEntity
  8
001
370
    50
100
AcDbVertex
100
AcDb2dVertex
 10
41.379739
 20
87.015986
 30
0.0
  0
VERTEX
  5
171
330
16A
100
AcDbEntity
  8
001
370
    50
100
AcDbVertex
100
AcDb2dVertex
 10
41.33091
 20
86.627874
 30
0.0
  0
VERTEX
  5
172
330
16A
100
AcDbEntity
  8
001
370
    50
100
AcDbVertex
100
AcDb2dVertex
 10
41.311712
 20
86.23457
 30
0.0
  0
VERTEX
  5
173
330
16A
100
AcDbEntity
  8
001
370
    50
100
AcDbVertex
100
AcDb2dVertex
 10
41.328076
 20
85.842147
 30
0.0
  0
VERTEX
  5
174
330
16A
100
AcDbEntity
  8
001
370
    50
100
AcDbVertex
100
AcDb2dVertex
 10
41.379739
 20
85.453153
 30
0.0
  0
VERTEX
  5
175
330
16A
100
AcDbEntity
  8
001
370
    50
100
AcDbVertex
100
AcDb2dVertex
 10
41.582042
 20
84.697056
 30
0.0
  0
VERTEX
  5
176
330
16A
100
AcDbEntity
  8
001
370
    50
100
AcDbVertex
100
AcDb2dVertex
 10
41.911617
 20
83.98457
 30
0.0
  0
VERTEX
  5
177
330
16A
100
AcDbEntity
  8
001
370
    50
100
AcDbVertex
100
AcDb2dVertex
 10
42.620511
 20
83.05386
 30
0.0
  0
VERTEX
  5
178
330
16A
100
AcDbEntity
  8
001
370
    50
100
AcDbVertex
100
AcDb2dVertex
 10
43.550587
 20
82.337455
 30
0.0
  0
VERTEX
  5
179
330
16A
100
AcDbEntity
  8
001
370
    50
100
AcDbVertex
100
AcDb2dVertex
 10
43.902254
 20
82.155853
 30
0.0
  0
VERTEX
  5
17A
330
16A
100
AcDbEntity
  8
001
370
    50
100
AcDbVertex
100
AcDb2dVertex
 10
44.257982
 20
82.005953
 30
0.0
  0
VERTEX
  5
17B
330
16A
100
AcDbEntity
  8
001
370
    50
100
AcDbVertex
100
AcDb2dVertex
 10
44.613671
 20
81.888022
 30
0.0
  0
VERTEX
  5
17C
330
16A
100
AcDbEntity
  8
001
370
    50
100
AcDbVertex
100
AcDb2dVertex
 10
45.011909
 20
81.802935
 30
0.0
  0
VERTEX
  5
17D
330
16A
100
AcDbEntity
  8
001
370
    50
100
AcDbVertex
100
AcDb2dVertex
 10
45.461244
 20
81.751687
 30
0.0
  0
VERTEX
  5
17E
330
16A
100
AcDbEntity
  8
001
370
    50
100
AcDbVertex
100
AcDb2dVertex
 10
45.789462
 20
81.73457
 30
0.0
  0
SEQEND
  5
16B
330
16A
100
AcDbEntity
  8
001
370
    50
  0
POLYLINE
  5
17F
330
1F
100
AcDbEntity
  8
001
370
    50
100
AcDb2dPolyline
 66
     1
 10
0.0
 20
0.0
 30
0.0
  0
VERTEX
  5
181
330
17F
100
AcDbEntity
  8
001
370
    50
100
AcDbVertex
100
AcDb2dVertex
 10
45.789462
 20
81.73457
 30
0.0
  0
VERTEX
  5
182
330
17F
100
AcDbEntity
  8
001
370
    50
100
AcDbVertex
100
AcDb2dVertex
 10
46.117682
 20
81.751686
 30
0.0
  0
VERTEX
  5
183
330
17F
100
AcDbEntity
  8
001
370
    50
100
AcDbVertex
100
AcDb2dVertex
 10
46.567016
 20
81.802935
 30
0.0
  0
VERTEX
  5
184
330
17F
100
AcDbEntity
  8
001
370
    50
100
AcDbVertex
100
AcDb2dVertex
 10
46.965252
 20
81.888024
 30
0.0
  0
VERTEX
  5
185
330
17F
100
AcDbEntity
  8
001
370
    50
100
AcDbVertex
100
AcDb2dVertex
 10
47.320943
 20
82.005953
 30
0.0
  0
VERTEX
  5
186
330
17F
100
AcDbEntity
  8
001
370
    50
100
AcDbVertex
100
AcDb2dVertex
 10
47.67668
 20
82.155848
 30
0.0
  0
VERTEX
  5
187
330
17F
100
AcDbEntity
  8
001
370
    50
100
AcDbVertex
100
AcDb2dVertex
 10
48.028337
 20
82.337455
 30
0.0
  0
VERTEX
  5
188
330
17F
100
AcDbEntity
  8
001
370
    50
100
AcDbVertex
100
AcDb2dVertex
 10
48.958248
 20
83.053958
 30
0.0
  0
VERTEX
  5
189
330
17F
100
AcDbEntity
  8
001
370
    50
100
AcDbVertex
100
AcDb2dVertex
 10
49.667308
 20
83.98457
 30
0.0
  0
VERTEX
  5
18A
330
17F
100
AcDbEntity
  8
001
370
    50
100
AcDbVertex
100
AcDb2dVertex
 10
49.9973
 20
84.696811
 30
0.0
  0
VERTEX
  5
18B
330
17F
100
AcDbEntity
  8
001
370
    50
100
AcDbVertex
100
AcDb2dVertex
 10
50.199185
 20
85.453153
 30
0.0
  0
VERTEX
  5
18C
330
17F
100
AcDbEntity
  8
001
370
    50
100
AcDbVertex
100
AcDb2dVertex
 10
50.250231
 20
85.842509
 30
0.0
  0
VERTEX
  5
18D
330
17F
100
AcDbEntity
  8
001
370
    50
100
AcDbVertex
100
AcDb2dVertex
 10
50.267213
 20
86.23457
 30
0.0
  0
VERTEX
  5
18E
330
17F
100
AcDbEntity
  8
001
370
    50
100
AcDbVertex
100
AcDb2dVertex
 10
50.25014
 20
86.62663
 30
0.0
  0
VERTEX
  5
18F
330
17F
100
AcDbEntity
  8
001
370
    50
100
AcDbVertex
100
AcDb2dVertex
 10
50.199185
 20
87.015986
 30
0.0
  0
VERTEX
  5
190
330
17F
100
AcDbEntity
  8
001
370
    50
100
AcDbVertex
100
AcDb2dVertex
 10
49.99803
 20
87.772335
 30
0.0
  0
VERTEX
  5
191
330
17F
100
AcDbEntity
  8
001
370
    50
100
AcDbVertex
100
AcDb2dVertex
 10
49.667308
 20
88.48457
 30
0.0
  0
VERTEX
  5
192
330
17F
100
AcDbEntity
  8
001
370
    50
100
AcDbVertex
100
AcDb2dVertex
 10
48.953114
 20
89.415132
 30
0.0
  0
VERTEX
  5
193
330
17F
100
AcDbEntity
  8
001
370
    50
100
AcDbVertex
100
AcDb2dVertex
 10
48.028337
 20
90.131684
 30
0.0
  0
VERTEX
  5
194
330
17F
100
AcDbEntity
  8
001
370
    50
100
AcDbVertex
100
AcDb2dVertex
 10
47.6818
 20
90.31334
 30
0.0
  0
VERTEX
  5
195
330
17F
100
AcDbEntity
  8
001
370
    50
100
AcDbVertex
100
AcDb2dVertex
 10
47.320943
 20
90.463186
 30
0.0
  0
VERTEX
  5
196
330
17F
100
AcDbEntity
  8
001
370
    50
100
AcDbVertex
100
AcDb2dVertex
 10
46.948196
 20
90.580952
 30
0.0
  0
VERTEX
  5
197
330
17F
100
AcDbEntity
  8
001
370
    50
100
AcDbVertex
100
AcDb2dVertex
 10
46.567016
 20
90.666204
 30
0.0
  0
VERTEX
  5
198
330
17F
100
AcDbEntity
  8
001
370
    50
100
AcDbVertex
100
AcDb2dVertex
 10
46.180757
 20
90.718059
 30
0.0
  0
VERTEX
  5
199
330
17F
100
AcDbEntity
  8
001
370
    50
100
AcDbVertex
100
AcDb2dVertex
 10
45.789462
 20
90.73457
 30
0.0
  0
VERTEX
  5
19A
330
17F
100
AcDbEntity
  8
001
370
    50
100
AcDbVertex
100
AcDb2dVertex
 10
45.395341
 20
90.715192
 30
0.0
  0
VERTEX
  5
19B
330
17F
100
AcDbEntity
  8
001
370
    50
100
AcDbVertex
100
AcDb2dVertex
 10
45.011909
 20
90.666204
 30
0.0
  0
VERTEX
  5
19C
330
17F
100
AcDbEntity
  8
001
370
    50
100
AcDbVertex
100
AcDb2dVertex
 10
44.644869
 20
90.589555
 30
0.0
  0
VERTEX
  5
19D
330
17F
100
AcDbEntity
  8
001
370
    50
100
AcDbVertex
100
AcDb2dVertex
 10
44.257982
 20
90.463186
 30
0.0
  0
VERTEX
  5
19E
330
17F
100
AcDbEntity
  8
001
370
    50
100
AcDbVertex
100
AcDb2dVertex
 10
43.843349
 20
90.28177
 30
0.0
  0
VERTEX
  5
19F
330
17F
100
AcDbEntity
  8
001
370
    50
100
AcDbVertex
100
AcDb2dVertex
 10
43.550587
 20
90.131684
 30
0.0
  0
SEQEND
  5
180
330
17F
100
AcDbEntity
  8
001
370
    50
  0
LINE
  5
1A0
330
1F
100
AcDbEntity
  8
001
370
    50
100
AcDbLine
 10
48.807622
 20
90.699633
 30
0.0
 11
48.509663
 21
90.699633
 31
0.0
  0
LINE
  5
1A1
330
1F
100
AcDbEntity
  8
001
370
    50
100
AcDbLine
 10
51.295261
 20
86.369506
 30
0.0
 11
48.807622
 21
90.699633
 31
0.0
  0
LINE
  5
1A2
330
1F
100
AcDbEntity
  8
001
370
    50
100
AcDbLine
 10
51.295261
 20
86.369506
 30
0.0
 11
50.997302
 21
86.369506
 31
0.0
  0
LINE
  5
1A3
330
1F
100
AcDbEntity
  8
001
370
    50
100
AcDbLine
 10
50.997302
 20
86.369506
 30
0.0
 11
48.509663
 21
90.699633
 31
0.0
  0
LINE
  5
1A4
330
1F
100
AcDbEntity
  8
001
370
    50
100
AcDbLine
 10
48.509663
 20
90.699633
 30
0.0
 11
45.79112
 21
91.431684
 31
0.0
  0
LINE
  5
1A5
330
1F
100
AcDbEntity
  8
001
370
    50
100
AcDbLine
 10
50.26887
 20
83.637455
 30
0.0
 11
50.997302
 21
86.369506
 31
0.0
  0
LINE
  5
1A6
330
1F
100
AcDbEntity
  8
001
370
    50
100
AcDbLine
 10
43.891969
 20
79.937455
 30
0.0
 11
48.028337
 21
82.337455
 31
0.0
  0
LINE
  5
1A7
330
1F
100
AcDbEntity
  8
001
370
    50
100
AcDbLine
 10
48.028337
 20
82.337455
 30
0.0
 11
50.26887
 21
83.637455
 31
0.0
  0
LINE
  5
1A8
330
1F
100
AcDbEntity
  8
001
370
    50
100
AcDbLine
 10
39.414219
 20
87.731684
 30
0.0
 11
43.891969
 21
79.937455
 31
0.0
  0
LINE
  5
1A9
330
1F
100
AcDbEntity
  8
001
370
    50
100
AcDbLine
 10
45.79112
 20
91.431684
 30
0.0
 11
43.550587
 21
90.131684
 31
0.0
  0
LINE
  5
1AA
330
1F
100
AcDbEntity
  8
001
370
    50
100
AcDbLine
 10
43.550587
 20
90.131684
 30
0.0
 11
39.414219
 21
87.731684
 31
0.0
  0
LINE
  5
1AB
330
1F
100
AcDbEntity
  8
001
370
    50
100
AcDbLine
 10
50.56683
 20
83.637455
 30
0.0
 11
51.295261
 21
86.369506
 31
0.0
  0
LINE
  5
1AC
330
1F
100
AcDbEntity
  8
001
370
    50
100
AcDbLine
 10
50.56683
 20
83.637455
 30
0.0
 11
50.51717
 21
83.637455
 31
0.0
  0
LINE
  5
1AD
330
1F
100
AcDbEntity
  8
001
370
    50
100
AcDbLine
 10
50.51717
 20
83.637455
 30
0.0
 11
50.26887
 21
83.637455
 31
0.0
  0
LINE
  5
1AE
330
1F
100
AcDbEntity
  8
001
370
    50
100
AcDbLine
 10
44.398792
 20
80.087455
 30
0.0
 11
50.51717
 21
83.637455
 31
0.0
  0
LINE
  5
1AF
330
1F
100
AcDbEntity
  8
001
370
    50
100
AcDbLine
 10
44.448451
 20
80.087455
 30
0.0
 11
44.398792
 21
80.087455
 31
0.0
  0
LINE
  5
1B0
330
1F
100
AcDbEntity
  8
001
370
    50
100
AcDbLine
 10
43.328185
 20
79.437455
 30
0.0
 11
44.448451
 21
80.087455
 31
0.0
  0
LINE
  5
1B1
330
1F
100
AcDbEntity
  8
001
370
    50
100
AcDbLine
 10
43.328185
 20
79.437455
 30
0.0
 11
43.129546
 21
79.437455
 31
0.0
  0
LINE
  5
1B2
330
1F
100
AcDbEntity
  8
001
370
    50
100
AcDbLine
 10
43.891969
 20
79.937455
 30
0.0
 11
43.129546
 21
79.437455
 31
0.0
  0
LINE
  5
1B3
330
1F
100
AcDbEntity
  8
001
370
    50
100
AcDbLine
 10
46.03942
 20
91.431684
 30
0.0
 11
45.79112
 21
91.431684
 31
0.0
  0
LINE
  5
1B4
330
1F
100
AcDbEntity
  8
001
370
    50
100
AcDbLine
 10
46.08908
 20
91.431684
 30
0.0
 11
46.03942
 21
91.431684
 31
0.0
  0
LINE
  5
1B5
330
1F
100
AcDbEntity
  8
001
370
    50
100
AcDbLine
 10
48.807622
 20
90.699633
 30
0.0
 11
46.08908
 21
91.431684
 31
0.0
  0
LINE
  5
1B6
330
1F
100
AcDbEntity
  8
001
370
    50
100
AcDbLine
 10
43.129546
 20
79.437455
 30
0.0
 11
41.869594
 21
79.803481
 31
0.0
  0
LINE
  5
1B7
330
1F
100
AcDbEntity
  8
001
370
    50
100
AcDbLine
 10
41.869594
 20
79.803481
 30
0.0
 11
38.3869
 21
85.865658
 31
0.0
  0
LINE
  5
1B8
330
1F
100
AcDbEntity
  8
001
370
    50
100
AcDbLine
 10
38.3869
 20
85.865658
 30
0.0
 11
38.651795
 21
87.231684
 31
0.0
  0
LINE
  5
1B9
330
1F
100
AcDbEntity
  8
001
370
    50
100
AcDbLine
 10
38.651795
 20
87.231684
 30
0.0
 11
39.414219
 21
87.731684
 31
0.0
  0
LINE
  5
1BA
330
1F
100
AcDbEntity
  8
001
370
    50
100
AcDbLine
 10
44.448451
 20
80.087455
 30
0.0
 11
44.436036
 21
80.109065
 31
0.0
  0
LINE
  5
1BB
330
1F
100
AcDbEntity
  8
001
370
    50
100
AcDbLine
 10
46.75722
 20
78.563573
 30
0.0
 11
46.732141
 21
78.563573
 31
0.0
  0
LINE
  5
1BC
330
1F
100
AcDbEntity
  8
001
370
    50
100
AcDbLine
 10
46.732141
 20
78.563573
 30
0.0
 11
45.422087
 21
80.681191
 31
0.0
  0
LINE
  5
1BD
330
1F
100
AcDbEntity
  8
001
370
    50
100
AcDbLine
 10
32.799068
 20
104.369308
 30
0.0
 11
32.165153
 21
105.019911
 31
0.0
  0
POLYLINE
  5
1BE
330
1F
100
AcDbEntity
  8
001
370
    50
100
AcDb2dPolyline
 66
     1
 10
0.0
 20
0.0
 30
0.0
  0
VERTEX
  5
1C0
330
1BE
100
AcDbEntity
  8
001
370
    50
100
AcDbVertex
100
AcDb2dVertex
 10
32.073125
 20
105.237769
 30
0.0
  0
VERTEX
  5
1C1
330
1BE
100
AcDbEntity
  8
001
370
    50
100
AcDbVertex
100
AcDb2dVertex
 10
32.072803
 20
105.208496
 30
0.0
  0
VERTEX
  5
1C2
330
1BE
100
AcDbEntity
  8
001
370
    50
100
AcDbVertex
100
AcDb2dVertex
 10
32.077255
 20
105.168241
 30
0.0
  0
VERTEX
  5
1C3
330
1BE
100
AcDbEntity
  8
001
370
    50
100
AcDbVertex
100
AcDb2dVertex
 10
32.088931
 20
105.130017
 30
0.0
  0
VERTEX
  5
1C4
330
1BE
100
AcDbEntity
  8
001
370
    50
100
AcDbVertex
100
AcDb2dVertex
 10
32.105225
 20
105.098064
 30
0.0
  0
VERTEX
  5
1C5
330
1BE
100
AcDbEntity
  8
001
370
    50
100
AcDbVertex
100
AcDb2dVertex
 10
32.126746
 20
105.064791
 30
0.0
  0
VERTEX
  5
1C6
330
1BE
100
AcDbEntity
  8
001
370
    50
100
AcDbVertex
100
AcDb2dVertex
 10
32.156187
 20
105.029369
 30
0.0
  0
VERTEX
  5
1C7
330
1BE
100
AcDbEntity
  8
001
370
    50
100
AcDbVertex
100
AcDb2dVertex
 10
32.161457
 20
105.023764
 30
0.0
  0
VERTEX
  5
1C8
330
1BE
100
AcDbEntity
  8
001
370
    50
100
AcDbVertex
100
AcDb2dVertex
 10
32.165153
 20
105.019911
 30
0.0
  0
SEQEND
  5
1BF
330
1BE
100
AcDbEntity
  8
001
370
    50
  0
LINE
  5
1C9
330
1F
100
AcDbEntity
  8
001
370
    50
100
AcDbLine
 10
32.799068
 20
99.782202
 30
0.0
 11
31.692391
 21
100.918012
 31
0.0
  0
POLYLINE
  5
1CA
330
1F
100
AcDbEntity
  8
001
370
    50
100
AcDb2dPolyline
 66
     1
 10
0.0
 20
0.0
 30
0.0
  0
VERTEX
  5
1CC
330
1CA
100
AcDbEntity
  8
001
370
    50
100
AcDbVertex
100
AcDb2dVertex
 10
32.228175
 20
105.438716
 30
0.0
  0
VERTEX
  5
1CD
330
1CA
100
AcDbEntity
  8
001
370
    50
100
AcDbVertex
100
AcDb2dVertex
 10
32.217014
 20
105.431882
 30
0.0
  0
VERTEX
  5
1CE
330
1CA
100
AcDbEntity
  8
001
370
    50
100
AcDbVertex
100
AcDb2dVertex
 10
32.201417
 20
105.421808
 30
0.0
  0
VERTEX
  5
1CF
330
1CA
100
AcDbEntity
  8
001
370
    50
100
AcDbVertex
100
AcDb2dVertex
 10
32.164988
 20
105.394282
 30
0.0
  0
VERTEX
  5
1D0
330
1CA
100
AcDbEntity
  8
001
370
    50
100
AcDbVertex
100
AcDb2dVertex
 10
32.136164
 20
105.366508
 30
0.0
  0
VERTEX
  5
1D1
330
1CA
100
AcDbEntity
  8
001
370
    50
100
AcDbVertex
100
AcDb2dVertex
 10
32.112963
 20
105.33904
 30
0.0
  0
VERTEX
  5
1D2
330
1CA
100
AcDbEntity
  8
001
370
    50
100
AcDbVertex
100
AcDb2dVertex
 10
32.092963
 20
105.304534
 30
0.0
  0
VERTEX
  5
1D3
330
1CA
100
AcDbEntity
  8
001
370
    50
100
AcDbVertex
100
AcDb2dVertex
 10
32.079482
 20
105.266357
 30
0.0
  0
VERTEX
  5
1D4
330
1CA
100
AcDbEntity
  8
001
370
    50
100
AcDbVertex
100
AcDb2dVertex
 10
32.073125
 20
105.237769
 30
0.0
  0
SEQEND
  5
1CB
330
1CA
100
AcDbEntity
  8
001
370
    50
  0
LINE
  5
1D5
330
1F
100
AcDbEntity
  8
001
370
    50
100
AcDbLine
 10
32.073125
 20
105.237769
 30
0.0
 11
31.600363
 21
101.13587
 31
0.0
  0
POLYLINE
  5
1D6
330
1F
100
AcDbEntity
  8
001
370
    50
100
AcDb2dPolyline
 66
     1
 10
0.0
 20
0.0
 30
0.0
  0
VERTEX
  5
1D8
330
1D6
100
AcDbEntity
  8
001
370
    50
100
AcDbVertex
100
AcDb2dVertex
 10
31.600363
 20
101.13587
 30
0.0
  0
VERTEX
  5
1D9
330
1D6
100
AcDbEntity
  8
001
370
    50
100
AcDbVertex
100
AcDb2dVertex
 10
31.600041
 20
101.106598
 30
0.0
  0
VERTEX
  5
1DA
330
1D6
100
AcDbEntity
  8
001
370
    50
100
AcDbVertex
100
AcDb2dVertex
 10
31.604493
 20
101.066342
 30
0.0
  0
VERTEX
  5
1DB
330
1D6
100
AcDbEntity
  8
001
370
    50
100
AcDbVertex
100
AcDb2dVertex
 10
31.616169
 20
101.028118
 30
0.0
  0
VERTEX
  5
1DC
330
1D6
100
AcDbEntity
  8
001
370
    50
100
AcDbVertex
100
AcDb2dVertex
 10
31.632463
 20
100.996165
 30
0.0
  0
VERTEX
  5
1DD
330
1D6
100
AcDbEntity
  8
001
370
    50
100
AcDbVertex
100
AcDb2dVertex
 10
31.653984
 20
100.962893
 30
0.0
  0
VERTEX
  5
1DE
330
1D6
100
AcDbEntity
  8
001
370
    50
100
AcDbVertex
100
AcDb2dVertex
 10
31.683425
 20
100.927471
 30
0.0
  0
VERTEX
  5
1DF
330
1D6
100
AcDbEntity
  8
001
370
    50
100
AcDbVertex
100
AcDb2dVertex
 10
31.688695
 20
100.921865
 30
0.0
  0
VERTEX
  5
1E0
330
1D6
100
AcDbEntity
  8
001
370
    50
100
AcDbVertex
100
AcDb2dVertex
 10
31.692391
 20
100.918012
 30
0.0
  0
SEQEND
  5
1D7
330
1D6
100
AcDbEntity
  8
001
370
    50
  0
POLYLINE
  5
1E1
330
1F
100
AcDbEntity
  8
001
370
    50
100
AcDb2dPolyline
 66
     1
 10
0.0
 20
0.0
 30
0.0
  0
VERTEX
  5
1E3
330
1E1
100
AcDbEntity
  8
001
370
    50
100
AcDbVertex
100
AcDb2dVertex
 10
56.276817
 20
95.993661
 30
0.0
  0
VERTEX
  5
1E4
330
1E1
100
AcDbEntity
  8
001
370
    50
100
AcDbVertex
100
AcDb2dVertex
 10
55.853341
 20
96.042732
 30
0.0
  0
VERTEX
  5
1E5
330
1E1
100
AcDbEntity
  8
001
370
    50
100
AcDbVertex
100
AcDb2dVertex
 10
55.234399
 20
96.11433
 30
0.0
  0
VERTEX
  5
1E6
330
1E1
100
AcDbEntity
  8
001
370
    50
100
AcDbVertex
100
AcDb2dVertex
 10
52.666054
 20
96.409641
 30
0.0
  0
VERTEX
  5
1E7
330
1E1
100
AcDbEntity
  8
001
370
    50
100
AcDbVertex
100
AcDb2dVertex
 10
50.908605
 20
96.610308
 30
0.0
  0
SEQEND
  5
1E2
330
1E1
100
AcDbEntity
  8
001
370
    50
  0
POLYLINE
  5
1E8
330
1F
100
AcDbEntity
  8
001
370
    50
100
AcDb2dPolyline
 66
     1
 10
0.0
 20
0.0
 30
0.0
  0
VERTEX
  5
1EA
330
1E8
100
AcDbEntity
  8
001
370
    50
100
AcDbVertex
100
AcDb2dVertex
 10
53.017129
 20
91.071102
 30
0.0
  0
VERTEX
  5
1EB
330
1E8
100
AcDbEntity
  8
001
370
    50
100
AcDbVertex
100
AcDb2dVertex
 10
53.725718
 20
91.378535
 30
0.0
  0
VERTEX
  5
1EC
330
1E8
100
AcDbEntity
  8
001
370
    50
100
AcDbVertex
100
AcDb2dVertex
 10
54.644737
 20
91.887507
 30
0.0
  0
VERTEX
  5
1ED
330
1E8
100
AcDbEntity
  8
001
370
    50
100
AcDbVertex
100
AcDb2dVertex
 10
55.09573
 20
92.228367
 30
0.0
  0
VERTEX
  5
1EE
330
1E8
100
AcDbEntity
  8
001
370
    50
100
AcDbVertex
100
AcDb2dVertex
 10
55.466558
 20
92.583985
 30
0.0
  0
VERTEX
  5
1EF
330
1E8
100
AcDbEntity
  8
001
370
    50
100
AcDbVertex
100
AcDb2dVertex
 10
55.751108
 20
92.922947
 30
0.0
  0
VERTEX
  5
1F0
330
1E8
100
AcDbEntity
  8
001
370
    50
100
AcDbVertex
100
AcDb2dVertex
 10
56.010656
 20
93.364518
 30
0.0
  0
VERTEX
  5
1F1
330
1E8
100
AcDbEntity
  8
001
370
    50
100
AcDbVertex
100
AcDb2dVertex
 10
56.04663
 20
93.441573
 30
0.0
  0
VERTEX
  5
1F2
330
1E8
100
AcDbEntity
  8
001
370
    50
100
AcDbVertex
100
AcDb2dVertex
 10
56.070642
 20
93.495487
 30
0.0
  0
SEQEND
  5
1E9
330
1E8
100
AcDbEntity
  8
001
370
    50
  0
POLYLINE
  5
1F3
330
1F
100
AcDbEntity
  8
001
370
    50
100
AcDb2dPolyline
 66
     1
 10
0.0
 20
0.0
 30
0.0
  0
VERTEX
  5
1F5
330
1F3
100
AcDbEntity
  8
001
370
    50
100
AcDbVertex
100
AcDb2dVertex
 10
53.017129
 20
91.071102
 30
0.0
  0
VERTEX
  5
1F6
330
1F3
100
AcDbEntity
  8
001
370
    50
100
AcDbVertex
100
AcDb2dVertex
 10
52.861973
 20
91.192349
 30
0.0
  0
VERTEX
  5
1F7
330
1F3
100
AcDbEntity
  8
001
370
    50
100
AcDbVertex
100
AcDb2dVertex
 10
52.637093
 20
91.364453
 30
0.0
  0
VERTEX
  5
1F8
330
1F3
100
AcDbEntity
  8
001
370
    50
100
AcDbVertex
100
AcDb2dVertex
 10
51.038446
 20
92.434401
 30
0.0
  0
VERTEX
  5
1F9
330
1F3
100
AcDbEntity
  8
001
370
    50
100
AcDbVertex
100
AcDb2dVertex
 10
49.377346
 20
93.096325
 30
0.0
  0
VERTEX
  5
1FA
330
1F3
100
AcDbEntity
  8
001
370
    50
100
AcDbVertex
100
AcDb2dVertex
 10
47.412552
 20
93.524408
 30
0.0
  0
VERTEX
  5
1FB
330
1F3
100
AcDbEntity
  8
001
370
    50
100
AcDbVertex
100
AcDb2dVertex
 10
45.920151
 20
93.69417
 30
0.0
  0
SEQEND
  5
1F4
330
1F3
100
AcDbEntity
  8
001
370
    50
  0
LINE
  5
1FC
330
1F
100
AcDbEntity
  8
001
370
    50
100
AcDbLine
 10
45.920151
 20
93.69417
 30
0.0
 11
32.799068
 21
93.69417
 31
0.0
  0
LINE
  5
1FD
330
1F
100
AcDbEntity
  8
001
370
    50
100
AcDbLine
 10
32.799068
 20
98.582216
 30
0.0
 11
33.723798
 21
98.753702
 31
0.0
  0
POLYLINE
  5
1FE
330
1F
100
AcDbEntity
  8
001
370
    50
100
AcDb2dPolyline
 66
     1
 10
0.0
 20
0.0
 30
0.0
  0
VERTEX
  5
200
330
1FE
100
AcDbEntity
  8
001
370
    50
100
AcDbVertex
100
AcDb2dVertex
 10
50.908605
 20
96.610308
 30
0.0
  0
VERTEX
  5
201
330
1FE
100
AcDbEntity
  8
001
370
    50
100
AcDbVertex
100
AcDb2dVertex
 10
49.493578
 20
96.79171
 30
0.0
  0
VERTEX
  5
202
330
1FE
100
AcDbEntity
  8
001
370
    50
100
AcDbVertex
100
AcDb2dVertex
 10
47.486012
 20
97.047465
 30
0.0
  0
VERTEX
  5
203
330
1FE
100
AcDbEntity
  8
001
370
    50
100
AcDbVertex
100
AcDb2dVertex
 10
45.083258
 20
97.351489
 30
0.0
  0
VERTEX
  5
204
330
1FE
100
AcDbEntity
  8
001
370
    50
100
AcDbVertex
100
AcDb2dVertex
 10
42.482666
 20
97.6777
 30
0.0
  0
VERTEX
  5
205
330
1FE
100
AcDbEntity
  8
001
370
    50
100
AcDbVertex
100
AcDb2dVertex
 10
39.780141
 20
98.013029
 30
0.0
  0
VERTEX
  5
206
330
1FE
100
AcDbEntity
  8
001
370
    50
100
AcDbVertex
100
AcDb2dVertex
 10
37.282529
 20
98.320145
 30
0.0
  0
VERTEX
  5
207
330
1FE
100
AcDbEntity
  8
001
370
    50
100
AcDbVertex
100
AcDb2dVertex
 10
35.195269
 20
98.575038
 30
0.0
  0
VERTEX
  5
208
330
1FE
100
AcDbEntity
  8
001
370
    50
100
AcDbVertex
100
AcDb2dVertex
 10
33.723798
 20
98.753702
 30
0.0
  0
SEQEND
  5
1FF
330
1FE
100
AcDbEntity
  8
001
370
    50
  0
POLYLINE
  5
209
330
1F
100
AcDbEntity
  8
001
370
    50
100
AcDb2dPolyline
 66
     1
 10
0.0
 20
0.0
 30
0.0
  0
VERTEX
  5
20B
330
209
100
AcDbEntity
  8
001
370
    50
100
AcDbVertex
100
AcDb2dVertex
 10
42.995705
 20
96.292119
 30
0.0
  0
VERTEX
  5
20C
330
209
100
AcDbEntity
  8
001
370
    50
100
AcDbVertex
100
AcDb2dVertex
 10
42.995508
 20
96.306706
 30
0.0
  0
VERTEX
  5
20D
330
209
100
AcDbEntity
  8
001
370
    50
100
AcDbVertex
100
AcDb2dVertex
 10
42.994664
 20
96.328004
 30
0.0
  0
VERTEX
  5
20E
330
209
100
AcDbEntity
  8
001
370
    50
100
AcDbVertex
100
AcDb2dVertex
 10
42.993037
 20
96.349417
 30
0.0
  0
VERTEX
  5
20F
330
209
100
AcDbEntity
  8
001
370
    50
100
AcDbVertex
100
AcDb2dVertex
 10
42.991543
 20
96.364039
 30
0.0
  0
SEQEND
  5
20A
330
209
100
AcDbEntity
  8
001
370
    50
  0
LINE
  5
210
330
1F
100
AcDbEntity
  8
001
370
    50
100
AcDbLine
 10
33.723798
 20
106.087787
 30
0.0
 11
32.799068
 21
105.758738
 31
0.0
  0
LINE
  5
211
330
1F
100
AcDbEntity
  8
001
370
    50
100
AcDbLine
 10
33.723798
 20
106.087787
 30
0.0
 11
33.723798
 21
98.753702
 31
0.0
  0
POLYLINE
  5
212
330
1F
100
AcDbEntity
  8
001
370
    50
100
AcDb2dPolyline
 66
     1
 10
0.0
 20
0.0
 30
0.0
  0
VERTEX
  5
214
330
212
100
AcDbEntity
  8
001
370
    50
100
AcDbVertex
100
AcDb2dVertex
 10
50.908605
 20
110.689948
 30
0.0
  0
VERTEX
  5
215
330
212
100
AcDbEntity
  8
001
370
    50
100
AcDbVertex
100
AcDb2dVertex
 10
50.096974
 20
110.646751
 30
0.0
  0
VERTEX
  5
216
330
212
100
AcDbEntity
  8
001
370
    50
100
AcDbVertex
100
AcDb2dVertex
 10
48.910767
 20
110.583199
 30
0.0
  0
VERTEX
  5
217
330
212
100
AcDbEntity
  8
001
370
    50
100
AcDbVertex
100
AcDb2dVertex
 10
47.715626
 20
110.518583
 30
0.0
  0
VERTEX
  5
218
330
212
100
AcDbEntity
  8
001
370
    50
100
AcDbVertex
100
AcDb2dVertex
 10
46.897913
 20
110.474085
 30
0.0
  0
SEQEND
  5
213
330
212
100
AcDbEntity
  8
001
370
    50
  0
LINE
  5
219
330
1F
100
AcDbEntity
  8
001
370
    50
100
AcDbLine
 10
50.908605
 20
110.689948
 30
0.0
 11
50.908605
 21
96.610308
 31
0.0
  0
POLYLINE
  5
21A
330
1F
100
AcDbEntity
  8
001
370
    50
100
AcDb2dPolyline
 66
     1
 10
0.0
 20
0.0
 30
0.0
  0
VERTEX
  5
21C
330
21A
100
AcDbEntity
  8
001
370
    50
100
AcDbVertex
100
AcDb2dVertex
 10
47.799203
 20
107.077508
 30
0.0
  0
VERTEX
  5
21D
330
21A
100
AcDbEntity
  8
001
370
    50
100
AcDbVertex
100
AcDb2dVertex
 10
46.115077
 20
106.961855
 30
0.0
  0
VERTEX
  5
21E
330
21A
100
AcDbEntity
  8
001
370
    50
100
AcDbVertex
100
AcDb2dVertex
 10
43.653751
 20
106.791542
 30
0.0
  0
VERTEX
  5
21F
330
21A
100
AcDbEntity
  8
001
370
    50
100
AcDbVertex
100
AcDb2dVertex
 10
40.803928
 20
106.592417
 30
0.0
  0
VERTEX
  5
220
330
21A
100
AcDbEntity
  8
001
370
    50
100
AcDbVertex
100
AcDb2dVertex
 10
37.919324
 20
106.388334
 30
0.0
  0
VERTEX
  5
221
330
21A
100
AcDbEntity
  8
001
370
    50
100
AcDbVertex
100
AcDb2dVertex
 10
35.428194
 20
106.210396
 30
0.0
  0
VERTEX
  5
222
330
21A
100
AcDbEntity
  8
001
370
    50
100
AcDbVertex
100
AcDb2dVertex
 10
33.723798
 20
106.087787
 30
0.0
  0
SEQEND
  5
21B
330
21A
100
AcDbEntity
  8
001
370
    50
  0
POLYLINE
  5
223
330
1F
100
AcDbEntity
  8
001
370
    50
100
AcDb2dPolyline
 66
     1
 10
0.0
 20
0.0
 30
0.0
  0
VERTEX
  5
225
330
223
100
AcDbEntity
  8
001
370
    50
100
AcDbVertex
100
AcDb2dVertex
 10
47.799203
 20
107.077508
 30
0.0
  0
VERTEX
  5
226
330
223
100
AcDbEntity
  8
001
370
    50
100
AcDbVertex
100
AcDb2dVertex
 10
47.667199
 20
107.69517
 30
0.0
  0
VERTEX
  5
227
330
223
100
AcDbEntity
  8
001
370
    50
100
AcDbVertex
100
AcDb2dVertex
 10
47.435536
 20
108.587796
 30
0.0
  0
VERTEX
  5
228
330
223
100
AcDbEntity
  8
001
370
    50
100
AcDbVertex
100
AcDb2dVertex
 10
47.166027
 20
109.413224
 30
0.0
  0
VERTEX
  5
229
330
223
100
AcDbEntity
  8
001
370
    50
100
AcDbVertex
100
AcDb2dVertex
 10
46.956062
 20
109.969557
 30
0.0
  0
SEQEND
  5
224
330
223
100
AcDbEntity
  8
001
370
    50
  0
POLYLINE
  5
22A
330
1F
100
AcDbEntity
  8
001
370
    50
100
AcDb2dPolyline
 66
     1
 10
0.0
 20
0.0
 30
0.0
  0
VERTEX
  5
22C
330
22A
100
AcDbEntity
  8
001
370
    50
100
AcDbVertex
100
AcDb2dVertex
 10
55.085449
 20
114.79417
 30
0.0
  0
VERTEX
  5
22D
330
22A
100
AcDbEntity
  8
001
370
    50
100
AcDbVertex
100
AcDb2dVertex
 10
55.173299
 20
114.791654
 30
0.0
  0
VERTEX
  5
22E
330
22A
100
AcDbEntity
  8
001
370
    50
100
AcDbVertex
100
AcDb2dVertex
 10
55.261004
 20
114.786096
 30
0.0
  0
VERTEX
  5
22F
330
22A
100
AcDbEntity
  8
001
370
    50
100
AcDbVertex
100
AcDb2dVertex
 10
55.369126
 20
114.770971
 30
0.0
  0
VERTEX
  5
230
330
22A
100
AcDbEntity
  8
001
370
    50
100
AcDbVertex
100
AcDb2dVertex
 10
55.474932
 20
114.744057
 30
0.0
  0
VERTEX
  5
231
330
22A
100
AcDbEntity
  8
001
370
    50
100
AcDbVertex
100
AcDb2dVertex
 10
55.561835
 20
114.70981
 30
0.0
  0
VERTEX
  5
232
330
22A
100
AcDbEntity
  8
001
370
    50
100
AcDbVertex
100
AcDb2dVertex
 10
55.642818
 20
114.663218
 30
0.0
  0
VERTEX
  5
233
330
22A
100
AcDbEntity
  8
001
370
    50
100
AcDbVertex
100
AcDb2dVertex
 10
55.709489
 20
114.608161
 30
0.0
  0
VERTEX
  5
234
330
22A
100
AcDbEntity
  8
001
370
    50
100
AcDbVertex
100
AcDb2dVertex
 10
55.764924
 20
114.542459
 30
0.0
  0
VERTEX
  5
235
330
22A
100
AcDbEntity
  8
001
370
    50
100
AcDbVertex
100
AcDb2dVertex
 10
55.810802
 20
114.460195
 30
0.0
  0
VERTEX
  5
236
330
22A
100
AcDbEntity
  8
001
370
    50
100
AcDbVertex
100
AcDb2dVertex
 10
55.847578
 20
114.372393
 30
0.0
  0
SEQEND
  5
22B
330
22A
100
AcDbEntity
  8
001
370
    50
  0
LINE
  5
237
330
1F
100
AcDbEntity
  8
001
370
    50
100
AcDbLine
 10
59.599068
 20
114.79417
 30
0.0
 11
55.079847
 21
114.79417
 31
0.0
  0
LINE
  5
238
330
1F
100
AcDbEntity
  8
001
370
    50
100
AcDbLine
 10
50.908605
 20
77.59417
 30
0.0
 11
59.599068
 21
77.59417
 31
0.0
  0
POLYLINE
  5
239
330
1F
100
AcDbEntity
  8
001
370
    50
100
AcDb2dPolyline
 66
     1
 10
0.0
 20
0.0
 30
0.0
  0
VERTEX
  5
23B
330
239
100
AcDbEntity
  8
001
370
    50
100
AcDbVertex
100
AcDb2dVertex
 10
50.908605
 20
78.853
 30
0.0
  0
VERTEX
  5
23C
330
239
100
AcDbEntity
  8
001
370
    50
100
AcDbVertex
100
AcDb2dVertex
 10
52.047163
 20
78.897566
 30
0.0
  0
VERTEX
  5
23D
330
239
100
AcDbEntity
  8
001
370
    50
100
AcDbVertex
100
AcDb2dVertex
 10
53.711154
 20
78.964116
 30
0.0
  0
VERTEX
  5
23E
330
239
100
AcDbEntity
  8
001
370
    50
100
AcDbVertex
100
AcDb2dVertex
 10
55.364277
 20
79.032196
 30
0.0
  0
VERTEX
  5
23F
330
239
100
AcDbEntity
  8
001
370
    50
100
AcDbVertex
100
AcDb2dVertex
 10
56.495321
 20
79.079743
 30
0.0
  0
SEQEND
  5
23A
330
239
100
AcDbEntity
  8
001
370
    50
  0
POLYLINE
  5
240
330
1F
100
AcDbEntity
  8
001
370
    50
100
AcDb2dPolyline
 66
     1
 10
0.0
 20
0.0
 30
0.0
  0
VERTEX
  5
242
330
240
100
AcDbEntity
  8
001
370
    50
100
AcDbVertex
100
AcDb2dVertex
 10
55.847578
 20
83.69417
 30
0.0
  0
VERTEX
  5
243
330
240
100
AcDbEntity
  8
001
370
    50
100
AcDbVertex
100
AcDb2dVertex
 10
55.991157
 20
82.222885
 30
0.0
  0
VERTEX
  5
244
330
240
100
AcDbEntity
  8
001
370
    50
100
AcDbVertex
100
AcDb2dVertex
 10
56.294096
 20
80.086097
 30
0.0
  0
VERTEX
  5
245
330
240
100
AcDbEntity
  8
001
370
    50
100
AcDbVertex
100
AcDb2dVertex
 10
56.408342
 20
79.487557
 30
0.0
  0
VERTEX
  5
246
330
240
100
AcDbEntity
  8
001
370
    50
100
AcDbVertex
100
AcDb2dVertex
 10
56.495321
 20
79.079743
 30
0.0
  0
SEQEND
  5
241
330
240
100
AcDbEntity
  8
001
370
    50
  0
POLYLINE
  5
247
330
1F
100
AcDbEntity
  8
001
370
    50
100
AcDb2dPolyline
 66
     1
 10
0.0
 20
0.0
 30
0.0
  0
VERTEX
  5
249
330
247
100
AcDbEntity
  8
001
370
    50
100
AcDbVertex
100
AcDb2dVertex
 10
54.997302
 20
87.111278
 30
0.0
  0
VERTEX
  5
24A
330
247
100
AcDbEntity
  8
001
370
    50
100
AcDbVertex
100
AcDb2dVertex
 10
55.132705
 20
86.768757
 30
0.0
  0
VERTEX
  5
24B
330
247
100
AcDbEntity
  8
001
370
    50
100
AcDbVertex
100
AcDb2dVertex
 10
55.261004
 20
86.423655
 30
0.0
  0
VERTEX
  5
24C
330
247
100
AcDbEntity
  8
001
370
    50
100
AcDbVertex
100
AcDb2dVertex
 10
55.373928
 20
86.082529
 30
0.0
  0
VERTEX
  5
24D
330
247
100
AcDbEntity
  8
001
370
    50
100
AcDbVertex
100
AcDb2dVertex
 10
55.474932
 20
85.737592
 30
0.0
  0
VERTEX
  5
24E
330
247
100
AcDbEntity
  8
001
370
    50
100
AcDbVertex
100
AcDb2dVertex
 10
55.563878
 20
85.395811
 30
0.0
  0
VERTEX
  5
24F
330
247
100
AcDbEntity
  8
001
370
    50
100
AcDbVertex
100
AcDb2dVertex
 10
55.642818
 20
85.051589
 30
0.0
  0
VERTEX
  5
250
330
247
100
AcDbEntity
  8
001
370
    50
100
AcDbVertex
100
AcDb2dVertex
 10
55.70939
 20
84.71624
 30
0.0
  0
VERTEX
  5
251
330
247
100
AcDbEntity
  8
001
370
    50
100
AcDbVertex
100
AcDb2dVertex
 10
55.764924
 20
84.378962
 30
0.0
  0
VERTEX
  5
252
330
247
100
AcDbEntity
  8
001
370
    50
100
AcDbVertex
100
AcDb2dVertex
 10
55.809473
 20
84.037008
 30
0.0
  0
VERTEX
  5
253
330
247
100
AcDbEntity
  8
001
370
    50
100
AcDbVertex
100
AcDb2dVertex
 10
55.847578
 20
83.69417
 30
0.0
  0
SEQEND
  5
248
330
247
100
AcDbEntity
  8
001
370
    50
  0
LINE
  5
254
330
1F
100
AcDbEntity
  8
001
370
    50
100
AcDbLine
 10
55.89458
 20
91.173753
 30
0.0
 11
55.825251
 21
90.428991
 31
0.0
  0
POLYLINE
  5
255
330
1F
100
AcDbEntity
  8
001
370
    50
100
AcDb2dPolyline
 66
     1
 10
0.0
 20
0.0
 30
0.0
  0
VERTEX
  5
257
330
255
100
AcDbEntity
  8
001
370
    50
100
AcDbVertex
100
AcDb2dVertex
 10
56.276817
 20
95.993661
 30
0.0
  0
VERTEX
  5
258
330
255
100
AcDbEntity
  8
001
370
    50
100
AcDbVertex
100
AcDb2dVertex
 10
56.176023
 20
94.795153
 30
0.0
  0
VERTEX
  5
259
330
255
100
AcDbEntity
  8
001
370
    50
100
AcDbVertex
100
AcDb2dVertex
 10
56.035122
 20
93.04297
 30
0.0
  0
VERTEX
  5
25A
330
255
100
AcDbEntity
  8
001
370
    50
100
AcDbVertex
100
AcDb2dVertex
 10
55.950593
 20
91.933205
 30
0.0
  0
VERTEX
  5
25B
330
255
100
AcDbEntity
  8
001
370
    50
100
AcDbVertex
100
AcDb2dVertex
 10
55.89458
 20
91.173753
 30
0.0
  0
SEQEND
  5
256
330
255
100
AcDbEntity
  8
001
370
    50
  0
POLYLINE
  5
25C
330
1F
100
AcDbEntity
  8
001
370
    50
100
AcDb2dPolyline
 66
     1
 10
0.0
 20
0.0
 30
0.0
  0
VERTEX
  5
25E
330
25C
100
AcDbEntity
  8
001
370
    50
100
AcDbVertex
100
AcDb2dVertex
 10
56.495321
 20
111.059497
 30
0.0
  0
VERTEX
  5
25F
330
25C
100
AcDbEntity
  8
001
370
    50
100
AcDbVertex
100
AcDb2dVertex
 10
55.364234
 20
110.985499
 30
0.0
  0
VERTEX
  5
260
330
25C
100
AcDbEntity
  8
001
370
    50
100
AcDbVertex
100
AcDb2dVertex
 10
53.711154
 20
110.876645
 30
0.0
  0
VERTEX
  5
261
330
25C
100
AcDbEntity
  8
001
370
    50
100
AcDbVertex
100
AcDb2dVertex
 10
52.047121
 20
110.76608
 30
0.0
  0
VERTEX
  5
262
330
25C
100
AcDbEntity
  8
001
370
    50
100
AcDbVertex
100
AcDb2dVertex
 10
50.908605
 20
110.689948
 30
0.0
  0
SEQEND
  5
25D
330
25C
100
AcDbEntity
  8
001
370
    50
  0
POLYLINE
  5
263
330
1F
100
AcDbEntity
  8
001
370
    50
100
AcDb2dPolyline
 66
     1
 10
0.0
 20
0.0
 30
0.0
  0
VERTEX
  5
265
330
263
100
AcDbEntity
  8
001
370
    50
100
AcDbVertex
100
AcDb2dVertex
 10
56.495321
 20
111.059497
 30
0.0
  0
VERTEX
  5
266
330
263
100
AcDbEntity
  8
001
370
    50
100
AcDbVertex
100
AcDb2dVertex
 10
56.40798
 20
111.605942
 30
0.0
  0
VERTEX
  5
267
330
263
100
AcDbEntity
  8
001
370
    50
100
AcDbVertex
100
AcDb2dVertex
 10
56.287203
 20
112.342014
 30
0.0
  0
VERTEX
  5
268
330
263
100
AcDbEntity
  8
001
370
    50
100
AcDbVertex
100
AcDb2dVertex
 10
56.170455
 20
113.013628
 30
0.0
  0
VERTEX
  5
269
330
263
100
AcDbEntity
  8
001
370
    50
100
AcDbVertex
100
AcDb2dVertex
 10
56.022913
 20
113.699598
 30
0.0
  0
VERTEX
  5
26A
330
263
100
AcDbEntity
  8
001
370
    50
100
AcDbVertex
100
AcDb2dVertex
 10
55.925118
 20
114.09187
 30
0.0
  0
VERTEX
  5
26B
330
263
100
AcDbEntity
  8
001
370
    50
100
AcDbVertex
100
AcDb2dVertex
 10
55.847578
 20
114.372393
 30
0.0
  0
SEQEND
  5
264
330
263
100
AcDbEntity
  8
001
370
    50
  0
LINE
  5
26C
330
1F
100
AcDbEntity
  8
001
370
    50
100
AcDbLine
 10
54.997302
 20
114.792493
 30
0.0
 11
55.085449
 21
114.79417
 31
0.0
  0
POLYLINE
  5
26D
330
1F
100
AcDbEntity
  8
001
370
    50
100
AcDb2dPolyline
 66
     1
 10
0.0
 20
0.0
 30
0.0
  0
VERTEX
  5
26F
330
26D
100
AcDbEntity
  8
001
370
    50
100
AcDbVertex
100
AcDb2dVertex
 10
54.648033
 20
112.30832
 30
0.0
  0
VERTEX
  5
270
330
26D
100
AcDbEntity
  8
001
370
    50
100
AcDbVertex
100
AcDb2dVertex
 10
54.323402
 20
112.289601
 30
0.0
  0
VERTEX
  5
271
330
26D
100
AcDbEntity
  8
001
370
    50
100
AcDbVertex
100
AcDb2dVertex
 10
53.848944
 20
112.262174
 30
0.0
  0
VERTEX
  5
272
330
26D
100
AcDbEntity
  8
001
370
    50
100
AcDbVertex
100
AcDb2dVertex
 10
52.103096
 20
112.160411
 30
0.0
  0
VERTEX
  5
273
330
26D
100
AcDbEntity
  8
001
370
    50
100
AcDbVertex
100
AcDb2dVertex
 10
50.908605
 20
112.090141
 30
0.0
  0
SEQEND
  5
26E
330
26D
100
AcDbEntity
  8
001
370
    50
  0
LINE
  5
274
330
1F
100
AcDbEntity
  8
001
370
    50
100
AcDbLine
 10
50.908605
 20
78.853
 30
0.0
 11
50.908605
 21
77.59417
 31
0.0
  0
LINE
  5
275
330
1F
100
AcDbEntity
  8
001
370
    50
100
AcDbLine
 10
59.599068
 20
114.79417
 30
0.0
 11
59.599068
 21
77.59417
 31
0.0
  0
LINE
  5
276
330
1F
100
AcDbEntity
  8
001
370
    50
100
AcDbLine
 10
59.599068
 20
77.59417
 30
0.0
 11
66.599068
 21
79.469814
 31
0.0
  0
LINE
  5
277
330
1F
100
AcDbEntity
  8
001
370
    50
100
AcDbLine
 10
66.599068
 20
112.918525
 30
0.0
 11
59.599068
 21
114.79417
 31
0.0
  0
LINE
  5
278
330
1F
100
AcDbEntity
  8
001
370
    50
100
AcDbLine
 10
66.599068
 20
112.918525
 30
0.0
 11
66.599068
 21
79.469814
 31
0.0
  0
POLYLINE
  5
279
330
1F
100
AcDbEntity
  8
001
370
    50
100
AcDb2dPolyline
 66
     1
 10
0.0
 20
0.0
 30
0.0
  0
VERTEX
  5
27B
330
279
100
AcDbEntity
  8
001
370
    50
100
AcDbVertex
100
AcDb2dVertex
 10
37.924457
 20
96.658922
 30
0.0
  0
VERTEX
  5
27C
330
279
100
AcDbEntity
  8
001
370
    50
100
AcDbVertex
100
AcDb2dVertex
 10
37.92941
 20
96.626501
 30
0.0
  0
VERTEX
  5
27D
330
279
100
AcDbEntity
  8
001
370
    50
100
AcDbVertex
100
AcDb2dVertex
 10
37.93827
 20
96.580774
 30
0.0
  0
VERTEX
  5
27E
330
279
100
AcDbEntity
  8
001
370
    50
100
AcDbVertex
100
AcDb2dVertex
 10
37.976275
 20
96.459561
 30
0.0
  0
VERTEX
  5
27F
330
279
100
AcDbEntity
  8
001
370
    50
100
AcDbVertex
100
AcDb2dVertex
 10
38.028906
 20
96.359673
 30
0.0
  0
VERTEX
  5
280
330
279
100
AcDbEntity
  8
001
370
    50
100
AcDbVertex
100
AcDb2dVertex
 10
38.104749
 20
96.24951
 30
0.0
  0
VERTEX
  5
281
330
279
100
AcDbEntity
  8
001
370
    50
100
AcDbVertex
100
AcDb2dVertex
 10
38.19335
 20
96.143185
 30
0.0
  0
VERTEX
  5
282
330
279
100
AcDbEntity
  8
001
370
    50
100
AcDbVertex
100
AcDb2dVertex
 10
38.59893
 20
95.814818
 30
0.0
  0
VERTEX
  5
283
330
279
100
AcDbEntity
  8
001
370
    50
100
AcDbVertex
100
AcDb2dVertex
 10
39.069316
 20
95.585284
 30
0.0
  0
VERTEX
  5
284
330
279
100
AcDbEntity
  8
001
370
    50
100
AcDbVertex
100
AcDb2dVertex
 10
39.469866
 20
95.446386
 30
0.0
  0
VERTEX
  5
285
330
279
100
AcDbEntity
  8
001
370
    50
100
AcDbVertex
100
AcDb2dVertex
 10
39.879525
 20
95.344394
 30
0.0
  0
VERTEX
  5
286
330
279
100
AcDbEntity
  8
001
370
    50
100
AcDbVertex
100
AcDb2dVertex
 10
40.097617
 20
95.305218
 30
0.0
  0
VERTEX
  5
287
330
279
100
AcDbEntity
  8
001
370
    50
100
AcDbVertex
100
AcDb2dVertex
 10
40.31738
 20
95.275556
 30
0.0
  0
VERTEX
  5
288
330
279
100
AcDbEntity
  8
001
370
    50
100
AcDbVertex
100
AcDb2dVertex
 10
40.538213
 20
95.255205
 30
0.0
  0
VERTEX
  5
289
330
279
100
AcDbEntity
  8
001
370
    50
100
AcDbVertex
100
AcDb2dVertex
 10
40.759507
 20
95.244272
 30
0.0
  0
VERTEX
  5
28A
330
279
100
AcDbEntity
  8
001
370
    50
100
AcDbVertex
100
AcDb2dVertex
 10
41.181376
 20
95.250779
 30
0.0
  0
VERTEX
  5
28B
330
279
100
AcDbEntity
  8
001
370
    50
100
AcDbVertex
100
AcDb2dVertex
 10
41.603122
 20
95.296994
 30
0.0
  0
VERTEX
  5
28C
330
279
100
AcDbEntity
  8
001
370
    50
100
AcDbVertex
100
AcDb2dVertex
 10
42.114304
 20
95.419492
 30
0.0
  0
VERTEX
  5
28D
330
279
100
AcDbEntity
  8
001
370
    50
100
AcDbVertex
100
AcDb2dVertex
 10
42.58203
 20
95.643852
 30
0.0
  0
VERTEX
  5
28E
330
279
100
AcDbEntity
  8
001
370
    50
100
AcDbVertex
100
AcDb2dVertex
 10
42.691333
 20
95.724262
 30
0.0
  0
VERTEX
  5
28F
330
279
100
AcDbEntity
  8
001
370
    50
100
AcDbVertex
100
AcDb2dVertex
 10
42.790904
 20
95.817866
 30
0.0
  0
VERTEX
  5
290
330
279
100
AcDbEntity
  8
001
370
    50
100
AcDbVertex
100
AcDb2dVertex
 10
42.867157
 20
95.912438
 30
0.0
  0
VERTEX
  5
291
330
279
100
AcDbEntity
  8
001
370
    50
100
AcDbVertex
100
AcDb2dVertex
 10
42.928893
 20
96.012955
 30
0.0
  0
VERTEX
  5
292
330
279
100
AcDbEntity
  8
001
370
    50
100
AcDbVertex
100
AcDb2dVertex
 10
42.969411
 20
96.108591
 30
0.0
  0
VERTEX
  5
293
330
279
100
AcDbEntity
  8
001
370
    50
100
AcDbVertex
100
AcDb2dVertex
 10
42.991806
 20
96.223191
 30
0.0
  0
VERTEX
  5
294
330
279
100
AcDbEntity
  8
001
370
    50
100
AcDbVertex
100
AcDb2dVertex
 10
42.994741
 20
96.263624
 30
0.0
  0
VERTEX
  5
295
330
279
100
AcDbEntity
  8
001
370
    50
100
AcDbVertex
100
AcDb2dVertex
 10
42.995705
 20
96.292119
 30
0.0
  0
SEQEND
  5
27A
330
279
100
AcDbEntity
  8
001
370
    50
  0
POLYLINE
  5
296
330
1F
100
AcDbEntity
  8
001
370
    50
100
AcDb2dPolyline
 66
     1
 10
0.0
 20
0.0
 30
0.0
  0
VERTEX
  5
298
330
296
100
AcDbEntity
  8
001
370
    50
100
AcDbVertex
100
AcDb2dVertex
 10
42.991543
 20
96.364039
 30
0.0
  0
VERTEX
  5
299
330
296
100
AcDbEntity
  8
001
370
    50
100
AcDbVertex
100
AcDb2dVertex
 10
42.98659
 20
96.39646
 30
0.0
  0
VERTEX
  5
29A
330
296
100
AcDbEntity
  8
001
370
    50
100
AcDbVertex
100
AcDb2dVertex
 10
42.97773
 20
96.442186
 30
0.0
  0
VERTEX
  5
29B
330
296
100
AcDbEntity
  8
001
370
    50
100
AcDbVertex
100
AcDb2dVertex
 10
42.939725
 20
96.5634
 30
0.0
  0
VERTEX
  5
29C
330
296
100
AcDbEntity
  8
001
370
    50
100
AcDbVertex
100
AcDb2dVertex
 10
42.887094
 20
96.663288
 30
0.0
  0
VERTEX
  5
29D
330
296
100
AcDbEntity
  8
001
370
    50
100
AcDbVertex
100
AcDb2dVertex
 10
42.811251
 20
96.77345
 30
0.0
  0
VERTEX
  5
29E
330
296
100
AcDbEntity
  8
001
370
    50
100
AcDbVertex
100
AcDb2dVertex
 10
42.72265
 20
96.879776
 30
0.0
  0
VERTEX
  5
29F
330
296
100
AcDbEntity
  8
001
370
    50
100
AcDbVertex
100
AcDb2dVertex
 10
42.31707
 20
97.208142
 30
0.0
  0
VERTEX
  5
2A0
330
296
100
AcDbEntity
  8
001
370
    50
100
AcDbVertex
100
AcDb2dVertex
 10
41.846684
 20
97.437677
 30
0.0
  0
VERTEX
  5
2A1
330
296
100
AcDbEntity
  8
001
370
    50
100
AcDbVertex
100
AcDb2dVertex
 10
41.446135
 20
97.576576
 30
0.0
  0
VERTEX
  5
2A2
330
296
100
AcDbEntity
  8
001
370
    50
100
AcDbVertex
100
AcDb2dVertex
 10
41.036475
 20
97.678567
 30
0.0
  0
VERTEX
  5
2A3
330
296
100
AcDbEntity
  8
001
370
    50
100
AcDbVertex
100
AcDb2dVertex
 10
40.818383
 20
97.717742
 30
0.0
  0
VERTEX
  5
2A4
330
296
100
AcDbEntity
  8
001
370
    50
100
AcDbVertex
100
AcDb2dVertex
 10
40.59862
 20
97.747405
 30
0.0
  0
VERTEX
  5
2A5
330
296
100
AcDbEntity
  8
001
370
    50
100
AcDbVertex
100
AcDb2dVertex
 10
40.377789
 20
97.767759
 30
0.0
  0
VERTEX
  5
2A6
330
296
100
AcDbEntity
  8
001
370
    50
100
AcDbVertex
100
AcDb2dVertex
 10
40.156493
 20
97.778689
 30
0.0
  0
VERTEX
  5
2A7
330
296
100
AcDbEntity
  8
001
370
    50
100
AcDbVertex
100
AcDb2dVertex
 10
39.734605
 20
97.772147
 30
0.0
  0
VERTEX
  5
2A8
330
296
100
AcDbEntity
  8
001
370
    50
100
AcDbVertex
100
AcDb2dVertex
 10
39.312878
 20
97.725967
 30
0.0
  0
VERTEX
  5
2A9
330
296
100
AcDbEntity
  8
001
370
    50
100
AcDbVertex
100
AcDb2dVertex
 10
38.801794
 20
97.603657
 30
0.0
  0
VERTEX
  5
2AA
330
296
100
AcDbEntity
  8
001
370
    50
100
AcDbVertex
100
AcDb2dVertex
 10
38.33397
 20
97.379109
 30
0.0
  0
VERTEX
  5
2AB
330
296
100
AcDbEntity
  8
001
370
    50
100
AcDbVertex
100
AcDb2dVertex
 10
38.224595
 20
97.298561
 30
0.0
  0
VERTEX
  5
2AC
330
296
100
AcDbEntity
  8
001
370
    50
100
AcDbVertex
100
AcDb2dVertex
 10
38.125096
 20
97.205095
 30
0.0
  0
VERTEX
  5
2AD
330
296
100
AcDbEntity
  8
001
370
    50
100
AcDbVertex
100
AcDb2dVertex
 10
38.04904
 20
97.110901
 30
0.0
  0
VERTEX
  5
2AE
330
296
100
AcDbEntity
  8
001
370
    50
100
AcDbVertex
100
AcDb2dVertex
 10
37.987107
 20
97.010006
 30
0.0
  0
VERTEX
  5
2AF
330
296
100
AcDbEntity
  8
001
370
    50
100
AcDbVertex
100
AcDb2dVertex
 10
37.945949
 20
96.913145
 30
0.0
  0
VERTEX
  5
2B0
330
296
100
AcDbEntity
  8
001
370
    50
100
AcDbVertex
100
AcDb2dVertex
 10
37.924194
 20
96.79977
 30
0.0
  0
VERTEX
  5
2B1
330
296
100
AcDbEntity
  8
001
370
    50
100
AcDbVertex
100
AcDb2dVertex
 10
37.921628
 20
96.717724
 30
0.0
  0
VERTEX
  5
2B2
330
296
100
AcDbEntity
  8
001
370
    50
100
AcDbVertex
100
AcDb2dVertex
 10
37.924457
 20
96.658922
 30
0.0
  0
SEQEND
  5
297
330
296
100
AcDbEntity
  8
001
370
    50
  0
POLYLINE
  5
2B3
330
1F
100
AcDbEntity
  8
001
370
    50
100
AcDb2dPolyline
 66
     1
 10
0.0
 20
0.0
 30
0.0
  0
VERTEX
  5
2B5
330
2B3
100
AcDbEntity
  8
001
370
    50
100
AcDbVertex
100
AcDb2dVertex
 10
55.825251
 20
90.428991
 30
0.0
  0
VERTEX
  5
2B6
330
2B3
100
AcDbEntity
  8
001
370
    50
100
AcDbVertex
100
AcDb2dVertex
 10
55.804851
 20
90.262089
 30
0.0
  0
VERTEX
  5
2B7
330
2B3
100
AcDbEntity
  8
001
370
    50
100
AcDbVertex
100
AcDb2dVertex
 10
55.783392
 20
90.095329
 30
0.0
  0
VERTEX
  5
2B8
330
2B3
100
AcDbEntity
  8
001
370
    50
100
AcDbVertex
100
AcDb2dVertex
 10
55.70166
 20
89.566132
 30
0.0
  0
VERTEX
  5
2B9
330
2B3
100
AcDbEntity
  8
001
370
    50
100
AcDbVertex
100
AcDb2dVertex
 10
55.599442
 20
89.040263
 30
0.0
  0
VERTEX
  5
2BA
330
2B3
100
AcDbEntity
  8
001
370
    50
100
AcDbVertex
100
AcDb2dVertex
 10
55.483072
 20
88.544725
 30
0.0
  0
VERTEX
  5
2BB
330
2B3
100
AcDbEntity
  8
001
370
    50
100
AcDbVertex
100
AcDb2dVertex
 10
55.342672
 20
88.055908
 30
0.0
  0
VERTEX
  5
2BC
330
2B3
100
AcDbEntity
  8
001
370
    50
100
AcDbVertex
100
AcDb2dVertex
 10
55.177437
 20
87.581136
 30
0.0
  0
VERTEX
  5
2BD
330
2B3
100
AcDbEntity
  8
001
370
    50
100
AcDbVertex
100
AcDb2dVertex
 10
54.997302
 20
87.111278
 30
0.0
  0
SEQEND
  5
2B4
330
2B3
100
AcDbEntity
  8
001
370
    50
  0
POLYLINE
  5
2BE
330
1F
100
AcDbEntity
  8
001
370
    50
100
AcDb2dPolyline
 66
     1
 10
0.0
 20
0.0
 30
0.0
  0
VERTEX
  5
2C0
330
2BE
100
AcDbEntity
  8
001
370
    50
100
AcDbVertex
100
AcDb2dVertex
 10
54.997302
 20
87.111278
 30
0.0
  0
VERTEX
  5
2C1
330
2BE
100
AcDbEntity
  8
001
370
    50
100
AcDbVertex
100
AcDb2dVertex
 10
54.943558
 20
87.360727
 30
0.0
  0
VERTEX
  5
2C2
330
2BE
100
AcDbEntity
  8
001
370
    50
100
AcDbVertex
100
AcDb2dVertex
 10
54.885181
 20
87.609045
 30
0.0
  0
VERTEX
  5
2C3
330
2BE
100
AcDbEntity
  8
001
370
    50
100
AcDbVertex
100
AcDb2dVertex
 10
54.817728
 20
87.857943
 30
0.0
  0
VERTEX
  5
2C4
330
2BE
100
AcDbEntity
  8
001
370
    50
100
AcDbVertex
100
AcDb2dVertex
 10
54.741965
 20
88.104526
 30
0.0
  0
VERTEX
  5
2C5
330
2BE
100
AcDbEntity
  8
001
370
    50
100
AcDbVertex
100
AcDb2dVertex
 10
54.617793
 20
88.461145
 30
0.0
  0
VERTEX
  5
2C6
330
2BE
100
AcDbEntity
  8
001
370
    50
100
AcDbVertex
100
AcDb2dVertex
 10
54.477757
 20
88.811798
 30
0.0
  0
VERTEX
  5
2C7
330
2BE
100
AcDbEntity
  8
001
370
    50
100
AcDbVertex
100
AcDb2dVertex
 10
54.316336
 20
89.166108
 30
0.0
  0
VERTEX
  5
2C8
330
2BE
100
AcDbEntity
  8
001
370
    50
100
AcDbVertex
100
AcDb2dVertex
 10
54.137834
 20
89.512177
 30
0.0
  0
VERTEX
  5
2C9
330
2BE
100
AcDbEntity
  8
001
370
    50
100
AcDbVertex
100
AcDb2dVertex
 10
53.932521
 20
89.865537
 30
0.0
  0
VERTEX
  5
2CA
330
2BE
100
AcDbEntity
  8
001
370
    50
100
AcDbVertex
100
AcDb2dVertex
 10
53.709152
 20
90.207679
 30
0.0
  0
VERTEX
  5
2CB
330
2BE
100
AcDbEntity
  8
001
370
    50
100
AcDbVertex
100
AcDb2dVertex
 10
53.58584
 20
90.381015
 30
0.0
  0
VERTEX
  5
2CC
330
2BE
100
AcDbEntity
  8
001
370
    50
100
AcDbVertex
100
AcDb2dVertex
 10
53.457929
 20
90.550989
 30
0.0
  0
VERTEX
  5
2CD
330
2BE
100
AcDbEntity
  8
001
370
    50
100
AcDbVertex
100
AcDb2dVertex
 10
53.321718
 20
90.722146
 30
0.0
  0
VERTEX
  5
2CE
330
2BE
100
AcDbEntity
  8
001
370
    50
100
AcDbVertex
100
AcDb2dVertex
 10
53.18042
 20
90.889089
 30
0.0
  0
VERTEX
  5
2CF
330
2BE
100
AcDbEntity
  8
001
370
    50
100
AcDbVertex
100
AcDb2dVertex
 10
53.099206
 20
90.980477
 30
0.0
  0
VERTEX
  5
2D0
330
2BE
100
AcDbEntity
  8
001
370
    50
100
AcDbVertex
100
AcDb2dVertex
 10
53.017129
 20
91.071102
 30
0.0
  0
SEQEND
  5
2BF
330
2BE
100
AcDbEntity
  8
001
370
    50
  0
ARC
  5
2D1
330
1F
100
AcDbEntity
  8
001
370
    50
100
AcDbCircle
 10
143.599068
 20
104.19417
 30
0.0
 40
8.0
100
AcDbArc
 50
0.0
 51
90.0
  0
ARC
  5
2D2
330
1F
100
AcDbEntity
  8
001
370
    50
100
AcDbCircle
 10
143.599068
 20
88.19417
 30
0.0
 40
8.0
100
AcDbArc
 50
270.0
 51
0.0
  0
LINE
  5
2D3
330
1F
100
AcDbEntity
  8
001
370
    50
100
AcDbLine
 10
151.599068
 20
104.19417
 30
0.0
 11
151.599068
 21
88.19417
 31
0.0
  0
LINE
  5
2D4
330
1F
100
AcDbEntity
  8
001
370
    50
100
AcDbLine
 10
68.599068
 20
112.19417
 30
0.0
 11
143.599068
 21
112.19417
 31
0.0
  0
LINE
  5
2D5
330
1F
100
AcDbEntity
  8
001
370
    50
100
AcDbLine
 10
68.599068
 20
80.19417
 30
0.0
 11
143.599068
 21
80.19417
 31
0.0
  0
LINE
  5
2D6
330
1F
100
AcDbEntity
  8
001
370
    50
100
AcDbLine
 10
55.847578
 20
114.372393
 30
0.0
 11
56.231389
 21
111.042277
 31
0.0
  0
POLYLINE
  5
2D7
330
1F
100
AcDbEntity
  8
001
370
    50
100
AcDb2dPolyline
 66
     1
 10
0.0
 20
0.0
 30
0.0
  0
VERTEX
  5
2D9
330
2D7
100
AcDbEntity
  8
001
370
    50
100
AcDbVertex
100
AcDb2dVertex
 10
34.711005
 20
93.69417
 30
0.0
  0
VERTEX
  5
2DA
330
2D7
100
AcDbEntity
  8
001
370
    50
100
AcDbVertex
100
AcDb2dVertex
 10
34.627233
 20
93.370284
 30
0.0
  0
VERTEX
  5
2DB
330
2D7
100
AcDbEntity
  8
001
370
    50
100
AcDbVertex
100
AcDb2dVertex
 10
34.539135
 20
93.047612
 30
0.0
  0
VERTEX
  5
2DC
330
2D7
100
AcDbEntity
  8
001
370
    50
100
AcDbVertex
100
AcDb2dVertex
 10
34.443418
 20
92.727104
 30
0.0
  0
VERTEX
  5
2DD
330
2D7
100
AcDbEntity
  8
001
370
    50
100
AcDbVertex
100
AcDb2dVertex
 10
34.340897
 20
92.408648
 30
0.0
  0
VERTEX
  5
2DE
330
2D7
100
AcDbEntity
  8
001
370
    50
100
AcDbVertex
100
AcDb2dVertex
 10
34.119741
 20
91.773676
 30
0.0
  0
VERTEX
  5
2DF
330
2D7
100
AcDbEntity
  8
001
370
    50
100
AcDbVertex
100
AcDb2dVertex
 10
33.881636
 20
91.144849
 30
0.0
  0
VERTEX
  5
2E0
330
2D7
100
AcDbEntity
  8
001
370
    50
100
AcDbVertex
100
AcDb2dVertex
 10
33.627208
 20
90.516366
 30
0.0
  0
VERTEX
  5
2E1
330
2D7
100
AcDbEntity
  8
001
370
    50
100
AcDbVertex
100
AcDb2dVertex
 10
33.360167
 20
89.893167
 30
0.0
  0
VERTEX
  5
2E2
330
2D7
100
AcDbEntity
  8
001
370
    50
100
AcDbVertex
100
AcDb2dVertex
 10
33.082401
 20
89.273949
 30
0.0
  0
VERTEX
  5
2E3
330
2D7
100
AcDbEntity
  8
001
370
    50
100
AcDbVertex
100
AcDb2dVertex
 10
32.799068
 20
88.657222
 30
0.0
  0
SEQEND
  5
2D8
330
2D7
100
AcDbEntity
  8
001
370
    50
  0
POLYLINE
  5
2E4
330
1F
100
AcDbEntity
  8
001
370
    50
100
AcDb2dPolyline
 66
     1
 10
0.0
 20
0.0
 30
0.0
  0
VERTEX
  5
2E6
330
2E4
100
AcDbEntity
  8
001
370
    50
100
AcDbVertex
100
AcDb2dVertex
 10
32.799068
 20
89.95668
 30
0.0
  0
VERTEX
  5
2E7
330
2E4
100
AcDbEntity
  8
001
370
    50
100
AcDbVertex
100
AcDb2dVertex
 10
32.823138
 20
89.994277
 30
0.0
  0
VERTEX
  5
2E8
330
2E4
100
AcDbEntity
  8
001
370
    50
100
AcDbVertex
100
AcDb2dVertex
 10
32.847206
 20
90.031876
 30
0.0
  0
VERTEX
  5
2E9
330
2E4
100
AcDbEntity
  8
001
370
    50
100
AcDbVertex
100
AcDb2dVertex
 10
33.320845
 20
90.77468
 30
0.0
  0
VERTEX
  5
2EA
330
2E4
100
AcDbEntity
  8
001
370
    50
100
AcDbVertex
100
AcDb2dVertex
 10
33.790348
 20
91.520097
 30
0.0
  0
VERTEX
  5
2EB
330
2E4
100
AcDbEntity
  8
001
370
    50
100
AcDbVertex
100
AcDb2dVertex
 10
34.07061
 20
91.97105
 30
0.0
  0
VERTEX
  5
2EC
330
2E4
100
AcDbEntity
  8
001
370
    50
100
AcDbVertex
100
AcDb2dVertex
 10
34.34969
 20
92.42274
 30
0.0
  0
SEQEND
  5
2E5
330
2E4
100
AcDbEntity
  8
001
370
    50
  0
POLYLINE
  5
2ED
330
1F
100
AcDbEntity
  8
001
370
    50
100
AcDb2dPolyline
 66
     1
 10
0.0
 20
0.0
 30
0.0
  0
VERTEX
  5
2EF
330
2ED
100
AcDbEntity
  8
001
370
    50
100
AcDbVertex
100
AcDb2dVertex
 10
34.596249
 20
93.251081
 30
0.0
  0
VERTEX
  5
2F0
330
2ED
100
AcDbEntity
  8
001
370
    50
100
AcDbVertex
100
AcDb2dVertex
 10
34.567872
 20
93.304264
 30
0.0
  0
VERTEX
  5
2F1
330
2ED
100
AcDbEntity
  8
001
370
    50
100
AcDbVertex
100
AcDb2dVertex
 10
34.539135
 20
93.357245
 30
0.0
  0
VERTEX
  5
2F2
330
2ED
100
AcDbEntity
  8
001
370
    50
100
AcDbVertex
100
AcDb2dVertex
 10
34.441809
 20
93.526772
 30
0.0
  0
VERTEX
  5
2F3
330
2ED
100
AcDbEntity
  8
001
370
    50
100
AcDbVertex
100
AcDb2dVertex
 10
34.340705
 20
93.694171
 30
0.0
  0
SEQEND
  5
2EE
330
2ED
100
AcDbEntity
  8
001
370
    50
  0
POLYLINE
  5
2F4
330
1F
100
AcDbEntity
  8
001
370
    50
100
AcDb2dPolyline
 66
     1
 10
0.0
 20
0.0
 30
0.0
  0
VERTEX
  5
2F6
330
2F4
100
AcDbEntity
  8
001
370
    50
100
AcDbVertex
100
AcDb2dVertex
 10
46.740997
 20
78.581366
 30
0.0
  0
VERTEX
  5
2F7
330
2F4
100
AcDbEntity
  8
001
370
    50
100
AcDbVertex
100
AcDb2dVertex
 10
47.590855
 20
78.635707
 30
0.0
  0
VERTEX
  5
2F8
330
2F4
100
AcDbEntity
  8
001
370
    50
100
AcDbVertex
100
AcDb2dVertex
 10
48.832898
 20
78.716031
 30
0.0
  0
VERTEX
  5
2F9
330
2F4
100
AcDbEntity
  8
001
370
    50
100
AcDbVertex
100
AcDb2dVertex
 10
50.065373
 20
78.796991
 30
0.0
  0
VERTEX
  5
2FA
330
2F4
100
AcDbEntity
  8
001
370
    50
100
AcDbVertex
100
AcDb2dVertex
 10
50.908605
 20
78.853
 30
0.0
  0
SEQEND
  5
2F5
330
2F4
100
AcDbEntity
  8
001
370
    50
  0
LINE
  5
2FB
330
1F
100
AcDbEntity
  8
001
370
    50
100
AcDbLine
 10
45.436704
 20
80.689672
 30
0.0
 11
46.740997
 21
78.581366
 31
0.0
  0
POLYLINE
  5
2FC
330
1F
100
AcDbEntity
  8
001
370
    50
100
AcDb2dPolyline
 66
     1
 10
0.0
 20
0.0
 30
0.0
  0
VERTEX
  5
2FE
330
2FC
100
AcDbEntity
  8
001
370
    50
100
AcDbVertex
100
AcDb2dVertex
 10
41.85798
 20
89.149601
 30
0.0
  0
VERTEX
  5
2FF
330
2FC
100
AcDbEntity
  8
001
370
    50
100
AcDbVertex
100
AcDb2dVertex
 10
41.847783
 20
89.228169
 30
0.0
  0
VERTEX
  5
300
330
2FC
100
AcDbEntity
  8
001
370
    50
100
AcDbVertex
100
AcDb2dVertex
 10
41.830729
 20
89.340683
 30
0.0
  0
VERTEX
  5
301
330
2FC
100
AcDbEntity
  8
001
370
    50
100
AcDbVertex
100
AcDb2dVertex
 10
41.692184
 20
89.881235
 30
0.0
  0
VERTEX
  5
302
330
2FC
100
AcDbEntity
  8
001
370
    50
100
AcDbVertex
100
AcDb2dVertex
 10
41.476144
 20
90.319738
 30
0.0
  0
VERTEX
  5
303
330
2FC
100
AcDbEntity
  8
001
370
    50
100
AcDbVertex
100
AcDb2dVertex
 10
41.005014
 20
90.925656
 30
0.0
  0
VERTEX
  5
304
330
2FC
100
AcDbEntity
  8
001
370
    50
100
AcDbVertex
100
AcDb2dVertex
 10
40.383497
 20
91.417814
 30
0.0
  0
VERTEX
  5
305
330
2FC
100
AcDbEntity
  8
001
370
    50
100
AcDbVertex
100
AcDb2dVertex
 10
40.148976
 20
91.539642
 30
0.0
  0
VERTEX
  5
306
330
2FC
100
AcDbEntity
  8
001
370
    50
100
AcDbVertex
100
AcDb2dVertex
 10
39.911901
 20
91.638816
 30
0.0
  0
VERTEX
  5
307
330
2FC
100
AcDbEntity
  8
001
370
    50
100
AcDbVertex
100
AcDb2dVertex
 10
39.674794
 20
91.717237
 30
0.0
  0
VERTEX
  5
308
330
2FC
100
AcDbEntity
  8
001
370
    50
100
AcDbVertex
100
AcDb2dVertex
 10
39.409282
 20
91.774162
 30
0.0
  0
VERTEX
  5
309
330
2FC
100
AcDbEntity
  8
001
370
    50
100
AcDbVertex
100
AcDb2dVertex
 10
39.109722
 20
91.808367
 30
0.0
  0
VERTEX
  5
30A
330
2FC
100
AcDbEntity
  8
001
370
    50
100
AcDbVertex
100
AcDb2dVertex
 10
38.890913
 20
91.819738
 30
0.0
  0
SEQEND
  5
2FD
330
2FC
100
AcDbEntity
  8
001
370
    50
  0
POLYLINE
  5
30B
330
1F
100
AcDbEntity
  8
001
370
    50
100
AcDb2dPolyline
 66
     1
 10
0.0
 20
0.0
 30
0.0
  0
VERTEX
  5
30D
330
30B
100
AcDbEntity
  8
001
370
    50
100
AcDbVertex
100
AcDb2dVertex
 10
54.997302
 20
114.792493
 30
0.0
  0
VERTEX
  5
30E
330
30B
100
AcDbEntity
  8
001
370
    50
100
AcDbVertex
100
AcDb2dVertex
 10
54.943667
 20
114.298444
 30
0.0
  0
VERTEX
  5
30F
330
30B
100
AcDbEntity
  8
001
370
    50
100
AcDbVertex
100
AcDb2dVertex
 10
54.885128
 20
113.805006
 30
0.0
  0
VERTEX
  5
310
330
30B
100
AcDbEntity
  8
001
370
    50
100
AcDbVertex
100
AcDb2dVertex
 10
54.817811
 20
113.31269
 30
0.0
  0
VERTEX
  5
311
330
30B
100
AcDbEntity
  8
001
370
    50
100
AcDbVertex
100
AcDb2dVertex
 10
54.741965
 20
112.821549
 30
0.0
  0
VERTEX
  5
312
330
30B
100
AcDbEntity
  8
001
370
    50
100
AcDbVertex
100
AcDb2dVertex
 10
54.61896
 20
112.115588
 30
0.0
  0
VERTEX
  5
313
330
30B
100
AcDbEntity
  8
001
370
    50
100
AcDbVertex
100
AcDb2dVertex
 10
54.477401
 20
111.413213
 30
0.0
  0
VERTEX
  5
314
330
30B
100
AcDbEntity
  8
001
370
    50
100
AcDbVertex
100
AcDb2dVertex
 10
54.422222
 20
111.164635
 30
0.0
  0
VERTEX
  5
315
330
30B
100
AcDbEntity
  8
001
370
    50
100
AcDbVertex
100
AcDb2dVertex
 10
54.365652
 20
110.916363
 30
0.0
  0
SEQEND
  5
30C
330
30B
100
AcDbEntity
  8
001
370
    50
  0
POLYLINE
  5
316
330
1F
100
AcDbEntity
  8
001
370
    50
100
AcDb2dPolyline
 66
     1
 10
0.0
 20
0.0
 30
0.0
  0
VERTEX
  5
318
330
316
100
AcDbEntity
  8
001
370
    50
100
AcDbVertex
100
AcDb2dVertex
 10
46.740997
 20
78.581366
 30
0.0
  0
VERTEX
  5
319
330
316
100
AcDbEntity
  8
001
370
    50
100
AcDbVertex
100
AcDb2dVertex
 10
46.814644
 20
78.501726
 30
0.0
  0
VERTEX
  5
31A
330
316
100
AcDbEntity
  8
001
370
    50
100
AcDbVertex
100
AcDb2dVertex
 10
46.918634
 20
78.389511
 30
0.0
  0
VERTEX
  5
31B
330
316
100
AcDbEntity
  8
001
370
    50
100
AcDbVertex
100
AcDb2dVertex
 10
47.276476
 20
78.009841
 30
0.0
  0
VERTEX
  5
31C
330
316
100
AcDbEntity
  8
001
370
    50
100
AcDbVertex
100
AcDb2dVertex
 10
47.685886
 20
77.677787
 30
0.0
  0
VERTEX
  5
31D
330
316
100
AcDbEntity
  8
001
370
    50
100
AcDbVertex
100
AcDb2dVertex
 10
47.75219
 20
77.633046
 30
0.0
  0
VERTEX
  5
31E
330
316
100
AcDbEntity
  8
001
370
    50
100
AcDbVertex
100
AcDb2dVertex
 10
47.799203
 20
77.602924
 30
0.0
  0
SEQEND
  5
317
330
316
100
AcDbEntity
  8
001
370
    50
  0
LINE
  5
31F
330
1F
100
AcDbEntity
  8
001
370
    50
100
AcDbLine
 10
32.799068
 20
110.267724
 30
0.0
 11
32.799068
 21
110.931242
 31
0.0
  0
LINE
  5
320
330
1F
100
AcDbEntity
  8
001
370
    50
100
AcDbLine
 10
32.799068
 20
110.931242
 30
0.0
 11
33.723798
 21
111.262598
 31
0.0
  0
POLYLINE
  5
321
330
1F
100
AcDbEntity
  8
001
370
    50
100
AcDb2dPolyline
 66
     1
 10
0.0
 20
0.0
 30
0.0
  0
VERTEX
  5
323
330
321
100
AcDbEntity
  8
001
370
    50
100
AcDbVertex
100
AcDb2dVertex
 10
43.237363
 20
111.737059
 30
0.0
  0
VERTEX
  5
324
330
321
100
AcDbEntity
  8
001
370
    50
100
AcDbVertex
100
AcDb2dVertex
 10
41.324319
 20
111.64464
 30
0.0
  0
VERTEX
  5
325
330
321
100
AcDbEntity
  8
001
370
    50
100
AcDbVertex
100
AcDb2dVertex
 10
38.528457
 20
111.507003
 30
0.0
  0
VERTEX
  5
326
330
321
100
AcDbEntity
  8
001
370
    50
100
AcDbVertex
100
AcDb2dVertex
 10
35.675638
 20
111.362935
 30
0.0
  0
VERTEX
  5
327
330
321
100
AcDbEntity
  8
001
370
    50
100
AcDbVertex
100
AcDb2dVertex
 10
33.723798
 20
111.262598
 30
0.0
  0
SEQEND
  5
322
330
321
100
AcDbEntity
  8
001
370
    50
  0
POLYLINE
  5
328
330
1F
100
AcDbEntity
  8
001
370
    50
100
AcDb2dPolyline
 66
     1
 10
0.0
 20
0.0
 30
0.0
  0
VERTEX
  5
32A
330
328
100
AcDbEntity
  8
001
370
    50
100
AcDbVertex
100
AcDb2dVertex
 10
50.908605
 20
112.090141
 30
0.0
  0
VERTEX
  5
32B
330
328
100
AcDbEntity
  8
001
370
    50
100
AcDbVertex
100
AcDb2dVertex
 10
50.273012
 20
112.061953
 30
0.0
  0
VERTEX
  5
32C
330
328
100
AcDbEntity
  8
001
370
    50
100
AcDbVertex
100
AcDb2dVertex
 10
49.344083
 20
112.020428
 30
0.0
  0
VERTEX
  5
32D
330
328
100
AcDbEntity
  8
001
370
    50
100
AcDbVertex
100
AcDb2dVertex
 10
48.407749
 20
111.978116
 30
0.0
  0
VERTEX
  5
32E
330
328
100
AcDbEntity
  8
001
370
    50
100
AcDbVertex
100
AcDb2dVertex
 10
47.767109
 20
111.948943
 30
0.0
  0
SEQEND
  5
329
330
328
100
AcDbEntity
  8
001
370
    50
  0
POLYLINE
  5
32F
330
1F
100
AcDbEntity
  8
001
370
    50
100
AcDb2dPolyline
 66
     1
 10
0.0
 20
0.0
 30
0.0
  0
VERTEX
  5
331
330
32F
100
AcDbEntity
  8
001
370
    50
100
AcDbVertex
100
AcDb2dVertex
 10
42.528987
 20
111.086026
 30
0.0
  0
VERTEX
  5
332
330
32F
100
AcDbEntity
  8
001
370
    50
100
AcDbVertex
100
AcDb2dVertex
 10
42.148347
 20
111.247098
 30
0.0
  0
VERTEX
  5
333
330
32F
100
AcDbEntity
  8
001
370
    50
100
AcDbVertex
100
AcDb2dVertex
 10
41.603122
 20
111.399083
 30
0.0
  0
VERTEX
  5
334
330
32F
100
AcDbEntity
  8
001
370
    50
100
AcDbVertex
100
AcDb2dVertex
 10
41.168334
 20
111.453026
 30
0.0
  0
VERTEX
  5
335
330
32F
100
AcDbEntity
  8
001
370
    50
100
AcDbVertex
100
AcDb2dVertex
 10
40.759507
 20
111.451805
 30
0.0
  0
VERTEX
  5
336
330
32F
100
AcDbEntity
  8
001
370
    50
100
AcDbVertex
100
AcDb2dVertex
 10
40.539926
 20
111.440377
 30
0.0
  0
VERTEX
  5
337
330
32F
100
AcDbEntity
  8
001
370
    50
100
AcDbVertex
100
AcDb2dVertex
 10
40.31738
 20
111.42052
 30
0.0
  0
VERTEX
  5
338
330
32F
100
AcDbEntity
  8
001
370
    50
100
AcDbVertex
100
AcDb2dVertex
 10
40.096004
 20
111.389895
 30
0.0
  0
VERTEX
  5
339
330
32F
100
AcDbEntity
  8
001
370
    50
100
AcDbVertex
100
AcDb2dVertex
 10
39.879525
 20
111.351683
 30
0.0
  0
VERTEX
  5
33A
330
32F
100
AcDbEntity
  8
001
370
    50
100
AcDbVertex
100
AcDb2dVertex
 10
39.4816
 20
111.260913
 30
0.0
  0
VERTEX
  5
33B
330
32F
100
AcDbEntity
  8
001
370
    50
100
AcDbVertex
100
AcDb2dVertex
 10
39.069316
 20
111.110793
 30
0.0
  0
VERTEX
  5
33C
330
32F
100
AcDbEntity
  8
001
370
    50
100
AcDbVertex
100
AcDb2dVertex
 10
38.60948
 20
110.866974
 30
0.0
  0
VERTEX
  5
33D
330
32F
100
AcDbEntity
  8
001
370
    50
100
AcDbVertex
100
AcDb2dVertex
 10
38.296567
 20
110.652742
 30
0.0
  0
SEQEND
  5
330
330
32F
100
AcDbEntity
  8
001
370
    50
  0
LINE
  5
33E
330
1F
100
AcDbEntity
  8
001
370
    50
100
AcDbLine
 10
32.799068
 20
105.758738
 30
0.0
 11
32.799068
 21
93.69417
 31
0.0
  0
LINE
  5
33F
330
1F
100
AcDbEntity
  8
001
370
    50
100
AcDbLine
 10
68.599068
 20
80.19417
 30
0.0
 11
68.599068
 21
112.19417
 31
0.0
  0
LINE
  5
340
330
1F
100
AcDbEntity
  8
001
370
    50
100
AcDbLine
 10
68.599068
 20
111.69417
 30
0.0
 11
66.599068
 21
111.69417
 31
0.0
  0
LINE
  5
341
330
1F
100
AcDbEntity
  8
001
370
    50
100
AcDbLine
 10
66.599068
 20
80.69417
 30
0.0
 11
68.599068
 21
80.69417
 31
0.0
  0
LINE
  5
342
330
1F
100
AcDbEntity
  8
001
  6
CENTER
370
     9
100
AcDbLine
 10
30.548683
 20
96.19417
 30
0.0
 11
154.025291
 21
96.19417
 31
0.0
  0
LINE
  5
343
330
1F
100
AcDbEntity
  8
001
370
    50
100
AcDbLine
 10
47.289462
 20
87.100595
 30
0.0
 11
47.289462
 21
85.368544
 31
0.0
  0
LINE
  5
344
330
1F
100
AcDbEntity
  8
001
370
    50
100
AcDbLine
 10
44.289462
 20
85.368544
 30
0.0
 11
44.289462
 21
87.100595
 31
0.0
  0
LINE
  5
345
330
1F
100
AcDbEntity
  8
001
370
    50
100
AcDbLine
 10
44.289462
 20
87.100595
 30
0.0
 11
45.789462
 21
87.96662
 31
0.0
  0
LINE
  5
346
330
1F
100
AcDbEntity
  8
001
370
    50
100
AcDbLine
 10
47.289462
 20
85.368544
 30
0.0
 11
45.789462
 21
84.502519
 31
0.0
  0
LINE
  5
347
330
1F
100
AcDbEntity
  8
001
370
    50
100
AcDbLine
 10
45.789462
 20
84.502519
 30
0.0
 11
44.289462
 21
85.368544
 31
0.0
  0
LINE
  5
348
330
1F
100
AcDbEntity
  8
001
370
    50
100
AcDbLine
 10
47.289462
 20
87.100595
 30
0.0
 11
45.789462
 21
87.96662
 31
0.0
  0
LINE
  5
349
330
1F
100
AcDbEntity
  8
001
370
    50
100
AcDbLine
 10
151.599068
 20
96.19417
 30
0.0
 11
154.197144
 21
97.69417
 31
0.0
  0
LINE
  5
34A
330
1F
100
AcDbEntity
  8
001
370
    50
100
AcDbLine
 10
151.599068
 20
96.19417
 30
0.0
 11
154.197144
 21
94.69417
 31
0.0
  0
TEXT
  5
34B
330
1F
100
AcDbEntity
  8
001
370
    30
100
AcDbText
 10
-7.618454
 20
141.645749
 30
0.0
 40
10.0
  1
スカットカット　ＮＫ９０４０Ｔ　（３枚刃）
 41
0.833333
100
AcDbText
  0
LINE
  5
34C
330
1F
100
AcDbEntity
  8
001
370
    50
100
AcDbLine
 10
38.537309
 20
89.297782
 30
0.0
 11
31.705203
 21
77.392355
 31
0.0
  0
LINE
  5
34D
330
1F
100
AcDbEntity
  8
001
370
    50
100
AcDbLine
 10
46.127618
 20
76.230108
 30
0.0
 11
32.401162
 21
76.194172
 31
0.0
  0
ARC
  5
34E
330
1F
100
AcDbEntity
  8
001
370
    50
100
AcDbCircle
 10
32.399068
 20
76.99417
 30
0.0
 40
0.8
100
AcDbArc
 50
150.15
 51
270.15
  0
ARC
  5
34F
330
1F
100
AcDbEntity
  8
001
370
    50
100
AcDbCircle
 10
46.125523
 20
77.030106
 30
0.0
 40
0.8
100
AcDbArc
 50
270.15
 51
30.15
  0
ARC
  5
350
330
1F
100
AcDbEntity
  8
001
370
    50
100
AcDbCircle
 10
39.231174
 20
88.899597
 30
0.0
 40
0.8
100
AcDbArc
 50
30.15
 51
150.15
  0
LINE
  5
351
330
1F
100
AcDbEntity
  8
001
370
    50
100
AcDbLine
 10
39.922945
 20
89.301409
 30
0.0
 11
40.476654
 21
88.348129
 31
0.0
  0
LINE
  5
352
330
1F
100
AcDbEntity
  8
001
370
    50
100
AcDbLine
 10
45.054014
 20
80.467628
 30
0.0
 11
46.817294
 21
77.431918
 31
0.0
  0
ARC
  5
353
330
1F
100
AcDbEntity
  8
001
370
    50
100
AcDbCircle
 10
39.251922
 20
80.974624
 30
0.0
 40
1.9
100
AcDbArc
 50
57.308237
 51
2.446119
  0
POLYLINE
  5
354
330
1F
100
AcDbEntity
  8
001
370
    50
100
AcDb2dPolyline
 66
     1
 10
0.0
 20
0.0
 30
0.0
  0
VERTEX
  5
356
330
354
100
AcDbEntity
  8
001
370
    50
100
AcDbVertex
100
AcDb2dVertex
 10
39.117362
 20
91.811094
 30
0.0
  0
VERTEX
  5
357
330
354
100
AcDbEntity
  8
001
370
    50
100
AcDbVertex
100
AcDb2dVertex
 10
38.99548
 20
91.798127
 30
0.0
  0
VERTEX
  5
358
330
354
100
AcDbEntity
  8
001
370
    50
100
AcDbVertex
100
AcDb2dVertex
 10
38.825443
 20
91.774162
 30
0.0
  0
VERTEX
  5
359
330
354
100
AcDbEntity
  8
001
370
    50
100
AcDbVertex
100
AcDb2dVertex
 10
38.557251
 20
91.71638
 30
0.0
  0
VERTEX
  5
35A
330
354
100
AcDbEntity
  8
001
370
    50
100
AcDbVertex
100
AcDb2dVertex
 10
38.322824
 20
91.638816
 30
0.0
  0
VERTEX
  5
35B
330
354
100
AcDbEntity
  8
001
370
    50
100
AcDbVertex
100
AcDb2dVertex
 10
38.086483
 20
91.539196
 30
0.0
  0
VERTEX
  5
35C
330
354
100
AcDbEntity
  8
001
370
    50
100
AcDbVertex
100
AcDb2dVertex
 10
37.851228
 20
91.417814
 30
0.0
  0
VERTEX
  5
35D
330
354
100
AcDbEntity
  8
001
370
    50
100
AcDbVertex
100
AcDb2dVertex
 10
37.230353
 20
90.93997
 30
0.0
  0
VERTEX
  5
35E
330
354
100
AcDbEntity
  8
001
370
    50
100
AcDbVertex
100
AcDb2dVertex
 10
36.758581
 20
90.319738
 30
0.0
  0
VERTEX
  5
35F
330
354
100
AcDbEntity
  8
001
370
    50
100
AcDbVertex
100
AcDb2dVertex
 10
36.53901
 20
89.844598
 30
0.0
  0
VERTEX
  5
360
330
354
100
AcDbEntity
  8
001
370
    50
100
AcDbVertex
100
AcDb2dVertex
 10
36.403996
 20
89.340683
 30
0.0
  0
VERTEX
  5
361
330
354
100
AcDbEntity
  8
001
370
    50
100
AcDbVertex
100
AcDb2dVertex
 10
36.369496
 20
89.081635
 30
0.0
  0
VERTEX
  5
362
330
354
100
AcDbEntity
  8
001
370
    50
100
AcDbVertex
100
AcDb2dVertex
 10
36.358645
 20
88.819738
 30
0.0
  0
VERTEX
  5
363
330
354
100
AcDbEntity
  8
001
370
    50
100
AcDbVertex
100
AcDb2dVertex
 10
36.371607
 20
88.556553
 30
0.0
  0
VERTEX
  5
364
330
354
100
AcDbEntity
  8
001
370
    50
100
AcDbVertex
100
AcDb2dVertex
 10
36.403996
 20
88.298794
 30
0.0
  0
VERTEX
  5
365
330
354
100
AcDbEntity
  8
001
370
    50
100
AcDbVertex
100
AcDb2dVertex
 10
36.522227
 20
87.812807
 30
0.0
  0
VERTEX
  5
366
330
354
100
AcDbEntity
  8
001
370
    50
100
AcDbVertex
100
AcDb2dVertex
 10
36.758581
 20
87.319738
 30
0.0
  0
VERTEX
  5
367
330
354
100
AcDbEntity
  8
001
370
    50
100
AcDbVertex
100
AcDb2dVertex
 10
36.958739
 20
87.02355
 30
0.0
  0
VERTEX
  5
368
330
354
100
AcDbEntity
  8
001
370
    50
100
AcDbVertex
100
AcDb2dVertex
 10
37.116641
 20
86.822167
 30
0.0
  0
SEQEND
  5
355
330
354
100
AcDbEntity
  8
001
370
    50
  0
POLYLINE
  5
369
330
1F
100
AcDbEntity
  8
001
370
    50
100
AcDb2dPolyline
 66
     1
 10
0.0
 20
0.0
 30
0.0
  0
VERTEX
  5
36B
330
369
100
AcDbEntity
  8
001
370
    50
100
AcDbVertex
100
AcDb2dVertex
 10
38.890913
 20
91.819738
 30
0.0
  0
VERTEX
  5
36C
330
369
100
AcDbEntity
  8
001
370
    50
100
AcDbVertex
100
AcDb2dVertex
 10
38.672101
 20
91.808327
 30
0.0
  0
VERTEX
  5
36D
330
369
100
AcDbEntity
  8
001
370
    50
100
AcDbVertex
100
AcDb2dVertex
 10
38.372545
 20
91.774162
 30
0.0
  0
VERTEX
  5
36E
330
369
100
AcDbEntity
  8
001
370
    50
100
AcDbVertex
100
AcDb2dVertex
 10
38.107052
 20
91.717437
 30
0.0
  0
VERTEX
  5
36F
330
369
100
AcDbEntity
  8
001
370
    50
100
AcDbVertex
100
AcDb2dVertex
 10
37.869926
 20
91.638816
 30
0.0
  0
VERTEX
  5
370
330
369
100
AcDbEntity
  8
001
370
    50
100
AcDbVertex
100
AcDb2dVertex
 10
37.632774
 20
91.538881
 30
0.0
  0
VERTEX
  5
371
330
369
100
AcDbEntity
  8
001
370
    50
100
AcDbVertex
100
AcDb2dVertex
 10
37.39833
 20
91.417814
 30
0.0
  0
VERTEX
  5
372
330
369
100
AcDbEntity
  8
001
370
    50
100
AcDbVertex
100
AcDb2dVertex
 10
36.778273
 20
90.940248
 30
0.0
  0
VERTEX
  5
373
330
369
100
AcDbEntity
  8
001
370
    50
100
AcDbVertex
100
AcDb2dVertex
 10
36.305683
 20
90.319738
 30
0.0
  0
VERTEX
  5
374
330
369
100
AcDbEntity
  8
001
370
    50
100
AcDbVertex
100
AcDb2dVertex
 10
36.085982
 20
89.844655
 30
0.0
  0
VERTEX
  5
375
330
369
100
AcDbEntity
  8
001
370
    50
100
AcDbVertex
100
AcDb2dVertex
 10
35.951098
 20
89.340683
 30
0.0
  0
VERTEX
  5
376
330
369
100
AcDbEntity
  8
001
370
    50
100
AcDbVertex
100
AcDb2dVertex
 10
35.916634
 20
89.08149
 30
0.0
  0
VERTEX
  5
377
330
369
100
AcDbEntity
  8
001
370
    50
100
AcDbVertex
100
AcDb2dVertex
 10
35.905747
 20
88.819738
 30
0.0
  0
VERTEX
  5
378
330
369
100
AcDbEntity
  8
001
370
    50
100
AcDbVertex
100
AcDb2dVertex
 10
35.918621
 20
88.557063
 30
0.0
  0
VERTEX
  5
379
330
369
100
AcDbEntity
  8
001
370
    50
100
AcDbVertex
100
AcDb2dVertex
 10
35.951098
 20
88.298794
 30
0.0
  0
VERTEX
  5
37A
330
369
100
AcDbEntity
  8
001
370
    50
100
AcDbVertex
100
AcDb2dVertex
 10
36.070192
 20
87.807659
 30
0.0
  0
VERTEX
  5
37B
330
369
100
AcDbEntity
  8
001
370
    50
100
AcDbVertex
100
AcDb2dVertex
 10
36.305683
 20
87.319738
 30
0.0
  0
VERTEX
  5
37C
330
369
100
AcDbEntity
  8
001
370
    50
100
AcDbVertex
100
AcDb2dVertex
 10
36.657755
 20
86.848225
 30
0.0
  0
VERTEX
  5
37D
330
369
100
AcDbEntity
  8
001
370
    50
100
AcDbVertex
100
AcDb2dVertex
 10
36.953317
 20
86.537564
 30
0.0
  0
SEQEND
  5
36A
330
369
100
AcDbEntity
  8
001
370
    50
  0
LINE
  5
37E
330
1F
100
AcDbEntity
  8
001
370
    50
100
AcDbLine
 10
32.799068
 20
79.298492
 30
0.0
 11
32.799068
 21
89.95668
 31
0.0
  0
LINE
  5
37F
330
1F
100
AcDbEntity
  8
001
370
    50
100
AcDbLine
 10
46.785759
 20
77.486209
 30
0.0
 11
50.908605
 21
77.59417
 31
0.0
  0
POLYLINE
  5
380
330
1F
100
AcDbEntity
  8
001
370
    50
100
AcDb2dPolyline
 66
     1
 10
0.0
 20
0.0
 30
0.0
  0
VERTEX
  5
382
330
380
100
AcDbEntity
  8
001
370
    50
100
AcDbVertex
100
AcDb2dVertex
 10
46.740025
 20
77.564947
 30
0.0
  0
VERTEX
  5
383
330
380
100
AcDbEntity
  8
001
370
    50
100
AcDbVertex
100
AcDb2dVertex
 10
46.955281
 20
77.572615
 30
0.0
  0
VERTEX
  5
384
330
380
100
AcDbEntity
  8
001
370
    50
100
AcDbVertex
100
AcDb2dVertex
 10
47.269884
 20
77.583865
 30
0.0
  0
VERTEX
  5
385
330
380
100
AcDbEntity
  8
001
370
    50
100
AcDbVertex
100
AcDb2dVertex
 10
47.584168
 20
77.595164
 30
0.0
  0
VERTEX
  5
386
330
380
100
AcDbEntity
  8
001
370
    50
100
AcDbVertex
100
AcDb2dVertex
 10
47.799203
 20
77.602924
 30
0.0
  0
SEQEND
  5
381
330
380
100
AcDbEntity
  8
001
370
    50
  0
LINE
  5
387
330
1F
100
AcDbEntity
  8
001
370
     9
100
AcDbLine
 10
31.599068
 20
76.99417
 30
0.0
 11
31.599068
 21
68.328883
 31
0.0
  0
LINE
  5
388
330
1F
100
AcDbEntity
  8
001
370
     9
100
AcDbLine
 10
23.930971
 20
76.19417
 30
0.0
 11
32.399068
 21
76.19417
 31
0.0
  0
LINE
  5
389
330
1F
100
AcDbEntity
  8
001
370
    50
100
AcDbLine
 10
43.129546
 20
1.404385
 30
0.0
 11
42.368426
 21
0.702284
 31
0.0
  0
LINE
  5
38A
330
1F
100
AcDbEntity
  8
001
370
    50
100
AcDbLine
 10
43.203723
 20
0.760784
 30
0.0
 11
43.129546
 21
1.404385
 31
0.0
  0
LINE
  5
38B
330
1F
100
AcDbEntity
  8
001
370
    50
100
AcDbLine
 10
50.31143
 20
0.422573
 30
0.0
 11
50.26887
 21
0.791843
 31
0.0
  0
LINE
  5
38C
330
1F
100
AcDbEntity
  8
001
370
    50
100
AcDbLine
 10
43.891969
 20
2.090618
 30
0.0
 11
43.129546
 21
1.404385
 31
0.0
  0
LINE
  5
38D
330
1F
100
AcDbEntity
  8
001
370
    50
100
AcDbLine
 10
43.891969
 20
2.090618
 30
0.0
 11
50.26887
 21
0.791843
 31
0.0
  0
LINE
  5
38E
330
1F
100
AcDbEntity
  8
001
370
    50
100
AcDbLine
 10
50.26887
 20
0.791843
 30
0.0
 11
50.470561
 21
0.431046
 31
0.0
  0
LINE
  5
38F
330
1F
100
AcDbEntity
  8
001
370
    50
100
AcDbLine
 10
32.887685
 20
-4.096709
 30
0.0
 11
46.559715
 21
-3.139187
 31
0.0
  0
POLYLINE
  5
390
330
1F
100
AcDbEntity
  8
001
370
    50
100
AcDb2dPolyline
 66
     1
 10
0.0
 20
0.0
 30
0.0
  0
VERTEX
  5
392
330
390
100
AcDbEntity
  8
001
370
    50
100
AcDbVertex
100
AcDb2dVertex
 10
47.086986
 20
-3.206884
 30
0.0
  0
VERTEX
  5
393
330
390
100
AcDbEntity
  8
001
370
    50
100
AcDbVertex
100
AcDb2dVertex
 10
47.003832
 20
-3.180747
 30
0.0
  0
VERTEX
  5
394
330
390
100
AcDbEntity
  8
001
370
    50
100
AcDbVertex
100
AcDb2dVertex
 10
46.889152
 20
-3.152887
 30
0.0
  0
VERTEX
  5
395
330
390
100
AcDbEntity
  8
001
370
    50
100
AcDbVertex
100
AcDb2dVertex
 10
46.761438
 20
-3.135561
 30
0.0
  0
VERTEX
  5
396
330
390
100
AcDbEntity
  8
001
370
    50
100
AcDbVertex
100
AcDb2dVertex
 10
46.62636
 20
-3.135941
 30
0.0
  0
VERTEX
  5
397
330
390
100
AcDbEntity
  8
001
370
    50
100
AcDbVertex
100
AcDb2dVertex
 10
46.587273
 20
-3.137666
 30
0.0
  0
VERTEX
  5
398
330
390
100
AcDbEntity
  8
001
370
    50
100
AcDbVertex
100
AcDb2dVertex
 10
46.559715
 20
-3.139187
 30
0.0
  0
SEQEND
  5
391
330
390
100
AcDbEntity
  8
001
370
    50
  0
LINE
  5
399
330
1F
100
AcDbEntity
  8
001
370
    50
100
AcDbLine
 10
32.799068
 20
-5.28414
 30
0.0
 11
32.165153
 21
-4.743129
 31
0.0
  0
POLYLINE
  5
39A
330
1F
100
AcDbEntity
  8
001
370
    50
100
AcDb2dPolyline
 66
     1
 10
0.0
 20
0.0
 30
0.0
  0
VERTEX
  5
39C
330
39A
100
AcDbEntity
  8
001
370
    50
100
AcDbVertex
100
AcDb2dVertex
 10
32.073125
 20
-4.586636
 30
0.0
  0
VERTEX
  5
39D
330
39A
100
AcDbEntity
  8
001
370
    50
100
AcDbVertex
100
AcDb2dVertex
 10
32.07984
 20
-4.615534
 30
0.0
  0
VERTEX
  5
39E
330
39A
100
AcDbEntity
  8
001
370
    50
100
AcDbVertex
100
AcDb2dVertex
 10
32.092963
 20
-4.653401
 30
0.0
  0
VERTEX
  5
39F
330
39A
100
AcDbEntity
  8
001
370
    50
100
AcDbVertex
100
AcDb2dVertex
 10
32.110956
 20
-4.686173
 30
0.0
  0
VERTEX
  5
3A0
330
39A
100
AcDbEntity
  8
001
370
    50
100
AcDbVertex
100
AcDb2dVertex
 10
32.136164
 20
-4.715376
 30
0.0
  0
VERTEX
  5
3A1
330
39A
100
AcDbEntity
  8
001
370
    50
100
AcDbVertex
100
AcDb2dVertex
 10
32.1528
 20
-4.731752
 30
0.0
  0
VERTEX
  5
3A2
330
39A
100
AcDbEntity
  8
001
370
    50
100
AcDbVertex
100
AcDb2dVertex
 10
32.165153
 20
-4.743129
 30
0.0
  0
SEQEND
  5
39B
330
39A
100
AcDbEntity
  8
001
370
    50
  0
POLYLINE
  5
3A3
330
1F
100
AcDbEntity
  8
001
370
    50
100
AcDb2dPolyline
 66
     1
 10
0.0
 20
0.0
 30
0.0
  0
VERTEX
  5
3A5
330
3A3
100
AcDbEntity
  8
001
370
    50
100
AcDbVertex
100
AcDb2dVertex
 10
32.887685
 20
-4.096709
 30
0.0
  0
VERTEX
  5
3A6
330
3A3
100
AcDbEntity
  8
001
370
    50
100
AcDbVertex
100
AcDb2dVertex
 10
32.85815
 20
-4.09918
 30
0.0
  0
VERTEX
  5
3A7
330
3A3
100
AcDbEntity
  8
001
370
    50
100
AcDbVertex
100
AcDb2dVertex
 10
32.816674
 20
-4.103287
 30
0.0
  0
VERTEX
  5
3A8
330
3A3
100
AcDbEntity
  8
001
370
    50
100
AcDbVertex
100
AcDb2dVertex
 10
32.744221
 20
-4.112944
 30
0.0
  0
VERTEX
  5
3A9
330
3A3
100
AcDbEntity
  8
001
370
    50
100
AcDbVertex
100
AcDb2dVertex
 10
32.680391
 20
-4.125035
 30
0.0
  0
VERTEX
  5
3AA
330
3A3
100
AcDbEntity
  8
001
370
    50
100
AcDbVertex
100
AcDb2dVertex
 10
32.555464
 20
-4.157079
 30
0.0
  0
VERTEX
  5
3AB
330
3A3
100
AcDbEntity
  8
001
370
    50
100
AcDbVertex
100
AcDb2dVertex
 10
32.428344
 20
-4.201319
 30
0.0
  0
VERTEX
  5
3AC
330
3A3
100
AcDbEntity
  8
001
370
    50
100
AcDbVertex
100
AcDb2dVertex
 10
32.280905
 20
-4.274648
 30
0.0
  0
VERTEX
  5
3AD
330
3A3
100
AcDbEntity
  8
001
370
    50
100
AcDbVertex
100
AcDb2dVertex
 10
32.156187
 20
-4.378237
 30
0.0
  0
VERTEX
  5
3AE
330
3A3
100
AcDbEntity
  8
001
370
    50
100
AcDbVertex
100
AcDb2dVertex
 10
32.128883
 20
-4.411779
 30
0.0
  0
VERTEX
  5
3AF
330
3A3
100
AcDbEntity
  8
001
370
    50
100
AcDbVertex
100
AcDb2dVertex
 10
32.105225
 20
-4.446932
 30
0.0
  0
VERTEX
  5
3B0
330
3A3
100
AcDbEntity
  8
001
370
    50
100
AcDbVertex
100
AcDb2dVertex
 10
32.088462
 20
-4.479297
 30
0.0
  0
VERTEX
  5
3B1
330
3A3
100
AcDbEntity
  8
001
370
    50
100
AcDbVertex
100
AcDb2dVertex
 10
32.077255
 20
-4.517109
 30
0.0
  0
VERTEX
  5
3B2
330
3A3
100
AcDbEntity
  8
001
370
    50
100
AcDbVertex
100
AcDb2dVertex
 10
32.072887
 20
-4.557291
 30
0.0
  0
VERTEX
  5
3B3
330
3A3
100
AcDbEntity
  8
001
370
    50
100
AcDbVertex
100
AcDb2dVertex
 10
32.073125
 20
-4.586636
 30
0.0
  0
SEQEND
  5
3A4
330
3A3
100
AcDbEntity
  8
001
370
    50
  0
POLYLINE
  5
3B4
330
1F
100
AcDbEntity
  8
001
370
    50
100
AcDb2dPolyline
 66
     1
 10
0.0
 20
0.0
 30
0.0
  0
VERTEX
  5
3B6
330
3B4
100
AcDbEntity
  8
001
370
    50
100
AcDbVertex
100
AcDb2dVertex
 10
32.414923
 20
0.00519
 30
0.0
  0
VERTEX
  5
3B7
330
3B4
100
AcDbEntity
  8
001
370
    50
100
AcDbVertex
100
AcDb2dVertex
 10
32.385388
 20
0.002718
 30
0.0
  0
VERTEX
  5
3B8
330
3B4
100
AcDbEntity
  8
001
370
    50
100
AcDbVertex
100
AcDb2dVertex
 10
32.343912
 20
-0.001388
 30
0.0
  0
VERTEX
  5
3B9
330
3B4
100
AcDbEntity
  8
001
370
    50
100
AcDbVertex
100
AcDb2dVertex
 10
32.271459
 20
-0.011045
 30
0.0
  0
VERTEX
  5
3BA
330
3B4
100
AcDbEntity
  8
001
370
    50
100
AcDbVertex
100
AcDb2dVertex
 10
32.207629
 20
-0.023137
 30
0.0
  0
VERTEX
  5
3BB
330
3B4
100
AcDbEntity
  8
001
370
    50
100
AcDbVertex
100
AcDb2dVertex
 10
32.082702
 20
-0.05518
 30
0.0
  0
VERTEX
  5
3BC
330
3B4
100
AcDbEntity
  8
001
370
    50
100
AcDbVertex
100
AcDb2dVertex
 10
31.955582
 20
-0.09942
 30
0.0
  0
VERTEX
  5
3BD
330
3B4
100
AcDbEntity
  8
001
370
    50
100
AcDbVertex
100
AcDb2dVertex
 10
31.808143
 20
-0.172749
 30
0.0
  0
VERTEX
  5
3BE
330
3B4
100
AcDbEntity
  8
001
370
    50
100
AcDbVertex
100
AcDb2dVertex
 10
31.683425
 20
-0.276338
 30
0.0
  0
VERTEX
  5
3BF
330
3B4
100
AcDbEntity
  8
001
370
    50
100
AcDbVertex
100
AcDb2dVertex
 10
31.656121
 20
-0.309881
 30
0.0
  0
VERTEX
  5
3C0
330
3B4
100
AcDbEntity
  8
001
370
    50
100
AcDbVertex
100
AcDb2dVertex
 10
31.632463
 20
-0.345033
 30
0.0
  0
VERTEX
  5
3C1
330
3B4
100
AcDbEntity
  8
001
370
    50
100
AcDbVertex
100
AcDb2dVertex
 10
31.6157
 20
-0.377398
 30
0.0
  0
VERTEX
  5
3C2
330
3B4
100
AcDbEntity
  8
001
370
    50
100
AcDbVertex
100
AcDb2dVertex
 10
31.604493
 20
-0.41521
 30
0.0
  0
VERTEX
  5
3C3
330
3B4
100
AcDbEntity
  8
001
370
    50
100
AcDbVertex
100
AcDb2dVertex
 10
31.600125
 20
-0.455392
 30
0.0
  0
VERTEX
  5
3C4
330
3B4
100
AcDbEntity
  8
001
370
    50
100
AcDbVertex
100
AcDb2dVertex
 10
31.600363
 20
-0.484738
 30
0.0
  0
SEQEND
  5
3B5
330
3B4
100
AcDbEntity
  8
001
370
    50
  0
LINE
  5
3C5
330
1F
100
AcDbEntity
  8
001
370
    50
100
AcDbLine
 10
31.600363
 20
-0.484738
 30
0.0
 11
32.073125
 21
-4.586636
 31
0.0
  0
LINE
  5
3C6
330
1F
100
AcDbEntity
  8
001
370
    50
100
AcDbLine
 10
32.414923
 20
0.00519
 30
0.0
 11
46.086953
 21
0.962711
 31
0.0
  0
LINE
  5
3C7
330
1F
100
AcDbEntity
  8
001
370
    50
100
AcDbLine
 10
47.293373
 20
-3.192739
 30
0.0
 11
46.84995
 21
0.654605
 31
0.0
  0
POLYLINE
  5
3C8
330
1F
100
AcDbEntity
  8
001
370
    50
100
AcDb2dPolyline
 66
     1
 10
0.0
 20
0.0
 30
0.0
  0
VERTEX
  5
3CA
330
3C8
100
AcDbEntity
  8
001
370
    50
100
AcDbVertex
100
AcDb2dVertex
 10
46.84995
 20
0.654605
 30
0.0
  0
VERTEX
  5
3CB
330
3C8
100
AcDbEntity
  8
001
370
    50
100
AcDbVertex
100
AcDb2dVertex
 10
46.843511
 20
0.683235
 30
0.0
  0
VERTEX
  5
3CC
330
3C8
100
AcDbEntity
  8
001
370
    50
100
AcDbVertex
100
AcDb2dVertex
 10
46.830112
 20
0.72137
 30
0.0
  0
VERTEX
  5
3CD
330
3C8
100
AcDbEntity
  8
001
370
    50
100
AcDbVertex
100
AcDb2dVertex
 10
46.810572
 20
0.755638
 30
0.0
  0
VERTEX
  5
3CE
330
3C8
100
AcDbEntity
  8
001
370
    50
100
AcDbVertex
100
AcDb2dVertex
 10
46.786911
 20
0.783344
 30
0.0
  0
VERTEX
  5
3CF
330
3C8
100
AcDbEntity
  8
001
370
    50
100
AcDbVertex
100
AcDb2dVertex
 10
46.755992
 20
0.812204
 30
0.0
  0
VERTEX
  5
3D0
330
3C8
100
AcDbEntity
  8
001
370
    50
100
AcDbVertex
100
AcDb2dVertex
 10
46.721658
 20
0.838644
 30
0.0
  0
VERTEX
  5
3D1
330
3C8
100
AcDbEntity
  8
001
370
    50
100
AcDbVertex
100
AcDb2dVertex
 10
46.573248
 20
0.910834
 30
0.0
  0
VERTEX
  5
3D2
330
3C8
100
AcDbEntity
  8
001
370
    50
100
AcDbVertex
100
AcDb2dVertex
 10
46.41639
 20
0.949012
 30
0.0
  0
VERTEX
  5
3D3
330
3C8
100
AcDbEntity
  8
001
370
    50
100
AcDbVertex
100
AcDb2dVertex
 10
46.293723
 20
0.964201
 30
0.0
  0
VERTEX
  5
3D4
330
3C8
100
AcDbEntity
  8
001
370
    50
100
AcDbVertex
100
AcDb2dVertex
 10
46.153598
 20
0.965958
 30
0.0
  0
VERTEX
  5
3D5
330
3C8
100
AcDbEntity
  8
001
370
    50
100
AcDbVertex
100
AcDb2dVertex
 10
46.114393
 20
0.964282
 30
0.0
  0
VERTEX
  5
3D6
330
3C8
100
AcDbEntity
  8
001
370
    50
100
AcDbVertex
100
AcDb2dVertex
 10
46.086953
 20
0.962711
 30
0.0
  0
SEQEND
  5
3C9
330
3C8
100
AcDbEntity
  8
001
370
    50
  0
ARC
  5
3D7
330
1F
100
AcDbEntity
  8
001
370
    50
100
AcDbCircle
 10
46.067558
 20
-3.3068
 30
0.0
 40
5.3
100
AcDbArc
 50
54.832291
 51
102.143895
  0
POLYLINE
  5
3D8
330
1F
100
AcDbEntity
  8
001
370
    50
100
AcDb2dPolyline
 66
     1
 10
0.0
 20
0.0
 30
0.0
  0
VERTEX
  5
3DA
330
3D8
100
AcDbEntity
  8
001
370
    50
100
AcDbVertex
100
AcDb2dVertex
 10
43.550587
 20
-20.103947
 30
0.0
  0
VERTEX
  5
3DB
330
3D8
100
AcDbEntity
  8
001
370
    50
100
AcDbVertex
100
AcDb2dVertex
 10
42.778954
 20
-20.730775
 30
0.0
  0
VERTEX
  5
3DC
330
3D8
100
AcDbEntity
  8
001
370
    50
100
AcDbVertex
100
AcDb2dVertex
 10
41.911617
 20
-21.751061
 30
0.0
  0
VERTEX
  5
3DD
330
3D8
100
AcDbEntity
  8
001
370
    50
100
AcDbVertex
100
AcDb2dVertex
 10
41.55952
 20
-22.475819
 30
0.0
  0
VERTEX
  5
3DE
330
3D8
100
AcDbEntity
  8
001
370
    50
100
AcDbVertex
100
AcDb2dVertex
 10
41.379739
 20
-23.219644
 30
0.0
  0
VERTEX
  5
3DF
330
3D8
100
AcDbEntity
  8
001
370
    50
100
AcDbVertex
100
AcDb2dVertex
 10
41.33091
 20
-23.607756
 30
0.0
  0
VERTEX
  5
3E0
330
3D8
100
AcDbEntity
  8
001
370
    50
100
AcDbVertex
100
AcDb2dVertex
 10
41.311712
 20
-24.001061
 30
0.0
  0
VERTEX
  5
3E1
330
3D8
100
AcDbEntity
  8
001
370
    50
100
AcDbVertex
100
AcDb2dVertex
 10
41.328076
 20
-24.393483
 30
0.0
  0
VERTEX
  5
3E2
330
3D8
100
AcDbEntity
  8
001
370
    50
100
AcDbVertex
100
AcDb2dVertex
 10
41.379739
 20
-24.782478
 30
0.0
  0
VERTEX
  5
3E3
330
3D8
100
AcDbEntity
  8
001
370
    50
100
AcDbVertex
100
AcDb2dVertex
 10
41.582042
 20
-25.538575
 30
0.0
  0
VERTEX
  5
3E4
330
3D8
100
AcDbEntity
  8
001
370
    50
100
AcDbVertex
100
AcDb2dVertex
 10
41.911617
 20
-26.251061
 30
0.0
  0
VERTEX
  5
3E5
330
3D8
100
AcDbEntity
  8
001
370
    50
100
AcDbVertex
100
AcDb2dVertex
 10
42.620511
 20
-27.18177
 30
0.0
  0
VERTEX
  5
3E6
330
3D8
100
AcDbEntity
  8
001
370
    50
100
AcDbVertex
100
AcDb2dVertex
 10
43.550587
 20
-27.898175
 30
0.0
  0
VERTEX
  5
3E7
330
3D8
100
AcDbEntity
  8
001
370
    50
100
AcDbVertex
100
AcDb2dVertex
 10
43.902254
 20
-28.079777
 30
0.0
  0
VERTEX
  5
3E8
330
3D8
100
AcDbEntity
  8
001
370
    50
100
AcDbVertex
100
AcDb2dVertex
 10
44.257982
 20
-28.229678
 30
0.0
  0
VERTEX
  5
3E9
330
3D8
100
AcDbEntity
  8
001
370
    50
100
AcDbVertex
100
AcDb2dVertex
 10
44.613671
 20
-28.347608
 30
0.0
  0
VERTEX
  5
3EA
330
3D8
100
AcDbEntity
  8
001
370
    50
100
AcDbVertex
100
AcDb2dVertex
 10
45.011909
 20
-28.432696
 30
0.0
  0
VERTEX
  5
3EB
330
3D8
100
AcDbEntity
  8
001
370
    50
100
AcDbVertex
100
AcDb2dVertex
 10
45.461244
 20
-28.483944
 30
0.0
  0
VERTEX
  5
3EC
330
3D8
100
AcDbEntity
  8
001
370
    50
100
AcDbVertex
100
AcDb2dVertex
 10
45.789462
 20
-28.501061
 30
0.0
  0
SEQEND
  5
3D9
330
3D8
100
AcDbEntity
  8
001
370
    50
  0
POLYLINE
  5
3ED
330
1F
100
AcDbEntity
  8
001
370
    50
100
AcDb2dPolyline
 66
     1
 10
0.0
 20
0.0
 30
0.0
  0
VERTEX
  5
3EF
330
3ED
100
AcDbEntity
  8
001
370
    50
100
AcDbVertex
100
AcDb2dVertex
 10
45.789462
 20
-28.501061
 30
0.0
  0
VERTEX
  5
3F0
330
3ED
100
AcDbEntity
  8
001
370
    50
100
AcDbVertex
100
AcDb2dVertex
 10
46.117682
 20
-28.483944
 30
0.0
  0
VERTEX
  5
3F1
330
3ED
100
AcDbEntity
  8
001
370
    50
100
AcDbVertex
100
AcDb2dVertex
 10
46.567016
 20
-28.432696
 30
0.0
  0
VERTEX
  5
3F2
330
3ED
100
AcDbEntity
  8
001
370
    50
100
AcDbVertex
100
AcDb2dVertex
 10
46.965252
 20
-28.347607
 30
0.0
  0
VERTEX
  5
3F3
330
3ED
100
AcDbEntity
  8
001
370
    50
100
AcDbVertex
100
AcDb2dVertex
 10
47.320943
 20
-28.229678
 30
0.0
  0
VERTEX
  5
3F4
330
3ED
100
AcDbEntity
  8
001
370
    50
100
AcDbVertex
100
AcDb2dVertex
 10
47.67668
 20
-28.079782
 30
0.0
  0
VERTEX
  5
3F5
330
3ED
100
AcDbEntity
  8
001
370
    50
100
AcDbVertex
100
AcDb2dVertex
 10
48.028337
 20
-27.898175
 30
0.0
  0
VERTEX
  5
3F6
330
3ED
100
AcDbEntity
  8
001
370
    50
100
AcDbVertex
100
AcDb2dVertex
 10
48.958248
 20
-27.181673
 30
0.0
  0
VERTEX
  5
3F7
330
3ED
100
AcDbEntity
  8
001
370
    50
100
AcDbVertex
100
AcDb2dVertex
 10
49.667308
 20
-26.251061
 30
0.0
  0
VERTEX
  5
3F8
330
3ED
100
AcDbEntity
  8
001
370
    50
100
AcDbVertex
100
AcDb2dVertex
 10
49.9973
 20
-25.538819
 30
0.0
  0
VERTEX
  5
3F9
330
3ED
100
AcDbEntity
  8
001
370
    50
100
AcDbVertex
100
AcDb2dVertex
 10
50.199185
 20
-24.782478
 30
0.0
  0
VERTEX
  5
3FA
330
3ED
100
AcDbEntity
  8
001
370
    50
100
AcDbVertex
100
AcDb2dVertex
 10
50.250231
 20
-24.393122
 30
0.0
  0
VERTEX
  5
3FB
330
3ED
100
AcDbEntity
  8
001
370
    50
100
AcDbVertex
100
AcDb2dVertex
 10
50.267213
 20
-24.001061
 30
0.0
  0
VERTEX
  5
3FC
330
3ED
100
AcDbEntity
  8
001
370
    50
100
AcDbVertex
100
AcDb2dVertex
 10
50.25014
 20
-23.609001
 30
0.0
  0
VERTEX
  5
3FD
330
3ED
100
AcDbEntity
  8
001
370
    50
100
AcDbVertex
100
AcDb2dVertex
 10
50.199185
 20
-23.219644
 30
0.0
  0
VERTEX
  5
3FE
330
3ED
100
AcDbEntity
  8
001
370
    50
100
AcDbVertex
100
AcDb2dVertex
 10
49.99803
 20
-22.463296
 30
0.0
  0
VERTEX
  5
3FF
330
3ED
100
AcDbEntity
  8
001
370
    50
100
AcDbVertex
100
AcDb2dVertex
 10
49.667308
 20
-21.751061
 30
0.0
  0
VERTEX
  5
400
330
3ED
100
AcDbEntity
  8
001
370
    50
100
AcDbVertex
100
AcDb2dVertex
 10
48.953114
 20
-20.820499
 30
0.0
  0
VERTEX
  5
401
330
3ED
100
AcDbEntity
  8
001
370
    50
100
AcDbVertex
100
AcDb2dVertex
 10
48.028337
 20
-20.103947
 30
0.0
  0
VERTEX
  5
402
330
3ED
100
AcDbEntity
  8
001
370
    50
100
AcDbVertex
100
AcDb2dVertex
 10
47.6818
 20
-19.92229
 30
0.0
  0
VERTEX
  5
403
330
3ED
100
AcDbEntity
  8
001
370
    50
100
AcDbVertex
100
AcDb2dVertex
 10
47.320943
 20
-19.772444
 30
0.0
  0
VERTEX
  5
404
330
3ED
100
AcDbEntity
  8
001
370
    50
100
AcDbVertex
100
AcDb2dVertex
 10
46.948196
 20
-19.654679
 30
0.0
  0
VERTEX
  5
405
330
3ED
100
AcDbEntity
  8
001
370
    50
100
AcDbVertex
100
AcDb2dVertex
 10
46.567016
 20
-19.569426
 30
0.0
  0
VERTEX
  5
406
330
3ED
100
AcDbEntity
  8
001
370
    50
100
AcDbVertex
100
AcDb2dVertex
 10
46.180757
 20
-19.517572
 30
0.0
  0
VERTEX
  5
407
330
3ED
100
AcDbEntity
  8
001
370
    50
100
AcDbVertex
100
AcDb2dVertex
 10
45.789462
 20
-19.501061
 30
0.0
  0
VERTEX
  5
408
330
3ED
100
AcDbEntity
  8
001
370
    50
100
AcDbVertex
100
AcDb2dVertex
 10
45.395341
 20
-19.520438
 30
0.0
  0
VERTEX
  5
409
330
3ED
100
AcDbEntity
  8
001
370
    50
100
AcDbVertex
100
AcDb2dVertex
 10
45.011909
 20
-19.569426
 30
0.0
  0
VERTEX
  5
40A
330
3ED
100
AcDbEntity
  8
001
370
    50
100
AcDbVertex
100
AcDb2dVertex
 10
44.644869
 20
-19.646076
 30
0.0
  0
VERTEX
  5
40B
330
3ED
100
AcDbEntity
  8
001
370
    50
100
AcDbVertex
100
AcDb2dVertex
 10
44.257982
 20
-19.772444
 30
0.0
  0
VERTEX
  5
40C
330
3ED
100
AcDbEntity
  8
001
370
    50
100
AcDbVertex
100
AcDb2dVertex
 10
43.843349
 20
-19.953861
 30
0.0
  0
VERTEX
  5
40D
330
3ED
100
AcDbEntity
  8
001
370
    50
100
AcDbVertex
100
AcDb2dVertex
 10
43.550587
 20
-20.103947
 30
0.0
  0
SEQEND
  5
3EE
330
3ED
100
AcDbEntity
  8
001
370
    50
  0
LINE
  5
40E
330
1F
100
AcDbEntity
  8
001
370
    50
100
AcDbLine
 10
48.807622
 20
-19.535997
 30
0.0
 11
48.509663
 21
-19.535997
 31
0.0
  0
LINE
  5
40F
330
1F
100
AcDbEntity
  8
001
370
    50
100
AcDbLine
 10
51.295261
 20
-23.866125
 30
0.0
 11
48.807622
 21
-19.535997
 31
0.0
  0
LINE
  5
410
330
1F
100
AcDbEntity
  8
001
370
    50
100
AcDbLine
 10
51.295261
 20
-23.866125
 30
0.0
 11
50.997302
 21
-23.866125
 31
0.0
  0
LINE
  5
411
330
1F
100
AcDbEntity
  8
001
370
    50
100
AcDbLine
 10
50.997302
 20
-23.866125
 30
0.0
 11
48.509663
 21
-19.535997
 31
0.0
  0
LINE
  5
412
330
1F
100
AcDbEntity
  8
001
370
    50
100
AcDbLine
 10
48.509663
 20
-19.535997
 30
0.0
 11
45.79112
 21
-18.803947
 31
0.0
  0
LINE
  5
413
330
1F
100
AcDbEntity
  8
001
370
    50
100
AcDbLine
 10
50.26887
 20
-26.598175
 30
0.0
 11
50.997302
 21
-23.866125
 31
0.0
  0
LINE
  5
414
330
1F
100
AcDbEntity
  8
001
370
    50
100
AcDbLine
 10
43.891969
 20
-30.298175
 30
0.0
 11
48.028337
 21
-27.898175
 31
0.0
  0
LINE
  5
415
330
1F
100
AcDbEntity
  8
001
370
    50
100
AcDbLine
 10
48.028337
 20
-27.898175
 30
0.0
 11
50.26887
 21
-26.598175
 31
0.0
  0
LINE
  5
416
330
1F
100
AcDbEntity
  8
001
370
    50
100
AcDbLine
 10
39.414219
 20
-22.503947
 30
0.0
 11
43.891969
 21
-30.298175
 31
0.0
  0
LINE
  5
417
330
1F
100
AcDbEntity
  8
001
370
    50
100
AcDbLine
 10
45.79112
 20
-18.803947
 30
0.0
 11
43.550587
 21
-20.103947
 31
0.0
  0
LINE
  5
418
330
1F
100
AcDbEntity
  8
001
370
    50
100
AcDbLine
 10
43.550587
 20
-20.103947
 30
0.0
 11
39.414219
 21
-22.503947
 31
0.0
  0
LINE
  5
419
330
1F
100
AcDbEntity
  8
001
370
    50
100
AcDbLine
 10
50.56683
 20
-26.598175
 30
0.0
 11
51.295261
 21
-23.866125
 31
0.0
  0
LINE
  5
41A
330
1F
100
AcDbEntity
  8
001
370
    50
100
AcDbLine
 10
50.56683
 20
-26.598175
 30
0.0
 11
50.51717
 21
-26.598175
 31
0.0
  0
LINE
  5
41B
330
1F
100
AcDbEntity
  8
001
370
    50
100
AcDbLine
 10
50.51717
 20
-26.598175
 30
0.0
 11
50.26887
 21
-26.598175
 31
0.0
  0
LINE
  5
41C
330
1F
100
AcDbEntity
  8
001
370
    50
100
AcDbLine
 10
44.398792
 20
-30.148175
 30
0.0
 11
50.51717
 21
-26.598175
 31
0.0
  0
LINE
  5
41D
330
1F
100
AcDbEntity
  8
001
370
    50
100
AcDbLine
 10
44.448451
 20
-30.148175
 30
0.0
 11
44.398792
 21
-30.148175
 31
0.0
  0
LINE
  5
41E
330
1F
100
AcDbEntity
  8
001
370
    50
100
AcDbLine
 10
43.328185
 20
-30.798175
 30
0.0
 11
44.448451
 21
-30.148175
 31
0.0
  0
LINE
  5
41F
330
1F
100
AcDbEntity
  8
001
370
    50
100
AcDbLine
 10
43.328185
 20
-30.798175
 30
0.0
 11
43.129546
 21
-30.798175
 31
0.0
  0
LINE
  5
420
330
1F
100
AcDbEntity
  8
001
370
    50
100
AcDbLine
 10
43.891969
 20
-30.298175
 30
0.0
 11
43.129546
 21
-30.798175
 31
0.0
  0
LINE
  5
421
330
1F
100
AcDbEntity
  8
001
370
    50
100
AcDbLine
 10
46.03942
 20
-18.803947
 30
0.0
 11
45.79112
 21
-18.803947
 31
0.0
  0
LINE
  5
422
330
1F
100
AcDbEntity
  8
001
370
    50
100
AcDbLine
 10
46.08908
 20
-18.803947
 30
0.0
 11
46.03942
 21
-18.803947
 31
0.0
  0
LINE
  5
423
330
1F
100
AcDbEntity
  8
001
370
    50
100
AcDbLine
 10
48.807622
 20
-19.535997
 30
0.0
 11
46.08908
 21
-18.803947
 31
0.0
  0
LINE
  5
424
330
1F
100
AcDbEntity
  8
001
370
    50
100
AcDbLine
 10
43.129546
 20
-30.798175
 30
0.0
 11
41.869594
 21
-30.43215
 31
0.0
  0
LINE
  5
425
330
1F
100
AcDbEntity
  8
001
370
    50
100
AcDbLine
 10
41.869594
 20
-30.43215
 30
0.0
 11
38.3869
 21
-24.369972
 31
0.0
  0
LINE
  5
426
330
1F
100
AcDbEntity
  8
001
370
    50
100
AcDbLine
 10
38.3869
 20
-24.369972
 30
0.0
 11
38.651795
 21
-23.003947
 31
0.0
  0
LINE
  5
427
330
1F
100
AcDbEntity
  8
001
370
    50
100
AcDbLine
 10
38.651795
 20
-23.003947
 30
0.0
 11
39.414219
 21
-22.503947
 31
0.0
  0
LINE
  5
428
330
1F
100
AcDbEntity
  8
001
370
    50
100
AcDbLine
 10
44.448451
 20
-30.148175
 30
0.0
 11
44.436036
 21
-30.126565
 31
0.0
  0
LINE
  5
429
330
1F
100
AcDbEntity
  8
001
370
    50
100
AcDbLine
 10
46.75722
 20
-31.672058
 30
0.0
 11
46.732141
 21
-31.672058
 31
0.0
  0
LINE
  5
42A
330
1F
100
AcDbEntity
  8
001
370
    50
100
AcDbLine
 10
46.732141
 20
-31.672058
 30
0.0
 11
45.422087
 21
-29.55444
 31
0.0
  0
LINE
  5
42B
330
1F
100
AcDbEntity
  8
001
370
    50
100
AcDbLine
 10
32.799068
 20
-5.866322
 30
0.0
 11
32.165153
 21
-5.21572
 31
0.0
  0
POLYLINE
  5
42C
330
1F
100
AcDbEntity
  8
001
370
    50
100
AcDb2dPolyline
 66
     1
 10
0.0
 20
0.0
 30
0.0
  0
VERTEX
  5
42E
330
42C
100
AcDbEntity
  8
001
370
    50
100
AcDbVertex
100
AcDb2dVertex
 10
32.073125
 20
-4.997862
 30
0.0
  0
VERTEX
  5
42F
330
42C
100
AcDbEntity
  8
001
370
    50
100
AcDbVertex
100
AcDb2dVertex
 10
32.072803
 20
-5.027134
 30
0.0
  0
VERTEX
  5
430
330
42C
100
AcDbEntity
  8
001
370
    50
100
AcDbVertex
100
AcDb2dVertex
 10
32.077255
 20
-5.067389
 30
0.0
  0
VERTEX
  5
431
330
42C
100
AcDbEntity
  8
001
370
    50
100
AcDbVertex
100
AcDb2dVertex
 10
32.088931
 20
-5.105614
 30
0.0
  0
VERTEX
  5
432
330
42C
100
AcDbEntity
  8
001
370
    50
100
AcDbVertex
100
AcDb2dVertex
 10
32.105225
 20
-5.137567
 30
0.0
  0
VERTEX
  5
433
330
42C
100
AcDbEntity
  8
001
370
    50
100
AcDbVertex
100
AcDb2dVertex
 10
32.126746
 20
-5.170839
 30
0.0
  0
VERTEX
  5
434
330
42C
100
AcDbEntity
  8
001
370
    50
100
AcDbVertex
100
AcDb2dVertex
 10
32.156187
 20
-5.206261
 30
0.0
  0
VERTEX
  5
435
330
42C
100
AcDbEntity
  8
001
370
    50
100
AcDbVertex
100
AcDb2dVertex
 10
32.161457
 20
-5.211867
 30
0.0
  0
VERTEX
  5
436
330
42C
100
AcDbEntity
  8
001
370
    50
100
AcDbVertex
100
AcDb2dVertex
 10
32.165153
 20
-5.21572
 30
0.0
  0
SEQEND
  5
42D
330
42C
100
AcDbEntity
  8
001
370
    50
  0
LINE
  5
437
330
1F
100
AcDbEntity
  8
001
370
    50
100
AcDbLine
 10
32.799068
 20
-10.453429
 30
0.0
 11
31.692391
 21
-9.317618
 31
0.0
  0
POLYLINE
  5
438
330
1F
100
AcDbEntity
  8
001
370
    50
100
AcDb2dPolyline
 66
     1
 10
0.0
 20
0.0
 30
0.0
  0
VERTEX
  5
43A
330
438
100
AcDbEntity
  8
001
370
    50
100
AcDbVertex
100
AcDb2dVertex
 10
32.228175
 20
-4.796915
 30
0.0
  0
VERTEX
  5
43B
330
438
100
AcDbEntity
  8
001
370
    50
100
AcDbVertex
100
AcDb2dVertex
 10
32.217014
 20
-4.803748
 30
0.0
  0
VERTEX
  5
43C
330
438
100
AcDbEntity
  8
001
370
    50
100
AcDbVertex
100
AcDb2dVertex
 10
32.201417
 20
-4.813822
 30
0.0
  0
VERTEX
  5
43D
330
438
100
AcDbEntity
  8
001
370
    50
100
AcDbVertex
100
AcDb2dVertex
 10
32.164988
 20
-4.841349
 30
0.0
  0
VERTEX
  5
43E
330
438
100
AcDbEntity
  8
001
370
    50
100
AcDbVertex
100
AcDb2dVertex
 10
32.136164
 20
-4.869122
 30
0.0
  0
VERTEX
  5
43F
330
438
100
AcDbEntity
  8
001
370
    50
100
AcDbVertex
100
AcDb2dVertex
 10
32.112963
 20
-4.89659
 30
0.0
  0
VERTEX
  5
440
330
438
100
AcDbEntity
  8
001
370
    50
100
AcDbVertex
100
AcDb2dVertex
 10
32.092963
 20
-4.931097
 30
0.0
  0
VERTEX
  5
441
330
438
100
AcDbEntity
  8
001
370
    50
100
AcDbVertex
100
AcDb2dVertex
 10
32.079482
 20
-4.969274
 30
0.0
  0
VERTEX
  5
442
330
438
100
AcDbEntity
  8
001
370
    50
100
AcDbVertex
100
AcDb2dVertex
 10
32.073125
 20
-4.997862
 30
0.0
  0
SEQEND
  5
439
330
438
100
AcDbEntity
  8
001
370
    50
  0
LINE
  5
443
330
1F
100
AcDbEntity
  8
001
370
    50
100
AcDbLine
 10
32.073125
 20
-4.997862
 30
0.0
 11
31.600363
 21
-9.099761
 31
0.0
  0
POLYLINE
  5
444
330
1F
100
AcDbEntity
  8
001
370
    50
100
AcDb2dPolyline
 66
     1
 10
0.0
 20
0.0
 30
0.0
  0
VERTEX
  5
446
330
444
100
AcDbEntity
  8
001
370
    50
100
AcDbVertex
100
AcDb2dVertex
 10
31.600363
 20
-9.099761
 30
0.0
  0
VERTEX
  5
447
330
444
100
AcDbEntity
  8
001
370
    50
100
AcDbVertex
100
AcDb2dVertex
 10
31.600041
 20
-9.129033
 30
0.0
  0
VERTEX
  5
448
330
444
100
AcDbEntity
  8
001
370
    50
100
AcDbVertex
100
AcDb2dVertex
 10
31.604493
 20
-9.169288
 30
0.0
  0
VERTEX
  5
449
330
444
100
AcDbEntity
  8
001
370
    50
100
AcDbVertex
100
AcDb2dVertex
 10
31.616169
 20
-9.207512
 30
0.0
  0
VERTEX
  5
44A
330
444
100
AcDbEntity
  8
001
370
    50
100
AcDbVertex
100
AcDb2dVertex
 10
31.632463
 20
-9.239465
 30
0.0
  0
VERTEX
  5
44B
330
444
100
AcDbEntity
  8
001
370
    50
100
AcDbVertex
100
AcDb2dVertex
 10
31.653984
 20
-9.272738
 30
0.0
  0
VERTEX
  5
44C
330
444
100
AcDbEntity
  8
001
370
    50
100
AcDbVertex
100
AcDb2dVertex
 10
31.683425
 20
-9.30816
 30
0.0
  0
VERTEX
  5
44D
330
444
100
AcDbEntity
  8
001
370
    50
100
AcDbVertex
100
AcDb2dVertex
 10
31.688695
 20
-9.313765
 30
0.0
  0
VERTEX
  5
44E
330
444
100
AcDbEntity
  8
001
370
    50
100
AcDbVertex
100
AcDb2dVertex
 10
31.692391
 20
-9.317618
 30
0.0
  0
SEQEND
  5
445
330
444
100
AcDbEntity
  8
001
370
    50
  0
POLYLINE
  5
44F
330
1F
100
AcDbEntity
  8
001
370
    50
100
AcDb2dPolyline
 66
     1
 10
0.0
 20
0.0
 30
0.0
  0
VERTEX
  5
451
330
44F
100
AcDbEntity
  8
001
370
    50
100
AcDbVertex
100
AcDb2dVertex
 10
56.276817
 20
-14.241969
 30
0.0
  0
VERTEX
  5
452
330
44F
100
AcDbEntity
  8
001
370
    50
100
AcDbVertex
100
AcDb2dVertex
 10
55.853341
 20
-14.192899
 30
0.0
  0
VERTEX
  5
453
330
44F
100
AcDbEntity
  8
001
370
    50
100
AcDbVertex
100
AcDb2dVertex
 10
55.234399
 20
-14.121301
 30
0.0
  0
VERTEX
  5
454
330
44F
100
AcDbEntity
  8
001
370
    50
100
AcDbVertex
100
AcDb2dVertex
 10
52.666054
 20
-13.82599
 30
0.0
  0
VERTEX
  5
455
330
44F
100
AcDbEntity
  8
001
370
    50
100
AcDbVertex
100
AcDb2dVertex
 10
50.908605
 20
-13.625323
 30
0.0
  0
SEQEND
  5
450
330
44F
100
AcDbEntity
  8
001
370
    50
  0
POLYLINE
  5
456
330
1F
100
AcDbEntity
  8
001
370
    50
100
AcDb2dPolyline
 66
     1
 10
0.0
 20
0.0
 30
0.0
  0
VERTEX
  5
458
330
456
100
AcDbEntity
  8
001
370
    50
100
AcDbVertex
100
AcDb2dVertex
 10
53.017129
 20
-19.164528
 30
0.0
  0
VERTEX
  5
459
330
456
100
AcDbEntity
  8
001
370
    50
100
AcDbVertex
100
AcDb2dVertex
 10
53.725718
 20
-18.857095
 30
0.0
  0
VERTEX
  5
45A
330
456
100
AcDbEntity
  8
001
370
    50
100
AcDbVertex
100
AcDb2dVertex
 10
54.644737
 20
-18.348124
 30
0.0
  0
VERTEX
  5
45B
330
456
100
AcDbEntity
  8
001
370
    50
100
AcDbVertex
100
AcDb2dVertex
 10
55.09573
 20
-18.007264
 30
0.0
  0
VERTEX
  5
45C
330
456
100
AcDbEntity
  8
001
370
    50
100
AcDbVertex
100
AcDb2dVertex
 10
55.466558
 20
-17.651646
 30
0.0
  0
VERTEX
  5
45D
330
456
100
AcDbEntity
  8
001
370
    50
100
AcDbVertex
100
AcDb2dVertex
 10
55.751108
 20
-17.312684
 30
0.0
  0
VERTEX
  5
45E
330
456
100
AcDbEntity
  8
001
370
    50
100
AcDbVertex
100
AcDb2dVertex
 10
56.010656
 20
-16.871113
 30
0.0
  0
VERTEX
  5
45F
330
456
100
AcDbEntity
  8
001
370
    50
100
AcDbVertex
100
AcDb2dVertex
 10
56.04663
 20
-16.794058
 30
0.0
  0
VERTEX
  5
460
330
456
100
AcDbEntity
  8
001
370
    50
100
AcDbVertex
100
AcDb2dVertex
 10
56.070642
 20
-16.740143
 30
0.0
  0
SEQEND
  5
457
330
456
100
AcDbEntity
  8
001
370
    50
  0
POLYLINE
  5
461
330
1F
100
AcDbEntity
  8
001
370
    50
100
AcDb2dPolyline
 66
     1
 10
0.0
 20
0.0
 30
0.0
  0
VERTEX
  5
463
330
461
100
AcDbEntity
  8
001
370
    50
100
AcDbVertex
100
AcDb2dVertex
 10
53.017129
 20
-19.164528
 30
0.0
  0
VERTEX
  5
464
330
461
100
AcDbEntity
  8
001
370
    50
100
AcDbVertex
100
AcDb2dVertex
 10
52.861973
 20
-19.043281
 30
0.0
  0
VERTEX
  5
465
330
461
100
AcDbEntity
  8
001
370
    50
100
AcDbVertex
100
AcDb2dVertex
 10
52.637093
 20
-18.871178
 30
0.0
  0
VERTEX
  5
466
330
461
100
AcDbEntity
  8
001
370
    50
100
AcDbVertex
100
AcDb2dVertex
 10
51.038446
 20
-17.80123
 30
0.0
  0
VERTEX
  5
467
330
461
100
AcDbEntity
  8
001
370
    50
100
AcDbVertex
100
AcDb2dVertex
 10
49.377346
 20
-17.139306
 30
0.0
  0
VERTEX
  5
468
330
461
100
AcDbEntity
  8
001
370
    50
100
AcDbVertex
100
AcDb2dVertex
 10
47.412552
 20
-16.711223
 30
0.0
  0
VERTEX
  5
469
330
461
100
AcDbEntity
  8
001
370
    50
100
AcDbVertex
100
AcDb2dVertex
 10
45.920151
 20
-16.541461
 30
0.0
  0
SEQEND
  5
462
330
461
100
AcDbEntity
  8
001
370
    50
  0
LINE
  5
46A
330
1F
100
AcDbEntity
  8
001
370
    50
100
AcDbLine
 10
45.920151
 20
-16.541461
 30
0.0
 11
32.799068
 21
-16.541461
 31
0.0
  0
LINE
  5
46B
330
1F
100
AcDbEntity
  8
001
370
    50
100
AcDbLine
 10
32.799068
 20
-11.653415
 30
0.0
 11
33.723798
 21
-11.481928
 31
0.0
  0
POLYLINE
  5
46C
330
1F
100
AcDbEntity
  8
001
370
    50
100
AcDb2dPolyline
 66
     1
 10
0.0
 20
0.0
 30
0.0
  0
VERTEX
  5
46E
330
46C
100
AcDbEntity
  8
001
370
    50
100
AcDbVertex
100
AcDb2dVertex
 10
50.908605
 20
-13.625323
 30
0.0
  0
VERTEX
  5
46F
330
46C
100
AcDbEntity
  8
001
370
    50
100
AcDbVertex
100
AcDb2dVertex
 10
49.493578
 20
-13.44392
 30
0.0
  0
VERTEX
  5
470
330
46C
100
AcDbEntity
  8
001
370
    50
100
AcDbVertex
100
AcDb2dVertex
 10
47.486012
 20
-13.188166
 30
0.0
  0
VERTEX
  5
471
330
46C
100
AcDbEntity
  8
001
370
    50
100
AcDbVertex
100
AcDb2dVertex
 10
45.083258
 20
-12.884142
 30
0.0
  0
VERTEX
  5
472
330
46C
100
AcDbEntity
  8
001
370
    50
100
AcDbVertex
100
AcDb2dVertex
 10
42.482666
 20
-12.557931
 30
0.0
  0
VERTEX
  5
473
330
46C
100
AcDbEntity
  8
001
370
    50
100
AcDbVertex
100
AcDb2dVertex
 10
39.780141
 20
-12.222601
 30
0.0
  0
VERTEX
  5
474
330
46C
100
AcDbEntity
  8
001
370
    50
100
AcDbVertex
100
AcDb2dVertex
 10
37.282529
 20
-11.915486
 30
0.0
  0
VERTEX
  5
475
330
46C
100
AcDbEntity
  8
001
370
    50
100
AcDbVertex
100
AcDb2dVertex
 10
35.195269
 20
-11.660592
 30
0.0
  0
VERTEX
  5
476
330
46C
100
AcDbEntity
  8
001
370
    50
100
AcDbVertex
100
AcDb2dVertex
 10
33.723798
 20
-11.481928
 30
0.0
  0
SEQEND
  5
46D
330
46C
100
AcDbEntity
  8
001
370
    50
  0
POLYLINE
  5
477
330
1F
100
AcDbEntity
  8
001
370
    50
100
AcDb2dPolyline
 66
     1
 10
0.0
 20
0.0
 30
0.0
  0
VERTEX
  5
479
330
477
100
AcDbEntity
  8
001
370
    50
100
AcDbVertex
100
AcDb2dVertex
 10
42.995705
 20
-13.943511
 30
0.0
  0
VERTEX
  5
47A
330
477
100
AcDbEntity
  8
001
370
    50
100
AcDbVertex
100
AcDb2dVertex
 10
42.995508
 20
-13.928924
 30
0.0
  0
VERTEX
  5
47B
330
477
100
AcDbEntity
  8
001
370
    50
100
AcDbVertex
100
AcDb2dVertex
 10
42.994664
 20
-13.907627
 30
0.0
  0
VERTEX
  5
47C
330
477
100
AcDbEntity
  8
001
370
    50
100
AcDbVertex
100
AcDb2dVertex
 10
42.993037
 20
-13.886213
 30
0.0
  0
VERTEX
  5
47D
330
477
100
AcDbEntity
  8
001
370
    50
100
AcDbVertex
100
AcDb2dVertex
 10
42.991543
 20
-13.871591
 30
0.0
  0
SEQEND
  5
478
330
477
100
AcDbEntity
  8
001
370
    50
  0
LINE
  5
47E
330
1F
100
AcDbEntity
  8
001
370
    50
100
AcDbLine
 10
33.723798
 20
-4.147844
 30
0.0
 11
32.799068
 21
-4.476892
 31
0.0
  0
LINE
  5
47F
330
1F
100
AcDbEntity
  8
001
370
    50
100
AcDbLine
 10
33.723798
 20
-4.147844
 30
0.0
 11
33.723798
 21
-11.481928
 31
0.0
  0
POLYLINE
  5
480
330
1F
100
AcDbEntity
  8
001
370
    50
100
AcDb2dPolyline
 66
     1
 10
0.0
 20
0.0
 30
0.0
  0
VERTEX
  5
482
330
480
100
AcDbEntity
  8
001
370
    50
100
AcDbVertex
100
AcDb2dVertex
 10
50.908605
 20
0.454318
 30
0.0
  0
VERTEX
  5
483
330
480
100
AcDbEntity
  8
001
370
    50
100
AcDbVertex
100
AcDb2dVertex
 10
50.096974
 20
0.411121
 30
0.0
  0
VERTEX
  5
484
330
480
100
AcDbEntity
  8
001
370
    50
100
AcDbVertex
100
AcDb2dVertex
 10
48.910767
 20
0.347569
 30
0.0
  0
VERTEX
  5
485
330
480
100
AcDbEntity
  8
001
370
    50
100
AcDbVertex
100
AcDb2dVertex
 10
47.715626
 20
0.282952
 30
0.0
  0
VERTEX
  5
486
330
480
100
AcDbEntity
  8
001
370
    50
100
AcDbVertex
100
AcDb2dVertex
 10
46.897913
 20
0.238454
 30
0.0
  0
SEQEND
  5
481
330
480
100
AcDbEntity
  8
001
370
    50
  0
LINE
  5
487
330
1F
100
AcDbEntity
  8
001
370
    50
100
AcDbLine
 10
50.908605
 20
0.454318
 30
0.0
 11
50.908605
 21
-13.625323
 31
0.0
  0
POLYLINE
  5
488
330
1F
100
AcDbEntity
  8
001
370
    50
100
AcDb2dPolyline
 66
     1
 10
0.0
 20
0.0
 30
0.0
  0
VERTEX
  5
48A
330
488
100
AcDbEntity
  8
001
370
    50
100
AcDbVertex
100
AcDb2dVertex
 10
47.799203
 20
-3.158122
 30
0.0
  0
VERTEX
  5
48B
330
488
100
AcDbEntity
  8
001
370
    50
100
AcDbVertex
100
AcDb2dVertex
 10
46.115077
 20
-3.273776
 30
0.0
  0
VERTEX
  5
48C
330
488
100
AcDbEntity
  8
001
370
    50
100
AcDbVertex
100
AcDb2dVertex
 10
43.653751
 20
-3.444089
 30
0.0
  0
VERTEX
  5
48D
330
488
100
AcDbEntity
  8
001
370
    50
100
AcDbVertex
100
AcDb2dVertex
 10
40.803928
 20
-3.643213
 30
0.0
  0
VERTEX
  5
48E
330
488
100
AcDbEntity
  8
001
370
    50
100
AcDbVertex
100
AcDb2dVertex
 10
37.919324
 20
-3.847297
 30
0.0
  0
VERTEX
  5
48F
330
488
100
AcDbEntity
  8
001
370
    50
100
AcDbVertex
100
AcDb2dVertex
 10
35.428194
 20
-4.025234
 30
0.0
  0
VERTEX
  5
490
330
488
100
AcDbEntity
  8
001
370
    50
100
AcDbVertex
100
AcDb2dVertex
 10
33.723798
 20
-4.147844
 30
0.0
  0
SEQEND
  5
489
330
488
100
AcDbEntity
  8
001
370
    50
  0
POLYLINE
  5
491
330
1F
100
AcDbEntity
  8
001
370
    50
100
AcDb2dPolyline
 66
     1
 10
0.0
 20
0.0
 30
0.0
  0
VERTEX
  5
493
330
491
100
AcDbEntity
  8
001
370
    50
100
AcDbVertex
100
AcDb2dVertex
 10
47.799203
 20
-3.158122
 30
0.0
  0
VERTEX
  5
494
330
491
100
AcDbEntity
  8
001
370
    50
100
AcDbVertex
100
AcDb2dVertex
 10
47.667199
 20
-2.540461
 30
0.0
  0
VERTEX
  5
495
330
491
100
AcDbEntity
  8
001
370
    50
100
AcDbVertex
100
AcDb2dVertex
 10
47.435536
 20
-1.647835
 30
0.0
  0
VERTEX
  5
496
330
491
100
AcDbEntity
  8
001
370
    50
100
AcDbVertex
100
AcDb2dVertex
 10
47.166027
 20
-0.822407
 30
0.0
  0
VERTEX
  5
497
330
491
100
AcDbEntity
  8
001
370
    50
100
AcDbVertex
100
AcDb2dVertex
 10
46.956062
 20
-0.266073
 30
0.0
  0
SEQEND
  5
492
330
491
100
AcDbEntity
  8
001
370
    50
  0
POLYLINE
  5
498
330
1F
100
AcDbEntity
  8
001
370
    50
100
AcDb2dPolyline
 66
     1
 10
0.0
 20
0.0
 30
0.0
  0
VERTEX
  5
49A
330
498
100
AcDbEntity
  8
001
370
    50
100
AcDbVertex
100
AcDb2dVertex
 10
55.085449
 20
4.558539
 30
0.0
  0
VERTEX
  5
49B
330
498
100
AcDbEntity
  8
001
370
    50
100
AcDbVertex
100
AcDb2dVertex
 10
55.173299
 20
4.556024
 30
0.0
  0
VERTEX
  5
49C
330
498
100
AcDbEntity
  8
001
370
    50
100
AcDbVertex
100
AcDb2dVertex
 10
55.261004
 20
4.550466
 30
0.0
  0
VERTEX
  5
49D
330
498
100
AcDbEntity
  8
001
370
    50
100
AcDbVertex
100
AcDb2dVertex
 10
55.369126
 20
4.53534
 30
0.0
  0
VERTEX
  5
49E
330
498
100
AcDbEntity
  8
001
370
    50
100
AcDbVertex
100
AcDb2dVertex
 10
55.474932
 20
4.508427
 30
0.0
  0
VERTEX
  5
49F
330
498
100
AcDbEntity
  8
001
370
    50
100
AcDbVertex
100
AcDb2dVertex
 10
55.561835
 20
4.474179
 30
0.0
  0
VERTEX
  5
4A0
330
498
100
AcDbEntity
  8
001
370
    50
100
AcDbVertex
100
AcDb2dVertex
 10
55.642818
 20
4.427588
 30
0.0
  0
VERTEX
  5
4A1
330
498
100
AcDbEntity
  8
001
370
    50
100
AcDbVertex
100
AcDb2dVertex
 10
55.709489
 20
4.372531
 30
0.0
  0
VERTEX
  5
4A2
330
498
100
AcDbEntity
  8
001
370
    50
100
AcDbVertex
100
AcDb2dVertex
 10
55.764924
 20
4.306828
 30
0.0
  0
VERTEX
  5
4A3
330
498
100
AcDbEntity
  8
001
370
    50
100
AcDbVertex
100
AcDb2dVertex
 10
55.810802
 20
4.224564
 30
0.0
  0
VERTEX
  5
4A4
330
498
100
AcDbEntity
  8
001
370
    50
100
AcDbVertex
100
AcDb2dVertex
 10
55.847578
 20
4.136762
 30
0.0
  0
SEQEND
  5
499
330
498
100
AcDbEntity
  8
001
370
    50
  0
LINE
  5
4A5
330
1F
100
AcDbEntity
  8
001
370
    50
100
AcDbLine
 10
59.599068
 20
4.558539
 30
0.0
 11
55.079847
 21
4.558539
 31
0.0
  0
LINE
  5
4A6
330
1F
100
AcDbEntity
  8
001
370
    50
100
AcDbLine
 10
50.908605
 20
-32.641461
 30
0.0
 11
59.599068
 21
-32.641461
 31
0.0
  0
POLYLINE
  5
4A7
330
1F
100
AcDbEntity
  8
001
370
    50
100
AcDb2dPolyline
 66
     1
 10
0.0
 20
0.0
 30
0.0
  0
VERTEX
  5
4A9
330
4A7
100
AcDbEntity
  8
001
370
    50
100
AcDbVertex
100
AcDb2dVertex
 10
50.908605
 20
-31.38263
 30
0.0
  0
VERTEX
  5
4AA
330
4A7
100
AcDbEntity
  8
001
370
    50
100
AcDbVertex
100
AcDb2dVertex
 10
52.047163
 20
-31.338064
 30
0.0
  0
VERTEX
  5
4AB
330
4A7
100
AcDbEntity
  8
001
370
    50
100
AcDbVertex
100
AcDb2dVertex
 10
53.711154
 20
-31.271515
 30
0.0
  0
VERTEX
  5
4AC
330
4A7
100
AcDbEntity
  8
001
370
    50
100
AcDbVertex
100
AcDb2dVertex
 10
55.364277
 20
-31.203435
 30
0.0
  0
VERTEX
  5
4AD
330
4A7
100
AcDbEntity
  8
001
370
    50
100
AcDbVertex
100
AcDb2dVertex
 10
56.495321
 20
-31.155887
 30
0.0
  0
SEQEND
  5
4A8
330
4A7
100
AcDbEntity
  8
001
370
    50
  0
POLYLINE
  5
4AE
330
1F
100
AcDbEntity
  8
001
370
    50
100
AcDb2dPolyline
 66
     1
 10
0.0
 20
0.0
 30
0.0
  0
VERTEX
  5
4B0
330
4AE
100
AcDbEntity
  8
001
370
    50
100
AcDbVertex
100
AcDb2dVertex
 10
55.847578
 20
-26.541461
 30
0.0
  0
VERTEX
  5
4B1
330
4AE
100
AcDbEntity
  8
001
370
    50
100
AcDbVertex
100
AcDb2dVertex
 10
55.991157
 20
-28.012746
 30
0.0
  0
VERTEX
  5
4B2
330
4AE
100
AcDbEntity
  8
001
370
    50
100
AcDbVertex
100
AcDb2dVertex
 10
56.294096
 20
-30.149533
 30
0.0
  0
VERTEX
  5
4B3
330
4AE
100
AcDbEntity
  8
001
370
    50
100
AcDbVertex
100
AcDb2dVertex
 10
56.408342
 20
-30.748074
 30
0.0
  0
VERTEX
  5
4B4
330
4AE
100
AcDbEntity
  8
001
370
    50
100
AcDbVertex
100
AcDb2dVertex
 10
56.495321
 20
-31.155887
 30
0.0
  0
SEQEND
  5
4AF
330
4AE
100
AcDbEntity
  8
001
370
    50
  0
POLYLINE
  5
4B5
330
1F
100
AcDbEntity
  8
001
370
    50
100
AcDb2dPolyline
 66
     1
 10
0.0
 20
0.0
 30
0.0
  0
VERTEX
  5
4B7
330
4B5
100
AcDbEntity
  8
001
370
    50
100
AcDbVertex
100
AcDb2dVertex
 10
54.997302
 20
-23.124352
 30
0.0
  0
VERTEX
  5
4B8
330
4B5
100
AcDbEntity
  8
001
370
    50
100
AcDbVertex
100
AcDb2dVertex
 10
55.132705
 20
-23.466874
 30
0.0
  0
VERTEX
  5
4B9
330
4B5
100
AcDbEntity
  8
001
370
    50
100
AcDbVertex
100
AcDb2dVertex
 10
55.261004
 20
-23.811975
 30
0.0
  0
VERTEX
  5
4BA
330
4B5
100
AcDbEntity
  8
001
370
    50
100
AcDbVertex
100
AcDb2dVertex
 10
55.373928
 20
-24.153101
 30
0.0
  0
VERTEX
  5
4BB
330
4B5
100
AcDbEntity
  8
001
370
    50
100
AcDbVertex
100
AcDb2dVertex
 10
55.474932
 20
-24.498039
 30
0.0
  0
VERTEX
  5
4BC
330
4B5
100
AcDbEntity
  8
001
370
    50
100
AcDbVertex
100
AcDb2dVertex
 10
55.563878
 20
-24.839819
 30
0.0
  0
VERTEX
  5
4BD
330
4B5
100
AcDbEntity
  8
001
370
    50
100
AcDbVertex
100
AcDb2dVertex
 10
55.642818
 20
-25.184042
 30
0.0
  0
VERTEX
  5
4BE
330
4B5
100
AcDbEntity
  8
001
370
    50
100
AcDbVertex
100
AcDb2dVertex
 10
55.70939
 20
-25.51939
 30
0.0
  0
VERTEX
  5
4BF
330
4B5
100
AcDbEntity
  8
001
370
    50
100
AcDbVertex
100
AcDb2dVertex
 10
55.764924
 20
-25.856669
 30
0.0
  0
VERTEX
  5
4C0
330
4B5
100
AcDbEntity
  8
001
370
    50
100
AcDbVertex
100
AcDb2dVertex
 10
55.809473
 20
-26.198623
 30
0.0
  0
VERTEX
  5
4C1
330
4B5
100
AcDbEntity
  8
001
370
    50
100
AcDbVertex
100
AcDb2dVertex
 10
55.847578
 20
-26.541461
 30
0.0
  0
SEQEND
  5
4B6
330
4B5
100
AcDbEntity
  8
001
370
    50
  0
LINE
  5
4C2
330
1F
100
AcDbEntity
  8
001
370
    50
100
AcDbLine
 10
55.89458
 20
-19.061877
 30
0.0
 11
55.825251
 21
-19.80664
 31
0.0
  0
POLYLINE
  5
4C3
330
1F
100
AcDbEntity
  8
001
370
    50
100
AcDb2dPolyline
 66
     1
 10
0.0
 20
0.0
 30
0.0
  0
VERTEX
  5
4C5
330
4C3
100
AcDbEntity
  8
001
370
    50
100
AcDbVertex
100
AcDb2dVertex
 10
56.276817
 20
-14.241969
 30
0.0
  0
VERTEX
  5
4C6
330
4C3
100
AcDbEntity
  8
001
370
    50
100
AcDbVertex
100
AcDb2dVertex
 10
56.176023
 20
-15.440477
 30
0.0
  0
VERTEX
  5
4C7
330
4C3
100
AcDbEntity
  8
001
370
    50
100
AcDbVertex
100
AcDb2dVertex
 10
56.035122
 20
-17.19266
 30
0.0
  0
VERTEX
  5
4C8
330
4C3
100
AcDbEntity
  8
001
370
    50
100
AcDbVertex
100
AcDb2dVertex
 10
55.950593
 20
-18.302425
 30
0.0
  0
VERTEX
  5
4C9
330
4C3
100
AcDbEntity
  8
001
370
    50
100
AcDbVertex
100
AcDb2dVertex
 10
55.89458
 20
-19.061877
 30
0.0
  0
SEQEND
  5
4C4
330
4C3
100
AcDbEntity
  8
001
370
    50
  0
POLYLINE
  5
4CA
330
1F
100
AcDbEntity
  8
001
370
    50
100
AcDb2dPolyline
 66
     1
 10
0.0
 20
0.0
 30
0.0
  0
VERTEX
  5
4CC
330
4CA
100
AcDbEntity
  8
001
370
    50
100
AcDbVertex
100
AcDb2dVertex
 10
56.495321
 20
0.823866
 30
0.0
  0
VERTEX
  5
4CD
330
4CA
100
AcDbEntity
  8
001
370
    50
100
AcDbVertex
100
AcDb2dVertex
 10
55.364234
 20
0.749869
 30
0.0
  0
VERTEX
  5
4CE
330
4CA
100
AcDbEntity
  8
001
370
    50
100
AcDbVertex
100
AcDb2dVertex
 10
53.711154
 20
0.641014
 30
0.0
  0
VERTEX
  5
4CF
330
4CA
100
AcDbEntity
  8
001
370
    50
100
AcDbVertex
100
AcDb2dVertex
 10
52.047121
 20
0.53045
 30
0.0
  0
VERTEX
  5
4D0
330
4CA
100
AcDbEntity
  8
001
370
    50
100
AcDbVertex
100
AcDb2dVertex
 10
50.908605
 20
0.454318
 30
0.0
  0
SEQEND
  5
4CB
330
4CA
100
AcDbEntity
  8
001
370
    50
  0
POLYLINE
  5
4D1
330
1F
100
AcDbEntity
  8
001
370
    50
100
AcDb2dPolyline
 66
     1
 10
0.0
 20
0.0
 30
0.0
  0
VERTEX
  5
4D3
330
4D1
100
AcDbEntity
  8
001
370
    50
100
AcDbVertex
100
AcDb2dVertex
 10
56.495321
 20
0.823866
 30
0.0
  0
VERTEX
  5
4D4
330
4D1
100
AcDbEntity
  8
001
370
    50
100
AcDbVertex
100
AcDb2dVertex
 10
56.40798
 20
1.370311
 30
0.0
  0
VERTEX
  5
4D5
330
4D1
100
AcDbEntity
  8
001
370
    50
100
AcDbVertex
100
AcDb2dVertex
 10
56.287203
 20
2.106383
 30
0.0
  0
VERTEX
  5
4D6
330
4D1
100
AcDbEntity
  8
001
370
    50
100
AcDbVertex
100
AcDb2dVertex
 10
56.170455
 20
2.777997
 30
0.0
  0
VERTEX
  5
4D7
330
4D1
100
AcDbEntity
  8
001
370
    50
100
AcDbVertex
100
AcDb2dVertex
 10
56.022913
 20
3.463968
 30
0.0
  0
VERTEX
  5
4D8
330
4D1
100
AcDbEntity
  8
001
370
    50
100
AcDbVertex
100
AcDb2dVertex
 10
55.925118
 20
3.85624
 30
0.0
  0
VERTEX
  5
4D9
330
4D1
100
AcDbEntity
  8
001
370
    50
100
AcDbVertex
100
AcDb2dVertex
 10
55.847578
 20
4.136762
 30
0.0
  0
SEQEND
  5
4D2
330
4D1
100
AcDbEntity
  8
001
370
    50
  0
LINE
  5
4DA
330
1F
100
AcDbEntity
  8
001
370
    50
100
AcDbLine
 10
54.997302
 20
4.556863
 30
0.0
 11
55.085449
 21
4.558539
 31
0.0
  0
POLYLINE
  5
4DB
330
1F
100
AcDbEntity
  8
001
370
    50
100
AcDb2dPolyline
 66
     1
 10
0.0
 20
0.0
 30
0.0
  0
VERTEX
  5
4DD
330
4DB
100
AcDbEntity
  8
001
370
    50
100
AcDbVertex
100
AcDb2dVertex
 10
54.648033
 20
2.072689
 30
0.0
  0
VERTEX
  5
4DE
330
4DB
100
AcDbEntity
  8
001
370
    50
100
AcDbVertex
100
AcDb2dVertex
 10
54.323402
 20
2.053971
 30
0.0
  0
VERTEX
  5
4DF
330
4DB
100
AcDbEntity
  8
001
370
    50
100
AcDbVertex
100
AcDb2dVertex
 10
53.848944
 20
2.026543
 30
0.0
  0
VERTEX
  5
4E0
330
4DB
100
AcDbEntity
  8
001
370
    50
100
AcDbVertex
100
AcDb2dVertex
 10
52.103096
 20
1.92478
 30
0.0
  0
VERTEX
  5
4E1
330
4DB
100
AcDbEntity
  8
001
370
    50
100
AcDbVertex
100
AcDb2dVertex
 10
50.908605
 20
1.854511
 30
0.0
  0
SEQEND
  5
4DC
330
4DB
100
AcDbEntity
  8
001
370
    50
  0
LINE
  5
4E2
330
1F
100
AcDbEntity
  8
001
370
    50
100
AcDbLine
 10
50.908605
 20
-31.38263
 30
0.0
 11
50.908605
 21
-32.641461
 31
0.0
  0
LINE
  5
4E3
330
1F
100
AcDbEntity
  8
001
370
    50
100
AcDbLine
 10
59.599068
 20
4.558539
 30
0.0
 11
59.599068
 21
-32.641461
 31
0.0
  0
LINE
  5
4E4
330
1F
100
AcDbEntity
  8
001
370
    50
100
AcDbLine
 10
59.599068
 20
-32.641461
 30
0.0
 11
66.599068
 21
-30.765816
 31
0.0
  0
LINE
  5
4E5
330
1F
100
AcDbEntity
  8
001
370
    50
100
AcDbLine
 10
66.599068
 20
2.682895
 30
0.0
 11
59.599068
 21
4.558539
 31
0.0
  0
LINE
  5
4E6
330
1F
100
AcDbEntity
  8
001
370
    50
100
AcDbLine
 10
66.599068
 20
2.682895
 30
0.0
 11
66.599068
 21
-30.765816
 31
0.0
  0
POLYLINE
  5
4E7
330
1F
100
AcDbEntity
  8
001
370
    50
100
AcDb2dPolyline
 66
     1
 10
0.0
 20
0.0
 30
0.0
  0
VERTEX
  5
4E9
330
4E7
100
AcDbEntity
  8
001
370
    50
100
AcDbVertex
100
AcDb2dVertex
 10
37.924457
 20
-13.576709
 30
0.0
  0
VERTEX
  5
4EA
330
4E7
100
AcDbEntity
  8
001
370
    50
100
AcDbVertex
100
AcDb2dVertex
 10
37.92941
 20
-13.609129
 30
0.0
  0
VERTEX
  5
4EB
330
4E7
100
AcDbEntity
  8
001
370
    50
100
AcDbVertex
100
AcDb2dVertex
 10
37.93827
 20
-13.654856
 30
0.0
  0
VERTEX
  5
4EC
330
4E7
100
AcDbEntity
  8
001
370
    50
100
AcDbVertex
100
AcDb2dVertex
 10
37.976275
 20
-13.77607
 30
0.0
  0
VERTEX
  5
4ED
330
4E7
100
AcDbEntity
  8
001
370
    50
100
AcDbVertex
100
AcDb2dVertex
 10
38.028906
 20
-13.875957
 30
0.0
  0
VERTEX
  5
4EE
330
4E7
100
AcDbEntity
  8
001
370
    50
100
AcDbVertex
100
AcDb2dVertex
 10
38.104749
 20
-13.98612
 30
0.0
  0
VERTEX
  5
4EF
330
4E7
100
AcDbEntity
  8
001
370
    50
100
AcDbVertex
100
AcDb2dVertex
 10
38.19335
 20
-14.092446
 30
0.0
  0
VERTEX
  5
4F0
330
4E7
100
AcDbEntity
  8
001
370
    50
100
AcDbVertex
100
AcDb2dVertex
 10
38.59893
 20
-14.420812
 30
0.0
  0
VERTEX
  5
4F1
330
4E7
100
AcDbEntity
  8
001
370
    50
100
AcDbVertex
100
AcDb2dVertex
 10
39.069316
 20
-14.650347
 30
0.0
  0
VERTEX
  5
4F2
330
4E7
100
AcDbEntity
  8
001
370
    50
100
AcDbVertex
100
AcDb2dVertex
 10
39.469866
 20
-14.789245
 30
0.0
  0
VERTEX
  5
4F3
330
4E7
100
AcDbEntity
  8
001
370
    50
100
AcDbVertex
100
AcDb2dVertex
 10
39.879525
 20
-14.891237
 30
0.0
  0
VERTEX
  5
4F4
330
4E7
100
AcDbEntity
  8
001
370
    50
100
AcDbVertex
100
AcDb2dVertex
 10
40.097617
 20
-14.930413
 30
0.0
  0
VERTEX
  5
4F5
330
4E7
100
AcDbEntity
  8
001
370
    50
100
AcDbVertex
100
AcDb2dVertex
 10
40.31738
 20
-14.960074
 30
0.0
  0
VERTEX
  5
4F6
330
4E7
100
AcDbEntity
  8
001
370
    50
100
AcDbVertex
100
AcDb2dVertex
 10
40.538213
 20
-14.980425
 30
0.0
  0
VERTEX
  5
4F7
330
4E7
100
AcDbEntity
  8
001
370
    50
100
AcDbVertex
100
AcDb2dVertex
 10
40.759507
 20
-14.991359
 30
0.0
  0
VERTEX
  5
4F8
330
4E7
100
AcDbEntity
  8
001
370
    50
100
AcDbVertex
100
AcDb2dVertex
 10
41.181376
 20
-14.984851
 30
0.0
  0
VERTEX
  5
4F9
330
4E7
100
AcDbEntity
  8
001
370
    50
100
AcDbVertex
100
AcDb2dVertex
 10
41.603122
 20
-14.938637
 30
0.0
  0
VERTEX
  5
4FA
330
4E7
100
AcDbEntity
  8
001
370
    50
100
AcDbVertex
100
AcDb2dVertex
 10
42.114304
 20
-14.816139
 30
0.0
  0
VERTEX
  5
4FB
330
4E7
100
AcDbEntity
  8
001
370
    50
100
AcDbVertex
100
AcDb2dVertex
 10
42.58203
 20
-14.591778
 30
0.0
  0
VERTEX
  5
4FC
330
4E7
100
AcDbEntity
  8
001
370
    50
100
AcDbVertex
100
AcDb2dVertex
 10
42.691333
 20
-14.511368
 30
0.0
  0
VERTEX
  5
4FD
330
4E7
100
AcDbEntity
  8
001
370
    50
100
AcDbVertex
100
AcDb2dVertex
 10
42.790904
 20
-14.417765
 30
0.0
  0
VERTEX
  5
4FE
330
4E7
100
AcDbEntity
  8
001
370
    50
100
AcDbVertex
100
AcDb2dVertex
 10
42.867157
 20
-14.323193
 30
0.0
  0
VERTEX
  5
4FF
330
4E7
100
AcDbEntity
  8
001
370
    50
100
AcDbVertex
100
AcDb2dVertex
 10
42.928893
 20
-14.222676
 30
0.0
  0
VERTEX
  5
500
330
4E7
100
AcDbEntity
  8
001
370
    50
100
AcDbVertex
100
AcDb2dVertex
 10
42.969411
 20
-14.127039
 30
0.0
  0
VERTEX
  5
501
330
4E7
100
AcDbEntity
  8
001
370
    50
100
AcDbVertex
100
AcDb2dVertex
 10
42.991806
 20
-14.01244
 30
0.0
  0
VERTEX
  5
502
330
4E7
100
AcDbEntity
  8
001
370
    50
100
AcDbVertex
100
AcDb2dVertex
 10
42.994741
 20
-13.972006
 30
0.0
  0
VERTEX
  5
503
330
4E7
100
AcDbEntity
  8
001
370
    50
100
AcDbVertex
100
AcDb2dVertex
 10
42.995705
 20
-13.943511
 30
0.0
  0
SEQEND
  5
4E8
330
4E7
100
AcDbEntity
  8
001
370
    50
  0
POLYLINE
  5
504
330
1F
100
AcDbEntity
  8
001
370
    50
100
AcDb2dPolyline
 66
     1
 10
0.0
 20
0.0
 30
0.0
  0
VERTEX
  5
506
330
504
100
AcDbEntity
  8
001
370
    50
100
AcDbVertex
100
AcDb2dVertex
 10
42.991543
 20
-13.871591
 30
0.0
  0
VERTEX
  5
507
330
504
100
AcDbEntity
  8
001
370
    50
100
AcDbVertex
100
AcDb2dVertex
 10
42.98659
 20
-13.839171
 30
0.0
  0
VERTEX
  5
508
330
504
100
AcDbEntity
  8
001
370
    50
100
AcDbVertex
100
AcDb2dVertex
 10
42.97773
 20
-13.793444
 30
0.0
  0
VERTEX
  5
509
330
504
100
AcDbEntity
  8
001
370
    50
100
AcDbVertex
100
AcDb2dVertex
 10
42.939725
 20
-13.67223
 30
0.0
  0
VERTEX
  5
50A
330
504
100
AcDbEntity
  8
001
370
    50
100
AcDbVertex
100
AcDb2dVertex
 10
42.887094
 20
-13.572343
 30
0.0
  0
VERTEX
  5
50B
330
504
100
AcDbEntity
  8
001
370
    50
100
AcDbVertex
100
AcDb2dVertex
 10
42.811251
 20
-13.46218
 30
0.0
  0
VERTEX
  5
50C
330
504
100
AcDbEntity
  8
001
370
    50
100
AcDbVertex
100
AcDb2dVertex
 10
42.72265
 20
-13.355854
 30
0.0
  0
VERTEX
  5
50D
330
504
100
AcDbEntity
  8
001
370
    50
100
AcDbVertex
100
AcDb2dVertex
 10
42.31707
 20
-13.027488
 30
0.0
  0
VERTEX
  5
50E
330
504
100
AcDbEntity
  8
001
370
    50
100
AcDbVertex
100
AcDb2dVertex
 10
41.846684
 20
-12.797953
 30
0.0
  0
VERTEX
  5
50F
330
504
100
AcDbEntity
  8
001
370
    50
100
AcDbVertex
100
AcDb2dVertex
 10
41.446135
 20
-12.659055
 30
0.0
  0
VERTEX
  5
510
330
504
100
AcDbEntity
  8
001
370
    50
100
AcDbVertex
100
AcDb2dVertex
 10
41.036475
 20
-12.557063
 30
0.0
  0
VERTEX
  5
511
330
504
100
AcDbEntity
  8
001
370
    50
100
AcDbVertex
100
AcDb2dVertex
 10
40.818383
 20
-12.517888
 30
0.0
  0
VERTEX
  5
512
330
504
100
AcDbEntity
  8
001
370
    50
100
AcDbVertex
100
AcDb2dVertex
 10
40.59862
 20
-12.488226
 30
0.0
  0
VERTEX
  5
513
330
504
100
AcDbEntity
  8
001
370
    50
100
AcDbVertex
100
AcDb2dVertex
 10
40.377789
 20
-12.467871
 30
0.0
  0
VERTEX
  5
514
330
504
100
AcDbEntity
  8
001
370
    50
100
AcDbVertex
100
AcDb2dVertex
 10
40.156493
 20
-12.456941
 30
0.0
  0
VERTEX
  5
515
330
504
100
AcDbEntity
  8
001
370
    50
100
AcDbVertex
100
AcDb2dVertex
 10
39.734605
 20
-12.463484
 30
0.0
  0
VERTEX
  5
516
330
504
100
AcDbEntity
  8
001
370
    50
100
AcDbVertex
100
AcDb2dVertex
 10
39.312878
 20
-12.509664
 30
0.0
  0
VERTEX
  5
517
330
504
100
AcDbEntity
  8
001
370
    50
100
AcDbVertex
100
AcDb2dVertex
 10
38.801794
 20
-12.631974
 30
0.0
  0
VERTEX
  5
518
330
504
100
AcDbEntity
  8
001
370
    50
100
AcDbVertex
100
AcDb2dVertex
 10
38.33397
 20
-12.856522
 30
0.0
  0
VERTEX
  5
519
330
504
100
AcDbEntity
  8
001
370
    50
100
AcDbVertex
100
AcDb2dVertex
 10
38.224595
 20
-12.937069
 30
0.0
  0
VERTEX
  5
51A
330
504
100
AcDbEntity
  8
001
370
    50
100
AcDbVertex
100
AcDb2dVertex
 10
38.125096
 20
-13.030535
 30
0.0
  0
VERTEX
  5
51B
330
504
100
AcDbEntity
  8
001
370
    50
100
AcDbVertex
100
AcDb2dVertex
 10
38.04904
 20
-13.12473
 30
0.0
  0
VERTEX
  5
51C
330
504
100
AcDbEntity
  8
001
370
    50
100
AcDbVertex
100
AcDb2dVertex
 10
37.987107
 20
-13.225624
 30
0.0
  0
VERTEX
  5
51D
330
504
100
AcDbEntity
  8
001
370
    50
100
AcDbVertex
100
AcDb2dVertex
 10
37.945949
 20
-13.322485
 30
0.0
  0
VERTEX
  5
51E
330
504
100
AcDbEntity
  8
001
370
    50
100
AcDbVertex
100
AcDb2dVertex
 10
37.924194
 20
-13.43586
 30
0.0
  0
VERTEX
  5
51F
330
504
100
AcDbEntity
  8
001
370
    50
100
AcDbVertex
100
AcDb2dVertex
 10
37.921628
 20
-13.517907
 30
0.0
  0
VERTEX
  5
520
330
504
100
AcDbEntity
  8
001
370
    50
100
AcDbVertex
100
AcDb2dVertex
 10
37.924457
 20
-13.576709
 30
0.0
  0
SEQEND
  5
505
330
504
100
AcDbEntity
  8
001
370
    50
  0
POLYLINE
  5
521
330
1F
100
AcDbEntity
  8
001
370
    50
100
AcDb2dPolyline
 66
     1
 10
0.0
 20
0.0
 30
0.0
  0
VERTEX
  5
523
330
521
100
AcDbEntity
  8
001
370
    50
100
AcDbVertex
100
AcDb2dVertex
 10
55.825251
 20
-19.80664
 30
0.0
  0
VERTEX
  5
524
330
521
100
AcDbEntity
  8
001
370
    50
100
AcDbVertex
100
AcDb2dVertex
 10
55.804851
 20
-19.973542
 30
0.0
  0
VERTEX
  5
525
330
521
100
AcDbEntity
  8
001
370
    50
100
AcDbVertex
100
AcDb2dVertex
 10
55.783392
 20
-20.140301
 30
0.0
  0
VERTEX
  5
526
330
521
100
AcDbEntity
  8
001
370
    50
100
AcDbVertex
100
AcDb2dVertex
 10
55.70166
 20
-20.669499
 30
0.0
  0
VERTEX
  5
527
330
521
100
AcDbEntity
  8
001
370
    50
100
AcDbVertex
100
AcDb2dVertex
 10
55.599442
 20
-21.195367
 30
0.0
  0
VERTEX
  5
528
330
521
100
AcDbEntity
  8
001
370
    50
100
AcDbVertex
100
AcDb2dVertex
 10
55.483072
 20
-21.690906
 30
0.0
  0
VERTEX
  5
529
330
521
100
AcDbEntity
  8
001
370
    50
100
AcDbVertex
100
AcDb2dVertex
 10
55.342672
 20
-22.179722
 30
0.0
  0
VERTEX
  5
52A
330
521
100
AcDbEntity
  8
001
370
    50
100
AcDbVertex
100
AcDb2dVertex
 10
55.177437
 20
-22.654494
 30
0.0
  0
VERTEX
  5
52B
330
521
100
AcDbEntity
  8
001
370
    50
100
AcDbVertex
100
AcDb2dVertex
 10
54.997302
 20
-23.124352
 30
0.0
  0
SEQEND
  5
522
330
521
100
AcDbEntity
  8
001
370
    50
  0
POLYLINE
  5
52C
330
1F
100
AcDbEntity
  8
001
370
    50
100
AcDb2dPolyline
 66
     1
 10
0.0
 20
0.0
 30
0.0
  0
VERTEX
  5
52E
330
52C
100
AcDbEntity
  8
001
370
    50
100
AcDbVertex
100
AcDb2dVertex
 10
54.997302
 20
-23.124352
 30
0.0
  0
VERTEX
  5
52F
330
52C
100
AcDbEntity
  8
001
370
    50
100
AcDbVertex
100
AcDb2dVertex
 10
54.943558
 20
-22.874903
 30
0.0
  0
VERTEX
  5
530
330
52C
100
AcDbEntity
  8
001
370
    50
100
AcDbVertex
100
AcDb2dVertex
 10
54.885181
 20
-22.626586
 30
0.0
  0
VERTEX
  5
531
330
52C
100
AcDbEntity
  8
001
370
    50
100
AcDbVertex
100
AcDb2dVertex
 10
54.817728
 20
-22.377687
 30
0.0
  0
VERTEX
  5
532
330
52C
100
AcDbEntity
  8
001
370
    50
100
AcDbVertex
100
AcDb2dVertex
 10
54.741965
 20
-22.131104
 30
0.0
  0
VERTEX
  5
533
330
52C
100
AcDbEntity
  8
001
370
    50
100
AcDbVertex
100
AcDb2dVertex
 10
54.617793
 20
-21.774486
 30
0.0
  0
VERTEX
  5
534
330
52C
100
AcDbEntity
  8
001
370
    50
100
AcDbVertex
100
AcDb2dVertex
 10
54.477757
 20
-21.423833
 30
0.0
  0
VERTEX
  5
535
330
52C
100
AcDbEntity
  8
001
370
    50
100
AcDbVertex
100
AcDb2dVertex
 10
54.316336
 20
-21.069523
 30
0.0
  0
VERTEX
  5
536
330
52C
100
AcDbEntity
  8
001
370
    50
100
AcDbVertex
100
AcDb2dVertex
 10
54.137834
 20
-20.723453
 30
0.0
  0
VERTEX
  5
537
330
52C
100
AcDbEntity
  8
001
370
    50
100
AcDbVertex
100
AcDb2dVertex
 10
53.932521
 20
-20.370093
 30
0.0
  0
VERTEX
  5
538
330
52C
100
AcDbEntity
  8
001
370
    50
100
AcDbVertex
100
AcDb2dVertex
 10
53.709152
 20
-20.027951
 30
0.0
  0
VERTEX
  5
539
330
52C
100
AcDbEntity
  8
001
370
    50
100
AcDbVertex
100
AcDb2dVertex
 10
53.58584
 20
-19.854615
 30
0.0
  0
VERTEX
  5
53A
330
52C
100
AcDbEntity
  8
001
370
    50
100
AcDbVertex
100
AcDb2dVertex
 10
53.457929
 20
-19.684641
 30
0.0
  0
VERTEX
  5
53B
330
52C
100
AcDbEntity
  8
001
370
    50
100
AcDbVertex
100
AcDb2dVertex
 10
53.321718
 20
-19.513484
 30
0.0
  0
VERTEX
  5
53C
330
52C
100
AcDbEntity
  8
001
370
    50
100
AcDbVertex
100
AcDb2dVertex
 10
53.18042
 20
-19.346542
 30
0.0
  0
VERTEX
  5
53D
330
52C
100
AcDbEntity
  8
001
370
    50
100
AcDbVertex
100
AcDb2dVertex
 10
53.099206
 20
-19.255153
 30
0.0
  0
VERTEX
  5
53E
330
52C
100
AcDbEntity
  8
001
370
    50
100
AcDbVertex
100
AcDb2dVertex
 10
53.017129
 20
-19.164528
 30
0.0
  0
SEQEND
  5
52D
330
52C
100
AcDbEntity
  8
001
370
    50
  0
LINE
  5
53F
330
1F
100
AcDbEntity
  8
001
370
    50
100
AcDbLine
 10
151.599068
 20
-20.041461
 30
0.0
 11
151.599068
 21
-8.041461
 31
0.0
  0
LINE
  5
540
330
1F
100
AcDbEntity
  8
001
370
    50
100
AcDbLine
 10
55.847578
 20
4.136762
 30
0.0
 11
56.231389
 21
0.806646
 31
0.0
  0
POLYLINE
  5
541
330
1F
100
AcDbEntity
  8
001
370
    50
100
AcDb2dPolyline
 66
     1
 10
0.0
 20
0.0
 30
0.0
  0
VERTEX
  5
543
330
541
100
AcDbEntity
  8
001
370
    50
100
AcDbVertex
100
AcDb2dVertex
 10
34.711005
 20
-16.541461
 30
0.0
  0
VERTEX
  5
544
330
541
100
AcDbEntity
  8
001
370
    50
100
AcDbVertex
100
AcDb2dVertex
 10
34.627233
 20
-16.865346
 30
0.0
  0
VERTEX
  5
545
330
541
100
AcDbEntity
  8
001
370
    50
100
AcDbVertex
100
AcDb2dVertex
 10
34.539135
 20
-17.188018
 30
0.0
  0
VERTEX
  5
546
330
541
100
AcDbEntity
  8
001
370
    50
100
AcDbVertex
100
AcDb2dVertex
 10
34.443418
 20
-17.508527
 30
0.0
  0
VERTEX
  5
547
330
541
100
AcDbEntity
  8
001
370
    50
100
AcDbVertex
100
AcDb2dVertex
 10
34.340897
 20
-17.826982
 30
0.0
  0
VERTEX
  5
548
330
541
100
AcDbEntity
  8
001
370
    50
100
AcDbVertex
100
AcDb2dVertex
 10
34.119741
 20
-18.461955
 30
0.0
  0
VERTEX
  5
549
330
541
100
AcDbEntity
  8
001
370
    50
100
AcDbVertex
100
AcDb2dVertex
 10
33.881636
 20
-19.090781
 30
0.0
  0
VERTEX
  5
54A
330
541
100
AcDbEntity
  8
001
370
    50
100
AcDbVertex
100
AcDb2dVertex
 10
33.627208
 20
-19.719265
 30
0.0
  0
VERTEX
  5
54B
330
541
100
AcDbEntity
  8
001
370
    50
100
AcDbVertex
100
AcDb2dVertex
 10
33.360167
 20
-20.342463
 30
0.0
  0
VERTEX
  5
54C
330
541
100
AcDbEntity
  8
001
370
    50
100
AcDbVertex
100
AcDb2dVertex
 10
33.082401
 20
-20.961682
 30
0.0
  0
VERTEX
  5
54D
330
541
100
AcDbEntity
  8
001
370
    50
100
AcDbVertex
100
AcDb2dVertex
 10
32.799068
 20
-21.578409
 30
0.0
  0
SEQEND
  5
542
330
541
100
AcDbEntity
  8
001
370
    50
  0
POLYLINE
  5
54E
330
1F
100
AcDbEntity
  8
001
370
    50
100
AcDb2dPolyline
 66
     1
 10
0.0
 20
0.0
 30
0.0
  0
VERTEX
  5
550
330
54E
100
AcDbEntity
  8
001
370
    50
100
AcDbVertex
100
AcDb2dVertex
 10
32.799068
 20
-20.27895
 30
0.0
  0
VERTEX
  5
551
330
54E
100
AcDbEntity
  8
001
370
    50
100
AcDbVertex
100
AcDb2dVertex
 10
32.823138
 20
-20.241353
 30
0.0
  0
VERTEX
  5
552
330
54E
100
AcDbEntity
  8
001
370
    50
100
AcDbVertex
100
AcDb2dVertex
 10
32.847206
 20
-20.203755
 30
0.0
  0
VERTEX
  5
553
330
54E
100
AcDbEntity
  8
001
370
    50
100
AcDbVertex
100
AcDb2dVertex
 10
33.320845
 20
-19.46095
 30
0.0
  0
VERTEX
  5
554
330
54E
100
AcDbEntity
  8
001
370
    50
100
AcDbVertex
100
AcDb2dVertex
 10
33.790348
 20
-18.715533
 30
0.0
  0
VERTEX
  5
555
330
54E
100
AcDbEntity
  8
001
370
    50
100
AcDbVertex
100
AcDb2dVertex
 10
34.07061
 20
-18.26458
 30
0.0
  0
VERTEX
  5
556
330
54E
100
AcDbEntity
  8
001
370
    50
100
AcDbVertex
100
AcDb2dVertex
 10
34.34969
 20
-17.81289
 30
0.0
  0
SEQEND
  5
54F
330
54E
100
AcDbEntity
  8
001
370
    50
  0
POLYLINE
  5
557
330
1F
100
AcDbEntity
  8
001
370
    50
100
AcDb2dPolyline
 66
     1
 10
0.0
 20
0.0
 30
0.0
  0
VERTEX
  5
559
330
557
100
AcDbEntity
  8
001
370
    50
100
AcDbVertex
100
AcDb2dVertex
 10
34.596249
 20
-16.98455
 30
0.0
  0
VERTEX
  5
55A
330
557
100
AcDbEntity
  8
001
370
    50
100
AcDbVertex
100
AcDb2dVertex
 10
34.567872
 20
-16.931366
 30
0.0
  0
VERTEX
  5
55B
330
557
100
AcDbEntity
  8
001
370
    50
100
AcDbVertex
100
AcDb2dVertex
 10
34.539135
 20
-16.878385
 30
0.0
  0
VERTEX
  5
55C
330
557
100
AcDbEntity
  8
001
370
    50
100
AcDbVertex
100
AcDb2dVertex
 10
34.441809
 20
-16.708858
 30
0.0
  0
VERTEX
  5
55D
330
557
100
AcDbEntity
  8
001
370
    50
100
AcDbVertex
100
AcDb2dVertex
 10
34.340705
 20
-16.541459
 30
0.0
  0
SEQEND
  5
558
330
557
100
AcDbEntity
  8
001
370
    50
  0
POLYLINE
  5
55E
330
1F
100
AcDbEntity
  8
001
370
    50
100
AcDb2dPolyline
 66
     1
 10
0.0
 20
0.0
 30
0.0
  0
VERTEX
  5
560
330
55E
100
AcDbEntity
  8
001
370
    50
100
AcDbVertex
100
AcDb2dVertex
 10
46.740997
 20
-31.654265
 30
0.0
  0
VERTEX
  5
561
330
55E
100
AcDbEntity
  8
001
370
    50
100
AcDbVertex
100
AcDb2dVertex
 10
47.590855
 20
-31.599923
 30
0.0
  0
VERTEX
  5
562
330
55E
100
AcDbEntity
  8
001
370
    50
100
AcDbVertex
100
AcDb2dVertex
 10
48.832898
 20
-31.5196
 30
0.0
  0
VERTEX
  5
563
330
55E
100
AcDbEntity
  8
001
370
    50
100
AcDbVertex
100
AcDb2dVertex
 10
50.065373
 20
-31.43864
 30
0.0
  0
VERTEX
  5
564
330
55E
100
AcDbEntity
  8
001
370
    50
100
AcDbVertex
100
AcDb2dVertex
 10
50.908605
 20
-31.38263
 30
0.0
  0
SEQEND
  5
55F
330
55E
100
AcDbEntity
  8
001
370
    50
  0
LINE
  5
565
330
1F
100
AcDbEntity
  8
001
370
    50
100
AcDbLine
 10
45.436704
 20
-29.545959
 30
0.0
 11
46.740997
 21
-31.654265
 31
0.0
  0
POLYLINE
  5
566
330
1F
100
AcDbEntity
  8
001
370
    50
100
AcDb2dPolyline
 66
     1
 10
0.0
 20
0.0
 30
0.0
  0
VERTEX
  5
568
330
566
100
AcDbEntity
  8
001
370
    50
100
AcDbVertex
100
AcDb2dVertex
 10
41.85798
 20
-21.08603
 30
0.0
  0
VERTEX
  5
569
330
566
100
AcDbEntity
  8
001
370
    50
100
AcDbVertex
100
AcDb2dVertex
 10
41.847783
 20
-21.007461
 30
0.0
  0
VERTEX
  5
56A
330
566
100
AcDbEntity
  8
001
370
    50
100
AcDbVertex
100
AcDb2dVertex
 10
41.830729
 20
-20.894948
 30
0.0
  0
VERTEX
  5
56B
330
566
100
AcDbEntity
  8
001
370
    50
100
AcDbVertex
100
AcDb2dVertex
 10
41.692184
 20
-20.354395
 30
0.0
  0
VERTEX
  5
56C
330
566
100
AcDbEntity
  8
001
370
    50
100
AcDbVertex
100
AcDb2dVertex
 10
41.476144
 20
-19.915892
 30
0.0
  0
VERTEX
  5
56D
330
566
100
AcDbEntity
  8
001
370
    50
100
AcDbVertex
100
AcDb2dVertex
 10
41.005014
 20
-19.309975
 30
0.0
  0
VERTEX
  5
56E
330
566
100
AcDbEntity
  8
001
370
    50
100
AcDbVertex
100
AcDb2dVertex
 10
40.383497
 20
-18.817816
 30
0.0
  0
VERTEX
  5
56F
330
566
100
AcDbEntity
  8
001
370
    50
100
AcDbVertex
100
AcDb2dVertex
 10
40.148976
 20
-18.695988
 30
0.0
  0
VERTEX
  5
570
330
566
100
AcDbEntity
  8
001
370
    50
100
AcDbVertex
100
AcDb2dVertex
 10
39.911901
 20
-18.596814
 30
0.0
  0
VERTEX
  5
571
330
566
100
AcDbEntity
  8
001
370
    50
100
AcDbVertex
100
AcDb2dVertex
 10
39.674794
 20
-18.518394
 30
0.0
  0
VERTEX
  5
572
330
566
100
AcDbEntity
  8
001
370
    50
100
AcDbVertex
100
AcDb2dVertex
 10
39.409282
 20
-18.461469
 30
0.0
  0
VERTEX
  5
573
330
566
100
AcDbEntity
  8
001
370
    50
100
AcDbVertex
100
AcDb2dVertex
 10
39.109722
 20
-18.427264
 30
0.0
  0
VERTEX
  5
574
330
566
100
AcDbEntity
  8
001
370
    50
100
AcDbVertex
100
AcDb2dVertex
 10
38.890913
 20
-18.415892
 30
0.0
  0
SEQEND
  5
567
330
566
100
AcDbEntity
  8
001
370
    50
  0
POLYLINE
  5
575
330
1F
100
AcDbEntity
  8
001
370
    50
100
AcDb2dPolyline
 66
     1
 10
0.0
 20
0.0
 30
0.0
  0
VERTEX
  5
577
330
575
100
AcDbEntity
  8
001
370
    50
100
AcDbVertex
100
AcDb2dVertex
 10
54.997302
 20
4.556863
 30
0.0
  0
VERTEX
  5
578
330
575
100
AcDbEntity
  8
001
370
    50
100
AcDbVertex
100
AcDb2dVertex
 10
54.943667
 20
4.062813
 30
0.0
  0
VERTEX
  5
579
330
575
100
AcDbEntity
  8
001
370
    50
100
AcDbVertex
100
AcDb2dVertex
 10
54.885128
 20
3.569376
 30
0.0
  0
VERTEX
  5
57A
330
575
100
AcDbEntity
  8
001
370
    50
100
AcDbVertex
100
AcDb2dVertex
 10
54.817811
 20
3.077059
 30
0.0
  0
VERTEX
  5
57B
330
575
100
AcDbEntity
  8
001
370
    50
100
AcDbVertex
100
AcDb2dVertex
 10
54.741965
 20
2.585918
 30
0.0
  0
VERTEX
  5
57C
330
575
100
AcDbEntity
  8
001
370
    50
100
AcDbVertex
100
AcDb2dVertex
 10
54.61896
 20
1.879957
 30
0.0
  0
VERTEX
  5
57D
330
575
100
AcDbEntity
  8
001
370
    50
100
AcDbVertex
100
AcDb2dVertex
 10
54.477401
 20
1.177582
 30
0.0
  0
VERTEX
  5
57E
330
575
100
AcDbEntity
  8
001
370
    50
100
AcDbVertex
100
AcDb2dVertex
 10
54.422222
 20
0.929005
 30
0.0
  0
VERTEX
  5
57F
330
575
100
AcDbEntity
  8
001
370
    50
100
AcDbVertex
100
AcDb2dVertex
 10
54.365652
 20
0.680732
 30
0.0
  0
SEQEND
  5
576
330
575
100
AcDbEntity
  8
001
370
    50
  0
POLYLINE
  5
580
330
1F
100
AcDbEntity
  8
001
370
    50
100
AcDb2dPolyline
 66
     1
 10
0.0
 20
0.0
 30
0.0
  0
VERTEX
  5
582
330
580
100
AcDbEntity
  8
001
370
    50
100
AcDbVertex
100
AcDb2dVertex
 10
46.740997
 20
-31.654265
 30
0.0
  0
VERTEX
  5
583
330
580
100
AcDbEntity
  8
001
370
    50
100
AcDbVertex
100
AcDb2dVertex
 10
46.814644
 20
-31.733904
 30
0.0
  0
VERTEX
  5
584
330
580
100
AcDbEntity
  8
001
370
    50
100
AcDbVertex
100
AcDb2dVertex
 10
46.918634
 20
-31.846119
 30
0.0
  0
VERTEX
  5
585
330
580
100
AcDbEntity
  8
001
370
    50
100
AcDbVertex
100
AcDb2dVertex
 10
47.276476
 20
-32.225789
 30
0.0
  0
VERTEX
  5
586
330
580
100
AcDbEntity
  8
001
370
    50
100
AcDbVertex
100
AcDb2dVertex
 10
47.685886
 20
-32.557843
 30
0.0
  0
VERTEX
  5
587
330
580
100
AcDbEntity
  8
001
370
    50
100
AcDbVertex
100
AcDb2dVertex
 10
47.75219
 20
-32.602584
 30
0.0
  0
VERTEX
  5
588
330
580
100
AcDbEntity
  8
001
370
    50
100
AcDbVertex
100
AcDb2dVertex
 10
47.799203
 20
-32.632707
 30
0.0
  0
SEQEND
  5
581
330
580
100
AcDbEntity
  8
001
370
    50
  0
LINE
  5
589
330
1F
100
AcDbEntity
  8
001
370
    50
100
AcDbLine
 10
32.799068
 20
0.032093
 30
0.0
 11
32.799068
 21
0.695612
 31
0.0
  0
LINE
  5
58A
330
1F
100
AcDbEntity
  8
001
370
    50
100
AcDbLine
 10
32.799068
 20
0.695612
 30
0.0
 11
33.723798
 21
1.026968
 31
0.0
  0
POLYLINE
  5
58B
330
1F
100
AcDbEntity
  8
001
370
    50
100
AcDb2dPolyline
 66
     1
 10
0.0
 20
0.0
 30
0.0
  0
VERTEX
  5
58D
330
58B
100
AcDbEntity
  8
001
370
    50
100
AcDbVertex
100
AcDb2dVertex
 10
43.237363
 20
1.501428
 30
0.0
  0
VERTEX
  5
58E
330
58B
100
AcDbEntity
  8
001
370
    50
100
AcDbVertex
100
AcDb2dVertex
 10
41.324319
 20
1.40901
 30
0.0
  0
VERTEX
  5
58F
330
58B
100
AcDbEntity
  8
001
370
    50
100
AcDbVertex
100
AcDb2dVertex
 10
38.528457
 20
1.271373
 30
0.0
  0
VERTEX
  5
590
330
58B
100
AcDbEntity
  8
001
370
    50
100
AcDbVertex
100
AcDb2dVertex
 10
35.675638
 20
1.127305
 30
0.0
  0
VERTEX
  5
591
330
58B
100
AcDbEntity
  8
001
370
    50
100
AcDbVertex
100
AcDb2dVertex
 10
33.723798
 20
1.026968
 30
0.0
  0
SEQEND
  5
58C
330
58B
100
AcDbEntity
  8
001
370
    50
  0
POLYLINE
  5
592
330
1F
100
AcDbEntity
  8
001
370
    50
100
AcDb2dPolyline
 66
     1
 10
0.0
 20
0.0
 30
0.0
  0
VERTEX
  5
594
330
592
100
AcDbEntity
  8
001
370
    50
100
AcDbVertex
100
AcDb2dVertex
 10
50.908605
 20
1.854511
 30
0.0
  0
VERTEX
  5
595
330
592
100
AcDbEntity
  8
001
370
    50
100
AcDbVertex
100
AcDb2dVertex
 10
50.273012
 20
1.826322
 30
0.0
  0
VERTEX
  5
596
330
592
100
AcDbEntity
  8
001
370
    50
100
AcDbVertex
100
AcDb2dVertex
 10
49.344083
 20
1.784798
 30
0.0
  0
VERTEX
  5
597
330
592
100
AcDbEntity
  8
001
370
    50
100
AcDbVertex
100
AcDb2dVertex
 10
48.407749
 20
1.742486
 30
0.0
  0
VERTEX
  5
598
330
592
100
AcDbEntity
  8
001
370
    50
100
AcDbVertex
100
AcDb2dVertex
 10
47.767109
 20
1.713312
 30
0.0
  0
SEQEND
  5
593
330
592
100
AcDbEntity
  8
001
370
    50
  0
POLYLINE
  5
599
330
1F
100
AcDbEntity
  8
001
370
    50
100
AcDb2dPolyline
 66
     1
 10
0.0
 20
0.0
 30
0.0
  0
VERTEX
  5
59B
330
599
100
AcDbEntity
  8
001
370
    50
100
AcDbVertex
100
AcDb2dVertex
 10
42.528987
 20
0.850395
 30
0.0
  0
VERTEX
  5
59C
330
599
100
AcDbEntity
  8
001
370
    50
100
AcDbVertex
100
AcDb2dVertex
 10
42.148347
 20
1.011468
 30
0.0
  0
VERTEX
  5
59D
330
599
100
AcDbEntity
  8
001
370
    50
100
AcDbVertex
100
AcDb2dVertex
 10
41.603122
 20
1.163452
 30
0.0
  0
VERTEX
  5
59E
330
599
100
AcDbEntity
  8
001
370
    50
100
AcDbVertex
100
AcDb2dVertex
 10
41.168334
 20
1.217396
 30
0.0
  0
VERTEX
  5
59F
330
599
100
AcDbEntity
  8
001
370
    50
100
AcDbVertex
100
AcDb2dVertex
 10
40.759507
 20
1.216174
 30
0.0
  0
VERTEX
  5
5A0
330
599
100
AcDbEntity
  8
001
370
    50
100
AcDbVertex
100
AcDb2dVertex
 10
40.539926
 20
1.204746
 30
0.0
  0
VERTEX
  5
5A1
330
599
100
AcDbEntity
  8
001
370
    50
100
AcDbVertex
100
AcDb2dVertex
 10
40.31738
 20
1.18489
 30
0.0
  0
VERTEX
  5
5A2
330
599
100
AcDbEntity
  8
001
370
    50
100
AcDbVertex
100
AcDb2dVertex
 10
40.096004
 20
1.154265
 30
0.0
  0
VERTEX
  5
5A3
330
599
100
AcDbEntity
  8
001
370
    50
100
AcDbVertex
100
AcDb2dVertex
 10
39.879525
 20
1.116052
 30
0.0
  0
VERTEX
  5
5A4
330
599
100
AcDbEntity
  8
001
370
    50
100
AcDbVertex
100
AcDb2dVertex
 10
39.4816
 20
1.025283
 30
0.0
  0
VERTEX
  5
5A5
330
599
100
AcDbEntity
  8
001
370
    50
100
AcDbVertex
100
AcDb2dVertex
 10
39.069316
 20
0.875162
 30
0.0
  0
VERTEX
  5
5A6
330
599
100
AcDbEntity
  8
001
370
    50
100
AcDbVertex
100
AcDb2dVertex
 10
38.60948
 20
0.631344
 30
0.0
  0
VERTEX
  5
5A7
330
599
100
AcDbEntity
  8
001
370
    50
100
AcDbVertex
100
AcDb2dVertex
 10
38.296567
 20
0.417111
 30
0.0
  0
SEQEND
  5
59A
330
599
100
AcDbEntity
  8
001
370
    50
  0
LINE
  5
5A8
330
1F
100
AcDbEntity
  8
001
370
    50
100
AcDbLine
 10
32.799068
 20
-4.476892
 30
0.0
 11
32.799068
 21
-16.541461
 31
0.0
  0
LINE
  5
5A9
330
1F
100
AcDbEntity
  8
001
370
    50
100
AcDbLine
 10
68.599068
 20
-24.041461
 30
0.0
 11
68.599068
 21
-4.041461
 31
0.0
  0
LINE
  5
5AA
330
1F
100
AcDbEntity
  8
001
370
    50
100
AcDbLine
 10
68.599068
 20
-4.541461
 30
0.0
 11
66.599068
 21
-4.541461
 31
0.0
  0
LINE
  5
5AB
330
1F
100
AcDbEntity
  8
001
  6
CENTER
370
     9
100
AcDbLine
 10
30.548683
 20
-14.041461
 30
0.0
 11
154.025291
 21
-14.041461
 31
0.0
  0
LINE
  5
5AC
330
1F
100
AcDbEntity
  8
001
370
    50
100
AcDbLine
 10
47.289462
 20
-23.135036
 30
0.0
 11
47.289462
 21
-24.867086
 31
0.0
  0
LINE
  5
5AD
330
1F
100
AcDbEntity
  8
001
370
    50
100
AcDbLine
 10
44.289462
 20
-24.867086
 30
0.0
 11
44.289462
 21
-23.135036
 31
0.0
  0
LINE
  5
5AE
330
1F
100
AcDbEntity
  8
001
370
    50
100
AcDbLine
 10
44.289462
 20
-23.135036
 30
0.0
 11
45.789462
 21
-22.26901
 31
0.0
  0
LINE
  5
5AF
330
1F
100
AcDbEntity
  8
001
370
    50
100
AcDbLine
 10
47.289462
 20
-24.867086
 30
0.0
 11
45.789462
 21
-25.733112
 31
0.0
  0
LINE
  5
5B0
330
1F
100
AcDbEntity
  8
001
370
    50
100
AcDbLine
 10
45.789462
 20
-25.733112
 30
0.0
 11
44.289462
 21
-24.867086
 31
0.0
  0
LINE
  5
5B1
330
1F
100
AcDbEntity
  8
001
370
    50
100
AcDbLine
 10
47.289462
 20
-23.135036
 30
0.0
 11
45.789462
 21
-22.26901
 31
0.0
  0
LINE
  5
5B2
330
1F
100
AcDbEntity
  8
001
370
    50
100
AcDbLine
 10
151.599068
 20
-14.041461
 30
0.0
 11
154.197144
 21
-12.541461
 31
0.0
  0
LINE
  5
5B3
330
1F
100
AcDbEntity
  8
001
370
    50
100
AcDbLine
 10
151.599068
 20
-14.041461
 30
0.0
 11
154.197144
 21
-15.541461
 31
0.0
  0
LINE
  5
5B4
330
1F
100
AcDbEntity
  8
001
370
    50
100
AcDbLine
 10
38.537309
 20
-20.937849
 30
0.0
 11
31.705203
 21
-32.843276
 31
0.0
  0
LINE
  5
5B5
330
1F
100
AcDbEntity
  8
001
370
    50
100
AcDbLine
 10
46.127618
 20
-34.005522
 30
0.0
 11
32.401162
 21
-34.041458
 31
0.0
  0
ARC
  5
5B6
330
1F
100
AcDbEntity
  8
001
370
    50
100
AcDbCircle
 10
32.399068
 20
-33.241461
 30
0.0
 40
0.8
100
AcDbArc
 50
150.15
 51
270.15
  0
ARC
  5
5B7
330
1F
100
AcDbEntity
  8
001
370
    50
100
AcDbCircle
 10
46.125523
 20
-33.205525
 30
0.0
 40
0.8
100
AcDbArc
 50
270.15
 51
30.15
  0
ARC
  5
5B8
330
1F
100
AcDbEntity
  8
001
370
    50
100
AcDbCircle
 10
39.231174
 20
-21.336034
 30
0.0
 40
0.8
100
AcDbArc
 50
30.15
 51
150.15
  0
LINE
  5
5B9
330
1F
100
AcDbEntity
  8
001
370
    50
100
AcDbLine
 10
39.922945
 20
-20.934221
 30
0.0
 11
40.476654
 21
-21.887502
 31
0.0
  0
LINE
  5
5BA
330
1F
100
AcDbEntity
  8
001
370
    50
100
AcDbLine
 10
45.054014
 20
-29.768003
 30
0.0
 11
46.817294
 21
-32.803713
 31
0.0
  0
ARC
  5
5BB
330
1F
100
AcDbEntity
  8
001
370
    50
100
AcDbCircle
 10
39.251922
 20
-29.261006
 30
0.0
 40
1.9
100
AcDbArc
 50
57.308237
 51
2.446119
  0
POLYLINE
  5
5BC
330
1F
100
AcDbEntity
  8
001
370
    50
100
AcDb2dPolyline
 66
     1
 10
0.0
 20
0.0
 30
0.0
  0
VERTEX
  5
5BE
330
5BC
100
AcDbEntity
  8
001
370
    50
100
AcDbVertex
100
AcDb2dVertex
 10
39.117362
 20
-18.424536
 30
0.0
  0
VERTEX
  5
5BF
330
5BC
100
AcDbEntity
  8
001
370
    50
100
AcDbVertex
100
AcDb2dVertex
 10
38.99548
 20
-18.437504
 30
0.0
  0
VERTEX
  5
5C0
330
5BC
100
AcDbEntity
  8
001
370
    50
100
AcDbVertex
100
AcDb2dVertex
 10
38.825443
 20
-18.461469
 30
0.0
  0
VERTEX
  5
5C1
330
5BC
100
AcDbEntity
  8
001
370
    50
100
AcDbVertex
100
AcDb2dVertex
 10
38.557251
 20
-18.51925
 30
0.0
  0
VERTEX
  5
5C2
330
5BC
100
AcDbEntity
  8
001
370
    50
100
AcDbVertex
100
AcDb2dVertex
 10
38.322824
 20
-18.596814
 30
0.0
  0
VERTEX
  5
5C3
330
5BC
100
AcDbEntity
  8
001
370
    50
100
AcDbVertex
100
AcDb2dVertex
 10
38.086483
 20
-18.696435
 30
0.0
  0
VERTEX
  5
5C4
330
5BC
100
AcDbEntity
  8
001
370
    50
100
AcDbVertex
100
AcDb2dVertex
 10
37.851228
 20
-18.817816
 30
0.0
  0
VERTEX
  5
5C5
330
5BC
100
AcDbEntity
  8
001
370
    50
100
AcDbVertex
100
AcDb2dVertex
 10
37.230353
 20
-19.29566
 30
0.0
  0
VERTEX
  5
5C6
330
5BC
100
AcDbEntity
  8
001
370
    50
100
AcDbVertex
100
AcDb2dVertex
 10
36.758581
 20
-19.915892
 30
0.0
  0
VERTEX
  5
5C7
330
5BC
100
AcDbEntity
  8
001
370
    50
100
AcDbVertex
100
AcDb2dVertex
 10
36.53901
 20
-20.391032
 30
0.0
  0
VERTEX
  5
5C8
330
5BC
100
AcDbEntity
  8
001
370
    50
100
AcDbVertex
100
AcDb2dVertex
 10
36.403996
 20
-20.894948
 30
0.0
  0
VERTEX
  5
5C9
330
5BC
100
AcDbEntity
  8
001
370
    50
100
AcDbVertex
100
AcDb2dVertex
 10
36.369496
 20
-21.153996
 30
0.0
  0
VERTEX
  5
5CA
330
5BC
100
AcDbEntity
  8
001
370
    50
100
AcDbVertex
100
AcDb2dVertex
 10
36.358645
 20
-21.415892
 30
0.0
  0
VERTEX
  5
5CB
330
5BC
100
AcDbEntity
  8
001
370
    50
100
AcDbVertex
100
AcDb2dVertex
 10
36.371607
 20
-21.679078
 30
0.0
  0
VERTEX
  5
5CC
330
5BC
100
AcDbEntity
  8
001
370
    50
100
AcDbVertex
100
AcDb2dVertex
 10
36.403996
 20
-21.936837
 30
0.0
  0
VERTEX
  5
5CD
330
5BC
100
AcDbEntity
  8
001
370
    50
100
AcDbVertex
100
AcDb2dVertex
 10
36.522227
 20
-22.422824
 30
0.0
  0
VERTEX
  5
5CE
330
5BC
100
AcDbEntity
  8
001
370
    50
100
AcDbVertex
100
AcDb2dVertex
 10
36.758581
 20
-22.915892
 30
0.0
  0
VERTEX
  5
5CF
330
5BC
100
AcDbEntity
  8
001
370
    50
100
AcDbVertex
100
AcDb2dVertex
 10
36.958739
 20
-23.21208
 30
0.0
  0
VERTEX
  5
5D0
330
5BC
100
AcDbEntity
  8
001
370
    50
100
AcDbVertex
100
AcDb2dVertex
 10
37.116641
 20
-23.413464
 30
0.0
  0
SEQEND
  5
5BD
330
5BC
100
AcDbEntity
  8
001
370
    50
  0
POLYLINE
  5
5D1
330
1F
100
AcDbEntity
  8
001
370
    50
100
AcDb2dPolyline
 66
     1
 10
0.0
 20
0.0
 30
0.0
  0
VERTEX
  5
5D3
330
5D1
100
AcDbEntity
  8
001
370
    50
100
AcDbVertex
100
AcDb2dVertex
 10
38.890913
 20
-18.415892
 30
0.0
  0
VERTEX
  5
5D4
330
5D1
100
AcDbEntity
  8
001
370
    50
100
AcDbVertex
100
AcDb2dVertex
 10
38.672101
 20
-18.427304
 30
0.0
  0
VERTEX
  5
5D5
330
5D1
100
AcDbEntity
  8
001
370
    50
100
AcDbVertex
100
AcDb2dVertex
 10
38.372545
 20
-18.461469
 30
0.0
  0
VERTEX
  5
5D6
330
5D1
100
AcDbEntity
  8
001
370
    50
100
AcDbVertex
100
AcDb2dVertex
 10
38.107052
 20
-18.518194
 30
0.0
  0
VERTEX
  5
5D7
330
5D1
100
AcDbEntity
  8
001
370
    50
100
AcDbVertex
100
AcDb2dVertex
 10
37.869926
 20
-18.596814
 30
0.0
  0
VERTEX
  5
5D8
330
5D1
100
AcDbEntity
  8
001
370
    50
100
AcDbVertex
100
AcDb2dVertex
 10
37.632774
 20
-18.69675
 30
0.0
  0
VERTEX
  5
5D9
330
5D1
100
AcDbEntity
  8
001
370
    50
100
AcDbVertex
100
AcDb2dVertex
 10
37.39833
 20
-18.817816
 30
0.0
  0
VERTEX
  5
5DA
330
5D1
100
AcDbEntity
  8
001
370
    50
100
AcDbVertex
100
AcDb2dVertex
 10
36.778273
 20
-19.295382
 30
0.0
  0
VERTEX
  5
5DB
330
5D1
100
AcDbEntity
  8
001
370
    50
100
AcDbVertex
100
AcDb2dVertex
 10
36.305683
 20
-19.915892
 30
0.0
  0
VERTEX
  5
5DC
330
5D1
100
AcDbEntity
  8
001
370
    50
100
AcDbVertex
100
AcDb2dVertex
 10
36.085982
 20
-20.390976
 30
0.0
  0
VERTEX
  5
5DD
330
5D1
100
AcDbEntity
  8
001
370
    50
100
AcDbVertex
100
AcDb2dVertex
 10
35.951098
 20
-20.894948
 30
0.0
  0
VERTEX
  5
5DE
330
5D1
100
AcDbEntity
  8
001
370
    50
100
AcDbVertex
100
AcDb2dVertex
 10
35.916634
 20
-21.15414
 30
0.0
  0
VERTEX
  5
5DF
330
5D1
100
AcDbEntity
  8
001
370
    50
100
AcDbVertex
100
AcDb2dVertex
 10
35.905747
 20
-21.415892
 30
0.0
  0
VERTEX
  5
5E0
330
5D1
100
AcDbEntity
  8
001
370
    50
100
AcDbVertex
100
AcDb2dVertex
 10
35.918621
 20
-21.678568
 30
0.0
  0
VERTEX
  5
5E1
330
5D1
100
AcDbEntity
  8
001
370
    50
100
AcDbVertex
100
AcDb2dVertex
 10
35.951098
 20
-21.936837
 30
0.0
  0
VERTEX
  5
5E2
330
5D1
100
AcDbEntity
  8
001
370
    50
100
AcDbVertex
100
AcDb2dVertex
 10
36.070192
 20
-22.427971
 30
0.0
  0
VERTEX
  5
5E3
330
5D1
100
AcDbEntity
  8
001
370
    50
100
AcDbVertex
100
AcDb2dVertex
 10
36.305683
 20
-22.915892
 30
0.0
  0
VERTEX
  5
5E4
330
5D1
100
AcDbEntity
  8
001
370
    50
100
AcDbVertex
100
AcDb2dVertex
 10
36.657755
 20
-23.387406
 30
0.0
  0
VERTEX
  5
5E5
330
5D1
100
AcDbEntity
  8
001
370
    50
100
AcDbVertex
100
AcDb2dVertex
 10
36.953317
 20
-23.698066
 30
0.0
  0
SEQEND
  5
5D2
330
5D1
100
AcDbEntity
  8
001
370
    50
  0
LINE
  5
5E6
330
1F
100
AcDbEntity
  8
001
370
    50
100
AcDbLine
 10
32.799068
 20
-30.937139
 30
0.0
 11
32.799068
 21
-20.27895
 31
0.0
  0
LINE
  5
5E7
330
1F
100
AcDbEntity
  8
001
370
    50
100
AcDbLine
 10
46.785759
 20
-32.749421
 30
0.0
 11
50.908605
 21
-32.641461
 31
0.0
  0
POLYLINE
  5
5E8
330
1F
100
AcDbEntity
  8
001
370
    50
100
AcDb2dPolyline
 66
     1
 10
0.0
 20
0.0
 30
0.0
  0
VERTEX
  5
5EA
330
5E8
100
AcDbEntity
  8
001
370
    50
100
AcDbVertex
100
AcDb2dVertex
 10
46.740025
 20
-32.670684
 30
0.0
  0
VERTEX
  5
5EB
330
5E8
100
AcDbEntity
  8
001
370
    50
100
AcDbVertex
100
AcDb2dVertex
 10
46.955281
 20
-32.663015
 30
0.0
  0
VERTEX
  5
5EC
330
5E8
100
AcDbEntity
  8
001
370
    50
100
AcDbVertex
100
AcDb2dVertex
 10
47.269884
 20
-32.651765
 30
0.0
  0
VERTEX
  5
5ED
330
5E8
100
AcDbEntity
  8
001
370
    50
100
AcDbVertex
100
AcDb2dVertex
 10
47.584168
 20
-32.640467
 30
0.0
  0
VERTEX
  5
5EE
330
5E8
100
AcDbEntity
  8
001
370
    50
100
AcDbVertex
100
AcDb2dVertex
 10
47.799203
 20
-32.632707
 30
0.0
  0
SEQEND
  5
5E9
330
5E8
100
AcDbEntity
  8
001
370
    50
  0
LINE
  5
5EF
330
1F
100
AcDbEntity
  8
001
370
    50
100
AcDbLine
 10
147.599068
 20
-4.041461
 30
0.0
 11
68.599068
 21
-4.041461
 31
0.0
  0
ARC
  5
5F0
330
1F
100
AcDbEntity
  8
001
370
    50
100
AcDbCircle
 10
147.599068
 20
-8.041461
 30
0.0
 40
4.0
100
AcDbArc
 50
0.0
 51
90.0
  0
LINE
  5
5F1
330
1F
100
AcDbEntity
  8
001
370
    50
100
AcDbLine
 10
68.599068
 20
-24.041461
 30
0.0
 11
147.599068
 21
-24.041461
 31
0.0
  0
ARC
  5
5F2
330
1F
100
AcDbEntity
  8
001
370
    50
100
AcDbCircle
 10
147.599068
 20
-20.041461
 30
0.0
 40
4.0
100
AcDbArc
 50
270.0
 51
0.0
  0
LINE
  5
5F3
330
1F
100
AcDbEntity
  8
001
370
    50
100
AcDbLine
 10
68.599068
 20
-23.541461
 30
0.0
 11
66.599068
 21
-23.541461
 31
0.0
  0
LINE
  5
5F4
330
1F
100
AcDbEntity
  8
001
370
    50
100
AcDbLine
 10
43.129546
 20
-70.376947
 30
0.0
 11
42.368426
 21
-71.079048
 31
0.0
  0
LINE
  5
5F5
330
1F
100
AcDbEntity
  8
001
370
    50
100
AcDbLine
 10
43.203723
 20
-71.020548
 30
0.0
 11
43.129546
 21
-70.376947
 31
0.0
  0
LINE
  5
5F6
330
1F
100
AcDbEntity
  8
001
370
    50
100
AcDbLine
 10
50.31143
 20
-71.358759
 30
0.0
 11
50.26887
 21
-70.989489
 31
0.0
  0
LINE
  5
5F7
330
1F
100
AcDbEntity
  8
001
370
    50
100
AcDbLine
 10
43.891969
 20
-69.690714
 30
0.0
 11
43.129546
 21
-70.376947
 31
0.0
  0
LINE
  5
5F8
330
1F
100
AcDbEntity
  8
001
370
    50
100
AcDbLine
 10
43.891969
 20
-69.690714
 30
0.0
 11
50.26887
 21
-70.989489
 31
0.0
  0
LINE
  5
5F9
330
1F
100
AcDbEntity
  8
001
370
    50
100
AcDbLine
 10
50.26887
 20
-70.989489
 30
0.0
 11
50.470561
 21
-71.350286
 31
0.0
  0
LINE
  5
5FA
330
1F
100
AcDbEntity
  8
001
370
    50
100
AcDbLine
 10
32.887685
 20
-75.878041
 30
0.0
 11
46.559715
 21
-74.920519
 31
0.0
  0
POLYLINE
  5
5FB
330
1F
100
AcDbEntity
  8
001
370
    50
100
AcDb2dPolyline
 66
     1
 10
0.0
 20
0.0
 30
0.0
  0
VERTEX
  5
5FD
330
5FB
100
AcDbEntity
  8
001
370
    50
100
AcDbVertex
100
AcDb2dVertex
 10
47.086986
 20
-74.988215
 30
0.0
  0
VERTEX
  5
5FE
330
5FB
100
AcDbEntity
  8
001
370
    50
100
AcDbVertex
100
AcDb2dVertex
 10
47.003832
 20
-74.962079
 30
0.0
  0
VERTEX
  5
5FF
330
5FB
100
AcDbEntity
  8
001
370
    50
100
AcDbVertex
100
AcDb2dVertex
 10
46.889152
 20
-74.934219
 30
0.0
  0
VERTEX
  5
600
330
5FB
100
AcDbEntity
  8
001
370
    50
100
AcDbVertex
100
AcDb2dVertex
 10
46.761438
 20
-74.916893
 30
0.0
  0
VERTEX
  5
601
330
5FB
100
AcDbEntity
  8
001
370
    50
100
AcDbVertex
100
AcDb2dVertex
 10
46.62636
 20
-74.917273
 30
0.0
  0
VERTEX
  5
602
330
5FB
100
AcDbEntity
  8
001
370
    50
100
AcDbVertex
100
AcDb2dVertex
 10
46.587273
 20
-74.918998
 30
0.0
  0
VERTEX
  5
603
330
5FB
100
AcDbEntity
  8
001
370
    50
100
AcDbVertex
100
AcDb2dVertex
 10
46.559715
 20
-74.920519
 30
0.0
  0
SEQEND
  5
5FC
330
5FB
100
AcDbEntity
  8
001
370
    50
  0
LINE
  5
604
330
1F
100
AcDbEntity
  8
001
370
    50
100
AcDbLine
 10
32.799068
 20
-77.065471
 30
0.0
 11
32.165153
 21
-76.524461
 31
0.0
  0
POLYLINE
  5
605
330
1F
100
AcDbEntity
  8
001
370
    50
100
AcDb2dPolyline
 66
     1
 10
0.0
 20
0.0
 30
0.0
  0
VERTEX
  5
607
330
605
100
AcDbEntity
  8
001
370
    50
100
AcDbVertex
100
AcDb2dVertex
 10
32.073125
 20
-76.367968
 30
0.0
  0
VERTEX
  5
608
330
605
100
AcDbEntity
  8
001
370
    50
100
AcDbVertex
100
AcDb2dVertex
 10
32.07984
 20
-76.396866
 30
0.0
  0
VERTEX
  5
609
330
605
100
AcDbEntity
  8
001
370
    50
100
AcDbVertex
100
AcDb2dVertex
 10
32.092963
 20
-76.434733
 30
0.0
  0
VERTEX
  5
60A
330
605
100
AcDbEntity
  8
001
370
    50
100
AcDbVertex
100
AcDb2dVertex
 10
32.110956
 20
-76.467505
 30
0.0
  0
VERTEX
  5
60B
330
605
100
AcDbEntity
  8
001
370
    50
100
AcDbVertex
100
AcDb2dVertex
 10
32.136164
 20
-76.496708
 30
0.0
  0
VERTEX
  5
60C
330
605
100
AcDbEntity
  8
001
370
    50
100
AcDbVertex
100
AcDb2dVertex
 10
32.1528
 20
-76.513084
 30
0.0
  0
VERTEX
  5
60D
330
605
100
AcDbEntity
  8
001
370
    50
100
AcDbVertex
100
AcDb2dVertex
 10
32.165153
 20
-76.524461
 30
0.0
  0
SEQEND
  5
606
330
605
100
AcDbEntity
  8
001
370
    50
  0
POLYLINE
  5
60E
330
1F
100
AcDbEntity
  8
001
370
    50
100
AcDb2dPolyline
 66
     1
 10
0.0
 20
0.0
 30
0.0
  0
VERTEX
  5
610
330
60E
100
AcDbEntity
  8
001
370
    50
100
AcDbVertex
100
AcDb2dVertex
 10
32.887685
 20
-75.878041
 30
0.0
  0
VERTEX
  5
611
330
60E
100
AcDbEntity
  8
001
370
    50
100
AcDbVertex
100
AcDb2dVertex
 10
32.85815
 20
-75.880512
 30
0.0
  0
VERTEX
  5
612
330
60E
100
AcDbEntity
  8
001
370
    50
100
AcDbVertex
100
AcDb2dVertex
 10
32.816674
 20
-75.884619
 30
0.0
  0
VERTEX
  5
613
330
60E
100
AcDbEntity
  8
001
370
    50
100
AcDbVertex
100
AcDb2dVertex
 10
32.744221
 20
-75.894276
 30
0.0
  0
VERTEX
  5
614
330
60E
100
AcDbEntity
  8
001
370
    50
100
AcDbVertex
100
AcDb2dVertex
 10
32.680391
 20
-75.906367
 30
0.0
  0
VERTEX
  5
615
330
60E
100
AcDbEntity
  8
001
370
    50
100
AcDbVertex
100
AcDb2dVertex
 10
32.555464
 20
-75.938411
 30
0.0
  0
VERTEX
  5
616
330
60E
100
AcDbEntity
  8
001
370
    50
100
AcDbVertex
100
AcDb2dVertex
 10
32.428344
 20
-75.982651
 30
0.0
  0
VERTEX
  5
617
330
60E
100
AcDbEntity
  8
001
370
    50
100
AcDbVertex
100
AcDb2dVertex
 10
32.280905
 20
-76.05598
 30
0.0
  0
VERTEX
  5
618
330
60E
100
AcDbEntity
  8
001
370
    50
100
AcDbVertex
100
AcDb2dVertex
 10
32.156187
 20
-76.159569
 30
0.0
  0
VERTEX
  5
619
330
60E
100
AcDbEntity
  8
001
370
    50
100
AcDbVertex
100
AcDb2dVertex
 10
32.128883
 20
-76.193111
 30
0.0
  0
VERTEX
  5
61A
330
60E
100
AcDbEntity
  8
001
370
    50
100
AcDbVertex
100
AcDb2dVertex
 10
32.105225
 20
-76.228263
 30
0.0
  0
VERTEX
  5
61B
330
60E
100
AcDbEntity
  8
001
370
    50
100
AcDbVertex
100
AcDb2dVertex
 10
32.088462
 20
-76.260629
 30
0.0
  0
VERTEX
  5
61C
330
60E
100
AcDbEntity
  8
001
370
    50
100
AcDbVertex
100
AcDb2dVertex
 10
32.077255
 20
-76.298441
 30
0.0
  0
VERTEX
  5
61D
330
60E
100
AcDbEntity
  8
001
370
    50
100
AcDbVertex
100
AcDb2dVertex
 10
32.072887
 20
-76.338623
 30
0.0
  0
VERTEX
  5
61E
330
60E
100
AcDbEntity
  8
001
370
    50
100
AcDbVertex
100
AcDb2dVertex
 10
32.073125
 20
-76.367968
 30
0.0
  0
SEQEND
  5
60F
330
60E
100
AcDbEntity
  8
001
370
    50
  0
POLYLINE
  5
61F
330
1F
100
AcDbEntity
  8
001
370
    50
100
AcDb2dPolyline
 66
     1
 10
0.0
 20
0.0
 30
0.0
  0
VERTEX
  5
621
330
61F
100
AcDbEntity
  8
001
370
    50
100
AcDbVertex
100
AcDb2dVertex
 10
32.414923
 20
-71.776142
 30
0.0
  0
VERTEX
  5
622
330
61F
100
AcDbEntity
  8
001
370
    50
100
AcDbVertex
100
AcDb2dVertex
 10
32.385388
 20
-71.778614
 30
0.0
  0
VERTEX
  5
623
330
61F
100
AcDbEntity
  8
001
370
    50
100
AcDbVertex
100
AcDb2dVertex
 10
32.343912
 20
-71.78272
 30
0.0
  0
VERTEX
  5
624
330
61F
100
AcDbEntity
  8
001
370
    50
100
AcDbVertex
100
AcDb2dVertex
 10
32.271459
 20
-71.792377
 30
0.0
  0
VERTEX
  5
625
330
61F
100
AcDbEntity
  8
001
370
    50
100
AcDbVertex
100
AcDb2dVertex
 10
32.207629
 20
-71.804469
 30
0.0
  0
VERTEX
  5
626
330
61F
100
AcDbEntity
  8
001
370
    50
100
AcDbVertex
100
AcDb2dVertex
 10
32.082702
 20
-71.836512
 30
0.0
  0
VERTEX
  5
627
330
61F
100
AcDbEntity
  8
001
370
    50
100
AcDbVertex
100
AcDb2dVertex
 10
31.955582
 20
-71.880752
 30
0.0
  0
VERTEX
  5
628
330
61F
100
AcDbEntity
  8
001
370
    50
100
AcDbVertex
100
AcDb2dVertex
 10
31.808143
 20
-71.954081
 30
0.0
  0
VERTEX
  5
629
330
61F
100
AcDbEntity
  8
001
370
    50
100
AcDbVertex
100
AcDb2dVertex
 10
31.683425
 20
-72.05767
 30
0.0
  0
VERTEX
  5
62A
330
61F
100
AcDbEntity
  8
001
370
    50
100
AcDbVertex
100
AcDb2dVertex
 10
31.656121
 20
-72.091212
 30
0.0
  0
VERTEX
  5
62B
330
61F
100
AcDbEntity
  8
001
370
    50
100
AcDbVertex
100
AcDb2dVertex
 10
31.632463
 20
-72.126365
 30
0.0
  0
VERTEX
  5
62C
330
61F
100
AcDbEntity
  8
001
370
    50
100
AcDbVertex
100
AcDb2dVertex
 10
31.6157
 20
-72.15873
 30
0.0
  0
VERTEX
  5
62D
330
61F
100
AcDbEntity
  8
001
370
    50
100
AcDbVertex
100
AcDb2dVertex
 10
31.604493
 20
-72.196542
 30
0.0
  0
VERTEX
  5
62E
330
61F
100
AcDbEntity
  8
001
370
    50
100
AcDbVertex
100
AcDb2dVertex
 10
31.600125
 20
-72.236724
 30
0.0
  0
VERTEX
  5
62F
330
61F
100
AcDbEntity
  8
001
370
    50
100
AcDbVertex
100
AcDb2dVertex
 10
31.600363
 20
-72.26607
 30
0.0
  0
SEQEND
  5
620
330
61F
100
AcDbEntity
  8
001
370
    50
  0
LINE
  5
630
330
1F
100
AcDbEntity
  8
001
370
    50
100
AcDbLine
 10
31.600363
 20
-72.26607
 30
0.0
 11
32.073125
 21
-76.367968
 31
0.0
  0
LINE
  5
631
330
1F
100
AcDbEntity
  8
001
370
    50
100
AcDbLine
 10
32.414923
 20
-71.776142
 30
0.0
 11
46.086953
 21
-70.81862
 31
0.0
  0
LINE
  5
632
330
1F
100
AcDbEntity
  8
001
370
    50
100
AcDbLine
 10
47.293373
 20
-74.974071
 30
0.0
 11
46.84995
 21
-71.126727
 31
0.0
  0
POLYLINE
  5
633
330
1F
100
AcDbEntity
  8
001
370
    50
100
AcDb2dPolyline
 66
     1
 10
0.0
 20
0.0
 30
0.0
  0
VERTEX
  5
635
330
633
100
AcDbEntity
  8
001
370
    50
100
AcDbVertex
100
AcDb2dVertex
 10
46.84995
 20
-71.126727
 30
0.0
  0
VERTEX
  5
636
330
633
100
AcDbEntity
  8
001
370
    50
100
AcDbVertex
100
AcDb2dVertex
 10
46.843511
 20
-71.098096
 30
0.0
  0
VERTEX
  5
637
330
633
100
AcDbEntity
  8
001
370
    50
100
AcDbVertex
100
AcDb2dVertex
 10
46.830112
 20
-71.059962
 30
0.0
  0
VERTEX
  5
638
330
633
100
AcDbEntity
  8
001
370
    50
100
AcDbVertex
100
AcDb2dVertex
 10
46.810572
 20
-71.025694
 30
0.0
  0
VERTEX
  5
639
330
633
100
AcDbEntity
  8
001
370
    50
100
AcDbVertex
100
AcDb2dVertex
 10
46.786911
 20
-70.997988
 30
0.0
  0
VERTEX
  5
63A
330
633
100
AcDbEntity
  8
001
370
    50
100
AcDbVertex
100
AcDb2dVertex
 10
46.755992
 20
-70.969128
 30
0.0
  0
VERTEX
  5
63B
330
633
100
AcDbEntity
  8
001
370
    50
100
AcDbVertex
100
AcDb2dVertex
 10
46.721658
 20
-70.942687
 30
0.0
  0
VERTEX
  5
63C
330
633
100
AcDbEntity
  8
001
370
    50
100
AcDbVertex
100
AcDb2dVertex
 10
46.573248
 20
-70.870498
 30
0.0
  0
VERTEX
  5
63D
330
633
100
AcDbEntity
  8
001
370
    50
100
AcDbVertex
100
AcDb2dVertex
 10
46.41639
 20
-70.83232
 30
0.0
  0
VERTEX
  5
63E
330
633
100
AcDbEntity
  8
001
370
    50
100
AcDbVertex
100
AcDb2dVertex
 10
46.293723
 20
-70.817131
 30
0.0
  0
VERTEX
  5
63F
330
633
100
AcDbEntity
  8
001
370
    50
100
AcDbVertex
100
AcDb2dVertex
 10
46.153598
 20
-70.815374
 30
0.0
  0
VERTEX
  5
640
330
633
100
AcDbEntity
  8
001
370
    50
100
AcDbVertex
100
AcDb2dVertex
 10
46.114393
 20
-70.81705
 30
0.0
  0
VERTEX
  5
641
330
633
100
AcDbEntity
  8
001
370
    50
100
AcDbVertex
100
AcDb2dVertex
 10
46.086953
 20
-70.81862
 30
0.0
  0
SEQEND
  5
634
330
633
100
AcDbEntity
  8
001
370
    50
  0
ARC
  5
642
330
1F
100
AcDbEntity
  8
001
370
    50
100
AcDbCircle
 10
46.067558
 20
-75.088132
 30
0.0
 40
5.3
100
AcDbArc
 50
54.832291
 51
102.143895
  0
POLYLINE
  5
643
330
1F
100
AcDbEntity
  8
001
370
    50
100
AcDb2dPolyline
 66
     1
 10
0.0
 20
0.0
 30
0.0
  0
VERTEX
  5
645
330
643
100
AcDbEntity
  8
001
370
    50
100
AcDbVertex
100
AcDb2dVertex
 10
43.550587
 20
-91.885279
 30
0.0
  0
VERTEX
  5
646
330
643
100
AcDbEntity
  8
001
370
    50
100
AcDbVertex
100
AcDb2dVertex
 10
42.778954
 20
-92.512107
 30
0.0
  0
VERTEX
  5
647
330
643
100
AcDbEntity
  8
001
370
    50
100
AcDbVertex
100
AcDb2dVertex
 10
41.911617
 20
-93.532393
 30
0.0
  0
VERTEX
  5
648
330
643
100
AcDbEntity
  8
001
370
    50
100
AcDbVertex
100
AcDb2dVertex
 10
41.55952
 20
-94.257151
 30
0.0
  0
VERTEX
  5
649
330
643
100
AcDbEntity
  8
001
370
    50
100
AcDbVertex
100
AcDb2dVertex
 10
41.379739
 20
-95.000976
 30
0.0
  0
VERTEX
  5
64A
330
643
100
AcDbEntity
  8
001
370
    50
100
AcDbVertex
100
AcDb2dVertex
 10
41.33091
 20
-95.389088
 30
0.0
  0
VERTEX
  5
64B
330
643
100
AcDbEntity
  8
001
370
    50
100
AcDbVertex
100
AcDb2dVertex
 10
41.311712
 20
-95.782393
 30
0.0
  0
VERTEX
  5
64C
330
643
100
AcDbEntity
  8
001
370
    50
100
AcDbVertex
100
AcDb2dVertex
 10
41.328076
 20
-96.174815
 30
0.0
  0
VERTEX
  5
64D
330
643
100
AcDbEntity
  8
001
370
    50
100
AcDbVertex
100
AcDb2dVertex
 10
41.379739
 20
-96.56381
 30
0.0
  0
VERTEX
  5
64E
330
643
100
AcDbEntity
  8
001
370
    50
100
AcDbVertex
100
AcDb2dVertex
 10
41.582042
 20
-97.319907
 30
0.0
  0
VERTEX
  5
64F
330
643
100
AcDbEntity
  8
001
370
    50
100
AcDbVertex
100
AcDb2dVertex
 10
41.911617
 20
-98.032393
 30
0.0
  0
VERTEX
  5
650
330
643
100
AcDbEntity
  8
001
370
    50
100
AcDbVertex
100
AcDb2dVertex
 10
42.620511
 20
-98.963102
 30
0.0
  0
VERTEX
  5
651
330
643
100
AcDbEntity
  8
001
370
    50
100
AcDbVertex
100
AcDb2dVertex
 10
43.550587
 20
-99.679507
 30
0.0
  0
VERTEX
  5
652
330
643
100
AcDbEntity
  8
001
370
    50
100
AcDbVertex
100
AcDb2dVertex
 10
43.902254
 20
-99.861109
 30
0.0
  0
VERTEX
  5
653
330
643
100
AcDbEntity
  8
001
370
    50
100
AcDbVertex
100
AcDb2dVertex
 10
44.257982
 20
-100.01101
 30
0.0
  0
VERTEX
  5
654
330
643
100
AcDbEntity
  8
001
370
    50
100
AcDbVertex
100
AcDb2dVertex
 10
44.613671
 20
-100.12894
 30
0.0
  0
VERTEX
  5
655
330
643
100
AcDbEntity
  8
001
370
    50
100
AcDbVertex
100
AcDb2dVertex
 10
45.011909
 20
-100.214028
 30
0.0
  0
VERTEX
  5
656
330
643
100
AcDbEntity
  8
001
370
    50
100
AcDbVertex
100
AcDb2dVertex
 10
45.461244
 20
-100.265276
 30
0.0
  0
VERTEX
  5
657
330
643
100
AcDbEntity
  8
001
370
    50
100
AcDbVertex
100
AcDb2dVertex
 10
45.789462
 20
-100.282393
 30
0.0
  0
SEQEND
  5
644
330
643
100
AcDbEntity
  8
001
370
    50
  0
POLYLINE
  5
658
330
1F
100
AcDbEntity
  8
001
370
    50
100
AcDb2dPolyline
 66
     1
 10
0.0
 20
0.0
 30
0.0
  0
VERTEX
  5
65A
330
658
100
AcDbEntity
  8
001
370
    50
100
AcDbVertex
100
AcDb2dVertex
 10
45.789462
 20
-100.282393
 30
0.0
  0
VERTEX
  5
65B
330
658
100
AcDbEntity
  8
001
370
    50
100
AcDbVertex
100
AcDb2dVertex
 10
46.117682
 20
-100.265276
 30
0.0
  0
VERTEX
  5
65C
330
658
100
AcDbEntity
  8
001
370
    50
100
AcDbVertex
100
AcDb2dVertex
 10
46.567016
 20
-100.214028
 30
0.0
  0
VERTEX
  5
65D
330
658
100
AcDbEntity
  8
001
370
    50
100
AcDbVertex
100
AcDb2dVertex
 10
46.965252
 20
-100.128939
 30
0.0
  0
VERTEX
  5
65E
330
658
100
AcDbEntity
  8
001
370
    50
100
AcDbVertex
100
AcDb2dVertex
 10
47.320943
 20
-100.01101
 30
0.0
  0
VERTEX
  5
65F
330
658
100
AcDbEntity
  8
001
370
    50
100
AcDbVertex
100
AcDb2dVertex
 10
47.67668
 20
-99.861114
 30
0.0
  0
VERTEX
  5
660
330
658
100
AcDbEntity
  8
001
370
    50
100
AcDbVertex
100
AcDb2dVertex
 10
48.028337
 20
-99.679507
 30
0.0
  0
VERTEX
  5
661
330
658
100
AcDbEntity
  8
001
370
    50
100
AcDbVertex
100
AcDb2dVertex
 10
48.958248
 20
-98.963005
 30
0.0
  0
VERTEX
  5
662
330
658
100
AcDbEntity
  8
001
370
    50
100
AcDbVertex
100
AcDb2dVertex
 10
49.667308
 20
-98.032393
 30
0.0
  0
VERTEX
  5
663
330
658
100
AcDbEntity
  8
001
370
    50
100
AcDbVertex
100
AcDb2dVertex
 10
49.9973
 20
-97.320151
 30
0.0
  0
VERTEX
  5
664
330
658
100
AcDbEntity
  8
001
370
    50
100
AcDbVertex
100
AcDb2dVertex
 10
50.199185
 20
-96.56381
 30
0.0
  0
VERTEX
  5
665
330
658
100
AcDbEntity
  8
001
370
    50
100
AcDbVertex
100
AcDb2dVertex
 10
50.250231
 20
-96.174453
 30
0.0
  0
VERTEX
  5
666
330
658
100
AcDbEntity
  8
001
370
    50
100
AcDbVertex
100
AcDb2dVertex
 10
50.267213
 20
-95.782393
 30
0.0
  0
VERTEX
  5
667
330
658
100
AcDbEntity
  8
001
370
    50
100
AcDbVertex
100
AcDb2dVertex
 10
50.25014
 20
-95.390333
 30
0.0
  0
VERTEX
  5
668
330
658
100
AcDbEntity
  8
001
370
    50
100
AcDbVertex
100
AcDb2dVertex
 10
50.199185
 20
-95.000976
 30
0.0
  0
VERTEX
  5
669
330
658
100
AcDbEntity
  8
001
370
    50
100
AcDbVertex
100
AcDb2dVertex
 10
49.99803
 20
-94.244628
 30
0.0
  0
VERTEX
  5
66A
330
658
100
AcDbEntity
  8
001
370
    50
100
AcDbVertex
100
AcDb2dVertex
 10
49.667308
 20
-93.532393
 30
0.0
  0
VERTEX
  5
66B
330
658
100
AcDbEntity
  8
001
370
    50
100
AcDbVertex
100
AcDb2dVertex
 10
48.953114
 20
-92.60183
 30
0.0
  0
VERTEX
  5
66C
330
658
100
AcDbEntity
  8
001
370
    50
100
AcDbVertex
100
AcDb2dVertex
 10
48.028337
 20
-91.885279
 30
0.0
  0
VERTEX
  5
66D
330
658
100
AcDbEntity
  8
001
370
    50
100
AcDbVertex
100
AcDb2dVertex
 10
47.6818
 20
-91.703622
 30
0.0
  0
VERTEX
  5
66E
330
658
100
AcDbEntity
  8
001
370
    50
100
AcDbVertex
100
AcDb2dVertex
 10
47.320943
 20
-91.553776
 30
0.0
  0
VERTEX
  5
66F
330
658
100
AcDbEntity
  8
001
370
    50
100
AcDbVertex
100
AcDb2dVertex
 10
46.948196
 20
-91.436011
 30
0.0
  0
VERTEX
  5
670
330
658
100
AcDbEntity
  8
001
370
    50
100
AcDbVertex
100
AcDb2dVertex
 10
46.567016
 20
-91.350758
 30
0.0
  0
VERTEX
  5
671
330
658
100
AcDbEntity
  8
001
370
    50
100
AcDbVertex
100
AcDb2dVertex
 10
46.180757
 20
-91.298904
 30
0.0
  0
VERTEX
  5
672
330
658
100
AcDbEntity
  8
001
370
    50
100
AcDbVertex
100
AcDb2dVertex
 10
45.789462
 20
-91.282393
 30
0.0
  0
VERTEX
  5
673
330
658
100
AcDbEntity
  8
001
370
    50
100
AcDbVertex
100
AcDb2dVertex
 10
45.395341
 20
-91.30177
 30
0.0
  0
VERTEX
  5
674
330
658
100
AcDbEntity
  8
001
370
    50
100
AcDbVertex
100
AcDb2dVertex
 10
45.011909
 20
-91.350758
 30
0.0
  0
VERTEX
  5
675
330
658
100
AcDbEntity
  8
001
370
    50
100
AcDbVertex
100
AcDb2dVertex
 10
44.644869
 20
-91.427408
 30
0.0
  0
VERTEX
  5
676
330
658
100
AcDbEntity
  8
001
370
    50
100
AcDbVertex
100
AcDb2dVertex
 10
44.257982
 20
-91.553776
 30
0.0
  0
VERTEX
  5
677
330
658
100
AcDbEntity
  8
001
370
    50
100
AcDbVertex
100
AcDb2dVertex
 10
43.843349
 20
-91.735193
 30
0.0
  0
VERTEX
  5
678
330
658
100
AcDbEntity
  8
001
370
    50
100
AcDbVertex
100
AcDb2dVertex
 10
43.550587
 20
-91.885279
 30
0.0
  0
SEQEND
  5
659
330
658
100
AcDbEntity
  8
001
370
    50
  0
LINE
  5
679
330
1F
100
AcDbEntity
  8
001
370
    50
100
AcDbLine
 10
48.807622
 20
-91.317329
 30
0.0
 11
48.509663
 21
-91.317329
 31
0.0
  0
LINE
  5
67A
330
1F
100
AcDbEntity
  8
001
370
    50
100
AcDbLine
 10
51.295261
 20
-95.647456
 30
0.0
 11
48.807622
 21
-91.317329
 31
0.0
  0
LINE
  5
67B
330
1F
100
AcDbEntity
  8
001
370
    50
100
AcDbLine
 10
51.295261
 20
-95.647456
 30
0.0
 11
50.997302
 21
-95.647456
 31
0.0
  0
LINE
  5
67C
330
1F
100
AcDbEntity
  8
001
370
    50
100
AcDbLine
 10
50.997302
 20
-95.647456
 30
0.0
 11
48.509663
 21
-91.317329
 31
0.0
  0
LINE
  5
67D
330
1F
100
AcDbEntity
  8
001
370
    50
100
AcDbLine
 10
48.509663
 20
-91.317329
 30
0.0
 11
45.79112
 21
-90.585279
 31
0.0
  0
LINE
  5
67E
330
1F
100
AcDbEntity
  8
001
370
    50
100
AcDbLine
 10
50.26887
 20
-98.379507
 30
0.0
 11
50.997302
 21
-95.647456
 31
0.0
  0
LINE
  5
67F
330
1F
100
AcDbEntity
  8
001
370
    50
100
AcDbLine
 10
43.891969
 20
-102.079507
 30
0.0
 11
48.028337
 21
-99.679507
 31
0.0
  0
LINE
  5
680
330
1F
100
AcDbEntity
  8
001
370
    50
100
AcDbLine
 10
48.028337
 20
-99.679507
 30
0.0
 11
50.26887
 21
-98.379507
 31
0.0
  0
LINE
  5
681
330
1F
100
AcDbEntity
  8
001
370
    50
100
AcDbLine
 10
39.414219
 20
-94.285279
 30
0.0
 11
43.891969
 21
-102.079507
 31
0.0
  0
LINE
  5
682
330
1F
100
AcDbEntity
  8
001
370
    50
100
AcDbLine
 10
45.79112
 20
-90.585279
 30
0.0
 11
43.550587
 21
-91.885279
 31
0.0
  0
LINE
  5
683
330
1F
100
AcDbEntity
  8
001
370
    50
100
AcDbLine
 10
43.550587
 20
-91.885279
 30
0.0
 11
39.414219
 21
-94.285279
 31
0.0
  0
LINE
  5
684
330
1F
100
AcDbEntity
  8
001
370
    50
100
AcDbLine
 10
50.56683
 20
-98.379507
 30
0.0
 11
51.295261
 21
-95.647456
 31
0.0
  0
LINE
  5
685
330
1F
100
AcDbEntity
  8
001
370
    50
100
AcDbLine
 10
50.56683
 20
-98.379507
 30
0.0
 11
50.51717
 21
-98.379507
 31
0.0
  0
LINE
  5
686
330
1F
100
AcDbEntity
  8
001
370
    50
100
AcDbLine
 10
50.51717
 20
-98.379507
 30
0.0
 11
50.26887
 21
-98.379507
 31
0.0
  0
LINE
  5
687
330
1F
100
AcDbEntity
  8
001
370
    50
100
AcDbLine
 10
44.398792
 20
-101.929507
 30
0.0
 11
50.51717
 21
-98.379507
 31
0.0
  0
LINE
  5
688
330
1F
100
AcDbEntity
  8
001
370
    50
100
AcDbLine
 10
44.448451
 20
-101.929507
 30
0.0
 11
44.398792
 21
-101.929507
 31
0.0
  0
LINE
  5
689
330
1F
100
AcDbEntity
  8
001
370
    50
100
AcDbLine
 10
43.328185
 20
-102.579507
 30
0.0
 11
44.448451
 21
-101.929507
 31
0.0
  0
LINE
  5
68A
330
1F
100
AcDbEntity
  8
001
370
    50
100
AcDbLine
 10
43.328185
 20
-102.579507
 30
0.0
 11
43.129546
 21
-102.579507
 31
0.0
  0
LINE
  5
68B
330
1F
100
AcDbEntity
  8
001
370
    50
100
AcDbLine
 10
43.891969
 20
-102.079507
 30
0.0
 11
43.129546
 21
-102.579507
 31
0.0
  0
LINE
  5
68C
330
1F
100
AcDbEntity
  8
001
370
    50
100
AcDbLine
 10
46.03942
 20
-90.585279
 30
0.0
 11
45.79112
 21
-90.585279
 31
0.0
  0
LINE
  5
68D
330
1F
100
AcDbEntity
  8
001
370
    50
100
AcDbLine
 10
46.08908
 20
-90.585279
 30
0.0
 11
46.03942
 21
-90.585279
 31
0.0
  0
LINE
  5
68E
330
1F
100
AcDbEntity
  8
001
370
    50
100
AcDbLine
 10
48.807622
 20
-91.317329
 30
0.0
 11
46.08908
 21
-90.585279
 31
0.0
  0
LINE
  5
68F
330
1F
100
AcDbEntity
  8
001
370
    50
100
AcDbLine
 10
43.129546
 20
-102.579507
 30
0.0
 11
41.869594
 21
-102.213482
 31
0.0
  0
LINE
  5
690
330
1F
100
AcDbEntity
  8
001
370
    50
100
AcDbLine
 10
41.869594
 20
-102.213482
 30
0.0
 11
38.3869
 21
-96.151304
 31
0.0
  0
LINE
  5
691
330
1F
100
AcDbEntity
  8
001
370
    50
100
AcDbLine
 10
38.3869
 20
-96.151304
 30
0.0
 11
38.651795
 21
-94.785279
 31
0.0
  0
LINE
  5
692
330
1F
100
AcDbEntity
  8
001
370
    50
100
AcDbLine
 10
38.651795
 20
-94.785279
 30
0.0
 11
39.414219
 21
-94.285279
 31
0.0
  0
LINE
  5
693
330
1F
100
AcDbEntity
  8
001
370
    50
100
AcDbLine
 10
44.448451
 20
-101.929507
 30
0.0
 11
44.436036
 21
-101.907897
 31
0.0
  0
LINE
  5
694
330
1F
100
AcDbEntity
  8
001
370
    50
100
AcDbLine
 10
46.75722
 20
-103.453389
 30
0.0
 11
46.732141
 21
-103.453389
 31
0.0
  0
LINE
  5
695
330
1F
100
AcDbEntity
  8
001
370
    50
100
AcDbLine
 10
46.732141
 20
-103.453389
 30
0.0
 11
45.422087
 21
-101.335772
 31
0.0
  0
LINE
  5
696
330
1F
100
AcDbEntity
  8
001
370
    50
100
AcDbLine
 10
32.799068
 20
-77.647654
 30
0.0
 11
32.165153
 21
-76.997051
 31
0.0
  0
POLYLINE
  5
697
330
1F
100
AcDbEntity
  8
001
370
    50
100
AcDb2dPolyline
 66
     1
 10
0.0
 20
0.0
 30
0.0
  0
VERTEX
  5
699
330
697
100
AcDbEntity
  8
001
370
    50
100
AcDbVertex
100
AcDb2dVertex
 10
32.073125
 20
-76.779194
 30
0.0
  0
VERTEX
  5
69A
330
697
100
AcDbEntity
  8
001
370
    50
100
AcDbVertex
100
AcDb2dVertex
 10
32.072803
 20
-76.808466
 30
0.0
  0
VERTEX
  5
69B
330
697
100
AcDbEntity
  8
001
370
    50
100
AcDbVertex
100
AcDb2dVertex
 10
32.077255
 20
-76.848721
 30
0.0
  0
VERTEX
  5
69C
330
697
100
AcDbEntity
  8
001
370
    50
100
AcDbVertex
100
AcDb2dVertex
 10
32.088931
 20
-76.886945
 30
0.0
  0
VERTEX
  5
69D
330
697
100
AcDbEntity
  8
001
370
    50
100
AcDbVertex
100
AcDb2dVertex
 10
32.105225
 20
-76.918899
 30
0.0
  0
VERTEX
  5
69E
330
697
100
AcDbEntity
  8
001
370
    50
100
AcDbVertex
100
AcDb2dVertex
 10
32.126746
 20
-76.952171
 30
0.0
  0
VERTEX
  5
69F
330
697
100
AcDbEntity
  8
001
370
    50
100
AcDbVertex
100
AcDb2dVertex
 10
32.156187
 20
-76.987593
 30
0.0
  0
VERTEX
  5
6A0
330
697
100
AcDbEntity
  8
001
370
    50
100
AcDbVertex
100
AcDb2dVertex
 10
32.161457
 20
-76.993199
 30
0.0
  0
VERTEX
  5
6A1
330
697
100
AcDbEntity
  8
001
370
    50
100
AcDbVertex
100
AcDb2dVertex
 10
32.165153
 20
-76.997051
 30
0.0
  0
SEQEND
  5
698
330
697
100
AcDbEntity
  8
001
370
    50
  0
LINE
  5
6A2
330
1F
100
AcDbEntity
  8
001
370
    50
100
AcDbLine
 10
32.799068
 20
-82.234761
 30
0.0
 11
31.692391
 21
-81.09895
 31
0.0
  0
POLYLINE
  5
6A3
330
1F
100
AcDbEntity
  8
001
370
    50
100
AcDb2dPolyline
 66
     1
 10
0.0
 20
0.0
 30
0.0
  0
VERTEX
  5
6A5
330
6A3
100
AcDbEntity
  8
001
370
    50
100
AcDbVertex
100
AcDb2dVertex
 10
32.228175
 20
-76.578247
 30
0.0
  0
VERTEX
  5
6A6
330
6A3
100
AcDbEntity
  8
001
370
    50
100
AcDbVertex
100
AcDb2dVertex
 10
32.217014
 20
-76.58508
 30
0.0
  0
VERTEX
  5
6A7
330
6A3
100
AcDbEntity
  8
001
370
    50
100
AcDbVertex
100
AcDb2dVertex
 10
32.201417
 20
-76.595154
 30
0.0
  0
VERTEX
  5
6A8
330
6A3
100
AcDbEntity
  8
001
370
    50
100
AcDbVertex
100
AcDb2dVertex
 10
32.164988
 20
-76.62268
 30
0.0
  0
VERTEX
  5
6A9
330
6A3
100
AcDbEntity
  8
001
370
    50
100
AcDbVertex
100
AcDb2dVertex
 10
32.136164
 20
-76.650454
 30
0.0
  0
VERTEX
  5
6AA
330
6A3
100
AcDbEntity
  8
001
370
    50
100
AcDbVertex
100
AcDb2dVertex
 10
32.112963
 20
-76.677922
 30
0.0
  0
VERTEX
  5
6AB
330
6A3
100
AcDbEntity
  8
001
370
    50
100
AcDbVertex
100
AcDb2dVertex
 10
32.092963
 20
-76.712429
 30
0.0
  0
VERTEX
  5
6AC
330
6A3
100
AcDbEntity
  8
001
370
    50
100
AcDbVertex
100
AcDb2dVertex
 10
32.079482
 20
-76.750605
 30
0.0
  0
VERTEX
  5
6AD
330
6A3
100
AcDbEntity
  8
001
370
    50
100
AcDbVertex
100
AcDb2dVertex
 10
32.073125
 20
-76.779194
 30
0.0
  0
SEQEND
  5
6A4
330
6A3
100
AcDbEntity
  8
001
370
    50
  0
LINE
  5
6AE
330
1F
100
AcDbEntity
  8
001
370
    50
100
AcDbLine
 10
32.073125
 20
-76.779194
 30
0.0
 11
31.600363
 21
-80.881092
 31
0.0
  0
POLYLINE
  5
6AF
330
1F
100
AcDbEntity
  8
001
370
    50
100
AcDb2dPolyline
 66
     1
 10
0.0
 20
0.0
 30
0.0
  0
VERTEX
  5
6B1
330
6AF
100
AcDbEntity
  8
001
370
    50
100
AcDbVertex
100
AcDb2dVertex
 10
31.600363
 20
-80.881093
 30
0.0
  0
VERTEX
  5
6B2
330
6AF
100
AcDbEntity
  8
001
370
    50
100
AcDbVertex
100
AcDb2dVertex
 10
31.600041
 20
-80.910365
 30
0.0
  0
VERTEX
  5
6B3
330
6AF
100
AcDbEntity
  8
001
370
    50
100
AcDbVertex
100
AcDb2dVertex
 10
31.604493
 20
-80.95062
 30
0.0
  0
VERTEX
  5
6B4
330
6AF
100
AcDbEntity
  8
001
370
    50
100
AcDbVertex
100
AcDb2dVertex
 10
31.616169
 20
-80.988844
 30
0.0
  0
VERTEX
  5
6B5
330
6AF
100
AcDbEntity
  8
001
370
    50
100
AcDbVertex
100
AcDb2dVertex
 10
31.632463
 20
-81.020797
 30
0.0
  0
VERTEX
  5
6B6
330
6AF
100
AcDbEntity
  8
001
370
    50
100
AcDbVertex
100
AcDb2dVertex
 10
31.653984
 20
-81.05407
 30
0.0
  0
VERTEX
  5
6B7
330
6AF
100
AcDbEntity
  8
001
370
    50
100
AcDbVertex
100
AcDb2dVertex
 10
31.683425
 20
-81.089492
 30
0.0
  0
VERTEX
  5
6B8
330
6AF
100
AcDbEntity
  8
001
370
    50
100
AcDbVertex
100
AcDb2dVertex
 10
31.688695
 20
-81.095097
 30
0.0
  0
VERTEX
  5
6B9
330
6AF
100
AcDbEntity
  8
001
370
    50
100
AcDbVertex
100
AcDb2dVertex
 10
31.692391
 20
-81.09895
 30
0.0
  0
SEQEND
  5
6B0
330
6AF
100
AcDbEntity
  8
001
370
    50
  0
POLYLINE
  5
6BA
330
1F
100
AcDbEntity
  8
001
370
    50
100
AcDb2dPolyline
 66
     1
 10
0.0
 20
0.0
 30
0.0
  0
VERTEX
  5
6BC
330
6BA
100
AcDbEntity
  8
001
370
    50
100
AcDbVertex
100
AcDb2dVertex
 10
56.276817
 20
-86.023301
 30
0.0
  0
VERTEX
  5
6BD
330
6BA
100
AcDbEntity
  8
001
370
    50
100
AcDbVertex
100
AcDb2dVertex
 10
55.853341
 20
-85.974231
 30
0.0
  0
VERTEX
  5
6BE
330
6BA
100
AcDbEntity
  8
001
370
    50
100
AcDbVertex
100
AcDb2dVertex
 10
55.234399
 20
-85.902633
 30
0.0
  0
VERTEX
  5
6BF
330
6BA
100
AcDbEntity
  8
001
370
    50
100
AcDbVertex
100
AcDb2dVertex
 10
52.666054
 20
-85.607322
 30
0.0
  0
VERTEX
  5
6C0
330
6BA
100
AcDbEntity
  8
001
370
    50
100
AcDbVertex
100
AcDb2dVertex
 10
50.908605
 20
-85.406655
 30
0.0
  0
SEQEND
  5
6BB
330
6BA
100
AcDbEntity
  8
001
370
    50
  0
POLYLINE
  5
6C1
330
1F
100
AcDbEntity
  8
001
370
    50
100
AcDb2dPolyline
 66
     1
 10
0.0
 20
0.0
 30
0.0
  0
VERTEX
  5
6C3
330
6C1
100
AcDbEntity
  8
001
370
    50
100
AcDbVertex
100
AcDb2dVertex
 10
53.017129
 20
-90.94586
 30
0.0
  0
VERTEX
  5
6C4
330
6C1
100
AcDbEntity
  8
001
370
    50
100
AcDbVertex
100
AcDb2dVertex
 10
53.725718
 20
-90.638427
 30
0.0
  0
VERTEX
  5
6C5
330
6C1
100
AcDbEntity
  8
001
370
    50
100
AcDbVertex
100
AcDb2dVertex
 10
54.644737
 20
-90.129456
 30
0.0
  0
VERTEX
  5
6C6
330
6C1
100
AcDbEntity
  8
001
370
    50
100
AcDbVertex
100
AcDb2dVertex
 10
55.09573
 20
-89.788596
 30
0.0
  0
VERTEX
  5
6C7
330
6C1
100
AcDbEntity
  8
001
370
    50
100
AcDbVertex
100
AcDb2dVertex
 10
55.466558
 20
-89.432978
 30
0.0
  0
VERTEX
  5
6C8
330
6C1
100
AcDbEntity
  8
001
370
    50
100
AcDbVertex
100
AcDb2dVertex
 10
55.751108
 20
-89.094015
 30
0.0
  0
VERTEX
  5
6C9
330
6C1
100
AcDbEntity
  8
001
370
    50
100
AcDbVertex
100
AcDb2dVertex
 10
56.010656
 20
-88.652444
 30
0.0
  0
VERTEX
  5
6CA
330
6C1
100
AcDbEntity
  8
001
370
    50
100
AcDbVertex
100
AcDb2dVertex
 10
56.04663
 20
-88.57539
 30
0.0
  0
VERTEX
  5
6CB
330
6C1
100
AcDbEntity
  8
001
370
    50
100
AcDbVertex
100
AcDb2dVertex
 10
56.070642
 20
-88.521475
 30
0.0
  0
SEQEND
  5
6C2
330
6C1
100
AcDbEntity
  8
001
370
    50
  0
POLYLINE
  5
6CC
330
1F
100
AcDbEntity
  8
001
370
    50
100
AcDb2dPolyline
 66
     1
 10
0.0
 20
0.0
 30
0.0
  0
VERTEX
  5
6CE
330
6CC
100
AcDbEntity
  8
001
370
    50
100
AcDbVertex
100
AcDb2dVertex
 10
53.017129
 20
-90.94586
 30
0.0
  0
VERTEX
  5
6CF
330
6CC
100
AcDbEntity
  8
001
370
    50
100
AcDbVertex
100
AcDb2dVertex
 10
52.861973
 20
-90.824613
 30
0.0
  0
VERTEX
  5
6D0
330
6CC
100
AcDbEntity
  8
001
370
    50
100
AcDbVertex
100
AcDb2dVertex
 10
52.637093
 20
-90.65251
 30
0.0
  0
VERTEX
  5
6D1
330
6CC
100
AcDbEntity
  8
001
370
    50
100
AcDbVertex
100
AcDb2dVertex
 10
51.038446
 20
-89.582562
 30
0.0
  0
VERTEX
  5
6D2
330
6CC
100
AcDbEntity
  8
001
370
    50
100
AcDbVertex
100
AcDb2dVertex
 10
49.377346
 20
-88.920638
 30
0.0
  0
VERTEX
  5
6D3
330
6CC
100
AcDbEntity
  8
001
370
    50
100
AcDbVertex
100
AcDb2dVertex
 10
47.412552
 20
-88.492555
 30
0.0
  0
VERTEX
  5
6D4
330
6CC
100
AcDbEntity
  8
001
370
    50
100
AcDbVertex
100
AcDb2dVertex
 10
45.920151
 20
-88.322793
 30
0.0
  0
SEQEND
  5
6CD
330
6CC
100
AcDbEntity
  8
001
370
    50
  0
LINE
  5
6D5
330
1F
100
AcDbEntity
  8
001
370
    50
100
AcDbLine
 10
45.920151
 20
-88.322793
 30
0.0
 11
32.799068
 21
-88.322793
 31
0.0
  0
LINE
  5
6D6
330
1F
100
AcDbEntity
  8
001
370
    50
100
AcDbLine
 10
32.799068
 20
-83.434747
 30
0.0
 11
33.723798
 21
-83.26326
 31
0.0
  0
POLYLINE
  5
6D7
330
1F
100
AcDbEntity
  8
001
370
    50
100
AcDb2dPolyline
 66
     1
 10
0.0
 20
0.0
 30
0.0
  0
VERTEX
  5
6D9
330
6D7
100
AcDbEntity
  8
001
370
    50
100
AcDbVertex
100
AcDb2dVertex
 10
50.908605
 20
-85.406655
 30
0.0
  0
VERTEX
  5
6DA
330
6D7
100
AcDbEntity
  8
001
370
    50
100
AcDbVertex
100
AcDb2dVertex
 10
49.493578
 20
-85.225252
 30
0.0
  0
VERTEX
  5
6DB
330
6D7
100
AcDbEntity
  8
001
370
    50
100
AcDbVertex
100
AcDb2dVertex
 10
47.486012
 20
-84.969498
 30
0.0
  0
VERTEX
  5
6DC
330
6D7
100
AcDbEntity
  8
001
370
    50
100
AcDbVertex
100
AcDb2dVertex
 10
45.083258
 20
-84.665474
 30
0.0
  0
VERTEX
  5
6DD
330
6D7
100
AcDbEntity
  8
001
370
    50
100
AcDbVertex
100
AcDb2dVertex
 10
42.482666
 20
-84.339263
 30
0.0
  0
VERTEX
  5
6DE
330
6D7
100
AcDbEntity
  8
001
370
    50
100
AcDbVertex
100
AcDb2dVertex
 10
39.780141
 20
-84.003933
 30
0.0
  0
VERTEX
  5
6DF
330
6D7
100
AcDbEntity
  8
001
370
    50
100
AcDbVertex
100
AcDb2dVertex
 10
37.282529
 20
-83.696818
 30
0.0
  0
VERTEX
  5
6E0
330
6D7
100
AcDbEntity
  8
001
370
    50
100
AcDbVertex
100
AcDb2dVertex
 10
35.195269
 20
-83.441924
 30
0.0
  0
VERTEX
  5
6E1
330
6D7
100
AcDbEntity
  8
001
370
    50
100
AcDbVertex
100
AcDb2dVertex
 10
33.723798
 20
-83.26326
 30
0.0
  0
SEQEND
  5
6D8
330
6D7
100
AcDbEntity
  8
001
370
    50
  0
POLYLINE
  5
6E2
330
1F
100
AcDbEntity
  8
001
370
    50
100
AcDb2dPolyline
 66
     1
 10
0.0
 20
0.0
 30
0.0
  0
VERTEX
  5
6E4
330
6E2
100
AcDbEntity
  8
001
370
    50
100
AcDbVertex
100
AcDb2dVertex
 10
42.995705
 20
-85.724843
 30
0.0
  0
VERTEX
  5
6E5
330
6E2
100
AcDbEntity
  8
001
370
    50
100
AcDbVertex
100
AcDb2dVertex
 10
42.995508
 20
-85.710256
 30
0.0
  0
VERTEX
  5
6E6
330
6E2
100
AcDbEntity
  8
001
370
    50
100
AcDbVertex
100
AcDb2dVertex
 10
42.994664
 20
-85.688959
 30
0.0
  0
VERTEX
  5
6E7
330
6E2
100
AcDbEntity
  8
001
370
    50
100
AcDbVertex
100
AcDb2dVertex
 10
42.993037
 20
-85.667545
 30
0.0
  0
VERTEX
  5
6E8
330
6E2
100
AcDbEntity
  8
001
370
    50
100
AcDbVertex
100
AcDb2dVertex
 10
42.991543
 20
-85.652923
 30
0.0
  0
SEQEND
  5
6E3
330
6E2
100
AcDbEntity
  8
001
370
    50
  0
LINE
  5
6E9
330
1F
100
AcDbEntity
  8
001
370
    50
100
AcDbLine
 10
33.723798
 20
-75.929176
 30
0.0
 11
32.799068
 21
-76.258224
 31
0.0
  0
LINE
  5
6EA
330
1F
100
AcDbEntity
  8
001
370
    50
100
AcDbLine
 10
33.723798
 20
-75.929176
 30
0.0
 11
33.723798
 21
-83.26326
 31
0.0
  0
POLYLINE
  5
6EB
330
1F
100
AcDbEntity
  8
001
370
    50
100
AcDb2dPolyline
 66
     1
 10
0.0
 20
0.0
 30
0.0
  0
VERTEX
  5
6ED
330
6EB
100
AcDbEntity
  8
001
370
    50
100
AcDbVertex
100
AcDb2dVertex
 10
50.908605
 20
-71.327014
 30
0.0
  0
VERTEX
  5
6EE
330
6EB
100
AcDbEntity
  8
001
370
    50
100
AcDbVertex
100
AcDb2dVertex
 10
50.096974
 20
-71.370211
 30
0.0
  0
VERTEX
  5
6EF
330
6EB
100
AcDbEntity
  8
001
370
    50
100
AcDbVertex
100
AcDb2dVertex
 10
48.910767
 20
-71.433763
 30
0.0
  0
VERTEX
  5
6F0
330
6EB
100
AcDbEntity
  8
001
370
    50
100
AcDbVertex
100
AcDb2dVertex
 10
47.715626
 20
-71.49838
 30
0.0
  0
VERTEX
  5
6F1
330
6EB
100
AcDbEntity
  8
001
370
    50
100
AcDbVertex
100
AcDb2dVertex
 10
46.897913
 20
-71.542878
 30
0.0
  0
SEQEND
  5
6EC
330
6EB
100
AcDbEntity
  8
001
370
    50
  0
LINE
  5
6F2
330
1F
100
AcDbEntity
  8
001
370
    50
100
AcDbLine
 10
50.908605
 20
-71.327014
 30
0.0
 11
50.908605
 21
-85.406655
 31
0.0
  0
POLYLINE
  5
6F3
330
1F
100
AcDbEntity
  8
001
370
    50
100
AcDb2dPolyline
 66
     1
 10
0.0
 20
0.0
 30
0.0
  0
VERTEX
  5
6F5
330
6F3
100
AcDbEntity
  8
001
370
    50
100
AcDbVertex
100
AcDb2dVertex
 10
47.799203
 20
-74.939454
 30
0.0
  0
VERTEX
  5
6F6
330
6F3
100
AcDbEntity
  8
001
370
    50
100
AcDbVertex
100
AcDb2dVertex
 10
46.115077
 20
-75.055108
 30
0.0
  0
VERTEX
  5
6F7
330
6F3
100
AcDbEntity
  8
001
370
    50
100
AcDbVertex
100
AcDb2dVertex
 10
43.653751
 20
-75.225421
 30
0.0
  0
VERTEX
  5
6F8
330
6F3
100
AcDbEntity
  8
001
370
    50
100
AcDbVertex
100
AcDb2dVertex
 10
40.803928
 20
-75.424545
 30
0.0
  0
VERTEX
  5
6F9
330
6F3
100
AcDbEntity
  8
001
370
    50
100
AcDbVertex
100
AcDb2dVertex
 10
37.919324
 20
-75.628629
 30
0.0
  0
VERTEX
  5
6FA
330
6F3
100
AcDbEntity
  8
001
370
    50
100
AcDbVertex
100
AcDb2dVertex
 10
35.428194
 20
-75.806566
 30
0.0
  0
VERTEX
  5
6FB
330
6F3
100
AcDbEntity
  8
001
370
    50
100
AcDbVertex
100
AcDb2dVertex
 10
33.723798
 20
-75.929176
 30
0.0
  0
SEQEND
  5
6F4
330
6F3
100
AcDbEntity
  8
001
370
    50
  0
POLYLINE
  5
6FC
330
1F
100
AcDbEntity
  8
001
370
    50
100
AcDb2dPolyline
 66
     1
 10
0.0
 20
0.0
 30
0.0
  0
VERTEX
  5
6FE
330
6FC
100
AcDbEntity
  8
001
370
    50
100
AcDbVertex
100
AcDb2dVertex
 10
47.799203
 20
-74.939454
 30
0.0
  0
VERTEX
  5
6FF
330
6FC
100
AcDbEntity
  8
001
370
    50
100
AcDbVertex
100
AcDb2dVertex
 10
47.667199
 20
-74.321793
 30
0.0
  0
VERTEX
  5
700
330
6FC
100
AcDbEntity
  8
001
370
    50
100
AcDbVertex
100
AcDb2dVertex
 10
47.435536
 20
-73.429167
 30
0.0
  0
VERTEX
  5
701
330
6FC
100
AcDbEntity
  8
001
370
    50
100
AcDbVertex
100
AcDb2dVertex
 10
47.166027
 20
-72.603738
 30
0.0
  0
VERTEX
  5
702
330
6FC
100
AcDbEntity
  8
001
370
    50
100
AcDbVertex
100
AcDb2dVertex
 10
46.956062
 20
-72.047405
 30
0.0
  0
SEQEND
  5
6FD
330
6FC
100
AcDbEntity
  8
001
370
    50
  0
POLYLINE
  5
703
330
1F
100
AcDbEntity
  8
001
370
    50
100
AcDb2dPolyline
 66
     1
 10
0.0
 20
0.0
 30
0.0
  0
VERTEX
  5
705
330
703
100
AcDbEntity
  8
001
370
    50
100
AcDbVertex
100
AcDb2dVertex
 10
55.085449
 20
-67.222793
 30
0.0
  0
VERTEX
  5
706
330
703
100
AcDbEntity
  8
001
370
    50
100
AcDbVertex
100
AcDb2dVertex
 10
55.173299
 20
-67.225308
 30
0.0
  0
VERTEX
  5
707
330
703
100
AcDbEntity
  8
001
370
    50
100
AcDbVertex
100
AcDb2dVertex
 10
55.261004
 20
-67.230866
 30
0.0
  0
VERTEX
  5
708
330
703
100
AcDbEntity
  8
001
370
    50
100
AcDbVertex
100
AcDb2dVertex
 10
55.369126
 20
-67.245992
 30
0.0
  0
VERTEX
  5
709
330
703
100
AcDbEntity
  8
001
370
    50
100
AcDbVertex
100
AcDb2dVertex
 10
55.474932
 20
-67.272905
 30
0.0
  0
VERTEX
  5
70A
330
703
100
AcDbEntity
  8
001
370
    50
100
AcDbVertex
100
AcDb2dVertex
 10
55.561835
 20
-67.307153
 30
0.0
  0
VERTEX
  5
70B
330
703
100
AcDbEntity
  8
001
370
    50
100
AcDbVertex
100
AcDb2dVertex
 10
55.642818
 20
-67.353744
 30
0.0
  0
VERTEX
  5
70C
330
703
100
AcDbEntity
  8
001
370
    50
100
AcDbVertex
100
AcDb2dVertex
 10
55.709489
 20
-67.408801
 30
0.0
  0
VERTEX
  5
70D
330
703
100
AcDbEntity
  8
001
370
    50
100
AcDbVertex
100
AcDb2dVertex
 10
55.764924
 20
-67.474504
 30
0.0
  0
VERTEX
  5
70E
330
703
100
AcDbEntity
  8
001
370
    50
100
AcDbVertex
100
AcDb2dVertex
 10
55.810802
 20
-67.556767
 30
0.0
  0
VERTEX
  5
70F
330
703
100
AcDbEntity
  8
001
370
    50
100
AcDbVertex
100
AcDb2dVertex
 10
55.847578
 20
-67.64457
 30
0.0
  0
SEQEND
  5
704
330
703
100
AcDbEntity
  8
001
370
    50
  0
LINE
  5
710
330
1F
100
AcDbEntity
  8
001
370
    50
100
AcDbLine
 10
59.599068
 20
-67.222793
 30
0.0
 11
55.079847
 21
-67.222793
 31
0.0
  0
LINE
  5
711
330
1F
100
AcDbEntity
  8
001
370
    50
100
AcDbLine
 10
50.908605
 20
-104.422793
 30
0.0
 11
59.599068
 21
-104.422793
 31
0.0
  0
POLYLINE
  5
712
330
1F
100
AcDbEntity
  8
001
370
    50
100
AcDb2dPolyline
 66
     1
 10
0.0
 20
0.0
 30
0.0
  0
VERTEX
  5
714
330
712
100
AcDbEntity
  8
001
370
    50
100
AcDbVertex
100
AcDb2dVertex
 10
50.908605
 20
-103.163962
 30
0.0
  0
VERTEX
  5
715
330
712
100
AcDbEntity
  8
001
370
    50
100
AcDbVertex
100
AcDb2dVertex
 10
52.047163
 20
-103.119396
 30
0.0
  0
VERTEX
  5
716
330
712
100
AcDbEntity
  8
001
370
    50
100
AcDbVertex
100
AcDb2dVertex
 10
53.711154
 20
-103.052847
 30
0.0
  0
VERTEX
  5
717
330
712
100
AcDbEntity
  8
001
370
    50
100
AcDbVertex
100
AcDb2dVertex
 10
55.364277
 20
-102.984767
 30
0.0
  0
VERTEX
  5
718
330
712
100
AcDbEntity
  8
001
370
    50
100
AcDbVertex
100
AcDb2dVertex
 10
56.495321
 20
-102.937219
 30
0.0
  0
SEQEND
  5
713
330
712
100
AcDbEntity
  8
001
370
    50
  0
POLYLINE
  5
719
330
1F
100
AcDbEntity
  8
001
370
    50
100
AcDb2dPolyline
 66
     1
 10
0.0
 20
0.0
 30
0.0
  0
VERTEX
  5
71B
330
719
100
AcDbEntity
  8
001
370
    50
100
AcDbVertex
100
AcDb2dVertex
 10
55.847578
 20
-98.322793
 30
0.0
  0
VERTEX
  5
71C
330
719
100
AcDbEntity
  8
001
370
    50
100
AcDbVertex
100
AcDb2dVertex
 10
55.991157
 20
-99.794078
 30
0.0
  0
VERTEX
  5
71D
330
719
100
AcDbEntity
  8
001
370
    50
100
AcDbVertex
100
AcDb2dVertex
 10
56.294096
 20
-101.930865
 30
0.0
  0
VERTEX
  5
71E
330
719
100
AcDbEntity
  8
001
370
    50
100
AcDbVertex
100
AcDb2dVertex
 10
56.408342
 20
-102.529406
 30
0.0
  0
VERTEX
  5
71F
330
719
100
AcDbEntity
  8
001
370
    50
100
AcDbVertex
100
AcDb2dVertex
 10
56.495321
 20
-102.937219
 30
0.0
  0
SEQEND
  5
71A
330
719
100
AcDbEntity
  8
001
370
    50
  0
POLYLINE
  5
720
330
1F
100
AcDbEntity
  8
001
370
    50
100
AcDb2dPolyline
 66
     1
 10
0.0
 20
0.0
 30
0.0
  0
VERTEX
  5
722
330
720
100
AcDbEntity
  8
001
370
    50
100
AcDbVertex
100
AcDb2dVertex
 10
54.997302
 20
-94.905684
 30
0.0
  0
VERTEX
  5
723
330
720
100
AcDbEntity
  8
001
370
    50
100
AcDbVertex
100
AcDb2dVertex
 10
55.132705
 20
-95.248206
 30
0.0
  0
VERTEX
  5
724
330
720
100
AcDbEntity
  8
001
370
    50
100
AcDbVertex
100
AcDb2dVertex
 10
55.261004
 20
-95.593307
 30
0.0
  0
VERTEX
  5
725
330
720
100
AcDbEntity
  8
001
370
    50
100
AcDbVertex
100
AcDb2dVertex
 10
55.373928
 20
-95.934433
 30
0.0
  0
VERTEX
  5
726
330
720
100
AcDbEntity
  8
001
370
    50
100
AcDbVertex
100
AcDb2dVertex
 10
55.474932
 20
-96.279371
 30
0.0
  0
VERTEX
  5
727
330
720
100
AcDbEntity
  8
001
370
    50
100
AcDbVertex
100
AcDb2dVertex
 10
55.563878
 20
-96.621151
 30
0.0
  0
VERTEX
  5
728
330
720
100
AcDbEntity
  8
001
370
    50
100
AcDbVertex
100
AcDb2dVertex
 10
55.642818
 20
-96.965374
 30
0.0
  0
VERTEX
  5
729
330
720
100
AcDbEntity
  8
001
370
    50
100
AcDbVertex
100
AcDb2dVertex
 10
55.70939
 20
-97.300722
 30
0.0
  0
VERTEX
  5
72A
330
720
100
AcDbEntity
  8
001
370
    50
100
AcDbVertex
100
AcDb2dVertex
 10
55.764924
 20
-97.638001
 30
0.0
  0
VERTEX
  5
72B
330
720
100
AcDbEntity
  8
001
370
    50
100
AcDbVertex
100
AcDb2dVertex
 10
55.809473
 20
-97.979955
 30
0.0
  0
VERTEX
  5
72C
330
720
100
AcDbEntity
  8
001
370
    50
100
AcDbVertex
100
AcDb2dVertex
 10
55.847578
 20
-98.322793
 30
0.0
  0
SEQEND
  5
721
330
720
100
AcDbEntity
  8
001
370
    50
  0
LINE
  5
72D
330
1F
100
AcDbEntity
  8
001
370
    50
100
AcDbLine
 10
55.89458
 20
-90.843209
 30
0.0
 11
55.825251
 21
-91.587971
 31
0.0
  0
POLYLINE
  5
72E
330
1F
100
AcDbEntity
  8
001
370
    50
100
AcDb2dPolyline
 66
     1
 10
0.0
 20
0.0
 30
0.0
  0
VERTEX
  5
730
330
72E
100
AcDbEntity
  8
001
370
    50
100
AcDbVertex
100
AcDb2dVertex
 10
56.276817
 20
-86.023301
 30
0.0
  0
VERTEX
  5
731
330
72E
100
AcDbEntity
  8
001
370
    50
100
AcDbVertex
100
AcDb2dVertex
 10
56.176023
 20
-87.221809
 30
0.0
  0
VERTEX
  5
732
330
72E
100
AcDbEntity
  8
001
370
    50
100
AcDbVertex
100
AcDb2dVertex
 10
56.035122
 20
-88.973992
 30
0.0
  0
VERTEX
  5
733
330
72E
100
AcDbEntity
  8
001
370
    50
100
AcDbVertex
100
AcDb2dVertex
 10
55.950593
 20
-90.083757
 30
0.0
  0
VERTEX
  5
734
330
72E
100
AcDbEntity
  8
001
370
    50
100
AcDbVertex
100
AcDb2dVertex
 10
55.89458
 20
-90.843209
 30
0.0
  0
SEQEND
  5
72F
330
72E
100
AcDbEntity
  8
001
370
    50
  0
POLYLINE
  5
735
330
1F
100
AcDbEntity
  8
001
370
    50
100
AcDb2dPolyline
 66
     1
 10
0.0
 20
0.0
 30
0.0
  0
VERTEX
  5
737
330
735
100
AcDbEntity
  8
001
370
    50
100
AcDbVertex
100
AcDb2dVertex
 10
56.495321
 20
-70.957465
 30
0.0
  0
VERTEX
  5
738
330
735
100
AcDbEntity
  8
001
370
    50
100
AcDbVertex
100
AcDb2dVertex
 10
55.364234
 20
-71.031463
 30
0.0
  0
VERTEX
  5
739
330
735
100
AcDbEntity
  8
001
370
    50
100
AcDbVertex
100
AcDb2dVertex
 10
53.711154
 20
-71.140317
 30
0.0
  0
VERTEX
  5
73A
330
735
100
AcDbEntity
  8
001
370
    50
100
AcDbVertex
100
AcDb2dVertex
 10
52.047121
 20
-71.250882
 30
0.0
  0
VERTEX
  5
73B
330
735
100
AcDbEntity
  8
001
370
    50
100
AcDbVertex
100
AcDb2dVertex
 10
50.908605
 20
-71.327014
 30
0.0
  0
SEQEND
  5
736
330
735
100
AcDbEntity
  8
001
370
    50
  0
POLYLINE
  5
73C
330
1F
100
AcDbEntity
  8
001
370
    50
100
AcDb2dPolyline
 66
     1
 10
0.0
 20
0.0
 30
0.0
  0
VERTEX
  5
73E
330
73C
100
AcDbEntity
  8
001
370
    50
100
AcDbVertex
100
AcDb2dVertex
 10
56.495321
 20
-70.957465
 30
0.0
  0
VERTEX
  5
73F
330
73C
100
AcDbEntity
  8
001
370
    50
100
AcDbVertex
100
AcDb2dVertex
 10
56.40798
 20
-70.411021
 30
0.0
  0
VERTEX
  5
740
330
73C
100
AcDbEntity
  8
001
370
    50
100
AcDbVertex
100
AcDb2dVertex
 10
56.287203
 20
-69.674949
 30
0.0
  0
VERTEX
  5
741
330
73C
100
AcDbEntity
  8
001
370
    50
100
AcDbVertex
100
AcDb2dVertex
 10
56.170455
 20
-69.003335
 30
0.0
  0
VERTEX
  5
742
330
73C
100
AcDbEntity
  8
001
370
    50
100
AcDbVertex
100
AcDb2dVertex
 10
56.022913
 20
-68.317364
 30
0.0
  0
VERTEX
  5
743
330
73C
100
AcDbEntity
  8
001
370
    50
100
AcDbVertex
100
AcDb2dVertex
 10
55.925118
 20
-67.925092
 30
0.0
  0
VERTEX
  5
744
330
73C
100
AcDbEntity
  8
001
370
    50
100
AcDbVertex
100
AcDb2dVertex
 10
55.847578
 20
-67.64457
 30
0.0
  0
SEQEND
  5
73D
330
73C
100
AcDbEntity
  8
001
370
    50
  0
LINE
  5
745
330
1F
100
AcDbEntity
  8
001
370
    50
100
AcDbLine
 10
54.997302
 20
-67.224469
 30
0.0
 11
55.085449
 21
-67.222793
 31
0.0
  0
POLYLINE
  5
746
330
1F
100
AcDbEntity
  8
001
370
    50
100
AcDb2dPolyline
 66
     1
 10
0.0
 20
0.0
 30
0.0
  0
VERTEX
  5
748
330
746
100
AcDbEntity
  8
001
370
    50
100
AcDbVertex
100
AcDb2dVertex
 10
54.648033
 20
-69.708643
 30
0.0
  0
VERTEX
  5
749
330
746
100
AcDbEntity
  8
001
370
    50
100
AcDbVertex
100
AcDb2dVertex
 10
54.323402
 20
-69.727361
 30
0.0
  0
VERTEX
  5
74A
330
746
100
AcDbEntity
  8
001
370
    50
100
AcDbVertex
100
AcDb2dVertex
 10
53.848944
 20
-69.754789
 30
0.0
  0
VERTEX
  5
74B
330
746
100
AcDbEntity
  8
001
370
    50
100
AcDbVertex
100
AcDb2dVertex
 10
52.103096
 20
-69.856552
 30
0.0
  0
VERTEX
  5
74C
330
746
100
AcDbEntity
  8
001
370
    50
100
AcDbVertex
100
AcDb2dVertex
 10
50.908605
 20
-69.926821
 30
0.0
  0
SEQEND
  5
747
330
746
100
AcDbEntity
  8
001
370
    50
  0
LINE
  5
74D
330
1F
100
AcDbEntity
  8
001
370
    50
100
AcDbLine
 10
50.908605
 20
-103.163962
 30
0.0
 11
50.908605
 21
-104.422793
 31
0.0
  0
LINE
  5
74E
330
1F
100
AcDbEntity
  8
001
370
    50
100
AcDbLine
 10
59.599068
 20
-67.222793
 30
0.0
 11
59.599068
 21
-104.422793
 31
0.0
  0
LINE
  5
74F
330
1F
100
AcDbEntity
  8
001
370
    50
100
AcDbLine
 10
59.599068
 20
-104.422793
 30
0.0
 11
66.599068
 21
-102.547148
 31
0.0
  0
LINE
  5
750
330
1F
100
AcDbEntity
  8
001
370
    50
100
AcDbLine
 10
66.599068
 20
-69.098437
 30
0.0
 11
59.599068
 21
-67.222793
 31
0.0
  0
LINE
  5
751
330
1F
100
AcDbEntity
  8
001
370
    50
100
AcDbLine
 10
66.599068
 20
-69.098437
 30
0.0
 11
66.599068
 21
-102.547148
 31
0.0
  0
POLYLINE
  5
752
330
1F
100
AcDbEntity
  8
001
370
    50
100
AcDb2dPolyline
 66
     1
 10
0.0
 20
0.0
 30
0.0
  0
VERTEX
  5
754
330
752
100
AcDbEntity
  8
001
370
    50
100
AcDbVertex
100
AcDb2dVertex
 10
37.924457
 20
-85.358041
 30
0.0
  0
VERTEX
  5
755
330
752
100
AcDbEntity
  8
001
370
    50
100
AcDbVertex
100
AcDb2dVertex
 10
37.92941
 20
-85.390461
 30
0.0
  0
VERTEX
  5
756
330
752
100
AcDbEntity
  8
001
370
    50
100
AcDbVertex
100
AcDb2dVertex
 10
37.93827
 20
-85.436188
 30
0.0
  0
VERTEX
  5
757
330
752
100
AcDbEntity
  8
001
370
    50
100
AcDbVertex
100
AcDb2dVertex
 10
37.976275
 20
-85.557402
 30
0.0
  0
VERTEX
  5
758
330
752
100
AcDbEntity
  8
001
370
    50
100
AcDbVertex
100
AcDb2dVertex
 10
38.028906
 20
-85.657289
 30
0.0
  0
VERTEX
  5
759
330
752
100
AcDbEntity
  8
001
370
    50
100
AcDbVertex
100
AcDb2dVertex
 10
38.104749
 20
-85.767452
 30
0.0
  0
VERTEX
  5
75A
330
752
100
AcDbEntity
  8
001
370
    50
100
AcDbVertex
100
AcDb2dVertex
 10
38.19335
 20
-85.873778
 30
0.0
  0
VERTEX
  5
75B
330
752
100
AcDbEntity
  8
001
370
    50
100
AcDbVertex
100
AcDb2dVertex
 10
38.59893
 20
-86.202144
 30
0.0
  0
VERTEX
  5
75C
330
752
100
AcDbEntity
  8
001
370
    50
100
AcDbVertex
100
AcDb2dVertex
 10
39.069316
 20
-86.431679
 30
0.0
  0
VERTEX
  5
75D
330
752
100
AcDbEntity
  8
001
370
    50
100
AcDbVertex
100
AcDb2dVertex
 10
39.469866
 20
-86.570576
 30
0.0
  0
VERTEX
  5
75E
330
752
100
AcDbEntity
  8
001
370
    50
100
AcDbVertex
100
AcDb2dVertex
 10
39.879525
 20
-86.672569
 30
0.0
  0
VERTEX
  5
75F
330
752
100
AcDbEntity
  8
001
370
    50
100
AcDbVertex
100
AcDb2dVertex
 10
40.097617
 20
-86.711745
 30
0.0
  0
VERTEX
  5
760
330
752
100
AcDbEntity
  8
001
370
    50
100
AcDbVertex
100
AcDb2dVertex
 10
40.31738
 20
-86.741406
 30
0.0
  0
VERTEX
  5
761
330
752
100
AcDbEntity
  8
001
370
    50
100
AcDbVertex
100
AcDb2dVertex
 10
40.538213
 20
-86.761757
 30
0.0
  0
VERTEX
  5
762
330
752
100
AcDbEntity
  8
001
370
    50
100
AcDbVertex
100
AcDb2dVertex
 10
40.759507
 20
-86.772691
 30
0.0
  0
VERTEX
  5
763
330
752
100
AcDbEntity
  8
001
370
    50
100
AcDbVertex
100
AcDb2dVertex
 10
41.181376
 20
-86.766183
 30
0.0
  0
VERTEX
  5
764
330
752
100
AcDbEntity
  8
001
370
    50
100
AcDbVertex
100
AcDb2dVertex
 10
41.603122
 20
-86.719969
 30
0.0
  0
VERTEX
  5
765
330
752
100
AcDbEntity
  8
001
370
    50
100
AcDbVertex
100
AcDb2dVertex
 10
42.114304
 20
-86.597471
 30
0.0
  0
VERTEX
  5
766
330
752
100
AcDbEntity
  8
001
370
    50
100
AcDbVertex
100
AcDb2dVertex
 10
42.58203
 20
-86.37311
 30
0.0
  0
VERTEX
  5
767
330
752
100
AcDbEntity
  8
001
370
    50
100
AcDbVertex
100
AcDb2dVertex
 10
42.691333
 20
-86.2927
 30
0.0
  0
VERTEX
  5
768
330
752
100
AcDbEntity
  8
001
370
    50
100
AcDbVertex
100
AcDb2dVertex
 10
42.790904
 20
-86.199097
 30
0.0
  0
VERTEX
  5
769
330
752
100
AcDbEntity
  8
001
370
    50
100
AcDbVertex
100
AcDb2dVertex
 10
42.867157
 20
-86.104525
 30
0.0
  0
VERTEX
  5
76A
330
752
100
AcDbEntity
  8
001
370
    50
100
AcDbVertex
100
AcDb2dVertex
 10
42.928893
 20
-86.004008
 30
0.0
  0
VERTEX
  5
76B
330
752
100
AcDbEntity
  8
001
370
    50
100
AcDbVertex
100
AcDb2dVertex
 10
42.969411
 20
-85.908371
 30
0.0
  0
VERTEX
  5
76C
330
752
100
AcDbEntity
  8
001
370
    50
100
AcDbVertex
100
AcDb2dVertex
 10
42.991806
 20
-85.793772
 30
0.0
  0
VERTEX
  5
76D
330
752
100
AcDbEntity
  8
001
370
    50
100
AcDbVertex
100
AcDb2dVertex
 10
42.994741
 20
-85.753338
 30
0.0
  0
VERTEX
  5
76E
330
752
100
AcDbEntity
  8
001
370
    50
100
AcDbVertex
100
AcDb2dVertex
 10
42.995705
 20
-85.724843
 30
0.0
  0
SEQEND
  5
753
330
752
100
AcDbEntity
  8
001
370
    50
  0
POLYLINE
  5
76F
330
1F
100
AcDbEntity
  8
001
370
    50
100
AcDb2dPolyline
 66
     1
 10
0.0
 20
0.0
 30
0.0
  0
VERTEX
  5
771
330
76F
100
AcDbEntity
  8
001
370
    50
100
AcDbVertex
100
AcDb2dVertex
 10
42.991543
 20
-85.652923
 30
0.0
  0
VERTEX
  5
772
330
76F
100
AcDbEntity
  8
001
370
    50
100
AcDbVertex
100
AcDb2dVertex
 10
42.98659
 20
-85.620503
 30
0.0
  0
VERTEX
  5
773
330
76F
100
AcDbEntity
  8
001
370
    50
100
AcDbVertex
100
AcDb2dVertex
 10
42.97773
 20
-85.574776
 30
0.0
  0
VERTEX
  5
774
330
76F
100
AcDbEntity
  8
001
370
    50
100
AcDbVertex
100
AcDb2dVertex
 10
42.939725
 20
-85.453562
 30
0.0
  0
VERTEX
  5
775
330
76F
100
AcDbEntity
  8
001
370
    50
100
AcDbVertex
100
AcDb2dVertex
 10
42.887094
 20
-85.353675
 30
0.0
  0
VERTEX
  5
776
330
76F
100
AcDbEntity
  8
001
370
    50
100
AcDbVertex
100
AcDb2dVertex
 10
42.811251
 20
-85.243512
 30
0.0
  0
VERTEX
  5
777
330
76F
100
AcDbEntity
  8
001
370
    50
100
AcDbVertex
100
AcDb2dVertex
 10
42.72265
 20
-85.137186
 30
0.0
  0
VERTEX
  5
778
330
76F
100
AcDbEntity
  8
001
370
    50
100
AcDbVertex
100
AcDb2dVertex
 10
42.31707
 20
-84.80882
 30
0.0
  0
VERTEX
  5
779
330
76F
100
AcDbEntity
  8
001
370
    50
100
AcDbVertex
100
AcDb2dVertex
 10
41.846684
 20
-84.579285
 30
0.0
  0
VERTEX
  5
77A
330
76F
100
AcDbEntity
  8
001
370
    50
100
AcDbVertex
100
AcDb2dVertex
 10
41.446135
 20
-84.440387
 30
0.0
  0
VERTEX
  5
77B
330
76F
100
AcDbEntity
  8
001
370
    50
100
AcDbVertex
100
AcDb2dVertex
 10
41.036475
 20
-84.338395
 30
0.0
  0
VERTEX
  5
77C
330
76F
100
AcDbEntity
  8
001
370
    50
100
AcDbVertex
100
AcDb2dVertex
 10
40.818383
 20
-84.29922
 30
0.0
  0
VERTEX
  5
77D
330
76F
100
AcDbEntity
  8
001
370
    50
100
AcDbVertex
100
AcDb2dVertex
 10
40.59862
 20
-84.269558
 30
0.0
  0
VERTEX
  5
77E
330
76F
100
AcDbEntity
  8
001
370
    50
100
AcDbVertex
100
AcDb2dVertex
 10
40.377789
 20
-84.249203
 30
0.0
  0
VERTEX
  5
77F
330
76F
100
AcDbEntity
  8
001
370
    50
100
AcDbVertex
100
AcDb2dVertex
 10
40.156493
 20
-84.238273
 30
0.0
  0
VERTEX
  5
780
330
76F
100
AcDbEntity
  8
001
370
    50
100
AcDbVertex
100
AcDb2dVertex
 10
39.734605
 20
-84.244816
 30
0.0
  0
VERTEX
  5
781
330
76F
100
AcDbEntity
  8
001
370
    50
100
AcDbVertex
100
AcDb2dVertex
 10
39.312878
 20
-84.290995
 30
0.0
  0
VERTEX
  5
782
330
76F
100
AcDbEntity
  8
001
370
    50
100
AcDbVertex
100
AcDb2dVertex
 10
38.801794
 20
-84.413306
 30
0.0
  0
VERTEX
  5
783
330
76F
100
AcDbEntity
  8
001
370
    50
100
AcDbVertex
100
AcDb2dVertex
 10
38.33397
 20
-84.637854
 30
0.0
  0
VERTEX
  5
784
330
76F
100
AcDbEntity
  8
001
370
    50
100
AcDbVertex
100
AcDb2dVertex
 10
38.224595
 20
-84.718401
 30
0.0
  0
VERTEX
  5
785
330
76F
100
AcDbEntity
  8
001
370
    50
100
AcDbVertex
100
AcDb2dVertex
 10
38.125096
 20
-84.811867
 30
0.0
  0
VERTEX
  5
786
330
76F
100
AcDbEntity
  8
001
370
    50
100
AcDbVertex
100
AcDb2dVertex
 10
38.04904
 20
-84.906062
 30
0.0
  0
VERTEX
  5
787
330
76F
100
AcDbEntity
  8
001
370
    50
100
AcDbVertex
100
AcDb2dVertex
 10
37.987107
 20
-85.006956
 30
0.0
  0
VERTEX
  5
788
330
76F
100
AcDbEntity
  8
001
370
    50
100
AcDbVertex
100
AcDb2dVertex
 10
37.945949
 20
-85.103817
 30
0.0
  0
VERTEX
  5
789
330
76F
100
AcDbEntity
  8
001
370
    50
100
AcDbVertex
100
AcDb2dVertex
 10
37.924194
 20
-85.217192
 30
0.0
  0
VERTEX
  5
78A
330
76F
100
AcDbEntity
  8
001
370
    50
100
AcDbVertex
100
AcDb2dVertex
 10
37.921628
 20
-85.299239
 30
0.0
  0
VERTEX
  5
78B
330
76F
100
AcDbEntity
  8
001
370
    50
100
AcDbVertex
100
AcDb2dVertex
 10
37.924457
 20
-85.358041
 30
0.0
  0
SEQEND
  5
770
330
76F
100
AcDbEntity
  8
001
370
    50
  0
POLYLINE
  5
78C
330
1F
100
AcDbEntity
  8
001
370
    50
100
AcDb2dPolyline
 66
     1
 10
0.0
 20
0.0
 30
0.0
  0
VERTEX
  5
78E
330
78C
100
AcDbEntity
  8
001
370
    50
100
AcDbVertex
100
AcDb2dVertex
 10
55.825251
 20
-91.587971
 30
0.0
  0
VERTEX
  5
78F
330
78C
100
AcDbEntity
  8
001
370
    50
100
AcDbVertex
100
AcDb2dVertex
 10
55.804851
 20
-91.754874
 30
0.0
  0
VERTEX
  5
790
330
78C
100
AcDbEntity
  8
001
370
    50
100
AcDbVertex
100
AcDb2dVertex
 10
55.783392
 20
-91.921633
 30
0.0
  0
VERTEX
  5
791
330
78C
100
AcDbEntity
  8
001
370
    50
100
AcDbVertex
100
AcDb2dVertex
 10
55.70166
 20
-92.450831
 30
0.0
  0
VERTEX
  5
792
330
78C
100
AcDbEntity
  8
001
370
    50
100
AcDbVertex
100
AcDb2dVertex
 10
55.599442
 20
-92.976699
 30
0.0
  0
VERTEX
  5
793
330
78C
100
AcDbEntity
  8
001
370
    50
100
AcDbVertex
100
AcDb2dVertex
 10
55.483072
 20
-93.472238
 30
0.0
  0
VERTEX
  5
794
330
78C
100
AcDbEntity
  8
001
370
    50
100
AcDbVertex
100
AcDb2dVertex
 10
55.342672
 20
-93.961054
 30
0.0
  0
VERTEX
  5
795
330
78C
100
AcDbEntity
  8
001
370
    50
100
AcDbVertex
100
AcDb2dVertex
 10
55.177437
 20
-94.435826
 30
0.0
  0
VERTEX
  5
796
330
78C
100
AcDbEntity
  8
001
370
    50
100
AcDbVertex
100
AcDb2dVertex
 10
54.997302
 20
-94.905684
 30
0.0
  0
SEQEND
  5
78D
330
78C
100
AcDbEntity
  8
001
370
    50
  0
POLYLINE
  5
797
330
1F
100
AcDbEntity
  8
001
370
    50
100
AcDb2dPolyline
 66
     1
 10
0.0
 20
0.0
 30
0.0
  0
VERTEX
  5
799
330
797
100
AcDbEntity
  8
001
370
    50
100
AcDbVertex
100
AcDb2dVertex
 10
54.997302
 20
-94.905684
 30
0.0
  0
VERTEX
  5
79A
330
797
100
AcDbEntity
  8
001
370
    50
100
AcDbVertex
100
AcDb2dVertex
 10
54.943558
 20
-94.656235
 30
0.0
  0
VERTEX
  5
79B
330
797
100
AcDbEntity
  8
001
370
    50
100
AcDbVertex
100
AcDb2dVertex
 10
54.885181
 20
-94.407917
 30
0.0
  0
VERTEX
  5
79C
330
797
100
AcDbEntity
  8
001
370
    50
100
AcDbVertex
100
AcDb2dVertex
 10
54.817728
 20
-94.159019
 30
0.0
  0
VERTEX
  5
79D
330
797
100
AcDbEntity
  8
001
370
    50
100
AcDbVertex
100
AcDb2dVertex
 10
54.741965
 20
-93.912436
 30
0.0
  0
VERTEX
  5
79E
330
797
100
AcDbEntity
  8
001
370
    50
100
AcDbVertex
100
AcDb2dVertex
 10
54.617793
 20
-93.555818
 30
0.0
  0
VERTEX
  5
79F
330
797
100
AcDbEntity
  8
001
370
    50
100
AcDbVertex
100
AcDb2dVertex
 10
54.477757
 20
-93.205165
 30
0.0
  0
VERTEX
  5
7A0
330
797
100
AcDbEntity
  8
001
370
    50
100
AcDbVertex
100
AcDb2dVertex
 10
54.316336
 20
-92.850855
 30
0.0
  0
VERTEX
  5
7A1
330
797
100
AcDbEntity
  8
001
370
    50
100
AcDbVertex
100
AcDb2dVertex
 10
54.137834
 20
-92.504785
 30
0.0
  0
VERTEX
  5
7A2
330
797
100
AcDbEntity
  8
001
370
    50
100
AcDbVertex
100
AcDb2dVertex
 10
53.932521
 20
-92.151425
 30
0.0
  0
VERTEX
  5
7A3
330
797
100
AcDbEntity
  8
001
370
    50
100
AcDbVertex
100
AcDb2dVertex
 10
53.709152
 20
-91.809283
 30
0.0
  0
VERTEX
  5
7A4
330
797
100
AcDbEntity
  8
001
370
    50
100
AcDbVertex
100
AcDb2dVertex
 10
53.58584
 20
-91.635947
 30
0.0
  0
VERTEX
  5
7A5
330
797
100
AcDbEntity
  8
001
370
    50
100
AcDbVertex
100
AcDb2dVertex
 10
53.457929
 20
-91.465973
 30
0.0
  0
VERTEX
  5
7A6
330
797
100
AcDbEntity
  8
001
370
    50
100
AcDbVertex
100
AcDb2dVertex
 10
53.321718
 20
-91.294816
 30
0.0
  0
VERTEX
  5
7A7
330
797
100
AcDbEntity
  8
001
370
    50
100
AcDbVertex
100
AcDb2dVertex
 10
53.18042
 20
-91.127873
 30
0.0
  0
VERTEX
  5
7A8
330
797
100
AcDbEntity
  8
001
370
    50
100
AcDbVertex
100
AcDb2dVertex
 10
53.099206
 20
-91.036485
 30
0.0
  0
VERTEX
  5
7A9
330
797
100
AcDbEntity
  8
001
370
    50
100
AcDbVertex
100
AcDb2dVertex
 10
53.017129
 20
-90.94586
 30
0.0
  0
SEQEND
  5
798
330
797
100
AcDbEntity
  8
001
370
    50
  0
LINE
  5
7AA
330
1F
100
AcDbEntity
  8
001
370
    50
100
AcDbLine
 10
151.599068
 20
-94.322793
 30
0.0
 11
151.599068
 21
-77.322793
 31
0.0
  0
LINE
  5
7AB
330
1F
100
AcDbEntity
  8
001
370
    50
100
AcDbLine
 10
55.847578
 20
-67.64457
 30
0.0
 11
56.231389
 21
-70.974686
 31
0.0
  0
POLYLINE
  5
7AC
330
1F
100
AcDbEntity
  8
001
370
    50
100
AcDb2dPolyline
 66
     1
 10
0.0
 20
0.0
 30
0.0
  0
VERTEX
  5
7AE
330
7AC
100
AcDbEntity
  8
001
370
    50
100
AcDbVertex
100
AcDb2dVertex
 10
34.711005
 20
-88.322793
 30
0.0
  0
VERTEX
  5
7AF
330
7AC
100
AcDbEntity
  8
001
370
    50
100
AcDbVertex
100
AcDb2dVertex
 10
34.627233
 20
-88.646678
 30
0.0
  0
VERTEX
  5
7B0
330
7AC
100
AcDbEntity
  8
001
370
    50
100
AcDbVertex
100
AcDb2dVertex
 10
34.539135
 20
-88.96935
 30
0.0
  0
VERTEX
  5
7B1
330
7AC
100
AcDbEntity
  8
001
370
    50
100
AcDbVertex
100
AcDb2dVertex
 10
34.443418
 20
-89.289859
 30
0.0
  0
VERTEX
  5
7B2
330
7AC
100
AcDbEntity
  8
001
370
    50
100
AcDbVertex
100
AcDb2dVertex
 10
34.340897
 20
-89.608314
 30
0.0
  0
VERTEX
  5
7B3
330
7AC
100
AcDbEntity
  8
001
370
    50
100
AcDbVertex
100
AcDb2dVertex
 10
34.119741
 20
-90.243286
 30
0.0
  0
VERTEX
  5
7B4
330
7AC
100
AcDbEntity
  8
001
370
    50
100
AcDbVertex
100
AcDb2dVertex
 10
33.881636
 20
-90.872113
 30
0.0
  0
VERTEX
  5
7B5
330
7AC
100
AcDbEntity
  8
001
370
    50
100
AcDbVertex
100
AcDb2dVertex
 10
33.627208
 20
-91.500597
 30
0.0
  0
VERTEX
  5
7B6
330
7AC
100
AcDbEntity
  8
001
370
    50
100
AcDbVertex
100
AcDb2dVertex
 10
33.360167
 20
-92.123795
 30
0.0
  0
VERTEX
  5
7B7
330
7AC
100
AcDbEntity
  8
001
370
    50
100
AcDbVertex
100
AcDb2dVertex
 10
33.082401
 20
-92.743014
 30
0.0
  0
VERTEX
  5
7B8
330
7AC
100
AcDbEntity
  8
001
370
    50
100
AcDbVertex
100
AcDb2dVertex
 10
32.799068
 20
-93.359741
 30
0.0
  0
SEQEND
  5
7AD
330
7AC
100
AcDbEntity
  8
001
370
    50
  0
POLYLINE
  5
7B9
330
1F
100
AcDbEntity
  8
001
370
    50
100
AcDb2dPolyline
 66
     1
 10
0.0
 20
0.0
 30
0.0
  0
VERTEX
  5
7BB
330
7B9
100
AcDbEntity
  8
001
370
    50
100
AcDbVertex
100
AcDb2dVertex
 10
32.799068
 20
-92.060282
 30
0.0
  0
VERTEX
  5
7BC
330
7B9
100
AcDbEntity
  8
001
370
    50
100
AcDbVertex
100
AcDb2dVertex
 10
32.823138
 20
-92.022685
 30
0.0
  0
VERTEX
  5
7BD
330
7B9
100
AcDbEntity
  8
001
370
    50
100
AcDbVertex
100
AcDb2dVertex
 10
32.847206
 20
-91.985087
 30
0.0
  0
VERTEX
  5
7BE
330
7B9
100
AcDbEntity
  8
001
370
    50
100
AcDbVertex
100
AcDb2dVertex
 10
33.320845
 20
-91.242282
 30
0.0
  0
VERTEX
  5
7BF
330
7B9
100
AcDbEntity
  8
001
370
    50
100
AcDbVertex
100
AcDb2dVertex
 10
33.790348
 20
-90.496865
 30
0.0
  0
VERTEX
  5
7C0
330
7B9
100
AcDbEntity
  8
001
370
    50
100
AcDbVertex
100
AcDb2dVertex
 10
34.07061
 20
-90.045912
 30
0.0
  0
VERTEX
  5
7C1
330
7B9
100
AcDbEntity
  8
001
370
    50
100
AcDbVertex
100
AcDb2dVertex
 10
34.34969
 20
-89.594222
 30
0.0
  0
SEQEND
  5
7BA
330
7B9
100
AcDbEntity
  8
001
370
    50
  0
POLYLINE
  5
7C2
330
1F
100
AcDbEntity
  8
001
370
    50
100
AcDb2dPolyline
 66
     1
 10
0.0
 20
0.0
 30
0.0
  0
VERTEX
  5
7C4
330
7C2
100
AcDbEntity
  8
001
370
    50
100
AcDbVertex
100
AcDb2dVertex
 10
34.596249
 20
-88.765882
 30
0.0
  0
VERTEX
  5
7C5
330
7C2
100
AcDbEntity
  8
001
370
    50
100
AcDbVertex
100
AcDb2dVertex
 10
34.567872
 20
-88.712698
 30
0.0
  0
VERTEX
  5
7C6
330
7C2
100
AcDbEntity
  8
001
370
    50
100
AcDbVertex
100
AcDb2dVertex
 10
34.539135
 20
-88.659717
 30
0.0
  0
VERTEX
  5
7C7
330
7C2
100
AcDbEntity
  8
001
370
    50
100
AcDbVertex
100
AcDb2dVertex
 10
34.441809
 20
-88.49019
 30
0.0
  0
VERTEX
  5
7C8
330
7C2
100
AcDbEntity
  8
001
370
    50
100
AcDbVertex
100
AcDb2dVertex
 10
34.340705
 20
-88.322791
 30
0.0
  0
SEQEND
  5
7C3
330
7C2
100
AcDbEntity
  8
001
370
    50
  0
POLYLINE
  5
7C9
330
1F
100
AcDbEntity
  8
001
370
    50
100
AcDb2dPolyline
 66
     1
 10
0.0
 20
0.0
 30
0.0
  0
VERTEX
  5
7CB
330
7C9
100
AcDbEntity
  8
001
370
    50
100
AcDbVertex
100
AcDb2dVertex
 10
46.740997
 20
-103.435596
 30
0.0
  0
VERTEX
  5
7CC
330
7C9
100
AcDbEntity
  8
001
370
    50
100
AcDbVertex
100
AcDb2dVertex
 10
47.590855
 20
-103.381255
 30
0.0
  0
VERTEX
  5
7CD
330
7C9
100
AcDbEntity
  8
001
370
    50
100
AcDbVertex
100
AcDb2dVertex
 10
48.832898
 20
-103.300932
 30
0.0
  0
VERTEX
  5
7CE
330
7C9
100
AcDbEntity
  8
001
370
    50
100
AcDbVertex
100
AcDb2dVertex
 10
50.065373
 20
-103.219972
 30
0.0
  0
VERTEX
  5
7CF
330
7C9
100
AcDbEntity
  8
001
370
    50
100
AcDbVertex
100
AcDb2dVertex
 10
50.908605
 20
-103.163962
 30
0.0
  0
SEQEND
  5
7CA
330
7C9
100
AcDbEntity
  8
001
370
    50
  0
LINE
  5
7D0
330
1F
100
AcDbEntity
  8
001
370
    50
100
AcDbLine
 10
45.436704
 20
-101.32729
 30
0.0
 11
46.740997
 21
-103.435596
 31
0.0
  0
POLYLINE
  5
7D1
330
1F
100
AcDbEntity
  8
001
370
    50
100
AcDb2dPolyline
 66
     1
 10
0.0
 20
0.0
 30
0.0
  0
VERTEX
  5
7D3
330
7D1
100
AcDbEntity
  8
001
370
    50
100
AcDbVertex
100
AcDb2dVertex
 10
41.85798
 20
-92.867362
 30
0.0
  0
VERTEX
  5
7D4
330
7D1
100
AcDbEntity
  8
001
370
    50
100
AcDbVertex
100
AcDb2dVertex
 10
41.847783
 20
-92.788793
 30
0.0
  0
VERTEX
  5
7D5
330
7D1
100
AcDbEntity
  8
001
370
    50
100
AcDbVertex
100
AcDb2dVertex
 10
41.830729
 20
-92.67628
 30
0.0
  0
VERTEX
  5
7D6
330
7D1
100
AcDbEntity
  8
001
370
    50
100
AcDbVertex
100
AcDb2dVertex
 10
41.692184
 20
-92.135727
 30
0.0
  0
VERTEX
  5
7D7
330
7D1
100
AcDbEntity
  8
001
370
    50
100
AcDbVertex
100
AcDb2dVertex
 10
41.476144
 20
-91.697224
 30
0.0
  0
VERTEX
  5
7D8
330
7D1
100
AcDbEntity
  8
001
370
    50
100
AcDbVertex
100
AcDb2dVertex
 10
41.005014
 20
-91.091307
 30
0.0
  0
VERTEX
  5
7D9
330
7D1
100
AcDbEntity
  8
001
370
    50
100
AcDbVertex
100
AcDb2dVertex
 10
40.383497
 20
-90.599148
 30
0.0
  0
VERTEX
  5
7DA
330
7D1
100
AcDbEntity
  8
001
370
    50
100
AcDbVertex
100
AcDb2dVertex
 10
40.148976
 20
-90.47732
 30
0.0
  0
VERTEX
  5
7DB
330
7D1
100
AcDbEntity
  8
001
370
    50
100
AcDbVertex
100
AcDb2dVertex
 10
39.911901
 20
-90.378146
 30
0.0
  0
VERTEX
  5
7DC
330
7D1
100
AcDbEntity
  8
001
370
    50
100
AcDbVertex
100
AcDb2dVertex
 10
39.674794
 20
-90.299726
 30
0.0
  0
VERTEX
  5
7DD
330
7D1
100
AcDbEntity
  8
001
370
    50
100
AcDbVertex
100
AcDb2dVertex
 10
39.409282
 20
-90.242801
 30
0.0
  0
VERTEX
  5
7DE
330
7D1
100
AcDbEntity
  8
001
370
    50
100
AcDbVertex
100
AcDb2dVertex
 10
39.109722
 20
-90.208596
 30
0.0
  0
VERTEX
  5
7DF
330
7D1
100
AcDbEntity
  8
001
370
    50
100
AcDbVertex
100
AcDb2dVertex
 10
38.890913
 20
-90.197224
 30
0.0
  0
SEQEND
  5
7D2
330
7D1
100
AcDbEntity
  8
001
370
    50
  0
POLYLINE
  5
7E0
330
1F
100
AcDbEntity
  8
001
370
    50
100
AcDb2dPolyline
 66
     1
 10
0.0
 20
0.0
 30
0.0
  0
VERTEX
  5
7E2
330
7E0
100
AcDbEntity
  8
001
370
    50
100
AcDbVertex
100
AcDb2dVertex
 10
54.997302
 20
-67.224469
 30
0.0
  0
VERTEX
  5
7E3
330
7E0
100
AcDbEntity
  8
001
370
    50
100
AcDbVertex
100
AcDb2dVertex
 10
54.943667
 20
-67.718519
 30
0.0
  0
VERTEX
  5
7E4
330
7E0
100
AcDbEntity
  8
001
370
    50
100
AcDbVertex
100
AcDb2dVertex
 10
54.885128
 20
-68.211956
 30
0.0
  0
VERTEX
  5
7E5
330
7E0
100
AcDbEntity
  8
001
370
    50
100
AcDbVertex
100
AcDb2dVertex
 10
54.817811
 20
-68.704273
 30
0.0
  0
VERTEX
  5
7E6
330
7E0
100
AcDbEntity
  8
001
370
    50
100
AcDbVertex
100
AcDb2dVertex
 10
54.741965
 20
-69.195413
 30
0.0
  0
VERTEX
  5
7E7
330
7E0
100
AcDbEntity
  8
001
370
    50
100
AcDbVertex
100
AcDb2dVertex
 10
54.61896
 20
-69.901375
 30
0.0
  0
VERTEX
  5
7E8
330
7E0
100
AcDbEntity
  8
001
370
    50
100
AcDbVertex
100
AcDb2dVertex
 10
54.477401
 20
-70.603749
 30
0.0
  0
VERTEX
  5
7E9
330
7E0
100
AcDbEntity
  8
001
370
    50
100
AcDbVertex
100
AcDb2dVertex
 10
54.422222
 20
-70.852327
 30
0.0
  0
VERTEX
  5
7EA
330
7E0
100
AcDbEntity
  8
001
370
    50
100
AcDbVertex
100
AcDb2dVertex
 10
54.365652
 20
-71.1006
 30
0.0
  0
SEQEND
  5
7E1
330
7E0
100
AcDbEntity
  8
001
370
    50
  0
POLYLINE
  5
7EB
330
1F
100
AcDbEntity
  8
001
370
    50
100
AcDb2dPolyline
 66
     1
 10
0.0
 20
0.0
 30
0.0
  0
VERTEX
  5
7ED
330
7EB
100
AcDbEntity
  8
001
370
    50
100
AcDbVertex
100
AcDb2dVertex
 10
46.740997
 20
-103.435596
 30
0.0
  0
VERTEX
  5
7EE
330
7EB
100
AcDbEntity
  8
001
370
    50
100
AcDbVertex
100
AcDb2dVertex
 10
46.814644
 20
-103.515236
 30
0.0
  0
VERTEX
  5
7EF
330
7EB
100
AcDbEntity
  8
001
370
    50
100
AcDbVertex
100
AcDb2dVertex
 10
46.918634
 20
-103.627451
 30
0.0
  0
VERTEX
  5
7F0
330
7EB
100
AcDbEntity
  8
001
370
    50
100
AcDbVertex
100
AcDb2dVertex
 10
47.276476
 20
-104.007121
 30
0.0
  0
VERTEX
  5
7F1
330
7EB
100
AcDbEntity
  8
001
370
    50
100
AcDbVertex
100
AcDb2dVertex
 10
47.685886
 20
-104.339175
 30
0.0
  0
VERTEX
  5
7F2
330
7EB
100
AcDbEntity
  8
001
370
    50
100
AcDbVertex
100
AcDb2dVertex
 10
47.75219
 20
-104.383916
 30
0.0
  0
VERTEX
  5
7F3
330
7EB
100
AcDbEntity
  8
001
370
    50
100
AcDbVertex
100
AcDb2dVertex
 10
47.799203
 20
-104.414039
 30
0.0
  0
SEQEND
  5
7EC
330
7EB
100
AcDbEntity
  8
001
370
    50
  0
LINE
  5
7F4
330
1F
100
AcDbEntity
  8
001
370
    50
100
AcDbLine
 10
32.799068
 20
-71.749239
 30
0.0
 11
32.799068
 21
-71.08572
 31
0.0
  0
LINE
  5
7F5
330
1F
100
AcDbEntity
  8
001
370
    50
100
AcDbLine
 10
32.799068
 20
-71.08572
 30
0.0
 11
33.723798
 21
-70.754364
 31
0.0
  0
POLYLINE
  5
7F6
330
1F
100
AcDbEntity
  8
001
370
    50
100
AcDb2dPolyline
 66
     1
 10
0.0
 20
0.0
 30
0.0
  0
VERTEX
  5
7F8
330
7F6
100
AcDbEntity
  8
001
370
    50
100
AcDbVertex
100
AcDb2dVertex
 10
43.237363
 20
-70.279904
 30
0.0
  0
VERTEX
  5
7F9
330
7F6
100
AcDbEntity
  8
001
370
    50
100
AcDbVertex
100
AcDb2dVertex
 10
41.324319
 20
-70.372322
 30
0.0
  0
VERTEX
  5
7FA
330
7F6
100
AcDbEntity
  8
001
370
    50
100
AcDbVertex
100
AcDb2dVertex
 10
38.528457
 20
-70.509959
 30
0.0
  0
VERTEX
  5
7FB
330
7F6
100
AcDbEntity
  8
001
370
    50
100
AcDbVertex
100
AcDb2dVertex
 10
35.675638
 20
-70.654027
 30
0.0
  0
VERTEX
  5
7FC
330
7F6
100
AcDbEntity
  8
001
370
    50
100
AcDbVertex
100
AcDb2dVertex
 10
33.723798
 20
-70.754364
 30
0.0
  0
SEQEND
  5
7F7
330
7F6
100
AcDbEntity
  8
001
370
    50
  0
POLYLINE
  5
7FD
330
1F
100
AcDbEntity
  8
001
370
    50
100
AcDb2dPolyline
 66
     1
 10
0.0
 20
0.0
 30
0.0
  0
VERTEX
  5
7FF
330
7FD
100
AcDbEntity
  8
001
370
    50
100
AcDbVertex
100
AcDb2dVertex
 10
50.908605
 20
-69.926821
 30
0.0
  0
VERTEX
  5
800
330
7FD
100
AcDbEntity
  8
001
370
    50
100
AcDbVertex
100
AcDb2dVertex
 10
50.273012
 20
-69.95501
 30
0.0
  0
VERTEX
  5
801
330
7FD
100
AcDbEntity
  8
001
370
    50
100
AcDbVertex
100
AcDb2dVertex
 10
49.344083
 20
-69.996534
 30
0.0
  0
VERTEX
  5
802
330
7FD
100
AcDbEntity
  8
001
370
    50
100
AcDbVertex
100
AcDb2dVertex
 10
48.407749
 20
-70.038846
 30
0.0
  0
VERTEX
  5
803
330
7FD
100
AcDbEntity
  8
001
370
    50
100
AcDbVertex
100
AcDb2dVertex
 10
47.767109
 20
-70.06802
 30
0.0
  0
SEQEND
  5
7FE
330
7FD
100
AcDbEntity
  8
001
370
    50
  0
POLYLINE
  5
804
330
1F
100
AcDbEntity
  8
001
370
    50
100
AcDb2dPolyline
 66
     1
 10
0.0
 20
0.0
 30
0.0
  0
VERTEX
  5
806
330
804
100
AcDbEntity
  8
001
370
    50
100
AcDbVertex
100
AcDb2dVertex
 10
42.528987
 20
-70.930937
 30
0.0
  0
VERTEX
  5
807
330
804
100
AcDbEntity
  8
001
370
    50
100
AcDbVertex
100
AcDb2dVertex
 10
42.148347
 20
-70.769864
 30
0.0
  0
VERTEX
  5
808
330
804
100
AcDbEntity
  8
001
370
    50
100
AcDbVertex
100
AcDb2dVertex
 10
41.603122
 20
-70.61788
 30
0.0
  0
VERTEX
  5
809
330
804
100
AcDbEntity
  8
001
370
    50
100
AcDbVertex
100
AcDb2dVertex
 10
41.168334
 20
-70.563936
 30
0.0
  0
VERTEX
  5
80A
330
804
100
AcDbEntity
  8
001
370
    50
100
AcDbVertex
100
AcDb2dVertex
 10
40.759507
 20
-70.565158
 30
0.0
  0
VERTEX
  5
80B
330
804
100
AcDbEntity
  8
001
370
    50
100
AcDbVertex
100
AcDb2dVertex
 10
40.539926
 20
-70.576586
 30
0.0
  0
VERTEX
  5
80C
330
804
100
AcDbEntity
  8
001
370
    50
100
AcDbVertex
100
AcDb2dVertex
 10
40.31738
 20
-70.596442
 30
0.0
  0
VERTEX
  5
80D
330
804
100
AcDbEntity
  8
001
370
    50
100
AcDbVertex
100
AcDb2dVertex
 10
40.096004
 20
-70.627067
 30
0.0
  0
VERTEX
  5
80E
330
804
100
AcDbEntity
  8
001
370
    50
100
AcDbVertex
100
AcDb2dVertex
 10
39.879525
 20
-70.66528
 30
0.0
  0
VERTEX
  5
80F
330
804
100
AcDbEntity
  8
001
370
    50
100
AcDbVertex
100
AcDb2dVertex
 10
39.4816
 20
-70.756049
 30
0.0
  0
VERTEX
  5
810
330
804
100
AcDbEntity
  8
001
370
    50
100
AcDbVertex
100
AcDb2dVertex
 10
39.069316
 20
-70.90617
 30
0.0
  0
VERTEX
  5
811
330
804
100
AcDbEntity
  8
001
370
    50
100
AcDbVertex
100
AcDb2dVertex
 10
38.60948
 20
-71.149988
 30
0.0
  0
VERTEX
  5
812
330
804
100
AcDbEntity
  8
001
370
    50
100
AcDbVertex
100
AcDb2dVertex
 10
38.296567
 20
-71.364221
 30
0.0
  0
SEQEND
  5
805
330
804
100
AcDbEntity
  8
001
370
    50
  0
LINE
  5
813
330
1F
100
AcDbEntity
  8
001
370
    50
100
AcDbLine
 10
32.799068
 20
-76.258224
 30
0.0
 11
32.799068
 21
-88.322793
 31
0.0
  0
LINE
  5
814
330
1F
100
AcDbEntity
  8
001
370
    50
100
AcDbLine
 10
68.599068
 20
-98.322793
 30
0.0
 11
68.599068
 21
-73.322793
 31
0.0
  0
LINE
  5
815
330
1F
100
AcDbEntity
  8
001
370
    50
100
AcDbLine
 10
68.599068
 20
-73.822793
 30
0.0
 11
66.599068
 21
-73.822793
 31
0.0
  0
LINE
  5
816
330
1F
100
AcDbEntity
  8
001
  6
CENTER
370
     9
100
AcDbLine
 10
30.548683
 20
-85.822793
 30
0.0
 11
154.025291
 21
-85.822793
 31
0.0
  0
LINE
  5
817
330
1F
100
AcDbEntity
  8
001
370
    50
100
AcDbLine
 10
47.289462
 20
-94.916367
 30
0.0
 11
47.289462
 21
-96.648418
 31
0.0
  0
LINE
  5
818
330
1F
100
AcDbEntity
  8
001
370
    50
100
AcDbLine
 10
44.289462
 20
-96.648418
 30
0.0
 11
44.289462
 21
-94.916367
 31
0.0
  0
LINE
  5
819
330
1F
100
AcDbEntity
  8
001
370
    50
100
AcDbLine
 10
44.289462
 20
-94.916367
 30
0.0
 11
45.789462
 21
-94.050342
 31
0.0
  0
LINE
  5
81A
330
1F
100
AcDbEntity
  8
001
370
    50
100
AcDbLine
 10
47.289462
 20
-96.648418
 30
0.0
 11
45.789462
 21
-97.514444
 31
0.0
  0
LINE
  5
81B
330
1F
100
AcDbEntity
  8
001
370
    50
100
AcDbLine
 10
45.789462
 20
-97.514444
 30
0.0
 11
44.289462
 21
-96.648418
 31
0.0
  0
LINE
  5
81C
330
1F
100
AcDbEntity
  8
001
370
    50
100
AcDbLine
 10
47.289462
 20
-94.916367
 30
0.0
 11
45.789462
 21
-94.050342
 31
0.0
  0
LINE
  5
81D
330
1F
100
AcDbEntity
  8
001
370
    50
100
AcDbLine
 10
151.599068
 20
-85.822793
 30
0.0
 11
154.197144
 21
-84.322793
 31
0.0
  0
LINE
  5
81E
330
1F
100
AcDbEntity
  8
001
370
    50
100
AcDbLine
 10
151.599068
 20
-85.822793
 30
0.0
 11
154.197144
 21
-87.322793
 31
0.0
  0
LINE
  5
81F
330
1F
100
AcDbEntity
  8
001
370
    50
100
AcDbLine
 10
38.537309
 20
-92.719181
 30
0.0
 11
31.705203
 21
-104.624608
 31
0.0
  0
LINE
  5
820
330
1F
100
AcDbEntity
  8
001
370
    50
100
AcDbLine
 10
46.127618
 20
-105.786854
 30
0.0
 11
32.401162
 21
-105.82279
 31
0.0
  0
ARC
  5
821
330
1F
100
AcDbEntity
  8
001
370
    50
100
AcDbCircle
 10
32.399068
 20
-105.022793
 30
0.0
 40
0.8
100
AcDbArc
 50
150.15
 51
270.15
  0
ARC
  5
822
330
1F
100
AcDbEntity
  8
001
370
    50
100
AcDbCircle
 10
46.125523
 20
-104.986857
 30
0.0
 40
0.8
100
AcDbArc
 50
270.15
 51
30.15
  0
ARC
  5
823
330
1F
100
AcDbEntity
  8
001
370
    50
100
AcDbCircle
 10
39.231174
 20
-93.117366
 30
0.0
 40
0.8
100
AcDbArc
 50
30.15
 51
150.15
  0
LINE
  5
824
330
1F
100
AcDbEntity
  8
001
370
    50
100
AcDbLine
 10
39.922945
 20
-92.715553
 30
0.0
 11
40.476654
 21
-93.668833
 31
0.0
  0
LINE
  5
825
330
1F
100
AcDbEntity
  8
001
370
    50
100
AcDbLine
 10
45.054014
 20
-101.549335
 30
0.0
 11
46.817294
 21
-104.585044
 31
0.0
  0
ARC
  5
826
330
1F
100
AcDbEntity
  8
001
370
    50
100
AcDbCircle
 10
39.251922
 20
-101.042338
 30
0.0
 40
1.9
100
AcDbArc
 50
57.308237
 51
2.446119
  0
POLYLINE
  5
827
330
1F
100
AcDbEntity
  8
001
370
    50
100
AcDb2dPolyline
 66
     1
 10
0.0
 20
0.0
 30
0.0
  0
VERTEX
  5
829
330
827
100
AcDbEntity
  8
001
370
    50
100
AcDbVertex
100
AcDb2dVertex
 10
39.117362
 20
-90.205868
 30
0.0
  0
VERTEX
  5
82A
330
827
100
AcDbEntity
  8
001
370
    50
100
AcDbVertex
100
AcDb2dVertex
 10
38.99548
 20
-90.218835
 30
0.0
  0
VERTEX
  5
82B
330
827
100
AcDbEntity
  8
001
370
    50
100
AcDbVertex
100
AcDb2dVertex
 10
38.825443
 20
-90.242801
 30
0.0
  0
VERTEX
  5
82C
330
827
100
AcDbEntity
  8
001
370
    50
100
AcDbVertex
100
AcDb2dVertex
 10
38.557251
 20
-90.300582
 30
0.0
  0
VERTEX
  5
82D
330
827
100
AcDbEntity
  8
001
370
    50
100
AcDbVertex
100
AcDb2dVertex
 10
38.322824
 20
-90.378146
 30
0.0
  0
VERTEX
  5
82E
330
827
100
AcDbEntity
  8
001
370
    50
100
AcDbVertex
100
AcDb2dVertex
 10
38.086483
 20
-90.477767
 30
0.0
  0
VERTEX
  5
82F
330
827
100
AcDbEntity
  8
001
370
    50
100
AcDbVertex
100
AcDb2dVertex
 10
37.851228
 20
-90.599148
 30
0.0
  0
VERTEX
  5
830
330
827
100
AcDbEntity
  8
001
370
    50
100
AcDbVertex
100
AcDb2dVertex
 10
37.230353
 20
-91.076992
 30
0.0
  0
VERTEX
  5
831
330
827
100
AcDbEntity
  8
001
370
    50
100
AcDbVertex
100
AcDb2dVertex
 10
36.758581
 20
-91.697224
 30
0.0
  0
VERTEX
  5
832
330
827
100
AcDbEntity
  8
001
370
    50
100
AcDbVertex
100
AcDb2dVertex
 10
36.53901
 20
-92.172364
 30
0.0
  0
VERTEX
  5
833
330
827
100
AcDbEntity
  8
001
370
    50
100
AcDbVertex
100
AcDb2dVertex
 10
36.403996
 20
-92.67628
 30
0.0
  0
VERTEX
  5
834
330
827
100
AcDbEntity
  8
001
370
    50
100
AcDbVertex
100
AcDb2dVertex
 10
36.369496
 20
-92.935328
 30
0.0
  0
VERTEX
  5
835
330
827
100
AcDbEntity
  8
001
370
    50
100
AcDbVertex
100
AcDb2dVertex
 10
36.358645
 20
-93.197224
 30
0.0
  0
VERTEX
  5
836
330
827
100
AcDbEntity
  8
001
370
    50
100
AcDbVertex
100
AcDb2dVertex
 10
36.371607
 20
-93.46041
 30
0.0
  0
VERTEX
  5
837
330
827
100
AcDbEntity
  8
001
370
    50
100
AcDbVertex
100
AcDb2dVertex
 10
36.403996
 20
-93.718169
 30
0.0
  0
VERTEX
  5
838
330
827
100
AcDbEntity
  8
001
370
    50
100
AcDbVertex
100
AcDb2dVertex
 10
36.522227
 20
-94.204155
 30
0.0
  0
VERTEX
  5
839
330
827
100
AcDbEntity
  8
001
370
    50
100
AcDbVertex
100
AcDb2dVertex
 10
36.758581
 20
-94.697224
 30
0.0
  0
VERTEX
  5
83A
330
827
100
AcDbEntity
  8
001
370
    50
100
AcDbVertex
100
AcDb2dVertex
 10
36.958739
 20
-94.993412
 30
0.0
  0
VERTEX
  5
83B
330
827
100
AcDbEntity
  8
001
370
    50
100
AcDbVertex
100
AcDb2dVertex
 10
37.116641
 20
-95.194796
 30
0.0
  0
SEQEND
  5
828
330
827
100
AcDbEntity
  8
001
370
    50
  0
POLYLINE
  5
83C
330
1F
100
AcDbEntity
  8
001
370
    50
100
AcDb2dPolyline
 66
     1
 10
0.0
 20
0.0
 30
0.0
  0
VERTEX
  5
83E
330
83C
100
AcDbEntity
  8
001
370
    50
100
AcDbVertex
100
AcDb2dVertex
 10
38.890913
 20
-90.197224
 30
0.0
  0
VERTEX
  5
83F
330
83C
100
AcDbEntity
  8
001
370
    50
100
AcDbVertex
100
AcDb2dVertex
 10
38.672101
 20
-90.208636
 30
0.0
  0
VERTEX
  5
840
330
83C
100
AcDbEntity
  8
001
370
    50
100
AcDbVertex
100
AcDb2dVertex
 10
38.372545
 20
-90.242801
 30
0.0
  0
VERTEX
  5
841
330
83C
100
AcDbEntity
  8
001
370
    50
100
AcDbVertex
100
AcDb2dVertex
 10
38.107052
 20
-90.299525
 30
0.0
  0
VERTEX
  5
842
330
83C
100
AcDbEntity
  8
001
370
    50
100
AcDbVertex
100
AcDb2dVertex
 10
37.869926
 20
-90.378146
 30
0.0
  0
VERTEX
  5
843
330
83C
100
AcDbEntity
  8
001
370
    50
100
AcDbVertex
100
AcDb2dVertex
 10
37.632774
 20
-90.478082
 30
0.0
  0
VERTEX
  5
844
330
83C
100
AcDbEntity
  8
001
370
    50
100
AcDbVertex
100
AcDb2dVertex
 10
37.39833
 20
-90.599148
 30
0.0
  0
VERTEX
  5
845
330
83C
100
AcDbEntity
  8
001
370
    50
100
AcDbVertex
100
AcDb2dVertex
 10
36.778273
 20
-91.076714
 30
0.0
  0
VERTEX
  5
846
330
83C
100
AcDbEntity
  8
001
370
    50
100
AcDbVertex
100
AcDb2dVertex
 10
36.305683
 20
-91.697224
 30
0.0
  0
VERTEX
  5
847
330
83C
100
AcDbEntity
  8
001
370
    50
100
AcDbVertex
100
AcDb2dVertex
 10
36.085982
 20
-92.172308
 30
0.0
  0
VERTEX
  5
848
330
83C
100
AcDbEntity
  8
001
370
    50
100
AcDbVertex
100
AcDb2dVertex
 10
35.951098
 20
-92.67628
 30
0.0
  0
VERTEX
  5
849
330
83C
100
AcDbEntity
  8
001
370
    50
100
AcDbVertex
100
AcDb2dVertex
 10
35.916634
 20
-92.935472
 30
0.0
  0
VERTEX
  5
84A
330
83C
100
AcDbEntity
  8
001
370
    50
100
AcDbVertex
100
AcDb2dVertex
 10
35.905747
 20
-93.197224
 30
0.0
  0
VERTEX
  5
84B
330
83C
100
AcDbEntity
  8
001
370
    50
100
AcDbVertex
100
AcDb2dVertex
 10
35.918621
 20
-93.459899
 30
0.0
  0
VERTEX
  5
84C
330
83C
100
AcDbEntity
  8
001
370
    50
100
AcDbVertex
100
AcDb2dVertex
 10
35.951098
 20
-93.718169
 30
0.0
  0
VERTEX
  5
84D
330
83C
100
AcDbEntity
  8
001
370
    50
100
AcDbVertex
100
AcDb2dVertex
 10
36.070192
 20
-94.209303
 30
0.0
  0
VERTEX
  5
84E
330
83C
100
AcDbEntity
  8
001
370
    50
100
AcDbVertex
100
AcDb2dVertex
 10
36.305683
 20
-94.697224
 30
0.0
  0
VERTEX
  5
84F
330
83C
100
AcDbEntity
  8
001
370
    50
100
AcDbVertex
100
AcDb2dVertex
 10
36.657755
 20
-95.168738
 30
0.0
  0
VERTEX
  5
850
330
83C
100
AcDbEntity
  8
001
370
    50
100
AcDbVertex
100
AcDb2dVertex
 10
36.953317
 20
-95.479398
 30
0.0
  0
SEQEND
  5
83D
330
83C
100
AcDbEntity
  8
001
370
    50
  0
LINE
  5
851
330
1F
100
AcDbEntity
  8
001
370
    50
100
AcDbLine
 10
32.799068
 20
-102.718471
 30
0.0
 11
32.799068
 21
-92.060282
 31
0.0
  0
LINE
  5
852
330
1F
100
AcDbEntity
  8
001
370
    50
100
AcDbLine
 10
46.785759
 20
-104.530753
 30
0.0
 11
50.908605
 21
-104.422793
 31
0.0
  0
POLYLINE
  5
853
330
1F
100
AcDbEntity
  8
001
370
    50
100
AcDb2dPolyline
 66
     1
 10
0.0
 20
0.0
 30
0.0
  0
VERTEX
  5
855
330
853
100
AcDbEntity
  8
001
370
    50
100
AcDbVertex
100
AcDb2dVertex
 10
46.740025
 20
-104.452015
 30
0.0
  0
VERTEX
  5
856
330
853
100
AcDbEntity
  8
001
370
    50
100
AcDbVertex
100
AcDb2dVertex
 10
46.955281
 20
-104.444347
 30
0.0
  0
VERTEX
  5
857
330
853
100
AcDbEntity
  8
001
370
    50
100
AcDbVertex
100
AcDb2dVertex
 10
47.269884
 20
-104.433097
 30
0.0
  0
VERTEX
  5
858
330
853
100
AcDbEntity
  8
001
370
    50
100
AcDbVertex
100
AcDb2dVertex
 10
47.584168
 20
-104.421799
 30
0.0
  0
VERTEX
  5
859
330
853
100
AcDbEntity
  8
001
370
    50
100
AcDbVertex
100
AcDb2dVertex
 10
47.799203
 20
-104.414039
 30
0.0
  0
SEQEND
  5
854
330
853
100
AcDbEntity
  8
001
370
    50
  0
LINE
  5
85A
330
1F
100
AcDbEntity
  8
001
370
    50
100
AcDbLine
 10
147.599068
 20
-73.322793
 30
0.0
 11
68.599068
 21
-73.322793
 31
0.0
  0
ARC
  5
85B
330
1F
100
AcDbEntity
  8
001
370
    50
100
AcDbCircle
 10
147.599068
 20
-77.322793
 30
0.0
 40
4.0
100
AcDbArc
 50
0.0
 51
90.0
  0
LINE
  5
85C
330
1F
100
AcDbEntity
  8
001
370
    50
100
AcDbLine
 10
68.599068
 20
-97.822793
 30
0.0
 11
66.599068
 21
-97.822793
 31
0.0
  0
LINE
  5
85D
330
1F
100
AcDbEntity
  8
001
370
    50
100
AcDbLine
 10
68.599068
 20
-98.322793
 30
0.0
 11
147.599068
 21
-98.322793
 31
0.0
  0
ARC
  5
85E
330
1F
100
AcDbEntity
  8
001
370
    50
100
AcDbCircle
 10
147.599068
 20
-94.322793
 30
0.0
 40
4.0
100
AcDbArc
 50
270.0
 51
0.0
  0
ENDSEC
  0
SECTION
  2
OBJECTS
  0
DICTIONARY
  5
C
330
0
100
AcDbDictionary
281
     1
  3
ACAD_GROUP
350
D
  3
ACAD_LAYOUT
350
1A
  3
ACAD_MLEADERSTYLE
350
862
  3
ACAD_MLINESTYLE
350
17
  3
ACAD_PLOTSETTINGS
350
19
  3
ACAD_PLOTSTYLENAME
350
E
  3
ACAD_SCALELIST
350
3B
  3
ACAD_TABLESTYLE
350
861
  3
ACAD_VISUALSTYLE
350
2A
  3
AcDbVariableDictionary
350
85F
  0
DICTIONARY
  5
D
102
{ACAD_REACTORS
330
C
102
}
330
C
100
AcDbDictionary
281
     1
  0
DICTIONARY
  5
1A
102
{ACAD_REACTORS
330
C
102
}
330
C
100
AcDbDictionary
281
     1
  3
Layout1
350
1E
  3
Layout2
350
26
  3
Model
350
22
  0
DICTIONARY
  5
862
102
{ACAD_REACTORS
330
C
102
}
330
C
100
AcDbDictionary
281
     1
  0
DICTIONARY
  5
17
102
{ACAD_REACTORS
330
C
102
}
330
C
100
AcDbDictionary
281
     1
  3
Standard
350
18
  0
DICTIONARY
  5
19
102
{ACAD_REACTORS
330
C
102
}
330
C
100
AcDbDictionary
281
     1
  0
ACDBDICTIONARYWDFLT
  5
E
102
{ACAD_REACTORS
330
C
102
}
330
C
100
AcDbDictionary
281
     1
  3
Normal
350
F
100
AcDbDictionaryWithDefault
340
F
  0
DICTIONARY
  5
3B
102
{ACAD_REACTORS
330
C
102
}
330
C
100
AcDbDictionary
281
     1
  3
A0
350
3C
  3
A1
350
3D
  3
A2
350
3E
  3
A3
350
3F
  3
A4
350
40
  3
A5
350
41
  3
A6
350
42
  3
A7
350
43
  3
A8
350
44
  3
A9
350
45
  3
B0
350
46
  3
B1
350
47
  3
B2
350
48
  3
B3
350
49
  3
B4
350
4A
  3
B5
350
4B
  3
B6
350
4C
  3
B7
350
4D
  3
B8
350
4E
  3
B9
350
4F
  3
C0
350
50
  3
C1
350
51
  3
C2
350
52
  3
C3
350
53
  3
C4
350
54
  3
C5
350
55
  3
C6
350
56
  3
C7
350
57
  3
C8
350
58
  3
C9
350
59
  3
D0
350
5A
  3
D1
350
5B
  3
D2
350
5C
  0
DICTIONARY
  5
861
102
{ACAD_REACTORS
330
C
102
}
330
C
100
AcDbDictionary
281
     1
  0
DICTIONARY
  5
2A
102
{ACAD_REACTORS
330
C
102
}
330
C
100
AcDbDictionary
281
     1
  3
2dWireframe
350
2F
  3
3D Hidden
350
31
  3
3dWireframe
350
30
  3
Basic
350
32
  3
Brighten
350
36
  3
ColorChange
350
3A
  3
Conceptual
350
34
  3
Dim
350
35
  3
Facepattern
350
39
  3
Flat
350
2B
  3
FlatWithEdges
350
2C
  3
Gouraud
350
2D
  3
GouraudWithEdges
350
2E
  3
Linepattern
350
38
  3
Realistic
350
33
  3
Thicken
350
37
  0
DICTIONARY
  5
85F
102
{ACAD_REACTORS
330
C
102
}
330
C
100
AcDbDictionary
281
     1
  3
CANNOSCALE
350
860
  3
PSOLHEIGHT
350
864
  3
PSOLWIDTH
350
863
  0
LAYOUT
  5
1E
102
{ACAD_REACTORS
330
1A
102
}
330
1A
100
AcDbPlotSettings
  1

  2
none_device
  4

  6

 40
0.0
 41
0.0
 42
0.0
 43
0.0
 44
0.0
 45
0.0
 46
0.0
 47
0.0
 48
0.0
 49
0.0
140
0.0
141
0.0
142
1.0
143
1.0
 70
   688
 72
     0
 73
     0
 74
     5
  7

 75
    16
147
1.0
148
0.0
149
0.0
100
AcDbLayout
  1
Layout1
 70
     1
 71
     1
 10
0.0
 20
0.0
 11
12.0
 21
9.0
 12
0.0
 22
0.0
 32
0.0
 14
1.000000E+20
 24
1.000000E+20
 34
0.0
 15
-1.000000E+20
 25
-1.000000E+20
 35
0.0
146
0.0
 13
0.0
 23
0.0
 33
0.0
 16
1.0
 26
0.0
 36
0.0
 17
0.0
 27
1.0
 37
0.0
 76
     0
330
1B
  0
LAYOUT
  5
26
102
{ACAD_REACTORS
330
1A
102
}
330
1A
100
AcDbPlotSettings
  1

  2
none_device
  4

  6

 40
0.0
 41
0.0
 42
0.0
 43
0.0
 44
0.0
 45
0.0
 46
0.0
 47
0.0
 48
0.0
 49
0.0
140
0.0
141
0.0
142
1.0
143
1.0
 70
   688
 72
     0
 73
     0
 74
     5
  7

 75
    16
147
1.0
148
0.0
149
0.0
100
AcDbLayout
  1
Layout2
 70
     1
 71
     2
 10
0.0
 20
0.0
 11
0.0
 21
0.0
 12
0.0
 22
0.0
 32
0.0
 14
0.0
 24
0.0
 34
0.0
 15
0.0
 25
0.0
 35
0.0
146
0.0
 13
0.0
 23
0.0
 33
0.0
 16
1.0
 26
0.0
 36
0.0
 17
0.0
 27
1.0
 37
0.0
 76
     0
330
23
  0
LAYOUT
  5
22
102
{ACAD_REACTORS
330
1A
102
}
330
1A
100
AcDbPlotSettings
  1

  2
none_device
  4

  6

 40
0.0
 41
0.0
 42
0.0
 43
0.0
 44
0.0
 45
0.0
 46
0.0
 47
0.0
 48
0.0
 49
0.0
140
0.0
141
0.0
142
1.0
143
1.0
 70
  1712
 72
     0
 73
     0
 74
     0
  7

 75
     0
147
1.0
148
0.0
149
0.0
100
AcDbLayout
  1
Model
 70
     1
 71
     0
 10
0.0
 20
0.0
 11
12.0
 21
9.0
 12
0.0
 22
0.0
 32
0.0
 14
-7.618454
 24
-105.822784
 34
0.0
 15
202.381546
 25
151.645752
 35
0.0
146
0.0
 13
0.0
 23
0.0
 33
0.0
 16
1.0
 26
0.0
 36
0.0
 17
0.0
 27
1.0
 37
0.0
 76
     0
330
1F
331
29
  0
MLINESTYLE
  5
18
102
{ACAD_REACTORS
330
17
102
}
330
17
100
AcDbMlineStyle
  2
Standard
 70
     0
  3

 62
   256
 51
90.0
 52
90.0
 71
     2
 49
0.5
 62
   256
  6
BYLAYER
 49
-0.5
 62
   256
  6
BYLAYER
  0
ACDBPLACEHOLDER
  5
F
102
{ACAD_REACTORS
330
E
102
}
330
E
  0
SCALE
  5
3C
102
{ACAD_REACTORS
330
3B
102
}
330
3B
100
AcDbScale
 70
     0
300
1:1
140
1.0
141
1.0
290
     1
  0
SCALE
  5
3D
102
{ACAD_REACTORS
330
3B
102
}
330
3B
100
AcDbScale
 70
     0
300
1:2
140
1.0
141
2.0
290
     0
  0
SCALE
  5
3E
102
{ACAD_REACTORS
330
3B
102
}
330
3B
100
AcDbScale
 70
     0
300
1:4
140
1.0
141
4.0
290
     0
  0
SCALE
  5
3F
102
{ACAD_REACTORS
330
3B
102
}
330
3B
100
AcDbScale
 70
     0
300
1:5
140
1.0
141
5.0
290
     0
  0
SCALE
  5
40
102
{ACAD_REACTORS
330
3B
102
}
330
3B
100
AcDbScale
 70
     0
300
1:8
140
1.0
141
8.0
290
     0
  0
SCALE
  5
41
102
{ACAD_REACTORS
330
3B
102
}
330
3B
100
AcDbScale
 70
     0
300
1:10
140
1.0
141
10.0
290
     0
  0
SCALE
  5
42
102
{ACAD_REACTORS
330
3B
102
}
330
3B
100
AcDbScale
 70
     0
300
1:16
140
1.0
141
16.0
290
     0
  0
SCALE
  5
43
102
{ACAD_REACTORS
330
3B
102
}
330
3B
100
AcDbScale
 70
     0
300
1:20
140
1.0
141
20.0
290
     0
  0
SCALE
  5
44
102
{ACAD_REACTORS
330
3B
102
}
330
3B
100
AcDbScale
 70
     0
300
1:30
140
1.0
141
30.0
290
     0
  0
SCALE
  5
45
102
{ACAD_REACTORS
330
3B
102
}
330
3B
100
AcDbScale
 70
     0
300
1:40
140
1.0
141
40.0
290
     0
  0
SCALE
  5
46
102
{ACAD_REACTORS
330
3B
102
}
330
3B
100
AcDbScale
 70
     0
300
1:50
140
1.0
141
50.0
290
     0
  0
SCALE
  5
47
102
{ACAD_REACTORS
330
3B
102
}
330
3B
100
AcDbScale
 70
     0
300
1:100
140
1.0
141
100.0
290
     0
  0
SCALE
  5
48
102
{ACAD_REACTORS
330
3B
102
}
330
3B
100
AcDbScale
 70
     0
300
2:1
140
2.0
141
1.0
290
     0
  0
SCALE
  5
49
102
{ACAD_REACTORS
330
3B
102
}
330
3B
100
AcDbScale
 70
     0
300
4:1
140
4.0
141
1.0
290
     0
  0
SCALE
  5
4A
102
{ACAD_REACTORS
330
3B
102
}
330
3B
100
AcDbScale
 70
     0
300
8:1
140
8.0
141
1.0
290
     0
  0
SCALE
  5
4B
102
{ACAD_REACTORS
330
3B
102
}
330
3B
100
AcDbScale
 70
     0
300
10:1
140
10.0
141
1.0
290
     0
  0
SCALE
  5
4C
102
{ACAD_REACTORS
330
3B
102
}
330
3B
100
AcDbScale
 70
     0
300
100:1
140
100.0
141
1.0
290
     0
  0
SCALE
  5
4D
102
{ACAD_REACTORS
330
3B
102
}
330
3B
100
AcDbScale
 70
     0
300
1/128" = 1'-0"
140
0.007812
141
12.0
290
     0
  0
SCALE
  5
4E
102
{ACAD_REACTORS
330
3B
102
}
330
3B
100
AcDbScale
 70
     0
300
1/64" = 1'-0"
140
0.015625
141
12.0
290
     0
  0
SCALE
  5
4F
102
{ACAD_REACTORS
330
3B
102
}
330
3B
100
AcDbScale
 70
     0
300
1/32" = 1'-0"
140
0.03125
141
12.0
290
     0
  0
SCALE
  5
50
102
{ACAD_REACTORS
330
3B
102
}
330
3B
100
AcDbScale
 70
     0
300
1/16" = 1'-0"
140
0.0625
141
12.0
290
     0
  0
SCALE
  5
51
102
{ACAD_REACTORS
330
3B
102
}
330
3B
100
AcDbScale
 70
     0
300
3/32" = 1'-0"
140
0.09375
141
12.0
290
     0
  0
SCALE
  5
52
102
{ACAD_REACTORS
330
3B
102
}
330
3B
100
AcDbScale
 70
     0
300
1/8" = 1'-0"
140
0.125
141
12.0
290
     0
  0
SCALE
  5
53
102
{ACAD_REACTORS
330
3B
102
}
330
3B
100
AcDbScale
 70
     0
300
3/16" = 1'-0"
140
0.1875
141
12.0
290
     0
  0
SCALE
  5
54
102
{ACAD_REACTORS
330
3B
102
}
330
3B
100
AcDbScale
 70
     0
300
1/4" = 1'-0"
140
0.25
141
12.0
290
     0
  0
SCALE
  5
55
102
{ACAD_REACTORS
330
3B
102
}
330
3B
100
AcDbScale
 70
     0
300
3/8" = 1'-0"
140
0.375
141
12.0
290
     0
  0
SCALE
  5
56
102
{ACAD_REACTORS
330
3B
102
}
330
3B
100
AcDbScale
 70
     0
300
1/2" = 1'-0"
140
0.5
141
12.0
290
     0
  0
SCALE
  5
57
102
{ACAD_REACTORS
330
3B
102
}
330
3B
100
AcDbScale
 70
     0
300
3/4" = 1'-0"
140
0.75
141
12.0
290
     0
  0
SCALE
  5
58
102
{ACAD_REACTORS
330
3B
102
}
330
3B
100
AcDbScale
 70
     0
300
1" = 1'-0"
140
1.0
141
12.0
290
     0
  0
SCALE
  5
59
102
{ACAD_REACTORS
330
3B
102
}
330
3B
100
AcDbScale
 70
     0
300
1-1/2" = 1'-0"
140
1.5
141
12.0
290
     0
  0
SCALE
  5
5A
102
{ACAD_REACTORS
330
3B
102
}
330
3B
100
AcDbScale
 70
     0
300
3" = 1'-0"
140
3.0
141
12.0
290
     0
  0
SCALE
  5
5B
102
{ACAD_REACTORS
330
3B
102
}
330
3B
100
AcDbScale
 70
     0
300
6" = 1'-0"
140
6.0
141
12.0
290
     0
  0
SCALE
  5
5C
102
{ACAD_REACTORS
330
3B
102
}
330
3B
100
AcDbScale
 70
     0
300
1'-0" = 1'-0"
140
12.0
141
12.0
290
     0
  0
VISUALSTYLE
  5
2F
102
{ACAD_REACTORS
330
2A
102
}
330
2A
100
AcDbVisualStyle
  2
2dWireframe
 70
     4
 71
     0
 72
     2
 73
     0
 90
        0
 40
-0.6
 41
-30.0
 62
     5
 63
     7
 74
     1
 91
        4
 64
     7
 65
   257
 75
     1
175
     1
 42
1.0
 92
        0
 66
   257
 43
1.0
 76
     1
 77
     6
 78
     2
 67
     7
 79
     5
170
     0
171
     0
290
     0
174
     0
 93
        1
 44
0.0
173
     0
291
     0
 45
0.0
1001
ACAD
1000
AcDbSavedByObjectVersion
1070
     0
  0
VISUALSTYLE
  5
31
102
{ACAD_REACTORS
330
2A
102
}
330
2A
100
AcDbVisualStyle
  2
3D Hidden
 70
     6
 71
     1
 72
     2
 73
     2
 90
        0
 40
-0.6
 41
-30.0
 62
     5
 63
     7
 74
     2
 91
        2
 64
     7
 65
   257
 75
     2
175
     1
 42
40.0
 92
        0
 66
   257
 43
1.0
 76
     1
 77
     6
 78
     2
 67
     7
 79
     3
170
     0
171
     0
290
     0
174
     0
 93
        1
 44
0.0
173
     0
291
     0
 45
0.0
1001
ACAD
1000
AcDbSavedByObjectVersion
1070
     0
  0
VISUALSTYLE
  5
30
102
{ACAD_REACTORS
330
2A
102
}
330
2A
100
AcDbVisualStyle
  2
3dWireframe
 70
     5
 71
     0
 72
     2
 73
     0
 90
        0
 40
-0.6
 41
-30.0
 62
     5
 63
     7
 74
     1
 91
        4
 64
     7
 65
   257
 75
     1
175
     1
 42
1.0
 92
        0
 66
   257
 43
1.0
 76
     1
 77
     6
 78
     2
 67
     7
 79
     5
170
     0
171
     0
290
     0
174
     0
 93
        1
 44
0.0
173
     0
291
     0
 45
0.0
1001
ACAD
1000
AcDbSavedByObjectVersion
1070
     0
  0
VISUALSTYLE
  5
32
102
{ACAD_REACTORS
330
2A
102
}
330
2A
100
AcDbVisualStyle
  2
Basic
 70
     7
 71
     1
 72
     0
 73
     1
 90
        0
 40
-0.6
 41
-30.0
 62
     5
 63
     7
 74
     0
 91
        4
 64
     7
 65
   257
 75
     1
175
     1
 42
1.0
 92
        8
 66
     7
 43
1.0
 76
     1
 77
     6
 78
     2
 67
     7
 79
     5
170
     0
171
     0
290
     0
174
     0
 93
        1
 44
0.0
173
     0
291
     1
 45
0.0
1001
ACAD
1000
AcDbSavedByObjectVersion
1070
     0
  0
VISUALSTYLE
  5
36
102
{ACAD_REACTORS
330
2A
102
}
330
2A
100
AcDbVisualStyle
  2
Brighten
 70
    12
 71
     2
 72
     2
 73
     0
 90
        0
 40
-0.6
 41
-30.0
 62
     5
 63
     7
 74
     1
 91
        4
 64
     7
 65
   257
 75
     1
175
     1
 42
1.0
 92
        8
 66
     7
 43
1.0
 76
     1
 77
     6
 78
     2
 67
     7
 79
     5
170
     0
171
     0
290
     0
174
     0
 93
        1
 44
50.0
173
     0
291
     1
 45
0.0
1001
ACAD
1000
AcDbSavedByObjectVersion
1070
     0
  0
VISUALSTYLE
  5
3A
102
{ACAD_REACTORS
330
2A
102
}
330
2A
100
AcDbVisualStyle
  2
ColorChange
 70
    16
 71
     2
 72
     2
 73
     3
 90
        0
 40
-0.6
 41
-30.0
 62
     5
 63
     8
 74
     1
 91
        4
 64
     7
 65
   257
 75
     1
175
     1
 42
1.0
 92
        8
 66
     8
 43
1.0
 76
     1
 77
     6
 78
     2
 67
     7
 79
     5
170
     0
171
     0
290
     0
174
     0
 93
        1
 44
0.0
173
     0
291
     1
 45
0.0
1001
ACAD
1000
AcDbSavedByObjectVersion
1070
     0
  0
VISUALSTYLE
  5
34
102
{ACAD_REACTORS
330
2A
102
}
330
2A
100
AcDbVisualStyle
  2
Conceptual
 70
     9
 71
     3
 72
     2
 73
     0
 90
        0
 40
-0.6
 41
-30.0
 62
     5
 63
     7
 74
     2
 91
        2
 64
     7
 65
   257
 75
     1
175
     1
 42
40.0
 92
        8
 66
     7
 43
1.0
 76
     1
 77
     6
 78
     2
 67
     7
 79
     3
170
     0
171
     0
290
     0
174
     0
 93
        1
 44
0.0
173
     0
291
     0
 45
0.0
1001
ACAD
1000
AcDbSavedByObjectVersion
1070
     0
  0
VISUALSTYLE
  5
35
102
{ACAD_REACTORS
330
2A
102
}
330
2A
100
AcDbVisualStyle
  2
Dim
 70
    11
 71
     2
 72
     2
 73
     0
 90
        0
 40
-0.6
 41
-30.0
 62
     5
 63
     7
 74
     1
 91
        4
 64
     7
 65
   257
 75
     1
175
     1
 42
1.0
 92
        8
 66
     7
 43
1.0
 76
     1
 77
     6
 78
     2
 67
     7
 79
     5
170
     0
171
     0
290
     0
174
     0
 93
        1
 44
-50.0
173
     0
291
     1
 45
0.0
1001
ACAD
1000
AcDbSavedByObjectVersion
1070
     0
  0
VISUALSTYLE
  5
39
102
{ACAD_REACTORS
330
2A
102
}
330
2A
100
AcDbVisualStyle
  2
Facepattern
 70
    15
 71
     2
 72
     2
 73
     0
 90
        0
 40
-0.6
 41
-30.0
 62
     5
 63
     7
 74
     1
 91
        4
 64
     7
 65
   257
 75
     1
175
     1
 42
1.0
 92
        8
 66
     7
 43
1.0
 76
     1
 77
     6
 78
     2
 67
     7
 79
     5
170
     0
171
     0
290
     0
174
     0
 93
        1
 44
0.0
173
     0
291
     1
 45
0.0
1001
ACAD
1000
AcDbSavedByObjectVersion
1070
     0
  0
VISUALSTYLE
  5
2B
102
{ACAD_REACTORS
330
2A
102
}
330
2A
100
AcDbVisualStyle
  2
Flat
 70
     0
 71
     2
 72
     1
 73
     1
 90
        2
 40
-0.6
 41
30.0
 62
     5
 63
     7
 74
     0
 91
        4
 64
     7
 65
   257
 75
     1
175
     1
 42
1.0
 92
        8
 66
     7
 43
1.0
 76
     1
 77
     6
 78
     2
 67
     7
 79
     5
170
     0
171
     0
290
     0
174
     0
 93
       13
 44
0.0
173
     0
291
     1
 45
0.0
1001
ACAD
1000
AcDbSavedByObjectVersion
1070
     0
  0
VISUALSTYLE
  5
2C
102
{ACAD_REACTORS
330
2A
102
}
330
2A
100
AcDbVisualStyle
  2
FlatWithEdges
 70
     1
 71
     2
 72
     1
 73
     1
 90
        2
 40
-0.6
 41
30.0
 62
     5
 63
     7
 74
     1
 91
        4
 64
     7
 65
   257
 75
     1
175
     1
 42
1.0
 92
        0
 66
   257
 43
1.0
 76
     1
 77
     6
 78
     2
 67
     7
 79
     5
170
     0
171
     0
290
     0
174
     0
 93
       13
 44
0.0
173
     0
291
     1
 45
0.0
1001
ACAD
1000
AcDbSavedByObjectVersion
1070
     0
  0
VISUALSTYLE
  5
2D
102
{ACAD_REACTORS
330
2A
102
}
330
2A
100
AcDbVisualStyle
  2
Gouraud
 70
     2
 71
     2
 72
     2
 73
     1
 90
        2
 40
-0.6
 41
30.0
 62
     5
 63
     7
 74
     0
 91
        4
 64
     7
 65
   257
 75
     1
175
     1
 42
1.0
 92
        0
 66
     7
 43
1.0
 76
     1
 77
     6
 78
     2
 67
     7
 79
     5
170
     0
171
     0
290
     0
174
     0
 93
       13
 44
0.0
173
     0
291
     1
 45
0.0
1001
ACAD
1000
AcDbSavedByObjectVersion
1070
     0
  0
VISUALSTYLE
  5
2E
102
{ACAD_REACTORS
330
2A
102
}
330
2A
100
AcDbVisualStyle
  2
GouraudWithEdges
 70
     3
 71
     2
 72
     2
 73
     1
 90
        2
 40
-0.6
 41
30.0
 62
     5
 63
     7
 74
     1
 91
        4
 64
     7
 65
   257
 75
     1
175
     1
 42
1.0
 92
        0
 66
   257
 43
1.0
 76
     1
 77
     6
 78
     2
 67
     7
 79
     5
170
     0
171
     0
290
     0
174
     0
 93
       13
 44
0.0
173
     0
291
     1
 45
0.0
1001
ACAD
1000
AcDbSavedByObjectVersion
1070
     0
  0
VISUALSTYLE
  5
38
102
{ACAD_REACTORS
330
2A
102
}
330
2A
100
AcDbVisualStyle
  2
Linepattern
 70
    14
 71
     2
 72
     2
 73
     0
 90
        0
 40
-0.6
 41
-30.0
 62
     5
 63
     7
 74
     1
 91
        4
 64
     7
 65
   257
 75
     7
175
     7
 42
1.0
 92
        8
 66
     7
 43
1.0
 76
     1
 77
     6
 78
     2
 67
     7
 79
     5
170
     0
171
     0
290
     0
174
     0
 93
        1
 44
0.0
173
     0
291
     1
 45
0.0
1001
ACAD
1000
AcDbSavedByObjectVersion
1070
     0
  0
VISUALSTYLE
  5
33
102
{ACAD_REACTORS
330
2A
102
}
330
2A
100
AcDbVisualStyle
  2
Realistic
 70
     8
 71
     2
 72
     2
 73
     0
 90
        0
 40
-0.6
 41
-30.0
 62
     5
 63
     7
 74
     1
 91
        0
 64
     7
 65
   257
 75
     1
175
     1
 42
1.0
 92
        8
 66
     8
 43
1.0
 76
     1
 77
     6
 78
     2
 67
     7
 79
     5
170
     0
171
     0
290
     0
174
     0
 93
       13
 44
0.0
173
     0
291
     0
 45
0.0
1001
ACAD
1000
AcDbSavedByObjectVersion
1070
     0
  0
VISUALSTYLE
  5
37
102
{ACAD_REACTORS
330
2A
102
}
330
2A
100
AcDbVisualStyle
  2
Thicken
 70
    13
 71
     2
 72
     2
 73
     0
 90
        0
 40
-0.6
 41
-30.0
 62
     5
 63
     7
 74
     1
 91
        4
 64
     7
 65
   257
 75
     1
175
     1
 42
1.0
 92
       12
 66
     7
 43
1.0
 76
     1
 77
     6
 78
     2
 67
     7
 79
     5
170
     0
171
     0
290
     0
174
     0
 93
        1
 44
0.0
173
     0
291
     1
 45
0.0
1001
ACAD
1000
AcDbSavedByObjectVersion
1070
     0
  0
DICTIONARYVAR
  5
860
102
{ACAD_REACTORS
330
85F
102
}
330
85F
100
DictionaryVariables
280
     0
  1
1:1
  0
DICTIONARYVAR
  5
864
102
{ACAD_REACTORS
330
85F
102
}
330
85F
100
DictionaryVariables
280
     0
  1
80.000000
  0
DICTIONARYVAR
  5
863
102
{ACAD_REACTORS
330
85F
102
}
330
85F
100
DictionaryVariables
280
     0
  1
5.000000
  0
ENDSEC
  0
EOF
