  0
SECTION
  2
HEADER
  9
$ACADVER
  1
AC1015
  9
$ACADMAINTVER
 70
     6
  9
$DWGCODEPAGE
  3
ANSI_932
  9
$INSBASE
 10
0.0
 20
0.0
 30
0.0
  9
$EXTMIN
 10
-2.425934
 20
-65.900421
 30
0.0
  9
$EXTMAX
 10
207.574066
 20
159.063629
 30
0.0
  9
$LIMMIN
 10
0.0
 20
0.0
  9
$LIMMAX
 10
12.0
 20
9.0
  9
$ORTHOMODE
 70
     0
  9
$REGENMODE
 70
     1
  9
$FILLMODE
 70
     1
  9
$QTEXTMODE
 70
     0
  9
$MIRRTEXT
 70
     1
  9
$LTSCALE
 40
3.07748
  9
$ATTMODE
 70
     1
  9
$TEXTSIZE
 40
3.2
  9
$TRACEWID
 40
1.0
  9
$TEXTSTYLE
  7
Standard
  9
$CLAYER
  8
0
  9
$CELTYPE
  6
ByLayer
  9
$CECOLOR
 62
   256
  9
$CELTSCALE
 40
1.0
  9
$DISPSILH
 70
     0
  9
$DIMSCALE
 40
1.0
  9
$DIMASZ
 40
2.5
  9
$DIMEXO
 40
0.625
  9
$DIMDLI
 40
3.75
  9
$DIMRND
 40
0.0
  9
$DIMDLE
 40
0.0
  9
$DIMEXE
 40
1.25
  9
$DIMTP
 40
0.0
  9
$DIMTM
 40
0.0
  9
$DIMTXT
 40
2.5
  9
$DIMCEN
 40
0.09
  9
$DIMTSZ
 40
0.0
  9
$DIMTOL
 70
     0
  9
$DIMLIM
 70
     0
  9
$DIMTIH
 70
     0
  9
$DIMTOH
 70
     0
  9
$DIMSE1
 70
     0
  9
$DIMSE2
 70
     0
  9
$DIMTAD
 70
     0
  9
$DIMZIN
 70
     8
  9
$DIMBLK
  1

  9
$DIMASO
 70
     1
  9
$DIMSHO
 70
     0
  9
$DIMPOST
  1

  9
$DIMAPOST
  1

  9
$DIMALT
 70
     0
  9
$DIMALTD
 70
     3
  9
$DIMALTF
 40
0.03937
  9
$DIMLFAC
 40
1.0
  9
$DIMTOFL
 70
     1
  9
$DIMTVP
 40
0.0
  9
$DIMTIX
 70
     0
  9
$DIMSOXD
 70
     0
  9
$DIMSAH
 70
     0
  9
$DIMBLK1
  1

  9
$DIMBLK2
  1

  9
$DIMSTYLE
  2
ISO-25
  9
$DIMCLRD
 70
     0
  9
$DIMCLRE
 70
     0
  9
$DIMCLRT
 70
     0
  9
$DIMTFAC
 40
1.0
  9
$DIMGAP
 40
0.625
  9
$DIMJUST
 70
     0
  9
$DIMSD1
 70
     0
  9
$DIMSD2
 70
     0
  9
$DIMTOLJ
 70
     0
  9
$DIMTZIN
 70
     8
  9
$DIMALTZ
 70
     0
  9
$DIMALTTZ
 70
     0
  9
$DIMUPT
 70
     0
  9
$DIMDEC
 70
     2
  9
$DIMTDEC
 70
     2
  9
$DIMALTU
 70
     2
  9
$DIMALTTD
 70
     3
  9
$DIMTXSTY
  7
Standard
  9
$DIMAUNIT
 70
     0
  9
$DIMADEC
 70
     0
  9
$DIMALTRND
 40
0.0
  9
$DIMAZIN
 70
     0
  9
$DIMDSEP
 70
    44
  9
$DIMATFIT
 70
     3
  9
$DIMFRAC
 70
     0
  9
$DIMLDRBLK
  1

  9
$DIMLUNIT
 70
     2
  9
$DIMLWD
 70
    -2
  9
$DIMLWE
 70
    -2
  9
$DIMTMOVE
 70
     0
  9
$LUNITS
 70
     2
  9
$LUPREC
 70
     4
  9
$SKETCHINC
 40
1.0
  9
$FILLETRAD
 40
0.0
  9
$AUNITS
 70
     0
  9
$AUPREC
 70
     0
  9
$MENU
  1
.
  9
$ELEVATION
 40
0.0
  9
$PELEVATION
 40
0.0
  9
$THICKNESS
 40
0.0
  9
$LIMCHECK
 70
     0
  9
$CHAMFERA
 40
10.0
  9
$CHAMFERB
 40
10.0
  9
$CHAMFERC
 40
20.0
  9
$CHAMFERD
 40
0.0
  9
$SKPOLY
 70
     0
  9
$TDCREATE
 40
2454818.809746007
  9
$TDUCREATE
 40
2454818.434746007
  9
$TDUPDATE
 40
2454818.809746019
  9
$TDUUPDATE
 40
2454818.434746019
  9
$TDINDWG
 40
0.0000000116
  9
$TDUSRTIMER
 40
0.0000000116
  9
$USRTIMER
 70
     1
  9
$ANGBASE
 50
0.0
  9
$ANGDIR
 70
     0
  9
$PDMODE
 70
     0
  9
$PDSIZE
 40
0.0
  9
$PLINEWID
 40
0.0
  9
$SPLFRAME
 70
     0
  9
$SPLINETYPE
 70
     6
  9
$SPLINESEGS
 70
     8
  9
$HANDSEED
  5
673
  9
$SURFTAB1
 70
     6
  9
$SURFTAB2
 70
     6
  9
$SURFTYPE
 70
     6
  9
$SURFU
 70
     6
  9
$SURFV
 70
     6
  9
$UCSBASE
  2

  9
$UCSNAME
  2

  9
$UCSORG
 10
0.0
 20
0.0
 30
0.0
  9
$UCSXDIR
 10
1.0
 20
0.0
 30
0.0
  9
$UCSYDIR
 10
0.0
 20
1.0
 30
0.0
  9
$UCSORTHOREF
  2

  9
$UCSORTHOVIEW
 70
     0
  9
$UCSORGTOP
 10
0.0
 20
0.0
 30
0.0
  9
$UCSORGBOTTOM
 10
0.0
 20
0.0
 30
0.0
  9
$UCSORGLEFT
 10
0.0
 20
0.0
 30
0.0
  9
$UCSORGRIGHT
 10
0.0
 20
0.0
 30
0.0
  9
$UCSORGFRONT
 10
0.0
 20
0.0
 30
0.0
  9
$UCSORGBACK
 10
0.0
 20
0.0
 30
0.0
  9
$PUCSBASE
  2

  9
$PUCSNAME
  2

  9
$PUCSORG
 10
0.0
 20
0.0
 30
0.0
  9
$PUCSXDIR
 10
1.0
 20
0.0
 30
0.0
  9
$PUCSYDIR
 10
0.0
 20
1.0
 30
0.0
  9
$PUCSORTHOREF
  2

  9
$PUCSORTHOVIEW
 70
     0
  9
$PUCSORGTOP
 10
0.0
 20
0.0
 30
0.0
  9
$PUCSORGBOTTOM
 10
0.0
 20
0.0
 30
0.0
  9
$PUCSORGLEFT
 10
0.0
 20
0.0
 30
0.0
  9
$PUCSORGRIGHT
 10
0.0
 20
0.0
 30
0.0
  9
$PUCSORGFRONT
 10
0.0
 20
0.0
 30
0.0
  9
$PUCSORGBACK
 10
0.0
 20
0.0
 30
0.0
  9
$USERI1
 70
     0
  9
$USERI2
 70
     0
  9
$USERI3
 70
     0
  9
$USERI4
 70
     0
  9
$USERI5
 70
     0
  9
$USERR1
 40
0.0
  9
$USERR2
 40
0.0
  9
$USERR3
 40
0.0
  9
$USERR4
 40
0.0
  9
$USERR5
 40
0.0
  9
$WORLDVIEW
 70
     1
  9
$SHADEDGE
 70
     3
  9
$SHADEDIF
 70
    70
  9
$TILEMODE
 70
     1
  9
$MAXACTVP
 70
    64
  9
$PINSBASE
 10
0.0
 20
0.0
 30
0.0
  9
$PLIMCHECK
 70
     0
  9
$PEXTMIN
 10
1.000000E+20
 20
1.000000E+20
 30
0.0
  9
$PEXTMAX
 10
-1.000000E+20
 20
-1.000000E+20
 30
0.0
  9
$PLIMMIN
 10
0.0
 20
0.0
  9
$PLIMMAX
 10
12.0
 20
9.0
  9
$UNITMODE
 70
     0
  9
$VISRETAIN
 70
     1
  9
$PLINEGEN
 70
     0
  9
$PSLTSCALE
 70
     1
  9
$TREEDEPTH
 70
  3020
  9
$CMLSTYLE
  2
Standard
  9
$CMLJUST
 70
     0
  9
$CMLSCALE
 40
20.0
  9
$PROXYGRAPHICS
 70
     1
  9
$MEASUREMENT
 70
     1
  9
$CELWEIGHT
370
    -1
  9
$ENDCAPS
280
     0
  9
$JOINSTYLE
280
     0
  9
$LWDISPLAY
290
     0
  9
$INSUNITS
 70
     4
  9
$HYPERLINKBASE
  1

  9
$STYLESHEET
  1

  9
$XEDIT
290
     1
  9
$CEPSNTYPE
380
     0
  9
$PSTYLEMODE
290
     1
  9
$FINGERPRINTGUID
  2
{6B009C79-A3CA-47C6-8236-CEED91091194}
  9
$VERSIONGUID
  2
{FAEB1C32-E019-11D5-929B-00C0DF256EC4}
  9
$EXTNAMES
290
     1
  9
$PSVPSCALE
 40
0.0
  9
$OLESTARTUP
290
     0
  0
ENDSEC
  0
SECTION
  2
CLASSES
  0
CLASS
  1
ACDBDICTIONARYWDFLT
  2
AcDbDictionaryWithDefault
  3
ObjectDBX Classes
 90
        0
280
     0
281
     0
  0
CLASS
  1
VISUALSTYLE
  2
AcDbVisualStyle
  3
ObjectDBX Classes
 90
     4095
280
     0
281
     0
  0
CLASS
  1
SCALE
  2
AcDbScale
  3
ObjectDBX Classes
 90
     1153
280
     0
281
     0
  0
CLASS
  1
DICTIONARYVAR
  2
AcDbDictionaryVar
  3
ObjectDBX Classes
 90
        0
280
     0
281
     0
  0
CLASS
  1
ACDBPLACEHOLDER
  2
AcDbPlaceHolder
  3
ObjectDBX Classes
 90
        0
280
     0
281
     0
  0
CLASS
  1
LAYOUT
  2
AcDbLayout
  3
ObjectDBX Classes
 90
        0
280
     0
281
     0
  0
ENDSEC
  0
SECTION
  2
TABLES
  0
TABLE
  2
VPORT
  5
8
330
0
100
AcDbSymbolTable
 70
     1
  0
VPORT
  5
29
330
8
100
AcDbSymbolTableRecord
100
AcDbViewportTableRecord
  2
*Active
 70
     0
 10
0.0
 20
0.0
 11
1.0
 21
1.0
 12
102.574066
 22
46.581604
 13
0.0
 23
0.0
 14
1.0
 24
1.0
 15
0.0
 25
0.0
 16
0.0
 26
0.0
 36
1.0
 17
0.0
 27
0.0
 37
0.0
 40
227.213691
 41
1.691288
 42
50.0
 43
0.0
 44
0.0
 50
0.0
 51
0.0
 71
     0
 72
   100
 73
     1
 74
     3
 75
     0
 76
     0
 77
     0
 78
     0
281
     0
 65
     1
110
0.0
120
0.0
130
0.0
111
1.0
121
0.0
131
0.0
112
0.0
122
1.0
132
0.0
 79
     0
146
0.0
  0
ENDTAB
  0
TABLE
  2
LTYPE
  5
5
330
0
100
AcDbSymbolTable
 70
     5
  0
LTYPE
  5
14
330
5
100
AcDbSymbolTableRecord
100
AcDbLinetypeTableRecord
  2
ByBlock
 70
     0
  3

 72
    65
 73
     0
 40
0.0
  0
LTYPE
  5
15
330
5
100
AcDbSymbolTableRecord
100
AcDbLinetypeTableRecord
  2
ByLayer
 70
     0
  3

 72
    65
 73
     0
 40
0.0
  0
LTYPE
  5
16
330
5
100
AcDbSymbolTableRecord
100
AcDbLinetypeTableRecord
  2
Continuous
 70
     0
  3
Solid line
 72
    65
 73
     0
 40
0.0
  0
LTYPE
  5
5D
330
5
100
AcDbSymbolTableRecord
100
AcDbLinetypeTableRecord
  2
DASHED
 70
     0
  3
DASHED
 72
    83
 73
     2
 40
0.75
 49
0.5
 74
     0
 49
-0.25
 74
     0
  0
LTYPE
  5
5E
330
5
100
AcDbSymbolTableRecord
100
AcDbLinetypeTableRecord
  2
HIDDEN
 70
     0
  3
HIDDEN
 72
    83
 73
     2
 40
0.375
 49
0.25
 74
     0
 49
-0.125
 74
     0
  0
LTYPE
  5
5F
330
5
100
AcDbSymbolTableRecord
100
AcDbLinetypeTableRecord
  2
CENTER
 70
     0
  3
CENTER
 72
    83
 73
     4
 40
2.0
 49
1.25
 74
     0
 49
-0.25
 74
     0
 49
0.25
 74
     0
 49
-0.25
 74
     0
  0
LTYPE
  5
60
330
5
100
AcDbSymbolTableRecord
100
AcDbLinetypeTableRecord
  2
PHANTOM
 70
     0
  3
PHANTOM
 72
    83
 73
     6
 40
2.5
 49
1.25
 74
     0
 49
-0.25
 74
     0
 49
0.25
 74
     0
 49
-0.25
 74
     0
 49
0.25
 74
     0
 49
-0.25
 74
     0
  0
ENDTAB
  0
TABLE
  2
LAYER
  5
2
330
0
100
AcDbSymbolTable
 70
     2
  0
LAYER
  5
10
330
2
100
AcDbSymbolTableRecord
100
AcDbLayerTableRecord
  2
0
 70
     0
 62
     7
  6
Continuous
370
    -3
390
F
  0
LAYER
  5
61
330
2
100
AcDbSymbolTableRecord
100
AcDbLayerTableRecord
  2
001
 70
     0
 62
     7
  6
Continuous
370
    -3
390
F
  0
ENDTAB
  0
TABLE
  2
STYLE
  5
3
330
0
100
AcDbSymbolTable
 70
     2
  0
STYLE
  5
11
330
3
100
AcDbSymbolTableRecord
100
AcDbTextStyleTableRecord
  2
Standard
 70
     0
 40
0.0
 41
1.0
 50
0.0
 71
     0
 42
0.2
  3
TXT
  4
BIGFONT
  0
STYLE
  5
62
330
3
100
AcDbSymbolTableRecord
100
AcDbTextStyleTableRecord
  2
TATEGAKI
 70
     4
 40
1.0
 41
1.0
 50
0.0
 71
     0
 42
0.2
  3
TXT
  4
BIGFONT
  0
ENDTAB
  0
TABLE
  2
VIEW
  5
6
330
0
100
AcDbSymbolTable
 70
     0
  0
ENDTAB
  0
TABLE
  2
UCS
  5
7
330
0
100
AcDbSymbolTable
 70
     0
  0
ENDTAB
  0
TABLE
  2
APPID
  5
9
330
0
100
AcDbSymbolTable
 70
     1
  0
APPID
  5
12
330
9
100
AcDbSymbolTableRecord
100
AcDbRegAppTableRecord
  2
ACAD
 70
     0
  0
ENDTAB
  0
TABLE
  2
DIMSTYLE
  5
A
330
0
100
AcDbSymbolTable
 70
     2
100
AcDbDimStyleTable
  0
DIMSTYLE
105
27
330
A
100
AcDbSymbolTableRecord
100
AcDbDimStyleTableRecord
  2
ISO-25
 70
     0
 41
2.5
 42
0.625
 43
3.75
 44
1.25
 73
     0
 74
     0
 77
     1
 78
     8
140
2.5
141
2.5
143
0.03937
147
0.625
171
     3
172
     1
271
     2
272
     2
274
     3
278
    44
283
     0
284
     8
340
11
  0
DIMSTYLE
105
63
102
{ACAD_REACTORS
330
FF
330
100
330
101
330
102
330
103
330
104
330
105
102
}
330
A
100
AcDbSymbolTableRecord
100
AcDbDimStyleTableRecord
  2
Standard
 70
     0
 41
1.5
 42
0.0
 44
2.75
 73
     0
 74
     0
 77
     1
 78
     8
 79
     2
140
4.0
146
0.8
147
1.0
172
     1
179
     1
271
     1
340
11
  0
ENDTAB
  0
TABLE
  2
BLOCK_RECORD
  5
1
330
0
100
AcDbSymbolTable
 70
     8
  0
BLOCK_RECORD
  5
1F
330
1
100
AcDbSymbolTableRecord
100
AcDbBlockTableRecord
  2
*Model_Space
340
22
  0
BLOCK_RECORD
  5
1B
330
1
100
AcDbSymbolTableRecord
100
AcDbBlockTableRecord
  2
*Paper_Space
340
1E
  0
BLOCK_RECORD
  5
23
330
1
100
AcDbSymbolTableRecord
100
AcDbBlockTableRecord
  2
*Paper_Space0
340
26
  0
BLOCK_RECORD
  5
64
330
1
100
AcDbSymbolTableRecord
100
AcDbBlockTableRecord
  2
*D1
340
0
  0
BLOCK_RECORD
  5
78
330
1
100
AcDbSymbolTableRecord
100
AcDbBlockTableRecord
  2
*D2
340
0
  0
BLOCK_RECORD
  5
8C
330
1
100
AcDbSymbolTableRecord
100
AcDbBlockTableRecord
  2
*D3
340
0
  0
BLOCK_RECORD
  5
A0
330
1
100
AcDbSymbolTableRecord
100
AcDbBlockTableRecord
  2
*D4
340
0
  0
BLOCK_RECORD
  5
B5
330
1
100
AcDbSymbolTableRecord
100
AcDbBlockTableRecord
  2
*D5
340
0
  0
BLOCK_RECORD
  5
CB
330
1
100
AcDbSymbolTableRecord
100
AcDbBlockTableRecord
  2
*D6
340
0
  0
BLOCK_RECORD
  5
DF
330
1
100
AcDbSymbolTableRecord
100
AcDbBlockTableRecord
  2
*D7
340
0
  0
ENDTAB
  0
ENDSEC
  0
SECTION
  2
BLOCKS
  0
BLOCK
  5
20
330
1F
100
AcDbEntity
  8
0
100
AcDbBlockBegin
  2
*Model_Space
 70
     0
 10
0.0
 20
0.0
 30
0.0
  3
*Model_Space
  1

  0
ENDBLK
  5
21
330
1F
100
AcDbEntity
  8
0
100
AcDbBlockEnd
  0
BLOCK
  5
1C
330
1B
100
AcDbEntity
 67
     1
  8
0
100
AcDbBlockBegin
  2
*Paper_Space
 70
     0
 10
0.0
 20
0.0
 30
0.0
  3
*Paper_Space
  1

  0
ENDBLK
  5
1D
330
1B
100
AcDbEntity
 67
     1
  8
0
100
AcDbBlockEnd
  0
BLOCK
  5
24
330
23
100
AcDbEntity
  8
0
100
AcDbBlockBegin
  2
*Paper_Space0
 70
     0
 10
0.0
 20
0.0
 30
0.0
  3
*Paper_Space0
  1

  0
ENDBLK
  5
25
330
23
100
AcDbEntity
  8
0
100
AcDbBlockEnd
  0
BLOCK
  5
65
330
64
100
AcDbEntity
  8
0
100
AcDbBlockBegin
  2
*D1
 70
     1
 10
0.0
 20
0.0
 30
0.0
  3
*D1
  1

  0
LINE
  5
67
330
64
100
AcDbEntity
  8
001
370
     9
100
AcDbLine
 10
78.974223
 20
74.205961
 30
0.0
 11
78.974223
 21
34.842672
 31
0.0
  0
LINE
  5
68
330
64
100
AcDbEntity
  8
001
370
     9
100
AcDbLine
 10
43.974223
 20
58.799079
 30
0.0
 11
43.974223
 21
34.842672
 31
0.0
  0
LINE
  5
69
330
64
100
AcDbEntity
  8
001
370
     9
100
AcDbLine
 10
78.974223
 20
37.592672
 30
0.0
 11
43.974223
 21
37.592672
 31
0.0
  0
POLYLINE
  5
6A
330
64
100
AcDbEntity
  8
001
370
     9
100
AcDb2dPolyline
 66
     1
 10
0.0
 20
0.0
 30
0.0
  0
VERTEX
  5
6C
330
6A
100
AcDbEntity
  8
001
370
     9
100
AcDbVertex
100
AcDb2dVertex
 10
77.474223
 20
37.994596
 30
0.0
  0
VERTEX
  5
6D
330
6A
100
AcDbEntity
  8
001
370
     9
100
AcDbVertex
100
AcDb2dVertex
 10
78.974223
 20
37.592672
 30
0.0
  0
VERTEX
  5
6E
330
6A
100
AcDbEntity
  8
001
370
     9
100
AcDbVertex
100
AcDb2dVertex
 10
77.474223
 20
37.190748
 30
0.0
  0
SEQEND
  5
6B
330
6A
100
AcDbEntity
  8
001
370
     9
  0
POLYLINE
  5
6F
330
64
100
AcDbEntity
  8
001
370
     9
100
AcDb2dPolyline
 66
     1
 10
0.0
 20
0.0
 30
0.0
  0
VERTEX
  5
71
330
6F
100
AcDbEntity
  8
001
370
     9
100
AcDbVertex
100
AcDb2dVertex
 10
45.474223
 20
37.190748
 30
0.0
  0
VERTEX
  5
72
330
6F
100
AcDbEntity
  8
001
370
     9
100
AcDbVertex
100
AcDb2dVertex
 10
43.974223
 20
37.592672
 30
0.0
  0
VERTEX
  5
73
330
6F
100
AcDbEntity
  8
001
370
     9
100
AcDbVertex
100
AcDb2dVertex
 10
45.474223
 20
37.994596
 30
0.0
  0
SEQEND
  5
70
330
6F
100
AcDbEntity
  8
001
370
     9
  0
TEXT
  5
74
330
64
100
AcDbEntity
  8
001
370
    30
100
AcDbText
 10
57.474223
 20
38.592672
 30
0.0
 40
4.0
  1
３５
 41
0.833333
100
AcDbText
  0
POINT
  5
75
330
64
100
AcDbEntity
  8
001
370
     9
100
AcDbPoint
 10
78.974223
 20
74.205961
 30
0.0
  0
POINT
  5
76
330
64
100
AcDbEntity
  8
001
370
     9
100
AcDbPoint
 10
43.974223
 20
58.799079
 30
0.0
  0
POINT
  5
77
330
64
100
AcDbEntity
  8
001
370
     9
100
AcDbPoint
 10
43.974223
 20
37.592672
 30
0.0
  0
ENDBLK
  5
66
330
64
100
AcDbEntity
  8
0
100
AcDbBlockEnd
  0
BLOCK
  5
79
330
78
100
AcDbEntity
  8
0
100
AcDbBlockBegin
  2
*D2
 70
     1
 10
0.0
 20
0.0
 30
0.0
  3
*D2
  1

  0
LINE
  5
7B
330
78
100
AcDbEntity
  8
001
370
     9
100
AcDbLine
 10
163.974223
 20
93.330316
 30
0.0
 11
163.974223
 21
34.842672
 31
0.0
  0
LINE
  5
7C
330
78
100
AcDbEntity
  8
001
370
     9
100
AcDbLine
 10
78.974223
 20
74.205961
 30
0.0
 11
78.974223
 21
34.842672
 31
0.0
  0
LINE
  5
7D
330
78
100
AcDbEntity
  8
001
370
     9
100
AcDbLine
 10
163.974223
 20
37.592672
 30
0.0
 11
78.974223
 21
37.592672
 31
0.0
  0
POLYLINE
  5
7E
330
78
100
AcDbEntity
  8
001
370
     9
100
AcDb2dPolyline
 66
     1
 10
0.0
 20
0.0
 30
0.0
  0
VERTEX
  5
80
330
7E
100
AcDbEntity
  8
001
370
     9
100
AcDbVertex
100
AcDb2dVertex
 10
162.474223
 20
37.994596
 30
0.0
  0
VERTEX
  5
81
330
7E
100
AcDbEntity
  8
001
370
     9
100
AcDbVertex
100
AcDb2dVertex
 10
163.974223
 20
37.592672
 30
0.0
  0
VERTEX
  5
82
330
7E
100
AcDbEntity
  8
001
370
     9
100
AcDbVertex
100
AcDb2dVertex
 10
162.474223
 20
37.190748
 30
0.0
  0
SEQEND
  5
7F
330
7E
100
AcDbEntity
  8
001
370
     9
  0
POLYLINE
  5
83
330
78
100
AcDbEntity
  8
001
370
     9
100
AcDb2dPolyline
 66
     1
 10
0.0
 20
0.0
 30
0.0
  0
VERTEX
  5
85
330
83
100
AcDbEntity
  8
001
370
     9
100
AcDbVertex
100
AcDb2dVertex
 10
80.474223
 20
37.190748
 30
0.0
  0
VERTEX
  5
86
330
83
100
AcDbEntity
  8
001
370
     9
100
AcDbVertex
100
AcDb2dVertex
 10
78.974223
 20
37.592672
 30
0.0
  0
VERTEX
  5
87
330
83
100
AcDbEntity
  8
001
370
     9
100
AcDbVertex
100
AcDb2dVertex
 10
80.474223
 20
37.994596
 30
0.0
  0
SEQEND
  5
84
330
83
100
AcDbEntity
  8
001
370
     9
  0
TEXT
  5
88
330
78
100
AcDbEntity
  8
001
370
    30
100
AcDbText
 10
117.474223
 20
38.592672
 30
0.0
 40
4.0
  1
８５
 41
0.833333
100
AcDbText
  0
POINT
  5
89
330
78
100
AcDbEntity
  8
001
370
     9
100
AcDbPoint
 10
163.974223
 20
93.330316
 30
0.0
  0
POINT
  5
8A
330
78
100
AcDbEntity
  8
001
370
     9
100
AcDbPoint
 10
78.974223
 20
74.205961
 30
0.0
  0
POINT
  5
8B
330
78
100
AcDbEntity
  8
001
370
     9
100
AcDbPoint
 10
78.974223
 20
37.592672
 30
0.0
  0
ENDBLK
  5
7A
330
78
100
AcDbEntity
  8
0
100
AcDbBlockEnd
  0
BLOCK
  5
8D
330
8C
100
AcDbEntity
  8
0
100
AcDbBlockBegin
  2
*D3
 70
     1
 10
0.0
 20
0.0
 30
0.0
  3
*D3
  1

  0
LINE
  5
8F
330
8C
100
AcDbEntity
  8
001
370
     9
100
AcDbLine
 10
43.974223
 20
58.799079
 30
0.0
 11
43.974223
 21
19.227919
 31
0.0
  0
LINE
  5
90
330
8C
100
AcDbEntity
  8
001
370
     9
100
AcDbLine
 10
163.974223
 20
93.330316
 30
0.0
 11
163.974223
 21
19.227919
 31
0.0
  0
LINE
  5
91
330
8C
100
AcDbEntity
  8
001
370
     9
100
AcDbLine
 10
43.974223
 20
21.977919
 30
0.0
 11
163.974223
 21
21.977919
 31
0.0
  0
POLYLINE
  5
92
330
8C
100
AcDbEntity
  8
001
370
     9
100
AcDb2dPolyline
 66
     1
 10
0.0
 20
0.0
 30
0.0
  0
VERTEX
  5
94
330
92
100
AcDbEntity
  8
001
370
     9
100
AcDbVertex
100
AcDb2dVertex
 10
45.474223
 20
21.575995
 30
0.0
  0
VERTEX
  5
95
330
92
100
AcDbEntity
  8
001
370
     9
100
AcDbVertex
100
AcDb2dVertex
 10
43.974223
 20
21.977919
 30
0.0
  0
VERTEX
  5
96
330
92
100
AcDbEntity
  8
001
370
     9
100
AcDbVertex
100
AcDb2dVertex
 10
45.474223
 20
22.379843
 30
0.0
  0
SEQEND
  5
93
330
92
100
AcDbEntity
  8
001
370
     9
  0
POLYLINE
  5
97
330
8C
100
AcDbEntity
  8
001
370
     9
100
AcDb2dPolyline
 66
     1
 10
0.0
 20
0.0
 30
0.0
  0
VERTEX
  5
99
330
97
100
AcDbEntity
  8
001
370
     9
100
AcDbVertex
100
AcDb2dVertex
 10
162.474223
 20
22.379843
 30
0.0
  0
VERTEX
  5
9A
330
97
100
AcDbEntity
  8
001
370
     9
100
AcDbVertex
100
AcDb2dVertex
 10
163.974223
 20
21.977919
 30
0.0
  0
VERTEX
  5
9B
330
97
100
AcDbEntity
  8
001
370
     9
100
AcDbVertex
100
AcDb2dVertex
 10
162.474223
 20
21.575995
 30
0.0
  0
SEQEND
  5
98
330
97
100
AcDbEntity
  8
001
370
     9
  0
TEXT
  5
9C
330
8C
100
AcDbEntity
  8
001
370
    30
100
AcDbText
 10
97.974223
 20
22.977919
 30
0.0
 40
4.0
  1
１２０
 41
0.833333
100
AcDbText
  0
POINT
  5
9D
330
8C
100
AcDbEntity
  8
001
370
     9
100
AcDbPoint
 10
43.974223
 20
58.799079
 30
0.0
  0
POINT
  5
9E
330
8C
100
AcDbEntity
  8
001
370
     9
100
AcDbPoint
 10
163.974223
 20
93.330316
 30
0.0
  0
POINT
  5
9F
330
8C
100
AcDbEntity
  8
001
370
     9
100
AcDbPoint
 10
163.974223
 20
21.977919
 30
0.0
  0
ENDBLK
  5
8E
330
8C
100
AcDbEntity
  8
0
100
AcDbBlockEnd
  0
BLOCK
  5
A1
330
A0
100
AcDbEntity
  8
0
100
AcDbBlockBegin
  2
*D4
 70
     1
 10
0.0
 20
0.0
 30
0.0
  3
*D4
  1

  0
LINE
  5
A3
330
A0
100
AcDbEntity
  8
001
370
     9
100
AcDbLine
 10
43.974223
 20
63.46503
 30
0.0
 11
43.974223
 21
53.20005
 31
0.0
  0
LINE
  5
A4
330
A0
100
AcDbEntity
  8
001
370
     9
100
AcDbLine
 10
36.306126
 20
71.330316
 30
0.0
 11
25.843956
 21
71.330316
 31
0.0
  0
ARC
  5
A5
330
A0
100
AcDbEntity
  8
001
370
     9
100
AcDbCircle
 10
43.974223
 20
71.330316
 30
0.0
 40
15.38026673650091
100
AcDbArc
 50
180.0
 51
270.0
  0
POLYLINE
  5
A6
330
A0
100
AcDbEntity
  8
001
370
     9
100
AcDb2dPolyline
 66
     1
 10
0.0
 20
0.0
 30
0.0
  0
VERTEX
  5
A8
330
A6
100
AcDbEntity
  8
001
370
     9
100
AcDbVertex
100
AcDb2dVertex
 10
42.495597
 20
56.424612
 30
0.0
  0
VERTEX
  5
A9
330
A6
100
AcDbEntity
  8
001
370
     9
100
AcDbVertex
100
AcDb2dVertex
 10
43.974223
 20
55.95005
 30
0.0
  0
VERTEX
  5
AA
330
A6
100
AcDbEntity
  8
001
370
     9
100
AcDbVertex
100
AcDb2dVertex
 10
42.456414
 20
55.62172
 30
0.0
  0
SEQEND
  5
A7
330
A6
100
AcDbEntity
  8
001
370
     9
  0
POLYLINE
  5
AB
330
A0
100
AcDbEntity
  8
001
370
     9
100
AcDb2dPolyline
 66
     1
 10
0.0
 20
0.0
 30
0.0
  0
VERTEX
  5
AD
330
AB
100
AcDbEntity
  8
001
370
     9
100
AcDbVertex
100
AcDb2dVertex
 10
28.265627
 20
69.812508
 30
0.0
  0
VERTEX
  5
AE
330
AB
100
AcDbEntity
  8
001
370
     9
100
AcDbVertex
100
AcDb2dVertex
 10
28.593956
 20
71.330316
 30
0.0
  0
VERTEX
  5
AF
330
AB
100
AcDbEntity
  8
001
370
     9
100
AcDbVertex
100
AcDb2dVertex
 10
29.068519
 20
69.851691
 30
0.0
  0
SEQEND
  5
AC
330
AB
100
AcDbEntity
  8
001
370
     9
  0
TEXT
  5
B0
330
A0
100
AcDbEntity
  8
001
370
    30
100
AcDbText
 10
29.563198
 20
65.404573
 30
0.0
 40
4.0
  1
９０%%d
 50
314.999992
 41
0.978261
100
AcDbText
  0
POINT
  5
B1
330
A0
100
AcDbEntity
  8
001
370
     9
100
AcDbPoint
 10
43.974223
 20
63.46503
 30
0.0
  0
POINT
  5
B2
330
A0
100
AcDbEntity
  8
001
370
     9
100
AcDbPoint
 10
43.974223
 20
71.330316
 30
0.0
  0
POINT
  5
B3
330
A0
100
AcDbEntity
  8
001
370
     9
100
AcDbPoint
 10
43.974223
 20
71.330316
 30
0.0
  0
POINT
  5
B4
330
A0
100
AcDbEntity
  8
001
370
     9
100
AcDbPoint
 10
36.306126
 20
71.330316
 30
0.0
  0
ENDBLK
  5
A2
330
A0
100
AcDbEntity
  8
0
100
AcDbBlockEnd
  0
BLOCK
  5
B6
330
B5
100
AcDbEntity
  8
0
100
AcDbBlockBegin
  2
*D5
 70
     1
 10
0.0
 20
0.0
 30
0.0
  3
*D5
  1

  0
LINE
  5
B8
330
B5
100
AcDbEntity
  8
001
370
     9
100
AcDbLine
 10
58.502773
 20
71.366255
 30
0.0
 11
58.502773
 21
52.117225
 31
0.0
  0
LINE
  5
B9
330
B5
100
AcDbEntity
  8
001
370
     9
100
AcDbLine
 10
43.974223
 20
63.46503
 30
0.0
 11
43.974223
 21
52.117225
 31
0.0
  0
LINE
  5
BA
330
B5
100
AcDbEntity
  8
001
370
     9
100
AcDbLine
 10
58.502773
 20
54.867225
 30
0.0
 11
43.974223
 21
54.867225
 31
0.0
  0
POLYLINE
  5
BB
330
B5
100
AcDbEntity
  8
001
370
     9
100
AcDb2dPolyline
 66
     1
 10
0.0
 20
0.0
 30
0.0
  0
VERTEX
  5
BD
330
BB
100
AcDbEntity
  8
001
370
     9
100
AcDbVertex
100
AcDb2dVertex
 10
60.002773
 20
54.465302
 30
0.0
  0
VERTEX
  5
BE
330
BB
100
AcDbEntity
  8
001
370
     9
100
AcDbVertex
100
AcDb2dVertex
 10
58.502773
 20
54.867225
 30
0.0
  0
VERTEX
  5
BF
330
BB
100
AcDbEntity
  8
001
370
     9
100
AcDbVertex
100
AcDb2dVertex
 10
60.002773
 20
55.269149
 30
0.0
  0
SEQEND
  5
BC
330
BB
100
AcDbEntity
  8
001
370
     9
  0
POLYLINE
  5
C0
330
B5
100
AcDbEntity
  8
001
370
     9
100
AcDb2dPolyline
 66
     1
 10
0.0
 20
0.0
 30
0.0
  0
VERTEX
  5
C2
330
C0
100
AcDbEntity
  8
001
370
     9
100
AcDbVertex
100
AcDb2dVertex
 10
42.474223
 20
55.269149
 30
0.0
  0
VERTEX
  5
C3
330
C0
100
AcDbEntity
  8
001
370
     9
100
AcDbVertex
100
AcDb2dVertex
 10
43.974223
 20
54.867225
 30
0.0
  0
VERTEX
  5
C4
330
C0
100
AcDbEntity
  8
001
370
     9
100
AcDbVertex
100
AcDb2dVertex
 10
42.474223
 20
54.465302
 30
0.0
  0
SEQEND
  5
C1
330
C0
100
AcDbEntity
  8
001
370
     9
  0
TEXT
  5
C5
330
B5
100
AcDbEntity
  8
001
370
    30
100
AcDbText
 10
63.870088
 20
55.867225
 30
0.0
 40
4.0
  1
（１４．５）
 41
0.833333
100
AcDbText
  0
POINT
  5
C6
330
B5
100
AcDbEntity
  8
001
370
     9
100
AcDbPoint
 10
58.502773
 20
71.366255
 30
0.0
  0
POINT
  5
C7
330
B5
100
AcDbEntity
  8
001
370
     9
100
AcDbPoint
 10
43.974223
 20
63.46503
 30
0.0
  0
POINT
  5
C8
330
B5
100
AcDbEntity
  8
001
370
     9
100
AcDbPoint
 10
43.974223
 20
54.867225
 30
0.0
  0
LINE
  5
C9
330
B5
100
AcDbEntity
  8
001
370
     9
100
AcDbLine
 10
58.502773
 20
54.867225
 30
0.0
 11
90.870088
 21
54.867225
 31
0.0
  0
LINE
  5
CA
330
B5
100
AcDbEntity
  8
001
370
     9
100
AcDbLine
 10
43.974223
 20
54.867225
 30
0.0
 11
41.474223
 21
54.867225
 31
0.0
  0
ENDBLK
  5
B7
330
B5
100
AcDbEntity
  8
0
100
AcDbBlockEnd
  0
BLOCK
  5
CC
330
CB
100
AcDbEntity
  8
0
100
AcDbBlockBegin
  2
*D6
 70
     1
 10
0.0
 20
0.0
 30
0.0
  3
*D6
  1

  0
LINE
  5
CE
330
CB
100
AcDbEntity
  8
001
370
     9
100
AcDbLine
 10
155.974223
 20
117.330316
 30
0.0
 11
189.193208
 21
117.330316
 31
0.0
  0
LINE
  5
CF
330
CB
100
AcDbEntity
  8
001
370
     9
100
AcDbLine
 10
155.974223
 20
85.330316
 30
0.0
 11
189.193208
 21
85.330316
 31
0.0
  0
LINE
  5
D0
330
CB
100
AcDbEntity
  8
001
370
     9
100
AcDbLine
 10
186.443208
 20
117.330316
 30
0.0
 11
186.443208
 21
85.330316
 31
0.0
  0
POLYLINE
  5
D1
330
CB
100
AcDbEntity
  8
001
370
     9
100
AcDb2dPolyline
 66
     1
 10
0.0
 20
0.0
 30
0.0
  0
VERTEX
  5
D3
330
D1
100
AcDbEntity
  8
001
370
     9
100
AcDbVertex
100
AcDb2dVertex
 10
186.041285
 20
115.830316
 30
0.0
  0
VERTEX
  5
D4
330
D1
100
AcDbEntity
  8
001
370
     9
100
AcDbVertex
100
AcDb2dVertex
 10
186.443208
 20
117.330316
 30
0.0
  0
VERTEX
  5
D5
330
D1
100
AcDbEntity
  8
001
370
     9
100
AcDbVertex
100
AcDb2dVertex
 10
186.845132
 20
115.830316
 30
0.0
  0
SEQEND
  5
D2
330
D1
100
AcDbEntity
  8
001
370
     9
  0
POLYLINE
  5
D6
330
CB
100
AcDbEntity
  8
001
370
     9
100
AcDb2dPolyline
 66
     1
 10
0.0
 20
0.0
 30
0.0
  0
VERTEX
  5
D8
330
D6
100
AcDbEntity
  8
001
370
     9
100
AcDbVertex
100
AcDb2dVertex
 10
186.845132
 20
86.830316
 30
0.0
  0
VERTEX
  5
D9
330
D6
100
AcDbEntity
  8
001
370
     9
100
AcDbVertex
100
AcDb2dVertex
 10
186.443208
 20
85.330316
 30
0.0
  0
VERTEX
  5
DA
330
D6
100
AcDbEntity
  8
001
370
     9
100
AcDbVertex
100
AcDb2dVertex
 10
186.041285
 20
86.830316
 30
0.0
  0
SEQEND
  5
D7
330
D6
100
AcDbEntity
  8
001
370
     9
  0
TEXT
  5
DB
330
CB
100
AcDbEntity
  8
001
370
    30
100
AcDbText
 10
185.443208
 20
95.330316
 30
0.0
 40
4.0
  1
%%c３２
 50
90.000003
 41
0.882353
100
AcDbText
  0
POINT
  5
DC
330
CB
100
AcDbEntity
  8
001
370
     9
100
AcDbPoint
 10
155.974223
 20
117.330316
 30
0.0
  0
POINT
  5
DD
330
CB
100
AcDbEntity
  8
001
370
     9
100
AcDbPoint
 10
155.974223
 20
85.330316
 30
0.0
  0
POINT
  5
DE
330
CB
100
AcDbEntity
  8
001
370
     9
100
AcDbPoint
 10
186.443208
 20
85.330316
 30
0.0
  0
ENDBLK
  5
CD
330
CB
100
AcDbEntity
  8
0
100
AcDbBlockEnd
  0
BLOCK
  5
E0
330
DF
100
AcDbEntity
  8
0
100
AcDbBlockBegin
  2
*D7
 70
     1
 10
0.0
 20
0.0
 30
0.0
  3
*D7
  1

  0
LINE
  5
E2
330
DF
100
AcDbEntity
  8
001
370
     9
100
AcDbLine
 10
155.974223
 20
-14.900427
 30
0.0
 11
189.521693
 21
-14.900427
 31
0.0
  0
LINE
  5
E3
330
DF
100
AcDbEntity
  8
001
370
     9
100
AcDbLine
 10
155.974223
 20
-56.900427
 30
0.0
 11
189.521693
 21
-56.900427
 31
0.0
  0
LINE
  5
E4
330
DF
100
AcDbEntity
  8
001
370
     9
100
AcDbLine
 10
186.771693
 20
-14.900427
 30
0.0
 11
186.771693
 21
-56.900427
 31
0.0
  0
POLYLINE
  5
E5
330
DF
100
AcDbEntity
  8
001
370
     9
100
AcDb2dPolyline
 66
     1
 10
0.0
 20
0.0
 30
0.0
  0
VERTEX
  5
E7
330
E5
100
AcDbEntity
  8
001
370
     9
100
AcDbVertex
100
AcDb2dVertex
 10
186.36977
 20
-16.400427
 30
0.0
  0
VERTEX
  5
E8
330
E5
100
AcDbEntity
  8
001
370
     9
100
AcDbVertex
100
AcDb2dVertex
 10
186.771693
 20
-14.900427
 30
0.0
  0
VERTEX
  5
E9
330
E5
100
AcDbEntity
  8
001
370
     9
100
AcDbVertex
100
AcDb2dVertex
 10
187.173617
 20
-16.400427
 30
0.0
  0
SEQEND
  5
E6
330
E5
100
AcDbEntity
  8
001
370
     9
  0
POLYLINE
  5
EA
330
DF
100
AcDbEntity
  8
001
370
     9
100
AcDb2dPolyline
 66
     1
 10
0.0
 20
0.0
 30
0.0
  0
VERTEX
  5
EC
330
EA
100
AcDbEntity
  8
001
370
     9
100
AcDbVertex
100
AcDb2dVertex
 10
187.173617
 20
-55.400427
 30
0.0
  0
VERTEX
  5
ED
330
EA
100
AcDbEntity
  8
001
370
     9
100
AcDbVertex
100
AcDb2dVertex
 10
186.771693
 20
-56.900427
 30
0.0
  0
VERTEX
  5
EE
330
EA
100
AcDbEntity
  8
001
370
     9
100
AcDbVertex
100
AcDb2dVertex
 10
186.36977
 20
-55.400427
 30
0.0
  0
SEQEND
  5
EB
330
EA
100
AcDbEntity
  8
001
370
     9
  0
TEXT
  5
EF
330
DF
100
AcDbEntity
  8
001
370
    30
100
AcDbText
 10
185.771693
 20
-41.900427
 30
0.0
 40
4.0
  1
%%c４２
 50
90.000003
 41
0.882353
100
AcDbText
  0
POINT
  5
F0
330
DF
100
AcDbEntity
  8
001
370
     9
100
AcDbPoint
 10
155.974223
 20
-14.900427
 30
0.0
  0
POINT
  5
F1
330
DF
100
AcDbEntity
  8
001
370
     9
100
AcDbPoint
 10
155.974223
 20
-56.900427
 30
0.0
  0
POINT
  5
F2
330
DF
100
AcDbEntity
  8
001
370
     9
100
AcDbPoint
 10
186.771693
 20
-56.900427
 30
0.0
  0
ENDBLK
  5
E1
330
DF
100
AcDbEntity
  8
0
100
AcDbBlockEnd
  0
ENDSEC
  0
SECTION
  2
ENTITIES
  0
TEXT
  5
F3
330
1F
100
AcDbEntity
  8
001
370
    30
100
AcDbText
 10
18.466562
 20
95.330316
 30
0.0
 40
4.0
  1
%%c６０
 50
90.000003
 41
0.882353
100
AcDbText
  0
POLYLINE
  5
F4
330
1F
100
AcDbEntity
  8
001
370
     9
100
AcDb2dPolyline
 66
     1
 10
0.0
 20
0.0
 30
0.0
  0
VERTEX
  5
F6
330
F4
100
AcDbEntity
  8
001
370
     9
100
AcDbVertex
100
AcDb2dVertex
 10
19.868486
 20
72.830316
 30
0.0
  0
VERTEX
  5
F7
330
F4
100
AcDbEntity
  8
001
370
     9
100
AcDbVertex
100
AcDb2dVertex
 10
19.466562
 20
71.330316
 30
0.0
  0
VERTEX
  5
F8
330
F4
100
AcDbEntity
  8
001
370
     9
100
AcDbVertex
100
AcDb2dVertex
 10
19.064638
 20
72.830316
 30
0.0
  0
SEQEND
  5
F5
330
F4
100
AcDbEntity
  8
001
370
     9
  0
LINE
  5
F9
330
1F
100
AcDbEntity
  8
001
370
     9
100
AcDbLine
 10
19.466562
 20
71.330316
 30
0.0
 11
19.466562
 21
131.330316
 31
0.0
  0
POLYLINE
  5
FA
330
1F
100
AcDbEntity
  8
001
370
     9
100
AcDb2dPolyline
 66
     1
 10
0.0
 20
0.0
 30
0.0
  0
VERTEX
  5
FC
330
FA
100
AcDbEntity
  8
001
370
     9
100
AcDbVertex
100
AcDb2dVertex
 10
33.139198
 20
71.330316
 30
0.0
  0
VERTEX
  5
FD
330
FA
100
AcDbEntity
  8
001
370
     9
100
AcDbVertex
100
AcDb2dVertex
 10
19.466562
 20
71.330316
 30
0.0
  0
VERTEX
  5
FE
330
FA
100
AcDbEntity
  8
001
370
     9
100
AcDbVertex
100
AcDb2dVertex
 10
16.716562
 20
71.330316
 30
0.0
  0
SEQEND
  5
FB
330
FA
100
AcDbEntity
  8
001
370
     9
  0
DIMENSION
  5
FF
330
1F
100
AcDbEntity
  8
001
370
     9
100
AcDbDimension
  2
*D1
 10
43.974223
 20
37.592672
 30
0.0
 11
61.474223
 21
40.592672
 31
0.0
 70
   160
 71
     5
 42
-1.0
  3
Standard
100
AcDbAlignedDimension
 13
78.974223
 23
74.205961
 33
0.0
 14
43.974223
 24
58.799079
 34
0.0
 50
180.0
100
AcDbRotatedDimension
  0
DIMENSION
  5
100
330
1F
100
AcDbEntity
  8
001
370
     9
100
AcDbDimension
  2
*D2
 10
78.974223
 20
37.592672
 30
0.0
 11
121.474223
 21
40.592672
 31
0.0
 70
   160
 71
     5
 42
-1.0
  3
Standard
100
AcDbAlignedDimension
 13
163.974223
 23
93.330316
 33
0.0
 14
78.974223
 24
74.205961
 34
0.0
 50
180.0
100
AcDbRotatedDimension
  0
DIMENSION
  5
101
330
1F
100
AcDbEntity
  8
001
370
     9
100
AcDbDimension
  2
*D3
 10
163.974223
 20
21.977919
 30
0.0
 11
103.974223
 21
24.977919
 31
0.0
 70
   160
 71
     5
 42
-1.0
  3
Standard
100
AcDbAlignedDimension
 13
43.974223
 23
58.799079
 33
0.0
 14
163.974223
 24
93.330316
 34
0.0
 50
360.0
100
AcDbRotatedDimension
  0
DIMENSION
  5
102
330
1F
100
AcDbEntity
  8
001
370
     9
100
AcDbDimension
  2
*D4
 10
43.974223
 20
71.330316
 30
0.0
 11
35.220052
 21
62.576145
 31
0.0
 70
    34
 71
     5
 42
-1.0
  3
Standard
100
AcDb2LineAngularDimension
 13
43.974223
 23
63.46503
 33
0.0
 14
43.974223
 24
71.330316
 34
0.0
 15
36.306126
 25
71.330316
 35
0.0
 16
33.098732
 26
60.454825
 36
0.0
  0
DIMENSION
  5
103
330
1F
100
AcDbEntity
  8
001
370
     9
100
AcDbDimension
  2
*D5
 10
43.974223
 20
54.867225
 30
0.0
 11
75.870088
 21
57.867225
 31
0.0
 70
   160
 71
     5
 42
-1.0
  3
Standard
100
AcDbAlignedDimension
 13
58.502773
 23
71.366255
 33
0.0
 14
43.974223
 24
63.46503
 34
0.0
 50
180.0
100
AcDbRotatedDimension
  0
DIMENSION
  5
104
330
1F
100
AcDbEntity
  8
001
370
     9
100
AcDbDimension
  2
*D6
 10
186.443208
 20
85.330316
 30
0.0
 11
183.443208
 21
101.330316
 31
0.0
 70
   160
 71
     5
 42
-1.0
  3
Standard
100
AcDbAlignedDimension
 13
155.974223
 23
117.330316
 33
0.0
 14
155.974223
 24
85.330316
 34
0.0
 50
270.0
100
AcDbRotatedDimension
  0
DIMENSION
  5
105
330
1F
100
AcDbEntity
  8
001
370
     9
100
AcDbDimension
  2
*D7
 10
186.771693
 20
-56.900427
 30
0.0
 11
183.771693
 21
-35.900427
 31
0.0
 70
   160
 71
     5
 42
-1.0
  3
Standard
100
AcDbAlignedDimension
 13
155.974223
 23
-14.900427
 33
0.0
 14
155.974223
 24
-56.900427
 34
0.0
 50
270.0
100
AcDbRotatedDimension
  0
TEXT
  5
106
330
1F
100
AcDbEntity
  8
001
370
    30
100
AcDbText
 10
-2.42594
 20
149.063627
 30
0.0
 40
10.0
  1
スカットカット　ＮＫ９０６０Ｔ　（３枚刃）
 41
0.833333
100
AcDbText
  0
LINE
  5
107
330
1F
100
AcDbEntity
  8
001
370
    50
100
AcDbLine
 10
55.592924
 20
121.967915
 30
0.0
 11
54.807182
 21
121.243102
 31
0.0
  0
LINE
  5
108
330
1F
100
AcDbEntity
  8
001
370
    50
100
AcDbLine
 10
55.668983
 20
121.307996
 30
0.0
 11
55.592924
 21
121.967915
 31
0.0
  0
LINE
  5
109
330
1F
100
AcDbEntity
  8
001
370
    50
100
AcDbLine
 10
62.747217
 20
121.225501
 30
0.0
 11
62.732249
 21
121.355373
 31
0.0
  0
LINE
  5
10A
330
1F
100
AcDbEntity
  8
001
370
    50
100
AcDbLine
 10
56.355348
 20
122.654149
 30
0.0
 11
55.592924
 21
121.967915
 31
0.0
  0
LINE
  5
10B
330
1F
100
AcDbEntity
  8
001
370
    50
100
AcDbLine
 10
56.355348
 20
122.654149
 30
0.0
 11
62.732249
 21
121.355373
 31
0.0
  0
LINE
  5
10C
330
1F
100
AcDbEntity
  8
001
370
    50
100
AcDbLine
 10
62.732249
 20
121.355373
 30
0.0
 11
62.802809
 21
121.229151
 31
0.0
  0
LINE
  5
10D
330
1F
100
AcDbEntity
  8
001
370
    50
100
AcDbLine
 10
45.174223
 20
115.214125
 30
0.0
 11
44.544247
 21
115.737147
 31
0.0
  0
POLYLINE
  5
10E
330
1F
100
AcDbEntity
  8
001
370
    50
100
AcDb2dPolyline
 66
     1
 10
0.0
 20
0.0
 30
0.0
  0
VERTEX
  5
110
330
10E
100
AcDbEntity
  8
001
370
    50
100
AcDbVertex
100
AcDb2dVertex
 10
44.44828
 20
115.896955
 30
0.0
  0
VERTEX
  5
111
330
10E
100
AcDbEntity
  8
001
370
    50
100
AcDbVertex
100
AcDb2dVertex
 10
44.454987
 20
115.868074
 30
0.0
  0
VERTEX
  5
112
330
10E
100
AcDbEntity
  8
001
370
    50
100
AcDbVertex
100
AcDb2dVertex
 10
44.468118
 20
115.83019
 30
0.0
  0
VERTEX
  5
113
330
10E
100
AcDbEntity
  8
001
370
    50
100
AcDbVertex
100
AcDb2dVertex
 10
44.486155
 20
115.797326
 30
0.0
  0
VERTEX
  5
114
330
10E
100
AcDbEntity
  8
001
370
    50
100
AcDbVertex
100
AcDb2dVertex
 10
44.511319
 20
115.768216
 30
0.0
  0
VERTEX
  5
115
330
10E
100
AcDbEntity
  8
001
370
    50
100
AcDbVertex
100
AcDb2dVertex
 10
44.530153
 20
115.749877
 30
0.0
  0
VERTEX
  5
116
330
10E
100
AcDbEntity
  8
001
370
    50
100
AcDbVertex
100
AcDb2dVertex
 10
44.544247
 20
115.737147
 30
0.0
  0
SEQEND
  5
10F
330
10E
100
AcDbEntity
  8
001
370
    50
  0
LINE
  5
117
330
1F
100
AcDbEntity
  8
001
370
    50
100
AcDbLine
 10
45.25457
 20
116.386281
 30
0.0
 11
58.930524
 21
117.416096
 31
0.0
  0
POLYLINE
  5
118
330
1F
100
AcDbEntity
  8
001
370
    50
100
AcDb2dPolyline
 66
     1
 10
0.0
 20
0.0
 30
0.0
  0
VERTEX
  5
11A
330
118
100
AcDbEntity
  8
001
370
    50
100
AcDbVertex
100
AcDb2dVertex
 10
59.433011
 20
117.36152
 30
0.0
  0
VERTEX
  5
11B
330
118
100
AcDbEntity
  8
001
370
    50
100
AcDbVertex
100
AcDb2dVertex
 10
59.363887
 20
117.381134
 30
0.0
  0
VERTEX
  5
11C
330
118
100
AcDbEntity
  8
001
370
    50
100
AcDbVertex
100
AcDb2dVertex
 10
59.268232
 20
117.402997
 30
0.0
  0
VERTEX
  5
11D
330
118
100
AcDbEntity
  8
001
370
    50
100
AcDbVertex
100
AcDb2dVertex
 10
59.139672
 20
117.420274
 30
0.0
  0
VERTEX
  5
11E
330
118
100
AcDbEntity
  8
001
370
    50
100
AcDbVertex
100
AcDb2dVertex
 10
59.00544
 20
117.419943
 30
0.0
  0
VERTEX
  5
11F
330
118
100
AcDbEntity
  8
001
370
    50
100
AcDbVertex
100
AcDb2dVertex
 10
58.961572
 20
117.41792
 30
0.0
  0
VERTEX
  5
120
330
118
100
AcDbEntity
  8
001
370
    50
100
AcDbVertex
100
AcDb2dVertex
 10
58.930524
 20
117.416096
 30
0.0
  0
SEQEND
  5
119
330
118
100
AcDbEntity
  8
001
370
    50
  0
POLYLINE
  5
121
330
1F
100
AcDbEntity
  8
001
370
    50
100
AcDb2dPolyline
 66
     1
 10
0.0
 20
0.0
 30
0.0
  0
VERTEX
  5
123
330
121
100
AcDbEntity
  8
001
370
    50
100
AcDbVertex
100
AcDb2dVertex
 10
45.25457
 20
116.386281
 30
0.0
  0
VERTEX
  5
124
330
121
100
AcDbEntity
  8
001
370
    50
100
AcDbVertex
100
AcDb2dVertex
 10
45.228526
 20
116.384006
 30
0.0
  0
VERTEX
  5
125
330
121
100
AcDbEntity
  8
001
370
    50
100
AcDbVertex
100
AcDb2dVertex
 10
45.191828
 20
116.380304
 30
0.0
  0
VERTEX
  5
126
330
121
100
AcDbEntity
  8
001
370
    50
100
AcDbVertex
100
AcDb2dVertex
 10
45.119232
 20
116.370615
 30
0.0
  0
VERTEX
  5
127
330
121
100
AcDbEntity
  8
001
370
    50
100
AcDbVertex
100
AcDb2dVertex
 10
45.055546
 20
116.358556
 30
0.0
  0
VERTEX
  5
128
330
121
100
AcDbEntity
  8
001
370
    50
100
AcDbVertex
100
AcDb2dVertex
 10
44.930709
 20
116.326533
 30
0.0
  0
VERTEX
  5
129
330
121
100
AcDbEntity
  8
001
370
    50
100
AcDbVertex
100
AcDb2dVertex
 10
44.803499
 20
116.282272
 30
0.0
  0
VERTEX
  5
12A
330
121
100
AcDbEntity
  8
001
370
    50
100
AcDbVertex
100
AcDb2dVertex
 10
44.656033
 20
116.208937
 30
0.0
  0
VERTEX
  5
12B
330
121
100
AcDbEntity
  8
001
370
    50
100
AcDbVertex
100
AcDb2dVertex
 10
44.531341
 20
116.105354
 30
0.0
  0
VERTEX
  5
12C
330
121
100
AcDbEntity
  8
001
370
    50
100
AcDbVertex
100
AcDb2dVertex
 10
44.504039
 20
116.071812
 30
0.0
  0
VERTEX
  5
12D
330
121
100
AcDbEntity
  8
001
370
    50
100
AcDbVertex
100
AcDb2dVertex
 10
44.48038
 20
116.03666
 30
0.0
  0
VERTEX
  5
12E
330
121
100
AcDbEntity
  8
001
370
    50
100
AcDbVertex
100
AcDb2dVertex
 10
44.463617
 20
116.004294
 30
0.0
  0
VERTEX
  5
12F
330
121
100
AcDbEntity
  8
001
370
    50
100
AcDbVertex
100
AcDb2dVertex
 10
44.45241
 20
115.966483
 30
0.0
  0
VERTEX
  5
130
330
121
100
AcDbEntity
  8
001
370
    50
100
AcDbVertex
100
AcDb2dVertex
 10
44.448042
 20
115.926301
 30
0.0
  0
VERTEX
  5
131
330
121
100
AcDbEntity
  8
001
370
    50
100
AcDbVertex
100
AcDb2dVertex
 10
44.44828
 20
115.896955
 30
0.0
  0
SEQEND
  5
122
330
121
100
AcDbEntity
  8
001
370
    50
  0
POLYLINE
  5
132
330
1F
100
AcDbEntity
  8
001
370
    50
100
AcDb2dPolyline
 66
     1
 10
0.0
 20
0.0
 30
0.0
  0
VERTEX
  5
134
330
132
100
AcDbEntity
  8
001
370
    50
100
AcDbVertex
100
AcDb2dVertex
 10
44.781808
 20
120.48818
 30
0.0
  0
VERTEX
  5
135
330
132
100
AcDbEntity
  8
001
370
    50
100
AcDbVertex
100
AcDb2dVertex
 10
44.755764
 20
120.485904
 30
0.0
  0
VERTEX
  5
136
330
132
100
AcDbEntity
  8
001
370
    50
100
AcDbVertex
100
AcDb2dVertex
 10
44.719066
 20
120.482203
 30
0.0
  0
VERTEX
  5
137
330
132
100
AcDbEntity
  8
001
370
    50
100
AcDbVertex
100
AcDb2dVertex
 10
44.64647
 20
120.472514
 30
0.0
  0
VERTEX
  5
138
330
132
100
AcDbEntity
  8
001
370
    50
100
AcDbVertex
100
AcDb2dVertex
 10
44.582784
 20
120.460455
 30
0.0
  0
VERTEX
  5
139
330
132
100
AcDbEntity
  8
001
370
    50
100
AcDbVertex
100
AcDb2dVertex
 10
44.457947
 20
120.428431
 30
0.0
  0
VERTEX
  5
13A
330
132
100
AcDbEntity
  8
001
370
    50
100
AcDbVertex
100
AcDb2dVertex
 10
44.330737
 20
120.384171
 30
0.0
  0
VERTEX
  5
13B
330
132
100
AcDbEntity
  8
001
370
    50
100
AcDbVertex
100
AcDb2dVertex
 10
44.183271
 20
120.310836
 30
0.0
  0
VERTEX
  5
13C
330
132
100
AcDbEntity
  8
001
370
    50
100
AcDbVertex
100
AcDb2dVertex
 10
44.058579
 20
120.207253
 30
0.0
  0
VERTEX
  5
13D
330
132
100
AcDbEntity
  8
001
370
    50
100
AcDbVertex
100
AcDb2dVertex
 10
44.031277
 20
120.173711
 30
0.0
  0
VERTEX
  5
13E
330
132
100
AcDbEntity
  8
001
370
    50
100
AcDbVertex
100
AcDb2dVertex
 10
44.007618
 20
120.138558
 30
0.0
  0
VERTEX
  5
13F
330
132
100
AcDbEntity
  8
001
370
    50
100
AcDbVertex
100
AcDb2dVertex
 10
43.990855
 20
120.106193
 30
0.0
  0
VERTEX
  5
140
330
132
100
AcDbEntity
  8
001
370
    50
100
AcDbVertex
100
AcDb2dVertex
 10
43.979648
 20
120.068381
 30
0.0
  0
VERTEX
  5
141
330
132
100
AcDbEntity
  8
001
370
    50
100
AcDbVertex
100
AcDb2dVertex
 10
43.97528
 20
120.028199
 30
0.0
  0
VERTEX
  5
142
330
132
100
AcDbEntity
  8
001
370
    50
100
AcDbVertex
100
AcDb2dVertex
 10
43.975518
 20
119.998854
 30
0.0
  0
SEQEND
  5
133
330
132
100
AcDbEntity
  8
001
370
    50
  0
LINE
  5
143
330
1F
100
AcDbEntity
  8
001
370
    50
100
AcDbLine
 10
43.975518
 20
119.998854
 30
0.0
 11
44.44828
 21
115.896955
 31
0.0
  0
LINE
  5
144
330
1F
100
AcDbEntity
  8
001
370
    50
100
AcDbLine
 10
44.781808
 20
120.48818
 30
0.0
 11
58.457762
 21
121.517994
 31
0.0
  0
LINE
  5
145
330
1F
100
AcDbEntity
  8
001
370
    50
100
AcDbLine
 10
59.670596
 20
117.379256
 30
0.0
 11
59.22903
 21
121.210488
 31
0.0
  0
POLYLINE
  5
146
330
1F
100
AcDbEntity
  8
001
370
    50
100
AcDb2dPolyline
 66
     1
 10
0.0
 20
0.0
 30
0.0
  0
VERTEX
  5
148
330
146
100
AcDbEntity
  8
001
370
    50
100
AcDbVertex
100
AcDb2dVertex
 10
59.22903
 20
121.210488
 30
0.0
  0
VERTEX
  5
149
330
146
100
AcDbEntity
  8
001
370
    50
100
AcDbVertex
100
AcDb2dVertex
 10
59.222591
 20
121.239119
 30
0.0
  0
VERTEX
  5
14A
330
146
100
AcDbEntity
  8
001
370
    50
100
AcDbVertex
100
AcDb2dVertex
 10
59.209192
 20
121.277254
 30
0.0
  0
VERTEX
  5
14B
330
146
100
AcDbEntity
  8
001
370
    50
100
AcDbVertex
100
AcDb2dVertex
 10
59.189652
 20
121.311522
 30
0.0
  0
VERTEX
  5
14C
330
146
100
AcDbEntity
  8
001
370
    50
100
AcDbVertex
100
AcDb2dVertex
 10
59.165991
 20
121.339228
 30
0.0
  0
VERTEX
  5
14D
330
146
100
AcDbEntity
  8
001
370
    50
100
AcDbVertex
100
AcDb2dVertex
 10
59.13507
 20
121.368088
 30
0.0
  0
VERTEX
  5
14E
330
146
100
AcDbEntity
  8
001
370
    50
100
AcDbVertex
100
AcDb2dVertex
 10
59.100738
 20
121.394528
 30
0.0
  0
VERTEX
  5
14F
330
146
100
AcDbEntity
  8
001
370
    50
100
AcDbVertex
100
AcDb2dVertex
 10
58.952386
 20
121.466709
 30
0.0
  0
VERTEX
  5
150
330
146
100
AcDbEntity
  8
001
370
    50
100
AcDbVertex
100
AcDb2dVertex
 10
58.79547
 20
121.504896
 30
0.0
  0
VERTEX
  5
151
330
146
100
AcDbEntity
  8
001
370
    50
100
AcDbVertex
100
AcDb2dVertex
 10
58.67261
 20
121.520114
 30
0.0
  0
VERTEX
  5
152
330
146
100
AcDbEntity
  8
001
370
    50
100
AcDbVertex
100
AcDb2dVertex
 10
58.532678
 20
121.521842
 30
0.0
  0
VERTEX
  5
153
330
146
100
AcDbEntity
  8
001
370
    50
100
AcDbVertex
100
AcDb2dVertex
 10
58.488648
 20
121.519877
 30
0.0
  0
VERTEX
  5
154
330
146
100
AcDbEntity
  8
001
370
    50
100
AcDbVertex
100
AcDb2dVertex
 10
58.457762
 20
121.517994
 30
0.0
  0
SEQEND
  5
147
330
146
100
AcDbEntity
  8
001
370
    50
  0
ARC
  5
155
330
1F
100
AcDbEntity
  8
001
370
    50
100
AcDbCircle
 10
58.530936
 20
117.256731
 30
0.0
 40
5.3
100
AcDbArc
 50
54.832291
 51
102.143895
  0
LINE
  5
156
330
1F
100
AcDbEntity
  8
001
370
    50
100
AcDbLine
 10
60.973041
 20
85.467525
 30
0.0
 11
58.254499
 21
86.199576
 31
0.0
  0
LINE
  5
157
330
1F
100
AcDbEntity
  8
001
370
    50
100
AcDbLine
 10
63.46068
 20
81.137398
 30
0.0
 11
60.973041
 21
85.467525
 31
0.0
  0
LINE
  5
158
330
1F
100
AcDbEntity
  8
001
370
    50
100
AcDbLine
 10
62.732249
 20
78.405347
 30
0.0
 11
63.46068
 21
81.137398
 31
0.0
  0
LINE
  5
159
330
1F
100
AcDbEntity
  8
001
370
    50
100
AcDbLine
 10
56.355348
 20
74.705347
 30
0.0
 11
60.491716
 21
77.105347
 31
0.0
  0
LINE
  5
15A
330
1F
100
AcDbEntity
  8
001
370
    50
100
AcDbLine
 10
60.491716
 20
77.105347
 30
0.0
 11
62.732249
 21
78.405347
 31
0.0
  0
LINE
  5
15B
330
1F
100
AcDbEntity
  8
001
370
    50
100
AcDbLine
 10
51.877598
 20
82.499576
 30
0.0
 11
56.355348
 21
74.705347
 31
0.0
  0
LINE
  5
15C
330
1F
100
AcDbEntity
  8
001
370
    50
100
AcDbLine
 10
58.254499
 20
86.199576
 30
0.0
 11
56.013966
 21
84.899576
 31
0.0
  0
LINE
  5
15D
330
1F
100
AcDbEntity
  8
001
370
    50
100
AcDbLine
 10
56.013966
 20
84.899576
 30
0.0
 11
51.877598
 21
82.499576
 31
0.0
  0
LINE
  5
15E
330
1F
100
AcDbEntity
  8
001
370
    50
100
AcDbLine
 10
63.758639
 20
81.137398
 30
0.0
 11
63.46068
 21
81.137398
 31
0.0
  0
LINE
  5
15F
330
1F
100
AcDbEntity
  8
001
370
    50
100
AcDbLine
 10
63.030208
 20
78.405347
 30
0.0
 11
63.758639
 21
81.137398
 31
0.0
  0
LINE
  5
160
330
1F
100
AcDbEntity
  8
001
370
    50
100
AcDbLine
 10
63.030208
 20
78.405347
 30
0.0
 11
62.980548
 21
78.405347
 31
0.0
  0
LINE
  5
161
330
1F
100
AcDbEntity
  8
001
370
    50
100
AcDbLine
 10
62.980548
 20
78.405347
 30
0.0
 11
62.732249
 21
78.405347
 31
0.0
  0
LINE
  5
162
330
1F
100
AcDbEntity
  8
001
370
    50
100
AcDbLine
 10
61.271
 20
85.467525
 30
0.0
 11
60.973041
 21
85.467525
 31
0.0
  0
LINE
  5
163
330
1F
100
AcDbEntity
  8
001
370
    50
100
AcDbLine
 10
63.758639
 20
81.137398
 30
0.0
 11
61.271
 21
85.467525
 31
0.0
  0
LINE
  5
164
330
1F
100
AcDbEntity
  8
001
370
    50
100
AcDbLine
 10
56.86217
 20
74.855347
 30
0.0
 11
62.980548
 21
78.405347
 31
0.0
  0
LINE
  5
165
330
1F
100
AcDbEntity
  8
001
370
    50
100
AcDbLine
 10
56.91183
 20
74.855347
 30
0.0
 11
56.86217
 21
74.855347
 31
0.0
  0
LINE
  5
166
330
1F
100
AcDbEntity
  8
001
370
    50
100
AcDbLine
 10
55.791563
 20
74.205347
 30
0.0
 11
56.91183
 21
74.855347
 31
0.0
  0
LINE
  5
167
330
1F
100
AcDbEntity
  8
001
370
    50
100
AcDbLine
 10
55.791563
 20
74.205347
 30
0.0
 11
55.592924
 21
74.205347
 31
0.0
  0
LINE
  5
168
330
1F
100
AcDbEntity
  8
001
370
    50
100
AcDbLine
 10
56.355348
 20
74.705347
 30
0.0
 11
55.592924
 21
74.205347
 31
0.0
  0
LINE
  5
169
330
1F
100
AcDbEntity
  8
001
370
    50
100
AcDbLine
 10
58.502798
 20
86.199576
 30
0.0
 11
58.254499
 21
86.199576
 31
0.0
  0
LINE
  5
16A
330
1F
100
AcDbEntity
  8
001
370
    50
100
AcDbLine
 10
58.552458
 20
86.199576
 30
0.0
 11
58.502798
 21
86.199576
 31
0.0
  0
LINE
  5
16B
330
1F
100
AcDbEntity
  8
001
370
    50
100
AcDbLine
 10
61.271
 20
85.467525
 30
0.0
 11
58.552458
 21
86.199576
 31
0.0
  0
LINE
  5
16C
330
1F
100
AcDbEntity
  8
001
370
    50
100
AcDbLine
 10
55.592924
 20
74.205347
 30
0.0
 11
54.332972
 21
74.571372
 31
0.0
  0
LINE
  5
16D
330
1F
100
AcDbEntity
  8
001
370
    50
100
AcDbLine
 10
54.332972
 20
74.571372
 30
0.0
 11
50.850278
 21
80.63355
 31
0.0
  0
LINE
  5
16E
330
1F
100
AcDbEntity
  8
001
370
    50
100
AcDbLine
 10
50.850278
 20
80.63355
 30
0.0
 11
51.115174
 21
81.999576
 31
0.0
  0
LINE
  5
16F
330
1F
100
AcDbEntity
  8
001
370
    50
100
AcDbLine
 10
51.115174
 20
81.999576
 30
0.0
 11
51.877598
 21
82.499576
 31
0.0
  0
LINE
  5
170
330
1F
100
AcDbEntity
  8
001
370
    50
100
AcDbLine
 10
56.91183
 20
74.855347
 30
0.0
 11
56.899415
 21
74.876957
 31
0.0
  0
POLYLINE
  5
171
330
1F
100
AcDbEntity
  8
001
370
    50
100
AcDb2dPolyline
 66
     1
 10
0.0
 20
0.0
 30
0.0
  0
VERTEX
  5
173
330
171
100
AcDbEntity
  8
001
370
    50
100
AcDbVertex
100
AcDb2dVertex
 10
56.013966
 20
84.899576
 30
0.0
  0
VERTEX
  5
174
330
171
100
AcDbEntity
  8
001
370
    50
100
AcDbVertex
100
AcDb2dVertex
 10
55.242332
 20
84.272747
 30
0.0
  0
VERTEX
  5
175
330
171
100
AcDbEntity
  8
001
370
    50
100
AcDbVertex
100
AcDb2dVertex
 10
54.374996
 20
83.252461
 30
0.0
  0
VERTEX
  5
176
330
171
100
AcDbEntity
  8
001
370
    50
100
AcDbVertex
100
AcDb2dVertex
 10
54.022898
 20
82.527703
 30
0.0
  0
VERTEX
  5
177
330
171
100
AcDbEntity
  8
001
370
    50
100
AcDbVertex
100
AcDb2dVertex
 10
53.843118
 20
81.783878
 30
0.0
  0
VERTEX
  5
178
330
171
100
AcDbEntity
  8
001
370
    50
100
AcDbVertex
100
AcDb2dVertex
 10
53.794288
 20
81.395766
 30
0.0
  0
VERTEX
  5
179
330
171
100
AcDbEntity
  8
001
370
    50
100
AcDbVertex
100
AcDb2dVertex
 10
53.775091
 20
81.002461
 30
0.0
  0
VERTEX
  5
17A
330
171
100
AcDbEntity
  8
001
370
    50
100
AcDbVertex
100
AcDb2dVertex
 10
53.791454
 20
80.610039
 30
0.0
  0
VERTEX
  5
17B
330
171
100
AcDbEntity
  8
001
370
    50
100
AcDbVertex
100
AcDb2dVertex
 10
53.843118
 20
80.221045
 30
0.0
  0
VERTEX
  5
17C
330
171
100
AcDbEntity
  8
001
370
    50
100
AcDbVertex
100
AcDb2dVertex
 10
54.045421
 20
79.464948
 30
0.0
  0
VERTEX
  5
17D
330
171
100
AcDbEntity
  8
001
370
    50
100
AcDbVertex
100
AcDb2dVertex
 10
54.374996
 20
78.752461
 30
0.0
  0
VERTEX
  5
17E
330
171
100
AcDbEntity
  8
001
370
    50
100
AcDbVertex
100
AcDb2dVertex
 10
55.083889
 20
77.821752
 30
0.0
  0
VERTEX
  5
17F
330
171
100
AcDbEntity
  8
001
370
    50
100
AcDbVertex
100
AcDb2dVertex
 10
56.013966
 20
77.105347
 30
0.0
  0
VERTEX
  5
180
330
171
100
AcDbEntity
  8
001
370
    50
100
AcDbVertex
100
AcDb2dVertex
 10
56.365632
 20
76.923745
 30
0.0
  0
VERTEX
  5
181
330
171
100
AcDbEntity
  8
001
370
    50
100
AcDbVertex
100
AcDb2dVertex
 10
56.72136
 20
76.773845
 30
0.0
  0
VERTEX
  5
182
330
171
100
AcDbEntity
  8
001
370
    50
100
AcDbVertex
100
AcDb2dVertex
 10
57.07705
 20
76.655914
 30
0.0
  0
VERTEX
  5
183
330
171
100
AcDbEntity
  8
001
370
    50
100
AcDbVertex
100
AcDb2dVertex
 10
57.475288
 20
76.570826
 30
0.0
  0
VERTEX
  5
184
330
171
100
AcDbEntity
  8
001
370
    50
100
AcDbVertex
100
AcDb2dVertex
 10
57.924622
 20
76.519578
 30
0.0
  0
VERTEX
  5
185
330
171
100
AcDbEntity
  8
001
370
    50
100
AcDbVertex
100
AcDb2dVertex
 10
58.252841
 20
76.502461
 30
0.0
  0
SEQEND
  5
172
330
171
100
AcDbEntity
  8
001
370
    50
  0
POLYLINE
  5
186
330
1F
100
AcDbEntity
  8
001
370
    50
100
AcDb2dPolyline
 66
     1
 10
0.0
 20
0.0
 30
0.0
  0
VERTEX
  5
188
330
186
100
AcDbEntity
  8
001
370
    50
100
AcDbVertex
100
AcDb2dVertex
 10
58.252841
 20
76.502461
 30
0.0
  0
VERTEX
  5
189
330
186
100
AcDbEntity
  8
001
370
    50
100
AcDbVertex
100
AcDb2dVertex
 10
58.58106
 20
76.519578
 30
0.0
  0
VERTEX
  5
18A
330
186
100
AcDbEntity
  8
001
370
    50
100
AcDbVertex
100
AcDb2dVertex
 10
59.030394
 20
76.570826
 30
0.0
  0
VERTEX
  5
18B
330
186
100
AcDbEntity
  8
001
370
    50
100
AcDbVertex
100
AcDb2dVertex
 10
59.42863
 20
76.655915
 30
0.0
  0
VERTEX
  5
18C
330
186
100
AcDbEntity
  8
001
370
    50
100
AcDbVertex
100
AcDb2dVertex
 10
59.784322
 20
76.773845
 30
0.0
  0
VERTEX
  5
18D
330
186
100
AcDbEntity
  8
001
370
    50
100
AcDbVertex
100
AcDb2dVertex
 10
60.140059
 20
76.92374
 30
0.0
  0
VERTEX
  5
18E
330
186
100
AcDbEntity
  8
001
370
    50
100
AcDbVertex
100
AcDb2dVertex
 10
60.491716
 20
77.105347
 30
0.0
  0
VERTEX
  5
18F
330
186
100
AcDbEntity
  8
001
370
    50
100
AcDbVertex
100
AcDb2dVertex
 10
61.421626
 20
77.82185
 30
0.0
  0
VERTEX
  5
190
330
186
100
AcDbEntity
  8
001
370
    50
100
AcDbVertex
100
AcDb2dVertex
 10
62.130686
 20
78.752461
 30
0.0
  0
VERTEX
  5
191
330
186
100
AcDbEntity
  8
001
370
    50
100
AcDbVertex
100
AcDb2dVertex
 10
62.460678
 20
79.464703
 30
0.0
  0
VERTEX
  5
192
330
186
100
AcDbEntity
  8
001
370
    50
100
AcDbVertex
100
AcDb2dVertex
 10
62.662564
 20
80.221045
 30
0.0
  0
VERTEX
  5
193
330
186
100
AcDbEntity
  8
001
370
    50
100
AcDbVertex
100
AcDb2dVertex
 10
62.71361
 20
80.610401
 30
0.0
  0
VERTEX
  5
194
330
186
100
AcDbEntity
  8
001
370
    50
100
AcDbVertex
100
AcDb2dVertex
 10
62.730591
 20
81.002461
 30
0.0
  0
VERTEX
  5
195
330
186
100
AcDbEntity
  8
001
370
    50
100
AcDbVertex
100
AcDb2dVertex
 10
62.713518
 20
81.394521
 30
0.0
  0
VERTEX
  5
196
330
186
100
AcDbEntity
  8
001
370
    50
100
AcDbVertex
100
AcDb2dVertex
 10
62.662564
 20
81.783878
 30
0.0
  0
VERTEX
  5
197
330
186
100
AcDbEntity
  8
001
370
    50
100
AcDbVertex
100
AcDb2dVertex
 10
62.461408
 20
82.540227
 30
0.0
  0
VERTEX
  5
198
330
186
100
AcDbEntity
  8
001
370
    50
100
AcDbVertex
100
AcDb2dVertex
 10
62.130686
 20
83.252461
 30
0.0
  0
VERTEX
  5
199
330
186
100
AcDbEntity
  8
001
370
    50
100
AcDbVertex
100
AcDb2dVertex
 10
61.416492
 20
84.183024
 30
0.0
  0
VERTEX
  5
19A
330
186
100
AcDbEntity
  8
001
370
    50
100
AcDbVertex
100
AcDb2dVertex
 10
60.491716
 20
84.899576
 30
0.0
  0
VERTEX
  5
19B
330
186
100
AcDbEntity
  8
001
370
    50
100
AcDbVertex
100
AcDb2dVertex
 10
60.145179
 20
85.081232
 30
0.0
  0
VERTEX
  5
19C
330
186
100
AcDbEntity
  8
001
370
    50
100
AcDbVertex
100
AcDb2dVertex
 10
59.784322
 20
85.231078
 30
0.0
  0
VERTEX
  5
19D
330
186
100
AcDbEntity
  8
001
370
    50
100
AcDbVertex
100
AcDb2dVertex
 10
59.411575
 20
85.348843
 30
0.0
  0
VERTEX
  5
19E
330
186
100
AcDbEntity
  8
001
370
    50
100
AcDbVertex
100
AcDb2dVertex
 10
59.030394
 20
85.434096
 30
0.0
  0
VERTEX
  5
19F
330
186
100
AcDbEntity
  8
001
370
    50
100
AcDbVertex
100
AcDb2dVertex
 10
58.644136
 20
85.485951
 30
0.0
  0
VERTEX
  5
1A0
330
186
100
AcDbEntity
  8
001
370
    50
100
AcDbVertex
100
AcDb2dVertex
 10
58.252841
 20
85.502461
 30
0.0
  0
VERTEX
  5
1A1
330
186
100
AcDbEntity
  8
001
370
    50
100
AcDbVertex
100
AcDb2dVertex
 10
57.858719
 20
85.483084
 30
0.0
  0
VERTEX
  5
1A2
330
186
100
AcDbEntity
  8
001
370
    50
100
AcDbVertex
100
AcDb2dVertex
 10
57.475288
 20
85.434096
 30
0.0
  0
VERTEX
  5
1A3
330
186
100
AcDbEntity
  8
001
370
    50
100
AcDbVertex
100
AcDb2dVertex
 10
57.108248
 20
85.357447
 30
0.0
  0
VERTEX
  5
1A4
330
186
100
AcDbEntity
  8
001
370
    50
100
AcDbVertex
100
AcDb2dVertex
 10
56.72136
 20
85.231078
 30
0.0
  0
VERTEX
  5
1A5
330
186
100
AcDbEntity
  8
001
370
    50
100
AcDbVertex
100
AcDb2dVertex
 10
56.306727
 20
85.049662
 30
0.0
  0
VERTEX
  5
1A6
330
186
100
AcDbEntity
  8
001
370
    50
100
AcDbVertex
100
AcDb2dVertex
 10
56.013966
 20
84.899576
 30
0.0
  0
SEQEND
  5
187
330
186
100
AcDbEntity
  8
001
370
    50
  0
LINE
  5
1A7
330
1F
100
AcDbEntity
  8
001
370
    50
100
AcDbLine
 10
45.174223
 20
114.631942
 30
0.0
 11
44.544247
 21
115.263875
 31
0.0
  0
POLYLINE
  5
1A8
330
1F
100
AcDbEntity
  8
001
370
    50
100
AcDb2dPolyline
 66
     1
 10
0.0
 20
0.0
 30
0.0
  0
VERTEX
  5
1AA
330
1A8
100
AcDbEntity
  8
001
370
    50
100
AcDbVertex
100
AcDb2dVertex
 10
44.44828
 20
115.485729
 30
0.0
  0
VERTEX
  5
1AB
330
1A8
100
AcDbEntity
  8
001
370
    50
100
AcDbVertex
100
AcDb2dVertex
 10
44.447961
 20
115.456453
 30
0.0
  0
VERTEX
  5
1AC
330
1A8
100
AcDbEntity
  8
001
370
    50
100
AcDbVertex
100
AcDb2dVertex
 10
44.45241
 20
115.416202
 30
0.0
  0
VERTEX
  5
1AD
330
1A8
100
AcDbEntity
  8
001
370
    50
100
AcDbVertex
100
AcDb2dVertex
 10
44.464069
 20
115.378002
 30
0.0
  0
VERTEX
  5
1AE
330
1A8
100
AcDbEntity
  8
001
370
    50
100
AcDbVertex
100
AcDb2dVertex
 10
44.48038
 20
115.346025
 30
0.0
  0
VERTEX
  5
1AF
330
1A8
100
AcDbEntity
  8
001
370
    50
100
AcDbVertex
100
AcDb2dVertex
 10
44.501976
 20
115.312641
 30
0.0
  0
VERTEX
  5
1B0
330
1A8
100
AcDbEntity
  8
001
370
    50
100
AcDbVertex
100
AcDb2dVertex
 10
44.531341
 20
115.27733
 30
0.0
  0
VERTEX
  5
1B1
330
1A8
100
AcDbEntity
  8
001
370
    50
100
AcDbVertex
100
AcDb2dVertex
 10
44.538897
 20
115.269359
 30
0.0
  0
VERTEX
  5
1B2
330
1A8
100
AcDbEntity
  8
001
370
    50
100
AcDbVertex
100
AcDb2dVertex
 10
44.544247
 20
115.263875
 30
0.0
  0
SEQEND
  5
1A9
330
1A8
100
AcDbEntity
  8
001
370
    50
  0
LINE
  5
1B3
330
1F
100
AcDbEntity
  8
001
370
    50
100
AcDbLine
 10
45.174223
 20
110.055812
 30
0.0
 11
44.071485
 21
111.161977
 31
0.0
  0
POLYLINE
  5
1B4
330
1F
100
AcDbEntity
  8
001
370
    50
100
AcDb2dPolyline
 66
     1
 10
0.0
 20
0.0
 30
0.0
  0
VERTEX
  5
1B6
330
1B4
100
AcDbEntity
  8
001
370
    50
100
AcDbVertex
100
AcDb2dVertex
 10
44.604331
 20
115.687264
 30
0.0
  0
VERTEX
  5
1B7
330
1B4
100
AcDbEntity
  8
001
370
    50
100
AcDbVertex
100
AcDb2dVertex
 10
44.592743
 20
115.680196
 30
0.0
  0
VERTEX
  5
1B8
330
1B4
100
AcDbEntity
  8
001
370
    50
100
AcDbVertex
100
AcDb2dVertex
 10
44.576572
 20
115.669769
 30
0.0
  0
VERTEX
  5
1B9
330
1B4
100
AcDbEntity
  8
001
370
    50
100
AcDbVertex
100
AcDb2dVertex
 10
44.540159
 20
115.642257
 30
0.0
  0
VERTEX
  5
1BA
330
1B4
100
AcDbEntity
  8
001
370
    50
100
AcDbVertex
100
AcDb2dVertex
 10
44.511319
 20
115.614469
 30
0.0
  0
VERTEX
  5
1BB
330
1B4
100
AcDbEntity
  8
001
370
    50
100
AcDbVertex
100
AcDb2dVertex
 10
44.488115
 20
115.586998
 30
0.0
  0
VERTEX
  5
1BC
330
1B4
100
AcDbEntity
  8
001
370
    50
100
AcDbVertex
100
AcDb2dVertex
 10
44.468118
 20
115.552495
 30
0.0
  0
VERTEX
  5
1BD
330
1B4
100
AcDbEntity
  8
001
370
    50
100
AcDbVertex
100
AcDb2dVertex
 10
44.454638
 20
115.514318
 30
0.0
  0
VERTEX
  5
1BE
330
1B4
100
AcDbEntity
  8
001
370
    50
100
AcDbVertex
100
AcDb2dVertex
 10
44.44828
 20
115.485729
 30
0.0
  0
SEQEND
  5
1B5
330
1B4
100
AcDbEntity
  8
001
370
    50
  0
LINE
  5
1BF
330
1F
100
AcDbEntity
  8
001
370
    50
100
AcDbLine
 10
44.44828
 20
115.485729
 30
0.0
 11
43.975518
 21
111.383831
 31
0.0
  0
POLYLINE
  5
1C0
330
1F
100
AcDbEntity
  8
001
370
    50
100
AcDb2dPolyline
 66
     1
 10
0.0
 20
0.0
 30
0.0
  0
VERTEX
  5
1C2
330
1C0
100
AcDbEntity
  8
001
370
    50
100
AcDbVertex
100
AcDb2dVertex
 10
43.975518
 20
111.383831
 30
0.0
  0
VERTEX
  5
1C3
330
1C0
100
AcDbEntity
  8
001
370
    50
100
AcDbVertex
100
AcDb2dVertex
 10
43.975199
 20
111.354554
 30
0.0
  0
VERTEX
  5
1C4
330
1C0
100
AcDbEntity
  8
001
370
    50
100
AcDbVertex
100
AcDb2dVertex
 10
43.979648
 20
111.314303
 30
0.0
  0
VERTEX
  5
1C5
330
1C0
100
AcDbEntity
  8
001
370
    50
100
AcDbVertex
100
AcDb2dVertex
 10
43.991307
 20
111.276103
 30
0.0
  0
VERTEX
  5
1C6
330
1C0
100
AcDbEntity
  8
001
370
    50
100
AcDbVertex
100
AcDb2dVertex
 10
44.007618
 20
111.244126
 30
0.0
  0
VERTEX
  5
1C7
330
1C0
100
AcDbEntity
  8
001
370
    50
100
AcDbVertex
100
AcDb2dVertex
 10
44.029214
 20
111.210742
 30
0.0
  0
VERTEX
  5
1C8
330
1C0
100
AcDbEntity
  8
001
370
    50
100
AcDbVertex
100
AcDb2dVertex
 10
44.058579
 20
111.175431
 30
0.0
  0
VERTEX
  5
1C9
330
1C0
100
AcDbEntity
  8
001
370
    50
100
AcDbVertex
100
AcDb2dVertex
 10
44.066135
 20
111.167461
 30
0.0
  0
VERTEX
  5
1CA
330
1C0
100
AcDbEntity
  8
001
370
    50
100
AcDbVertex
100
AcDb2dVertex
 10
44.071485
 20
111.161977
 30
0.0
  0
SEQEND
  5
1C1
330
1C0
100
AcDbEntity
  8
001
370
    50
  0
LINE
  5
1CB
330
1F
100
AcDbEntity
  8
001
370
    50
100
AcDbLine
 10
71.974223
 20
72.330316
 30
0.0
 11
78.974223
 21
74.205961
 31
0.0
  0
LINE
  5
1CC
330
1F
100
AcDbEntity
  8
001
370
    50
100
AcDbLine
 10
78.974223
 20
128.454672
 30
0.0
 11
71.974223
 21
130.330316
 31
0.0
  0
LINE
  5
1CD
330
1F
100
AcDbEntity
  8
001
370
    50
100
AcDbLine
 10
78.974223
 20
128.454672
 30
0.0
 11
78.974223
 21
74.205961
 31
0.0
  0
LINE
  5
1CE
330
1F
100
AcDbEntity
  8
001
370
    50
100
AcDbLine
 10
71.974223
 20
130.330316
 30
0.0
 11
71.974223
 21
72.330316
 31
0.0
  0
POLYLINE
  5
1CF
330
1F
100
AcDbEntity
  8
001
370
    50
100
AcDb2dPolyline
 66
     1
 10
0.0
 20
0.0
 30
0.0
  0
VERTEX
  5
1D1
330
1CF
100
AcDbEntity
  8
001
370
    50
100
AcDbVertex
100
AcDb2dVertex
 10
67.09073
 20
130.330316
 30
0.0
  0
VERTEX
  5
1D2
330
1CF
100
AcDbEntity
  8
001
370
    50
100
AcDbVertex
100
AcDb2dVertex
 10
67.088209
 20
130.330264
 30
0.0
  0
VERTEX
  5
1D3
330
1CF
100
AcDbEntity
  8
001
370
    50
100
AcDbVertex
100
AcDb2dVertex
 10
67.084541
 20
130.330049
 30
0.0
  0
VERTEX
  5
1D4
330
1CF
100
AcDbEntity
  8
001
370
    50
100
AcDbVertex
100
AcDb2dVertex
 10
67.053928
 20
130.320165
 30
0.0
  0
VERTEX
  5
1D5
330
1CF
100
AcDbEntity
  8
001
370
    50
100
AcDbVertex
100
AcDb2dVertex
 10
67.035049
 20
130.307283
 30
0.0
  0
SEQEND
  5
1D0
330
1CF
100
AcDbEntity
  8
001
370
    50
  0
LINE
  5
1D6
330
1F
100
AcDbEntity
  8
001
370
    50
100
AcDbLine
 10
71.974223
 20
130.330316
 30
0.0
 11
67.09073
 21
130.330316
 31
0.0
  0
LINE
  5
1D7
330
1F
100
AcDbEntity
  8
001
370
    50
100
AcDbLine
 10
63.353437
 20
72.330316
 30
0.0
 11
71.974223
 21
72.330316
 31
0.0
  0
POLYLINE
  5
1D8
330
1F
100
AcDbEntity
  8
001
370
    50
100
AcDb2dPolyline
 66
     1
 10
0.0
 20
0.0
 30
0.0
  0
VERTEX
  5
1DA
330
1D8
100
AcDbEntity
  8
001
370
    50
100
AcDbVertex
100
AcDb2dVertex
 10
67.035049
 20
130.307283
 30
0.0
  0
VERTEX
  5
1DB
330
1D8
100
AcDbEntity
  8
001
370
    50
100
AcDbVertex
100
AcDb2dVertex
 10
67.087192
 20
130.292802
 30
0.0
  0
VERTEX
  5
1DC
330
1D8
100
AcDbEntity
  8
001
370
    50
100
AcDbVertex
100
AcDb2dVertex
 10
67.138183
 20
130.274359
 30
0.0
  0
VERTEX
  5
1DD
330
1D8
100
AcDbEntity
  8
001
370
    50
100
AcDbVertex
100
AcDb2dVertex
 10
67.177789
 20
130.253734
 30
0.0
  0
VERTEX
  5
1DE
330
1D8
100
AcDbEntity
  8
001
370
    50
100
AcDbVertex
100
AcDb2dVertex
 10
67.2127
 20
130.226607
 30
0.0
  0
VERTEX
  5
1DF
330
1D8
100
AcDbEntity
  8
001
370
    50
100
AcDbVertex
100
AcDb2dVertex
 10
67.233571
 20
130.202943
 30
0.0
  0
VERTEX
  5
1E0
330
1D8
100
AcDbEntity
  8
001
370
    50
100
AcDbVertex
100
AcDb2dVertex
 10
67.252433
 20
130.177306
 30
0.0
  0
SEQEND
  5
1D9
330
1D8
100
AcDbEntity
  8
001
370
    50
  0
POLYLINE
  5
1E1
330
1F
100
AcDbEntity
  8
001
370
    50
100
AcDb2dPolyline
 66
     1
 10
0.0
 20
0.0
 30
0.0
  0
VERTEX
  5
1E3
330
1E1
100
AcDbEntity
  8
001
370
    50
100
AcDbVertex
100
AcDb2dVertex
 10
67.182486
 20
125.139693
 30
0.0
  0
VERTEX
  5
1E4
330
1E1
100
AcDbEntity
  8
001
370
    50
100
AcDbVertex
100
AcDb2dVertex
 10
66.406007
 20
125.090718
 30
0.0
  0
VERTEX
  5
1E5
330
1E1
100
AcDbEntity
  8
001
370
    50
100
AcDbVertex
100
AcDb2dVertex
 10
65.271168
 20
125.018914
 30
0.0
  0
VERTEX
  5
1E6
330
1E1
100
AcDbEntity
  8
001
370
    50
100
AcDbVertex
100
AcDb2dVertex
 10
64.132509
 20
124.946551
 30
0.0
  0
VERTEX
  5
1E7
330
1E1
100
AcDbEntity
  8
001
370
    50
100
AcDbVertex
100
AcDb2dVertex
 10
63.353437
 20
124.896886
 30
0.0
  0
SEQEND
  5
1E2
330
1E1
100
AcDbEntity
  8
001
370
    50
  0
LINE
  5
1E8
330
1F
100
AcDbEntity
  8
001
370
    50
100
AcDbLine
 10
63.353437
 20
73.122825
 30
0.0
 11
63.353437
 21
72.330316
 31
0.0
  0
POLYLINE
  5
1E9
330
1F
100
AcDbEntity
  8
001
370
    50
100
AcDb2dPolyline
 66
     1
 10
0.0
 20
0.0
 30
0.0
  0
VERTEX
  5
1EB
330
1E9
100
AcDbEntity
  8
001
370
    50
100
AcDbVertex
100
AcDb2dVertex
 10
63.353437
 20
73.122825
 30
0.0
  0
VERTEX
  5
1EC
330
1E9
100
AcDbEntity
  8
001
370
    50
100
AcDbVertex
100
AcDb2dVertex
 10
64.475459
 20
73.149825
 30
0.0
  0
VERTEX
  5
1ED
330
1E9
100
AcDbEntity
  8
001
370
    50
100
AcDbVertex
100
AcDb2dVertex
 10
66.115318
 20
73.190057
 30
0.0
  0
VERTEX
  5
1EE
330
1E9
100
AcDbEntity
  8
001
370
    50
100
AcDbVertex
100
AcDb2dVertex
 10
67.751201
 20
73.231263
 30
0.0
  0
VERTEX
  5
1EF
330
1E9
100
AcDbEntity
  8
001
370
    50
100
AcDbVertex
100
AcDb2dVertex
 10
68.870476
 20
73.259983
 30
0.0
  0
SEQEND
  5
1EA
330
1E9
100
AcDbEntity
  8
001
370
    50
  0
POLYLINE
  5
1F0
330
1F
100
AcDbEntity
  8
001
370
    50
100
AcDb2dPolyline
 66
     1
 10
0.0
 20
0.0
 30
0.0
  0
VERTEX
  5
1F2
330
1F0
100
AcDbEntity
  8
001
370
    50
100
AcDbVertex
100
AcDb2dVertex
 10
67.252433
 20
84.330316
 30
0.0
  0
VERTEX
  5
1F3
330
1F0
100
AcDbEntity
  8
001
370
    50
100
AcDbVertex
100
AcDb2dVertex
 10
67.377577
 20
82.861722
 30
0.0
  0
VERTEX
  5
1F4
330
1F0
100
AcDbEntity
  8
001
370
    50
100
AcDbVertex
100
AcDb2dVertex
 10
67.587454
 20
80.755717
 30
0.0
  0
VERTEX
  5
1F5
330
1F0
100
AcDbEntity
  8
001
370
    50
100
AcDbVertex
100
AcDb2dVertex
 10
67.854267
 20
78.408327
 30
0.0
  0
VERTEX
  5
1F6
330
1F0
100
AcDbEntity
  8
001
370
    50
100
AcDbVertex
100
AcDb2dVertex
 10
68.150222
 20
76.21558
 30
0.0
  0
VERTEX
  5
1F7
330
1F0
100
AcDbEntity
  8
001
370
    50
100
AcDbVertex
100
AcDb2dVertex
 10
68.328404
 20
75.191829
 30
0.0
  0
VERTEX
  5
1F8
330
1F0
100
AcDbEntity
  8
001
370
    50
100
AcDbVertex
100
AcDb2dVertex
 10
68.607508
 20
74.07923
 30
0.0
  0
VERTEX
  5
1F9
330
1F0
100
AcDbEntity
  8
001
370
    50
100
AcDbVertex
100
AcDb2dVertex
 10
68.755433
 20
73.597788
 30
0.0
  0
VERTEX
  5
1FA
330
1F0
100
AcDbEntity
  8
001
370
    50
100
AcDbVertex
100
AcDb2dVertex
 10
68.870476
 20
73.259983
 30
0.0
  0
SEQEND
  5
1F1
330
1F0
100
AcDbEntity
  8
001
370
    50
  0
POLYLINE
  5
1FB
330
1F
100
AcDbEntity
  8
001
370
    50
100
AcDb2dPolyline
 66
     1
 10
0.0
 20
0.0
 30
0.0
  0
VERTEX
  5
1FD
330
1FB
100
AcDbEntity
  8
001
370
    50
100
AcDbVertex
100
AcDb2dVertex
 10
67.035049
 20
85.84105
 30
0.0
  0
VERTEX
  5
1FE
330
1FB
100
AcDbEntity
  8
001
370
    50
100
AcDbVertex
100
AcDb2dVertex
 10
67.108359
 20
85.462369
 30
0.0
  0
VERTEX
  5
1FF
330
1FB
100
AcDbEntity
  8
001
370
    50
100
AcDbVertex
100
AcDb2dVertex
 10
67.171469
 20
85.082225
 30
0.0
  0
VERTEX
  5
200
330
1FB
100
AcDbEntity
  8
001
370
    50
100
AcDbVertex
100
AcDb2dVertex
 10
67.216858
 20
84.706975
 30
0.0
  0
VERTEX
  5
201
330
1FB
100
AcDbEntity
  8
001
370
    50
100
AcDbVertex
100
AcDb2dVertex
 10
67.252433
 20
84.330316
 30
0.0
  0
SEQEND
  5
1FC
330
1FB
100
AcDbEntity
  8
001
370
    50
  0
POLYLINE
  5
202
330
1F
100
AcDbEntity
  8
001
370
    50
100
AcDb2dPolyline
 66
     1
 10
0.0
 20
0.0
 30
0.0
  0
VERTEX
  5
204
330
202
100
AcDbEntity
  8
001
370
    50
100
AcDbVertex
100
AcDb2dVertex
 10
68.354013
 20
103.634947
 30
0.0
  0
VERTEX
  5
205
330
202
100
AcDbEntity
  8
001
370
    50
100
AcDbVertex
100
AcDb2dVertex
 10
67.340525
 20
103.74648
 30
0.0
  0
VERTEX
  5
206
330
202
100
AcDbEntity
  8
001
370
    50
100
AcDbVertex
100
AcDb2dVertex
 10
65.85923
 20
103.909107
 30
0.0
  0
VERTEX
  5
207
330
202
100
AcDbEntity
  8
001
370
    50
100
AcDbVertex
100
AcDb2dVertex
 10
64.371433
 20
104.071907
 30
0.0
  0
VERTEX
  5
208
330
202
100
AcDbEntity
  8
001
370
    50
100
AcDbVertex
100
AcDb2dVertex
 10
63.353437
 20
104.183035
 30
0.0
  0
SEQEND
  5
203
330
202
100
AcDbEntity
  8
001
370
    50
  0
LINE
  5
209
330
1F
100
AcDbEntity
  8
001
370
    50
100
AcDbLine
 10
63.353437
 20
121.265278
 30
0.0
 11
63.353437
 21
104.183035
 31
0.0
  0
POLYLINE
  5
20A
330
1F
100
AcDbEntity
  8
001
370
    50
100
AcDb2dPolyline
 66
     1
 10
0.0
 20
0.0
 30
0.0
  0
VERTEX
  5
20C
330
20A
100
AcDbEntity
  8
001
370
    50
100
AcDbVertex
100
AcDb2dVertex
 10
68.870476
 20
121.673597
 30
0.0
  0
VERTEX
  5
20D
330
20A
100
AcDbEntity
  8
001
370
    50
100
AcDbVertex
100
AcDb2dVertex
 10
67.751181
 20
121.591204
 30
0.0
  0
VERTEX
  5
20E
330
20A
100
AcDbEntity
  8
001
370
    50
100
AcDbVertex
100
AcDb2dVertex
 10
66.115318
 20
121.470402
 30
0.0
  0
VERTEX
  5
20F
330
20A
100
AcDbEntity
  8
001
370
    50
100
AcDbVertex
100
AcDb2dVertex
 10
64.47544
 20
121.348765
 30
0.0
  0
VERTEX
  5
210
330
20A
100
AcDbEntity
  8
001
370
    50
100
AcDbVertex
100
AcDb2dVertex
 10
63.353437
 20
121.265278
 30
0.0
  0
SEQEND
  5
20B
330
20A
100
AcDbEntity
  8
001
370
    50
  0
POLYLINE
  5
211
330
1F
100
AcDbEntity
  8
001
370
    50
100
AcDb2dPolyline
 66
     1
 10
0.0
 20
0.0
 30
0.0
  0
VERTEX
  5
213
330
211
100
AcDbEntity
  8
001
370
    50
100
AcDbVertex
100
AcDb2dVertex
 10
68.870476
 20
121.673597
 30
0.0
  0
VERTEX
  5
214
330
211
100
AcDbEntity
  8
001
370
    50
100
AcDbVertex
100
AcDb2dVertex
 10
68.58365
 20
123.72883
 30
0.0
  0
VERTEX
  5
215
330
211
100
AcDbEntity
  8
001
370
    50
100
AcDbVertex
100
AcDb2dVertex
 10
68.139475
 20
126.507062
 30
0.0
  0
VERTEX
  5
216
330
211
100
AcDbEntity
  8
001
370
    50
100
AcDbVertex
100
AcDb2dVertex
 10
67.928299
 20
127.615428
 30
0.0
  0
VERTEX
  5
217
330
211
100
AcDbEntity
  8
001
370
    50
100
AcDbVertex
100
AcDb2dVertex
 10
67.72741
 20
128.623726
 30
0.0
  0
VERTEX
  5
218
330
211
100
AcDbEntity
  8
001
370
    50
100
AcDbVertex
100
AcDb2dVertex
 10
67.59689
 20
129.230438
 30
0.0
  0
VERTEX
  5
219
330
211
100
AcDbEntity
  8
001
370
    50
100
AcDbVertex
100
AcDb2dVertex
 10
67.372167
 20
129.911094
 30
0.0
  0
VERTEX
  5
21A
330
211
100
AcDbEntity
  8
001
370
    50
100
AcDbVertex
100
AcDb2dVertex
 10
67.304591
 20
130.069325
 30
0.0
  0
VERTEX
  5
21B
330
211
100
AcDbEntity
  8
001
370
    50
100
AcDbVertex
100
AcDb2dVertex
 10
67.252433
 20
130.177306
 30
0.0
  0
SEQEND
  5
212
330
211
100
AcDbEntity
  8
001
370
    50
  0
POLYLINE
  5
21C
330
1F
100
AcDbEntity
  8
001
370
    50
100
AcDb2dPolyline
 66
     1
 10
0.0
 20
0.0
 30
0.0
  0
VERTEX
  5
21E
330
21C
100
AcDbEntity
  8
001
370
    50
100
AcDbVertex
100
AcDb2dVertex
 10
68.354013
 20
103.634947
 30
0.0
  0
VERTEX
  5
21F
330
21C
100
AcDbEntity
  8
001
370
    50
100
AcDbVertex
100
AcDb2dVertex
 10
68.27342
 20
102.732929
 30
0.0
  0
VERTEX
  5
220
330
21C
100
AcDbEntity
  8
001
370
    50
100
AcDbVertex
100
AcDb2dVertex
 10
68.160995
 20
101.454798
 30
0.0
  0
VERTEX
  5
221
330
21C
100
AcDbEntity
  8
001
370
    50
100
AcDbVertex
100
AcDb2dVertex
 10
67.932738
 20
98.752853
 30
0.0
  0
VERTEX
  5
222
330
21C
100
AcDbEntity
  8
001
370
    50
100
AcDbVertex
100
AcDb2dVertex
 10
67.746446
 20
96.417156
 30
0.0
  0
VERTEX
  5
223
330
21C
100
AcDbEntity
  8
001
370
    50
100
AcDbVertex
100
AcDb2dVertex
 10
67.582834
 20
94.286191
 30
0.0
  0
VERTEX
  5
224
330
21C
100
AcDbEntity
  8
001
370
    50
100
AcDbVertex
100
AcDb2dVertex
 10
67.422272
 20
92.071783
 30
0.0
  0
VERTEX
  5
225
330
21C
100
AcDbEntity
  8
001
370
    50
100
AcDbVertex
100
AcDb2dVertex
 10
67.261427
 20
89.660337
 30
0.0
  0
VERTEX
  5
226
330
21C
100
AcDbEntity
  8
001
370
    50
100
AcDbVertex
100
AcDb2dVertex
 10
67.096966
 20
86.938254
 30
0.0
  0
VERTEX
  5
227
330
21C
100
AcDbEntity
  8
001
370
    50
100
AcDbVertex
100
AcDb2dVertex
 10
67.060093
 20
86.289635
 30
0.0
  0
VERTEX
  5
228
330
21C
100
AcDbEntity
  8
001
370
    50
100
AcDbVertex
100
AcDb2dVertex
 10
67.035049
 20
85.84105
 30
0.0
  0
SEQEND
  5
21D
330
21C
100
AcDbEntity
  8
001
370
    50
  0
POLYLINE
  5
229
330
1F
100
AcDbEntity
  8
001
370
    50
100
AcDb2dPolyline
 66
     1
 10
0.0
 20
0.0
 30
0.0
  0
VERTEX
  5
22B
330
229
100
AcDbEntity
  8
001
370
    50
100
AcDbVertex
100
AcDb2dVertex
 10
60.187804
 20
117.417831
 30
0.0
  0
VERTEX
  5
22C
330
229
100
AcDbEntity
  8
001
370
    50
100
AcDbVertex
100
AcDb2dVertex
 10
58.50433
 20
117.292027
 30
0.0
  0
VERTEX
  5
22D
330
229
100
AcDbEntity
  8
001
370
    50
100
AcDbVertex
100
AcDb2dVertex
 10
56.043928
 20
117.107359
 30
0.0
  0
VERTEX
  5
22E
330
229
100
AcDbEntity
  8
001
370
    50
100
AcDbVertex
100
AcDb2dVertex
 10
53.195133
 20
116.892323
 30
0.0
  0
VERTEX
  5
22F
330
229
100
AcDbEntity
  8
001
370
    50
100
AcDbVertex
100
AcDb2dVertex
 10
50.331523
 20
116.674586
 30
0.0
  0
VERTEX
  5
230
330
229
100
AcDbEntity
  8
001
370
    50
100
AcDbVertex
100
AcDb2dVertex
 10
47.858486
 20
116.485488
 30
0.0
  0
VERTEX
  5
231
330
229
100
AcDbEntity
  8
001
370
    50
100
AcDbVertex
100
AcDb2dVertex
 10
46.166449
 20
116.355561
 30
0.0
  0
SEQEND
  5
22A
330
229
100
AcDbEntity
  8
001
370
    50
  0
POLYLINE
  5
232
330
1F
100
AcDbEntity
  8
001
370
    50
100
AcDb2dPolyline
 66
     1
 10
0.0
 20
0.0
 30
0.0
  0
VERTEX
  5
234
330
232
100
AcDbEntity
  8
001
370
    50
100
AcDbVertex
100
AcDb2dVertex
 10
60.187804
 20
117.417831
 30
0.0
  0
VERTEX
  5
235
330
232
100
AcDbEntity
  8
001
370
    50
100
AcDbVertex
100
AcDb2dVertex
 10
60.053639
 20
118.17062
 30
0.0
  0
VERTEX
  5
236
330
232
100
AcDbEntity
  8
001
370
    50
100
AcDbVertex
100
AcDb2dVertex
 10
59.824185
 20
119.263825
 30
0.0
  0
VERTEX
  5
237
330
232
100
AcDbEntity
  8
001
370
    50
100
AcDbVertex
100
AcDb2dVertex
 10
59.559802
 20
120.299071
 30
0.0
  0
VERTEX
  5
238
330
232
100
AcDbEntity
  8
001
370
    50
100
AcDbVertex
100
AcDb2dVertex
 10
59.356598
 20
121.00166
 30
0.0
  0
SEQEND
  5
233
330
232
100
AcDbEntity
  8
001
370
    50
  0
POLYLINE
  5
239
330
1F
100
AcDbEntity
  8
001
370
    50
100
AcDb2dPolyline
 66
     1
 10
0.0
 20
0.0
 30
0.0
  0
VERTEX
  5
23B
330
239
100
AcDbEntity
  8
001
370
    50
100
AcDbVertex
100
AcDb2dVertex
 10
63.353437
 20
121.265278
 30
0.0
  0
VERTEX
  5
23C
330
239
100
AcDbEntity
  8
001
370
    50
100
AcDbVertex
100
AcDb2dVertex
 10
62.542748
 20
121.212058
 30
0.0
  0
VERTEX
  5
23D
330
239
100
AcDbEntity
  8
001
370
    50
100
AcDbVertex
100
AcDb2dVertex
 10
61.357909
 20
121.13406
 30
0.0
  0
VERTEX
  5
23E
330
239
100
AcDbEntity
  8
001
370
    50
100
AcDbVertex
100
AcDb2dVertex
 10
60.169625
 20
121.055535
 30
0.0
  0
VERTEX
  5
23F
330
239
100
AcDbEntity
  8
001
370
    50
100
AcDbVertex
100
AcDb2dVertex
 10
59.356598
 20
121.00166
 30
0.0
  0
SEQEND
  5
23A
330
239
100
AcDbEntity
  8
001
370
    50
  0
POLYLINE
  5
240
330
1F
100
AcDbEntity
  8
001
370
    50
100
AcDb2dPolyline
 66
     1
 10
0.0
 20
0.0
 30
0.0
  0
VERTEX
  5
242
330
240
100
AcDbEntity
  8
001
370
    50
100
AcDbVertex
100
AcDb2dVertex
 10
63.353437
 20
104.183035
 30
0.0
  0
VERTEX
  5
243
330
240
100
AcDbEntity
  8
001
370
    50
100
AcDbVertex
100
AcDb2dVertex
 10
61.439453
 20
104.409511
 30
0.0
  0
VERTEX
  5
244
330
240
100
AcDbEntity
  8
001
370
    50
100
AcDbVertex
100
AcDb2dVertex
 10
58.641914
 20
104.739012
 30
0.0
  0
VERTEX
  5
245
330
240
100
AcDbEntity
  8
001
370
    50
100
AcDbVertex
100
AcDb2dVertex
 10
55.813629
 20
105.069997
 30
0.0
  0
VERTEX
  5
246
330
240
100
AcDbEntity
  8
001
370
    50
100
AcDbVertex
100
AcDb2dVertex
 10
53.878366
 20
105.295429
 30
0.0
  0
SEQEND
  5
241
330
240
100
AcDbEntity
  8
001
370
    50
  0
POLYLINE
  5
247
330
1F
100
AcDbEntity
  8
001
370
    50
100
AcDb2dPolyline
 66
     1
 10
0.0
 20
0.0
 30
0.0
  0
VERTEX
  5
249
330
247
100
AcDbEntity
  8
001
370
    50
100
AcDbVertex
100
AcDb2dVertex
 10
53.878366
 20
105.295429
 30
0.0
  0
VERTEX
  5
24A
330
247
100
AcDbEntity
  8
001
370
    50
100
AcDbVertex
100
AcDb2dVertex
 10
53.714579
 20
105.387433
 30
0.0
  0
VERTEX
  5
24B
330
247
100
AcDbEntity
  8
001
370
    50
100
AcDbVertex
100
AcDb2dVertex
 10
53.544117
 20
105.463456
 30
0.0
  0
VERTEX
  5
24C
330
247
100
AcDbEntity
  8
001
370
    50
100
AcDbVertex
100
AcDb2dVertex
 10
53.381592
 20
105.506559
 30
0.0
  0
VERTEX
  5
24D
330
247
100
AcDbEntity
  8
001
370
    50
100
AcDbVertex
100
AcDb2dVertex
 10
53.21346
 20
105.522057
 30
0.0
  0
VERTEX
  5
24E
330
247
100
AcDbEntity
  8
001
370
    50
100
AcDbVertex
100
AcDb2dVertex
 10
53.044499
 20
105.508265
 30
0.0
  0
VERTEX
  5
24F
330
247
100
AcDbEntity
  8
001
370
    50
100
AcDbVertex
100
AcDb2dVertex
 10
52.881455
 20
105.46454
 30
0.0
  0
VERTEX
  5
250
330
247
100
AcDbEntity
  8
001
370
    50
100
AcDbVertex
100
AcDb2dVertex
 10
52.831347
 20
105.444404
 30
0.0
  0
VERTEX
  5
251
330
247
100
AcDbEntity
  8
001
370
    50
100
AcDbVertex
100
AcDb2dVertex
 10
52.78187
 20
105.422716
 30
0.0
  0
SEQEND
  5
248
330
247
100
AcDbEntity
  8
001
370
    50
  0
POLYLINE
  5
252
330
1F
100
AcDbEntity
  8
001
370
    50
100
AcDb2dPolyline
 66
     1
 10
0.0
 20
0.0
 30
0.0
  0
VERTEX
  5
254
330
252
100
AcDbEntity
  8
001
370
    50
100
AcDbVertex
100
AcDb2dVertex
 10
52.78187
 20
105.422716
 30
0.0
  0
VERTEX
  5
255
330
252
100
AcDbEntity
  8
001
370
    50
100
AcDbVertex
100
AcDb2dVertex
 10
51.319437
 20
105.591992
 30
0.0
  0
VERTEX
  5
256
330
252
100
AcDbEntity
  8
001
370
    50
100
AcDbVertex
100
AcDb2dVertex
 10
49.18194
 20
105.838573
 30
0.0
  0
VERTEX
  5
257
330
252
100
AcDbEntity
  8
001
370
    50
100
AcDbVertex
100
AcDb2dVertex
 10
47.391519
 20
106.044228
 30
0.0
  0
VERTEX
  5
258
330
252
100
AcDbEntity
  8
001
370
    50
100
AcDbVertex
100
AcDb2dVertex
 10
46.166449
 20
106.184549
 30
0.0
  0
SEQEND
  5
253
330
252
100
AcDbEntity
  8
001
370
    50
  0
LINE
  5
259
330
1F
100
AcDbEntity
  8
001
370
    50
100
AcDbLine
 10
46.166449
 20
116.355561
 30
0.0
 11
46.166449
 21
106.184549
 31
0.0
  0
POLYLINE
  5
25A
330
1F
100
AcDbEntity
  8
001
370
    50
100
AcDb2dPolyline
 66
     1
 10
0.0
 20
0.0
 30
0.0
  0
VERTEX
  5
25C
330
25A
100
AcDbEntity
  8
001
370
    50
100
AcDbVertex
100
AcDb2dVertex
 10
55.714824
 20
104.006329
 30
0.0
  0
VERTEX
  5
25D
330
25A
100
AcDbEntity
  8
001
370
    50
100
AcDbVertex
100
AcDb2dVertex
 10
55.709866
 20
104.038751
 30
0.0
  0
VERTEX
  5
25E
330
25A
100
AcDbEntity
  8
001
370
    50
100
AcDbVertex
100
AcDb2dVertex
 10
55.701012
 20
104.084476
 30
0.0
  0
VERTEX
  5
25F
330
25A
100
AcDbEntity
  8
001
370
    50
100
AcDbVertex
100
AcDb2dVertex
 10
55.663143
 20
104.205658
 30
0.0
  0
VERTEX
  5
260
330
25A
100
AcDbEntity
  8
001
370
    50
100
AcDbVertex
100
AcDb2dVertex
 10
55.610375
 20
104.305577
 30
0.0
  0
VERTEX
  5
261
330
25A
100
AcDbEntity
  8
001
370
    50
100
AcDbVertex
100
AcDb2dVertex
 10
55.533826
 20
104.415904
 30
0.0
  0
VERTEX
  5
262
330
25A
100
AcDbEntity
  8
001
370
    50
100
AcDbVertex
100
AcDb2dVertex
 10
55.445932
 20
104.522066
 30
0.0
  0
VERTEX
  5
263
330
25A
100
AcDbEntity
  8
001
370
    50
100
AcDbVertex
100
AcDb2dVertex
 10
55.061473
 20
104.845528
 30
0.0
  0
VERTEX
  5
264
330
25A
100
AcDbEntity
  8
001
370
    50
100
AcDbVertex
100
AcDb2dVertex
 10
54.569965
 20
105.079967
 30
0.0
  0
VERTEX
  5
265
330
25A
100
AcDbEntity
  8
001
370
    50
100
AcDbVertex
100
AcDb2dVertex
 10
54.170318
 20
105.214541
 30
0.0
  0
VERTEX
  5
266
330
25A
100
AcDbEntity
  8
001
370
    50
100
AcDbVertex
100
AcDb2dVertex
 10
53.878366
 20
105.295429
 30
0.0
  0
SEQEND
  5
25B
330
25A
100
AcDbEntity
  8
001
370
    50
  0
POLYLINE
  5
267
330
1F
100
AcDbEntity
  8
001
370
    50
100
AcDb2dPolyline
 66
     1
 10
0.0
 20
0.0
 30
0.0
  0
VERTEX
  5
269
330
267
100
AcDbEntity
  8
001
370
    50
100
AcDbVertex
100
AcDb2dVertex
 10
50.647739
 20
104.301211
 30
0.0
  0
VERTEX
  5
26A
330
267
100
AcDbEntity
  8
001
370
    50
100
AcDbVertex
100
AcDb2dVertex
 10
50.652692
 20
104.268791
 30
0.0
  0
VERTEX
  5
26B
330
267
100
AcDbEntity
  8
001
370
    50
100
AcDbVertex
100
AcDb2dVertex
 10
50.661551
 20
104.223064
 30
0.0
  0
VERTEX
  5
26C
330
267
100
AcDbEntity
  8
001
370
    50
100
AcDbVertex
100
AcDb2dVertex
 10
50.699556
 20
104.10185
 30
0.0
  0
VERTEX
  5
26D
330
267
100
AcDbEntity
  8
001
370
    50
100
AcDbVertex
100
AcDb2dVertex
 10
50.752188
 20
104.001963
 30
0.0
  0
VERTEX
  5
26E
330
267
100
AcDbEntity
  8
001
370
    50
100
AcDbVertex
100
AcDb2dVertex
 10
50.82803
 20
103.8918
 30
0.0
  0
VERTEX
  5
26F
330
267
100
AcDbEntity
  8
001
370
    50
100
AcDbVertex
100
AcDb2dVertex
 10
50.916631
 20
103.785474
 30
0.0
  0
VERTEX
  5
270
330
267
100
AcDbEntity
  8
001
370
    50
100
AcDbVertex
100
AcDb2dVertex
 10
51.322212
 20
103.457108
 30
0.0
  0
VERTEX
  5
271
330
267
100
AcDbEntity
  8
001
370
    50
100
AcDbVertex
100
AcDb2dVertex
 10
51.792598
 20
103.227573
 30
0.0
  0
VERTEX
  5
272
330
267
100
AcDbEntity
  8
001
370
    50
100
AcDbVertex
100
AcDb2dVertex
 10
52.193147
 20
103.088675
 30
0.0
  0
VERTEX
  5
273
330
267
100
AcDbEntity
  8
001
370
    50
100
AcDbVertex
100
AcDb2dVertex
 10
52.602807
 20
102.986683
 30
0.0
  0
VERTEX
  5
274
330
267
100
AcDbEntity
  8
001
370
    50
100
AcDbVertex
100
AcDb2dVertex
 10
52.820899
 20
102.947508
 30
0.0
  0
VERTEX
  5
275
330
267
100
AcDbEntity
  8
001
370
    50
100
AcDbVertex
100
AcDb2dVertex
 10
53.040661
 20
102.917846
 30
0.0
  0
VERTEX
  5
276
330
267
100
AcDbEntity
  8
001
370
    50
100
AcDbVertex
100
AcDb2dVertex
 10
53.261492
 20
102.897491
 30
0.0
  0
VERTEX
  5
277
330
267
100
AcDbEntity
  8
001
370
    50
100
AcDbVertex
100
AcDb2dVertex
 10
53.482788
 20
102.886561
 30
0.0
  0
VERTEX
  5
278
330
267
100
AcDbEntity
  8
001
370
    50
100
AcDbVertex
100
AcDb2dVertex
 10
53.904676
 20
102.893104
 30
0.0
  0
VERTEX
  5
279
330
267
100
AcDbEntity
  8
001
370
    50
100
AcDbVertex
100
AcDb2dVertex
 10
54.326404
 20
102.939284
 30
0.0
  0
VERTEX
  5
27A
330
267
100
AcDbEntity
  8
001
370
    50
100
AcDbVertex
100
AcDb2dVertex
 10
54.837487
 20
103.061594
 30
0.0
  0
VERTEX
  5
27B
330
267
100
AcDbEntity
  8
001
370
    50
100
AcDbVertex
100
AcDb2dVertex
 10
55.305312
 20
103.286142
 30
0.0
  0
VERTEX
  5
27C
330
267
100
AcDbEntity
  8
001
370
    50
100
AcDbVertex
100
AcDb2dVertex
 10
55.414686
 20
103.366689
 30
0.0
  0
VERTEX
  5
27D
330
267
100
AcDbEntity
  8
001
370
    50
100
AcDbVertex
100
AcDb2dVertex
 10
55.514185
 20
103.460155
 30
0.0
  0
VERTEX
  5
27E
330
267
100
AcDbEntity
  8
001
370
    50
100
AcDbVertex
100
AcDb2dVertex
 10
55.590241
 20
103.55435
 30
0.0
  0
VERTEX
  5
27F
330
267
100
AcDbEntity
  8
001
370
    50
100
AcDbVertex
100
AcDb2dVertex
 10
55.652175
 20
103.655244
 30
0.0
  0
VERTEX
  5
280
330
267
100
AcDbEntity
  8
001
370
    50
100
AcDbVertex
100
AcDb2dVertex
 10
55.693332
 20
103.752105
 30
0.0
  0
VERTEX
  5
281
330
267
100
AcDbEntity
  8
001
370
    50
100
AcDbVertex
100
AcDb2dVertex
 10
55.715087
 20
103.86548
 30
0.0
  0
VERTEX
  5
282
330
267
100
AcDbEntity
  8
001
370
    50
100
AcDbVertex
100
AcDb2dVertex
 10
55.717653
 20
103.947527
 30
0.0
  0
VERTEX
  5
283
330
267
100
AcDbEntity
  8
001
370
    50
100
AcDbVertex
100
AcDb2dVertex
 10
55.714824
 20
104.006329
 30
0.0
  0
SEQEND
  5
268
330
267
100
AcDbEntity
  8
001
370
    50
  0
POLYLINE
  5
284
330
1F
100
AcDbEntity
  8
001
370
    50
100
AcDb2dPolyline
 66
     1
 10
0.0
 20
0.0
 30
0.0
  0
VERTEX
  5
286
330
284
100
AcDbEntity
  8
001
370
    50
100
AcDbVertex
100
AcDb2dVertex
 10
52.78187
 20
105.422716
 30
0.0
  0
VERTEX
  5
287
330
284
100
AcDbEntity
  8
001
370
    50
100
AcDbVertex
100
AcDb2dVertex
 10
52.469379
 20
105.410669
 30
0.0
  0
VERTEX
  5
288
330
284
100
AcDbEntity
  8
001
370
    50
100
AcDbVertex
100
AcDb2dVertex
 10
52.036159
 20
105.368257
 30
0.0
  0
VERTEX
  5
289
330
284
100
AcDbEntity
  8
001
370
    50
100
AcDbVertex
100
AcDb2dVertex
 10
51.503662
 20
105.24614
 30
0.0
  0
VERTEX
  5
28A
330
284
100
AcDbEntity
  8
001
370
    50
100
AcDbVertex
100
AcDb2dVertex
 10
51.057251
 20
105.021398
 30
0.0
  0
VERTEX
  5
28B
330
284
100
AcDbEntity
  8
001
370
    50
100
AcDbVertex
100
AcDb2dVertex
 10
50.948601
 20
104.940844
 30
0.0
  0
VERTEX
  5
28C
330
284
100
AcDbEntity
  8
001
370
    50
100
AcDbVertex
100
AcDb2dVertex
 10
50.848378
 20
104.847385
 30
0.0
  0
VERTEX
  5
28D
330
284
100
AcDbEntity
  8
001
370
    50
100
AcDbVertex
100
AcDb2dVertex
 10
50.772162
 20
104.753192
 30
0.0
  0
VERTEX
  5
28E
330
284
100
AcDbEntity
  8
001
370
    50
100
AcDbVertex
100
AcDb2dVertex
 10
50.710388
 20
104.652296
 30
0.0
  0
VERTEX
  5
28F
330
284
100
AcDbEntity
  8
001
370
    50
100
AcDbVertex
100
AcDb2dVertex
 10
50.669266
 20
104.555434
 30
0.0
  0
VERTEX
  5
290
330
284
100
AcDbEntity
  8
001
370
    50
100
AcDbVertex
100
AcDb2dVertex
 10
50.647476
 20
104.44206
 30
0.0
  0
VERTEX
  5
291
330
284
100
AcDbEntity
  8
001
370
    50
100
AcDbVertex
100
AcDb2dVertex
 10
50.644906
 20
104.360013
 30
0.0
  0
VERTEX
  5
292
330
284
100
AcDbEntity
  8
001
370
    50
100
AcDbVertex
100
AcDb2dVertex
 10
50.647739
 20
104.301211
 30
0.0
  0
SEQEND
  5
285
330
284
100
AcDbEntity
  8
001
370
    50
  0
POLYLINE
  5
293
330
1F
100
AcDbEntity
  8
001
370
    50
100
AcDb2dPolyline
 66
     1
 10
0.0
 20
0.0
 30
0.0
  0
VERTEX
  5
295
330
293
100
AcDbEntity
  8
001
370
    50
100
AcDbVertex
100
AcDb2dVertex
 10
63.996397
 20
92.782375
 30
0.0
  0
VERTEX
  5
296
330
293
100
AcDbEntity
  8
001
370
    50
100
AcDbVertex
100
AcDb2dVertex
 10
65.227854
 20
93.214353
 30
0.0
  0
VERTEX
  5
297
330
293
100
AcDbEntity
  8
001
370
    50
100
AcDbVertex
100
AcDb2dVertex
 10
66.721933
 20
93.938423
 30
0.0
  0
VERTEX
  5
298
330
293
100
AcDbEntity
  8
001
370
    50
100
AcDbVertex
100
AcDb2dVertex
 10
67.134384
 20
94.23426
 30
0.0
  0
VERTEX
  5
299
330
293
100
AcDbEntity
  8
001
370
    50
100
AcDbVertex
100
AcDb2dVertex
 10
67.543754
 20
94.634901
 30
0.0
  0
VERTEX
  5
29A
330
293
100
AcDbEntity
  8
001
370
    50
100
AcDbVertex
100
AcDb2dVertex
 10
67.586985
 20
94.682663
 30
0.0
  0
VERTEX
  5
29B
330
293
100
AcDbEntity
  8
001
370
    50
100
AcDbVertex
100
AcDb2dVertex
 10
67.616619
 20
94.715963
 30
0.0
  0
SEQEND
  5
294
330
293
100
AcDbEntity
  8
001
370
    50
  0
POLYLINE
  5
29C
330
1F
100
AcDbEntity
  8
001
370
    50
100
AcDb2dPolyline
 66
     1
 10
0.0
 20
0.0
 30
0.0
  0
VERTEX
  5
29E
330
29C
100
AcDbEntity
  8
001
370
    50
100
AcDbVertex
100
AcDb2dVertex
 10
63.996397
 20
92.782375
 30
0.0
  0
VERTEX
  5
29F
330
29C
100
AcDbEntity
  8
001
370
    50
100
AcDbVertex
100
AcDb2dVertex
 10
63.173331
 20
93.213725
 30
0.0
  0
VERTEX
  5
2A0
330
29C
100
AcDbEntity
  8
001
370
    50
100
AcDbVertex
100
AcDb2dVertex
 10
61.925172
 20
93.732471
 30
0.0
  0
VERTEX
  5
2A1
330
29C
100
AcDbEntity
  8
001
370
    50
100
AcDbVertex
100
AcDb2dVertex
 10
59.898818
 20
94.208518
 30
0.0
  0
VERTEX
  5
2A2
330
29C
100
AcDbEntity
  8
001
370
    50
100
AcDbVertex
100
AcDb2dVertex
 10
58.467977
 20
94.330316
 30
0.0
  0
SEQEND
  5
29D
330
29C
100
AcDbEntity
  8
001
370
    50
  0
LINE
  5
2A3
330
1F
100
AcDbEntity
  8
001
370
    50
100
AcDbLine
 10
58.467977
 20
94.330316
 30
0.0
 11
47.955791
 21
94.330316
 31
0.0
  0
POLYLINE
  5
2A4
330
1F
100
AcDbEntity
  8
001
370
    50
100
AcDb2dPolyline
 66
     1
 10
0.0
 20
0.0
 30
0.0
  0
VERTEX
  5
2A6
330
2A4
100
AcDbEntity
  8
001
370
    50
100
AcDbVertex
100
AcDb2dVertex
 10
45.174223
 20
98.731227
 30
0.0
  0
VERTEX
  5
2A7
330
2A4
100
AcDbEntity
  8
001
370
    50
100
AcDbVertex
100
AcDb2dVertex
 10
45.595533
 20
98.193108
 30
0.0
  0
VERTEX
  5
2A8
330
2A4
100
AcDbEntity
  8
001
370
    50
100
AcDbVertex
100
AcDb2dVertex
 10
46.009366
 20
97.649316
 30
0.0
  0
VERTEX
  5
2A9
330
2A4
100
AcDbEntity
  8
001
370
    50
100
AcDbVertex
100
AcDb2dVertex
 10
46.398945
 20
97.109437
 30
0.0
  0
VERTEX
  5
2AA
330
2A4
100
AcDbEntity
  8
001
370
    50
100
AcDbVertex
100
AcDb2dVertex
 10
46.771938
 20
96.557894
 30
0.0
  0
VERTEX
  5
2AB
330
2A4
100
AcDbEntity
  8
001
370
    50
100
AcDbVertex
100
AcDb2dVertex
 10
47.115048
 20
96.010961
 30
0.0
  0
VERTEX
  5
2AC
330
2A4
100
AcDbEntity
  8
001
370
    50
100
AcDbVertex
100
AcDb2dVertex
 10
47.435425
 20
95.450447
 30
0.0
  0
VERTEX
  5
2AD
330
2A4
100
AcDbEntity
  8
001
370
    50
100
AcDbVertex
100
AcDb2dVertex
 10
47.580799
 20
95.173049
 30
0.0
  0
VERTEX
  5
2AE
330
2A4
100
AcDbEntity
  8
001
370
    50
100
AcDbVertex
100
AcDb2dVertex
 10
47.716893
 20
94.891122
 30
0.0
  0
VERTEX
  5
2AF
330
2A4
100
AcDbEntity
  8
001
370
    50
100
AcDbVertex
100
AcDb2dVertex
 10
47.8392
 20
94.61201
 30
0.0
  0
VERTEX
  5
2B0
330
2A4
100
AcDbEntity
  8
001
370
    50
100
AcDbVertex
100
AcDb2dVertex
 10
47.955791
 20
94.330316
 30
0.0
  0
SEQEND
  5
2A5
330
2A4
100
AcDbEntity
  8
001
370
    50
  0
LINE
  5
2B1
330
1F
100
AcDbEntity
  8
001
370
    50
100
AcDbLine
 10
45.174223
 20
98.731227
 30
0.0
 11
45.174223
 21
105.995181
 31
0.0
  0
LINE
  5
2B2
330
1F
100
AcDbEntity
  8
001
370
    50
100
AcDbLine
 10
45.174223
 20
105.995181
 30
0.0
 11
46.166449
 21
106.184549
 31
0.0
  0
LINE
  5
2B3
330
1F
100
AcDbEntity
  8
001
370
    50
100
AcDbLine
 10
46.166449
 20
116.355561
 30
0.0
 11
45.174223
 21
115.995425
 31
0.0
  0
LINE
  5
2B4
330
1F
100
AcDbEntity
  8
001
370
    50
100
AcDbLine
 10
45.174223
 20
115.995425
 30
0.0
 11
45.174223
 21
105.995181
 31
0.0
  0
LINE
  5
2B5
330
1F
100
AcDbEntity
  8
001
370
    50
100
AcDbLine
 10
59.26296
 20
120.916089
 30
0.0
 11
59.356598
 21
121.00166
 31
0.0
  0
POLYLINE
  5
2B6
330
1F
100
AcDbEntity
  8
001
370
    50
100
AcDb2dPolyline
 66
     1
 10
0.0
 20
0.0
 30
0.0
  0
VERTEX
  5
2B8
330
2B6
100
AcDbEntity
  8
001
370
    50
100
AcDbVertex
100
AcDb2dVertex
 10
67.144278
 20
87.674175
 30
0.0
  0
VERTEX
  5
2B9
330
2B6
100
AcDbEntity
  8
001
370
    50
100
AcDbVertex
100
AcDb2dVertex
 10
67.113086
 20
87.85759
 30
0.0
  0
VERTEX
  5
2BA
330
2B6
100
AcDbEntity
  8
001
370
    50
100
AcDbVertex
100
AcDb2dVertex
 10
67.079285
 20
88.04051
 30
0.0
  0
VERTEX
  5
2BB
330
2B6
100
AcDbEntity
  8
001
370
    50
100
AcDbVertex
100
AcDb2dVertex
 10
67.001812
 20
88.385652
 30
0.0
  0
VERTEX
  5
2BC
330
2B6
100
AcDbEntity
  8
001
370
    50
100
AcDbVertex
100
AcDb2dVertex
 10
66.90765
 20
88.726773
 30
0.0
  0
VERTEX
  5
2BD
330
2B6
100
AcDbEntity
  8
001
370
    50
100
AcDbVertex
100
AcDb2dVertex
 10
66.792874
 20
89.079552
 30
0.0
  0
VERTEX
  5
2BE
330
2B6
100
AcDbEntity
  8
001
370
    50
100
AcDbVertex
100
AcDb2dVertex
 10
66.661613
 20
89.426461
 30
0.0
  0
VERTEX
  5
2BF
330
2B6
100
AcDbEntity
  8
001
370
    50
100
AcDbVertex
100
AcDb2dVertex
 10
66.506036
 20
89.782551
 30
0.0
  0
VERTEX
  5
2C0
330
2B6
100
AcDbEntity
  8
001
370
    50
100
AcDbVertex
100
AcDb2dVertex
 10
66.3323
 20
90.130184
 30
0.0
  0
VERTEX
  5
2C1
330
2B6
100
AcDbEntity
  8
001
370
    50
100
AcDbVertex
100
AcDb2dVertex
 10
66.130944
 20
90.485024
 30
0.0
  0
VERTEX
  5
2C2
330
2B6
100
AcDbEntity
  8
001
370
    50
100
AcDbVertex
100
AcDb2dVertex
 10
65.910837
 20
90.828553
 30
0.0
  0
VERTEX
  5
2C3
330
2B6
100
AcDbEntity
  8
001
370
    50
100
AcDbVertex
100
AcDb2dVertex
 10
65.659137
 20
91.177655
 30
0.0
  0
VERTEX
  5
2C4
330
2B6
100
AcDbEntity
  8
001
370
    50
100
AcDbVertex
100
AcDb2dVertex
 10
65.388351
 20
91.512177
 30
0.0
  0
VERTEX
  5
2C5
330
2B6
100
AcDbEntity
  8
001
370
    50
100
AcDbVertex
100
AcDb2dVertex
 10
65.09375
 20
91.837071
 30
0.0
  0
VERTEX
  5
2C6
330
2B6
100
AcDbEntity
  8
001
370
    50
100
AcDbVertex
100
AcDb2dVertex
 10
64.781097
 20
92.144696
 30
0.0
  0
VERTEX
  5
2C7
330
2B6
100
AcDbEntity
  8
001
370
    50
100
AcDbVertex
100
AcDb2dVertex
 10
64.423816
 20
92.45649
 30
0.0
  0
VERTEX
  5
2C8
330
2B6
100
AcDbEntity
  8
001
370
    50
100
AcDbVertex
100
AcDb2dVertex
 10
64.048004
 20
92.745411
 30
0.0
  0
VERTEX
  5
2C9
330
2B6
100
AcDbEntity
  8
001
370
    50
100
AcDbVertex
100
AcDb2dVertex
 10
64.022219
 20
92.76392
 30
0.0
  0
VERTEX
  5
2CA
330
2B6
100
AcDbEntity
  8
001
370
    50
100
AcDbVertex
100
AcDb2dVertex
 10
63.996397
 20
92.782375
 30
0.0
  0
SEQEND
  5
2B7
330
2B6
100
AcDbEntity
  8
001
370
    50
  0
LINE
  5
2CB
330
1F
100
AcDbEntity
  8
001
370
    50
100
AcDbLine
 10
67.252433
 20
130.177306
 30
0.0
 11
68.237886
 21
121.62707
 31
0.0
  0
LINE
  5
2CC
330
1F
100
AcDbEntity
  8
001
370
    50
100
AcDbLine
 10
80.974223
 20
117.330316
 30
0.0
 11
155.974223
 21
117.330316
 31
0.0
  0
LINE
  5
2CD
330
1F
100
AcDbEntity
  8
001
370
    50
100
AcDbLine
 10
80.974223
 20
85.330316
 30
0.0
 11
155.974223
 21
85.330316
 31
0.0
  0
ARC
  5
2CE
330
1F
100
AcDbEntity
  8
001
370
    50
100
AcDbCircle
 10
155.974223
 20
109.330316
 30
0.0
 40
8.0
100
AcDbArc
 50
0.0
 51
90.0
  0
ARC
  5
2CF
330
1F
100
AcDbEntity
  8
001
370
    50
100
AcDbCircle
 10
155.974223
 20
93.330316
 30
0.0
 40
8.0
100
AcDbArc
 50
270.0
 51
0.0
  0
LINE
  5
2D0
330
1F
100
AcDbEntity
  8
001
370
    50
100
AcDbLine
 10
163.974223
 20
109.330316
 30
0.0
 11
163.974223
 21
93.330316
 31
0.0
  0
LINE
  5
2D1
330
1F
100
AcDbEntity
  8
001
370
    50
100
AcDbLine
 10
45.174223
 20
86.088077
 30
0.0
 11
45.174223
 21
88.957497
 31
0.0
  0
POLYLINE
  5
2D2
330
1F
100
AcDbEntity
  8
001
370
    50
100
AcDb2dPolyline
 66
     1
 10
0.0
 20
0.0
 30
0.0
  0
VERTEX
  5
2D4
330
2D2
100
AcDbEntity
  8
001
370
    50
100
AcDbVertex
100
AcDb2dVertex
 10
49.33088
 20
94.330316
 30
0.0
  0
VERTEX
  5
2D5
330
2D2
100
AcDbEntity
  8
001
370
    50
100
AcDbVertex
100
AcDb2dVertex
 10
48.848855
 20
93.285195
 30
0.0
  0
VERTEX
  5
2D6
330
2D2
100
AcDbEntity
  8
001
370
    50
100
AcDbVertex
100
AcDb2dVertex
 10
48.35733
 20
92.24462
 30
0.0
  0
VERTEX
  5
2D7
330
2D2
100
AcDbEntity
  8
001
370
    50
100
AcDbVertex
100
AcDb2dVertex
 10
47.848903
 20
91.211171
 30
0.0
  0
VERTEX
  5
2D8
330
2D2
100
AcDbEntity
  8
001
370
    50
100
AcDbVertex
100
AcDb2dVertex
 10
47.326958
 20
90.184389
 30
0.0
  0
VERTEX
  5
2D9
330
2D2
100
AcDbEntity
  8
001
370
    50
100
AcDbVertex
100
AcDb2dVertex
 10
46.258617
 20
88.140535
 30
0.0
  0
VERTEX
  5
2DA
330
2D2
100
AcDbEntity
  8
001
370
    50
100
AcDbVertex
100
AcDb2dVertex
 10
45.174223
 20
86.105153
 30
0.0
  0
SEQEND
  5
2D3
330
2D2
100
AcDbEntity
  8
001
370
    50
  0
POLYLINE
  5
2DB
330
1F
100
AcDbEntity
  8
001
370
    50
100
AcDb2dPolyline
 66
     1
 10
0.0
 20
0.0
 30
0.0
  0
VERTEX
  5
2DD
330
2DB
100
AcDbEntity
  8
001
370
    50
100
AcDbVertex
100
AcDb2dVertex
 10
45.174223
 20
88.957497
 30
0.0
  0
VERTEX
  5
2DE
330
2DB
100
AcDbEntity
  8
001
370
    50
100
AcDbVertex
100
AcDb2dVertex
 10
45.597206
 20
89.965038
 30
0.0
  0
VERTEX
  5
2DF
330
2DB
100
AcDbEntity
  8
001
370
    50
100
AcDbVertex
100
AcDb2dVertex
 10
46.009366
 20
90.976937
 30
0.0
  0
VERTEX
  5
2E0
330
2DB
100
AcDbEntity
  8
001
370
    50
100
AcDbVertex
100
AcDb2dVertex
 10
46.402017
 20
91.998147
 30
0.0
  0
VERTEX
  5
2E1
330
2DB
100
AcDbEntity
  8
001
370
    50
100
AcDbVertex
100
AcDb2dVertex
 10
46.771938
 20
93.027947
 30
0.0
  0
VERTEX
  5
2E2
330
2DB
100
AcDbEntity
  8
001
370
    50
100
AcDbVertex
100
AcDb2dVertex
 10
47.119276
 20
94.073216
 30
0.0
  0
VERTEX
  5
2E3
330
2DB
100
AcDbEntity
  8
001
370
    50
100
AcDbVertex
100
AcDb2dVertex
 10
47.435425
 20
95.128135
 30
0.0
  0
VERTEX
  5
2E4
330
2DB
100
AcDbEntity
  8
001
370
    50
100
AcDbVertex
100
AcDb2dVertex
 10
47.464895
 20
95.233515
 30
0.0
  0
VERTEX
  5
2E5
330
2DB
100
AcDbEntity
  8
001
370
    50
100
AcDbVertex
100
AcDb2dVertex
 10
47.494176
 20
95.338948
 30
0.0
  0
SEQEND
  5
2DC
330
2DB
100
AcDbEntity
  8
001
370
    50
  0
POLYLINE
  5
2E6
330
1F
100
AcDbEntity
  8
001
370
    50
100
AcDb2dPolyline
 66
     1
 10
0.0
 20
0.0
 30
0.0
  0
VERTEX
  5
2E8
330
2E6
100
AcDbEntity
  8
001
370
    50
100
AcDbVertex
100
AcDb2dVertex
 10
67.163617
 20
128.447913
 30
0.0
  0
VERTEX
  5
2E9
330
2E6
100
AcDbEntity
  8
001
370
    50
100
AcDbVertex
100
AcDb2dVertex
 10
67.181014
 20
128.147794
 30
0.0
  0
VERTEX
  5
2EA
330
2E6
100
AcDbEntity
  8
001
370
    50
100
AcDbVertex
100
AcDb2dVertex
 10
67.195999
 20
127.847567
 30
0.0
  0
VERTEX
  5
2EB
330
2E6
100
AcDbEntity
  8
001
370
    50
100
AcDbVertex
100
AcDb2dVertex
 10
67.206926
 20
127.540507
 30
0.0
  0
VERTEX
  5
2EC
330
2E6
100
AcDbEntity
  8
001
370
    50
100
AcDbVertex
100
AcDb2dVertex
 10
67.213901
 20
127.23331
 30
0.0
  0
VERTEX
  5
2ED
330
2E6
100
AcDbEntity
  8
001
370
    50
100
AcDbVertex
100
AcDb2dVertex
 10
67.21888
 20
126.600412
 30
0.0
  0
VERTEX
  5
2EE
330
2E6
100
AcDbEntity
  8
001
370
    50
100
AcDbVertex
100
AcDb2dVertex
 10
67.211769
 20
125.967538
 30
0.0
  0
VERTEX
  5
2EF
330
2E6
100
AcDbEntity
  8
001
370
    50
100
AcDbVertex
100
AcDb2dVertex
 10
67.191965
 20
125.317811
 30
0.0
  0
VERTEX
  5
2F0
330
2E6
100
AcDbEntity
  8
001
370
    50
100
AcDbVertex
100
AcDb2dVertex
 10
67.159636
 20
124.66859
 30
0.0
  0
VERTEX
  5
2F1
330
2E6
100
AcDbEntity
  8
001
370
    50
100
AcDbVertex
100
AcDb2dVertex
 10
67.114648
 20
124.017129
 30
0.0
  0
VERTEX
  5
2F2
330
2E6
100
AcDbEntity
  8
001
370
    50
100
AcDbVertex
100
AcDb2dVertex
 10
67.057015
 20
123.366637
 30
0.0
  0
VERTEX
  5
2F3
330
2E6
100
AcDbEntity
  8
001
370
    50
100
AcDbVertex
100
AcDb2dVertex
 10
66.960949
 20
122.508682
 30
0.0
  0
VERTEX
  5
2F4
330
2E6
100
AcDbEntity
  8
001
370
    50
100
AcDbVertex
100
AcDb2dVertex
 10
66.840926
 20
121.653819
 30
0.0
  0
VERTEX
  5
2F5
330
2E6
100
AcDbEntity
  8
001
370
    50
100
AcDbVertex
100
AcDb2dVertex
 10
66.830541
 20
121.587406
 30
0.0
  0
VERTEX
  5
2F6
330
2E6
100
AcDbEntity
  8
001
370
    50
100
AcDbVertex
100
AcDb2dVertex
 10
66.820079
 20
121.521006
 30
0.0
  0
SEQEND
  5
2E7
330
2E6
100
AcDbEntity
  8
001
370
    50
  0
POLYLINE
  5
2F7
330
1F
100
AcDbEntity
  8
001
370
    50
100
AcDb2dPolyline
 66
     1
 10
0.0
 20
0.0
 30
0.0
  0
VERTEX
  5
2F9
330
2F7
100
AcDbEntity
  8
001
370
    50
100
AcDbVertex
100
AcDb2dVertex
 10
67.163617
 20
128.447913
 30
0.0
  0
VERTEX
  5
2FA
330
2F7
100
AcDbEntity
  8
001
370
    50
100
AcDbVertex
100
AcDb2dVertex
 10
67.136887
 20
128.837772
 30
0.0
  0
VERTEX
  5
2FB
330
2F7
100
AcDbEntity
  8
001
370
    50
100
AcDbVertex
100
AcDb2dVertex
 10
67.097624
 20
129.407553
 30
0.0
  0
VERTEX
  5
2FC
330
2F7
100
AcDbEntity
  8
001
370
    50
100
AcDbVertex
100
AcDb2dVertex
 10
67.060548
 20
129.941773
 30
0.0
  0
VERTEX
  5
2FD
330
2F7
100
AcDbEntity
  8
001
370
    50
100
AcDbVertex
100
AcDb2dVertex
 10
67.035049
 20
130.307283
 30
0.0
  0
SEQEND
  5
2F8
330
2F7
100
AcDbEntity
  8
001
370
    50
  0
POLYLINE
  5
2FE
330
1F
100
AcDbEntity
  8
001
370
    50
100
AcDb2dPolyline
 66
     1
 10
0.0
 20
0.0
 30
0.0
  0
VERTEX
  5
300
330
2FE
100
AcDbEntity
  8
001
370
    50
100
AcDbVertex
100
AcDb2dVertex
 10
59.356598
 20
72.959081
 30
0.0
  0
VERTEX
  5
301
330
2FE
100
AcDbEntity
  8
001
370
    50
100
AcDbVertex
100
AcDb2dVertex
 10
60.169638
 20
72.99189
 30
0.0
  0
VERTEX
  5
302
330
2FE
100
AcDbEntity
  8
001
370
    50
100
AcDbVertex
100
AcDb2dVertex
 10
61.357909
 20
73.040271
 30
0.0
  0
VERTEX
  5
303
330
2FE
100
AcDbEntity
  8
001
370
    50
100
AcDbVertex
100
AcDb2dVertex
 10
62.542761
 20
73.089113
 30
0.0
  0
VERTEX
  5
304
330
2FE
100
AcDbEntity
  8
001
370
    50
100
AcDbVertex
100
AcDb2dVertex
 10
63.353437
 20
73.122825
 30
0.0
  0
SEQEND
  5
2FF
330
2FE
100
AcDbEntity
  8
001
370
    50
  0
LINE
  5
305
330
1F
100
AcDbEntity
  8
001
370
    50
100
AcDbLine
 10
57.860625
 20
75.434669
 30
0.0
 11
59.356598
 21
72.959081
 31
0.0
  0
POLYLINE
  5
306
330
1F
100
AcDbEntity
  8
001
370
    50
100
AcDb2dPolyline
 66
     1
 10
0.0
 20
0.0
 30
0.0
  0
VERTEX
  5
308
330
306
100
AcDbEntity
  8
001
370
    50
100
AcDbVertex
100
AcDb2dVertex
 10
54.354386
 20
83.936655
 30
0.0
  0
VERTEX
  5
309
330
306
100
AcDbEntity
  8
001
370
    50
100
AcDbVertex
100
AcDb2dVertex
 10
54.342497
 20
84.038809
 30
0.0
  0
VERTEX
  5
30A
330
306
100
AcDbEntity
  8
001
370
    50
100
AcDbVertex
100
AcDb2dVertex
 10
54.32144
 20
84.184377
 30
0.0
  0
VERTEX
  5
30B
330
306
100
AcDbEntity
  8
001
370
    50
100
AcDbVertex
100
AcDb2dVertex
 10
54.1837
 20
84.723634
 30
0.0
  0
VERTEX
  5
30C
330
306
100
AcDbEntity
  8
001
370
    50
100
AcDbVertex
100
AcDb2dVertex
 10
53.966855
 20
85.163432
 30
0.0
  0
VERTEX
  5
30D
330
306
100
AcDbEntity
  8
001
370
    50
100
AcDbVertex
100
AcDb2dVertex
 10
53.495405
 20
85.769866
 30
0.0
  0
VERTEX
  5
30E
330
306
100
AcDbEntity
  8
001
370
    50
100
AcDbVertex
100
AcDb2dVertex
 10
52.874208
 20
86.261508
 30
0.0
  0
VERTEX
  5
30F
330
306
100
AcDbEntity
  8
001
370
    50
100
AcDbVertex
100
AcDb2dVertex
 10
52.639704
 20
86.383309
 30
0.0
  0
VERTEX
  5
310
330
306
100
AcDbEntity
  8
001
370
    50
100
AcDbVertex
100
AcDb2dVertex
 10
52.402612
 20
86.48251
 30
0.0
  0
VERTEX
  5
311
330
306
100
AcDbEntity
  8
001
370
    50
100
AcDbVertex
100
AcDb2dVertex
 10
52.165502
 20
86.560938
 30
0.0
  0
VERTEX
  5
312
330
306
100
AcDbEntity
  8
001
370
    50
100
AcDbVertex
100
AcDb2dVertex
 10
51.899994
 20
86.617855
 30
0.0
  0
VERTEX
  5
313
330
306
100
AcDbEntity
  8
001
370
    50
100
AcDbVertex
100
AcDb2dVertex
 10
51.600434
 20
86.652059
 30
0.0
  0
VERTEX
  5
314
330
306
100
AcDbEntity
  8
001
370
    50
100
AcDbVertex
100
AcDb2dVertex
 10
51.381625
 20
86.663432
 30
0.0
  0
SEQEND
  5
307
330
306
100
AcDbEntity
  8
001
370
    50
  0
POLYLINE
  5
315
330
1F
100
AcDbEntity
  8
001
370
    50
100
AcDb2dPolyline
 66
     1
 10
0.0
 20
0.0
 30
0.0
  0
VERTEX
  5
317
330
315
100
AcDbEntity
  8
001
370
    50
100
AcDbVertex
100
AcDb2dVertex
 10
59.356598
 20
72.959081
 30
0.0
  0
VERTEX
  5
318
330
315
100
AcDbEntity
  8
001
370
    50
100
AcDbVertex
100
AcDb2dVertex
 10
59.557299
 20
72.774261
 30
0.0
  0
VERTEX
  5
319
330
315
100
AcDbEntity
  8
001
370
    50
100
AcDbVertex
100
AcDb2dVertex
 10
59.868124
 20
72.526359
 30
0.0
  0
VERTEX
  5
31A
330
315
100
AcDbEntity
  8
001
370
    50
100
AcDbVertex
100
AcDb2dVertex
 10
60.054358
 20
72.405622
 30
0.0
  0
VERTEX
  5
31B
330
315
100
AcDbEntity
  8
001
370
    50
100
AcDbVertex
100
AcDb2dVertex
 10
60.187804
 20
72.333043
 30
0.0
  0
SEQEND
  5
316
330
315
100
AcDbEntity
  8
001
370
    50
  0
LINE
  5
31C
330
1F
100
AcDbEntity
  8
001
370
    50
100
AcDbLine
 10
45.174223
 20
120.517729
 30
0.0
 11
45.174223
 21
123.56618
 31
0.0
  0
LINE
  5
31D
330
1F
100
AcDbEntity
  8
001
370
    50
100
AcDbLine
 10
45.174223
 20
123.56618
 30
0.0
 11
46.166449
 21
123.927085
 31
0.0
  0
POLYLINE
  5
31E
330
1F
100
AcDbEntity
  8
001
370
    50
100
AcDb2dPolyline
 66
     1
 10
0.0
 20
0.0
 30
0.0
  0
VERTEX
  5
320
330
31E
100
AcDbEntity
  8
001
370
    50
100
AcDbVertex
100
AcDb2dVertex
 10
52.78187
 20
124.308938
 30
0.0
  0
VERTEX
  5
321
330
31E
100
AcDbEntity
  8
001
370
    50
100
AcDbVertex
100
AcDb2dVertex
 10
50.363858
 20
124.170475
 30
0.0
  0
VERTEX
  5
322
330
31E
100
AcDbEntity
  8
001
370
    50
100
AcDbVertex
100
AcDb2dVertex
 10
46.829972
 20
123.965851
 30
0.0
  0
VERTEX
  5
323
330
31E
100
AcDbEntity
  8
001
370
    50
100
AcDbVertex
100
AcDb2dVertex
 10
46.436004
 20
123.942845
 30
0.0
  0
VERTEX
  5
324
330
31E
100
AcDbEntity
  8
001
370
    50
100
AcDbVertex
100
AcDb2dVertex
 10
46.166449
 20
123.927085
 30
0.0
  0
SEQEND
  5
31F
330
31E
100
AcDbEntity
  8
001
370
    50
  0
POLYLINE
  5
325
330
1F
100
AcDbEntity
  8
001
370
    50
100
AcDb2dPolyline
 66
     1
 10
0.0
 20
0.0
 30
0.0
  0
VERTEX
  5
327
330
325
100
AcDbEntity
  8
001
370
    50
100
AcDbVertex
100
AcDb2dVertex
 10
52.78187
 20
124.308938
 30
0.0
  0
VERTEX
  5
328
330
325
100
AcDbEntity
  8
001
370
    50
100
AcDbVertex
100
AcDb2dVertex
 10
52.708148
 20
124.295972
 30
0.0
  0
VERTEX
  5
329
330
325
100
AcDbEntity
  8
001
370
    50
100
AcDbVertex
100
AcDb2dVertex
 10
52.602807
 20
124.276129
 30
0.0
  0
VERTEX
  5
32A
330
325
100
AcDbEntity
  8
001
370
    50
100
AcDbVertex
100
AcDb2dVertex
 10
52.164862
 20
124.169554
 30
0.0
  0
VERTEX
  5
32B
330
325
100
AcDbEntity
  8
001
370
    50
100
AcDbVertex
100
AcDb2dVertex
 10
51.792598
 20
124.035239
 30
0.0
  0
VERTEX
  5
32C
330
325
100
AcDbEntity
  8
001
370
    50
100
AcDbVertex
100
AcDb2dVertex
 10
51.330755
 20
123.807089
 30
0.0
  0
VERTEX
  5
32D
330
325
100
AcDbEntity
  8
001
370
    50
100
AcDbVertex
100
AcDb2dVertex
 10
50.916631
 20
123.477338
 30
0.0
  0
VERTEX
  5
32E
330
325
100
AcDbEntity
  8
001
370
    50
100
AcDbVertex
100
AcDb2dVertex
 10
50.827745
 20
123.370966
 30
0.0
  0
VERTEX
  5
32F
330
325
100
AcDbEntity
  8
001
370
    50
100
AcDbVertex
100
AcDb2dVertex
 10
50.752188
 20
123.26085
 30
0.0
  0
VERTEX
  5
330
330
325
100
AcDbEntity
  8
001
370
    50
100
AcDbVertex
100
AcDb2dVertex
 10
50.699611
 20
123.160971
 30
0.0
  0
VERTEX
  5
331
330
325
100
AcDbEntity
  8
001
370
    50
100
AcDbVertex
100
AcDb2dVertex
 10
50.661551
 20
123.039749
 30
0.0
  0
VERTEX
  5
332
330
325
100
AcDbEntity
  8
001
370
    50
100
AcDbVertex
100
AcDb2dVertex
 10
50.65269
 20
122.994021
 30
0.0
  0
VERTEX
  5
333
330
325
100
AcDbEntity
  8
001
370
    50
100
AcDbVertex
100
AcDb2dVertex
 10
50.647739
 20
122.961601
 30
0.0
  0
SEQEND
  5
326
330
325
100
AcDbEntity
  8
001
370
    50
  0
POLYLINE
  5
334
330
1F
100
AcDbEntity
  8
001
370
    50
100
AcDb2dPolyline
 66
     1
 10
0.0
 20
0.0
 30
0.0
  0
VERTEX
  5
336
330
334
100
AcDbEntity
  8
001
370
    50
100
AcDbVertex
100
AcDb2dVertex
 10
63.353437
 20
124.896886
 30
0.0
  0
VERTEX
  5
337
330
334
100
AcDbEntity
  8
001
370
    50
100
AcDbVertex
100
AcDb2dVertex
 10
61.439347
 20
124.792464
 30
0.0
  0
VERTEX
  5
338
330
334
100
AcDbEntity
  8
001
370
    50
100
AcDbVertex
100
AcDb2dVertex
 10
58.641914
 20
124.638328
 30
0.0
  0
VERTEX
  5
339
330
334
100
AcDbEntity
  8
001
370
    50
100
AcDbVertex
100
AcDb2dVertex
 10
55.813523
 20
124.480348
 30
0.0
  0
VERTEX
  5
33A
330
334
100
AcDbEntity
  8
001
370
    50
100
AcDbVertex
100
AcDb2dVertex
 10
53.878366
 20
124.371215
 30
0.0
  0
SEQEND
  5
335
330
334
100
AcDbEntity
  8
001
370
    50
  0
POLYLINE
  5
33B
330
1F
100
AcDbEntity
  8
001
370
    50
100
AcDb2dPolyline
 66
     1
 10
0.0
 20
0.0
 30
0.0
  0
VERTEX
  5
33D
330
33B
100
AcDbEntity
  8
001
370
    50
100
AcDbVertex
100
AcDb2dVertex
 10
55.714824
 20
123.256484
 30
0.0
  0
VERTEX
  5
33E
330
33B
100
AcDbEntity
  8
001
370
    50
100
AcDbVertex
100
AcDb2dVertex
 10
55.717658
 20
123.315286
 30
0.0
  0
VERTEX
  5
33F
330
33B
100
AcDbEntity
  8
001
370
    50
100
AcDbVertex
100
AcDb2dVertex
 10
55.715087
 20
123.397332
 30
0.0
  0
VERTEX
  5
340
330
33B
100
AcDbEntity
  8
001
370
    50
100
AcDbVertex
100
AcDb2dVertex
 10
55.693291
 20
123.510709
 30
0.0
  0
VERTEX
  5
341
330
33B
100
AcDbEntity
  8
001
370
    50
100
AcDbVertex
100
AcDb2dVertex
 10
55.652175
 20
123.607568
 30
0.0
  0
VERTEX
  5
342
330
33B
100
AcDbEntity
  8
001
370
    50
100
AcDbVertex
100
AcDb2dVertex
 10
55.590428
 20
123.708453
 30
0.0
  0
VERTEX
  5
343
330
33B
100
AcDbEntity
  8
001
370
    50
100
AcDbVertex
100
AcDb2dVertex
 10
55.514185
 20
123.802657
 30
0.0
  0
VERTEX
  5
344
330
33B
100
AcDbEntity
  8
001
370
    50
100
AcDbVertex
100
AcDb2dVertex
 10
55.413838
 20
123.896169
 30
0.0
  0
VERTEX
  5
345
330
33B
100
AcDbEntity
  8
001
370
    50
100
AcDbVertex
100
AcDb2dVertex
 10
55.305312
 20
123.976671
 30
0.0
  0
VERTEX
  5
346
330
33B
100
AcDbEntity
  8
001
370
    50
100
AcDbVertex
100
AcDb2dVertex
 10
54.862572
 20
124.199852
 30
0.0
  0
VERTEX
  5
347
330
33B
100
AcDbEntity
  8
001
370
    50
100
AcDbVertex
100
AcDb2dVertex
 10
54.326404
 20
124.323529
 30
0.0
  0
VERTEX
  5
348
330
33B
100
AcDbEntity
  8
001
370
    50
100
AcDbVertex
100
AcDb2dVertex
 10
54.06454
 20
124.355379
 30
0.0
  0
VERTEX
  5
349
330
33B
100
AcDbEntity
  8
001
370
    50
100
AcDbVertex
100
AcDb2dVertex
 10
53.878366
 20
124.371215
 30
0.0
  0
SEQEND
  5
33C
330
33B
100
AcDbEntity
  8
001
370
    50
  0
POLYLINE
  5
34A
330
1F
100
AcDbEntity
  8
001
370
    50
100
AcDb2dPolyline
 66
     1
 10
0.0
 20
0.0
 30
0.0
  0
VERTEX
  5
34C
330
34A
100
AcDbEntity
  8
001
370
    50
100
AcDbVertex
100
AcDb2dVertex
 10
50.647739
 20
122.961601
 30
0.0
  0
VERTEX
  5
34D
330
34A
100
AcDbEntity
  8
001
370
    50
100
AcDbVertex
100
AcDb2dVertex
 10
50.64491
 20
122.902799
 30
0.0
  0
VERTEX
  5
34E
330
34A
100
AcDbEntity
  8
001
370
    50
100
AcDbVertex
100
AcDb2dVertex
 10
50.647476
 20
122.820753
 30
0.0
  0
VERTEX
  5
34F
330
34A
100
AcDbEntity
  8
001
370
    50
100
AcDbVertex
100
AcDb2dVertex
 10
50.669231
 20
122.707378
 30
0.0
  0
VERTEX
  5
350
330
34A
100
AcDbEntity
  8
001
370
    50
100
AcDbVertex
100
AcDb2dVertex
 10
50.710388
 20
122.610517
 30
0.0
  0
VERTEX
  5
351
330
34A
100
AcDbEntity
  8
001
370
    50
100
AcDbVertex
100
AcDb2dVertex
 10
50.772322
 20
122.509622
 30
0.0
  0
VERTEX
  5
352
330
34A
100
AcDbEntity
  8
001
370
    50
100
AcDbVertex
100
AcDb2dVertex
 10
50.848378
 20
122.415428
 30
0.0
  0
VERTEX
  5
353
330
34A
100
AcDbEntity
  8
001
370
    50
100
AcDbVertex
100
AcDb2dVertex
 10
50.947877
 20
122.321962
 30
0.0
  0
VERTEX
  5
354
330
34A
100
AcDbEntity
  8
001
370
    50
100
AcDbVertex
100
AcDb2dVertex
 10
51.057251
 20
122.241414
 30
0.0
  0
VERTEX
  5
355
330
34A
100
AcDbEntity
  8
001
370
    50
100
AcDbVertex
100
AcDb2dVertex
 10
51.525076
 20
122.016866
 30
0.0
  0
VERTEX
  5
356
330
34A
100
AcDbEntity
  8
001
370
    50
100
AcDbVertex
100
AcDb2dVertex
 10
52.036159
 20
121.894556
 30
0.0
  0
VERTEX
  5
357
330
34A
100
AcDbEntity
  8
001
370
    50
100
AcDbVertex
100
AcDb2dVertex
 10
52.457887
 20
121.848376
 30
0.0
  0
VERTEX
  5
358
330
34A
100
AcDbEntity
  8
001
370
    50
100
AcDbVertex
100
AcDb2dVertex
 10
52.879775
 20
121.841834
 30
0.0
  0
VERTEX
  5
359
330
34A
100
AcDbEntity
  8
001
370
    50
100
AcDbVertex
100
AcDb2dVertex
 10
53.101071
 20
121.852764
 30
0.0
  0
VERTEX
  5
35A
330
34A
100
AcDbEntity
  8
001
370
    50
100
AcDbVertex
100
AcDb2dVertex
 10
53.321902
 20
121.873118
 30
0.0
  0
VERTEX
  5
35B
330
34A
100
AcDbEntity
  8
001
370
    50
100
AcDbVertex
100
AcDb2dVertex
 10
53.541664
 20
121.902781
 30
0.0
  0
VERTEX
  5
35C
330
34A
100
AcDbEntity
  8
001
370
    50
100
AcDbVertex
100
AcDb2dVertex
 10
53.759756
 20
121.941956
 30
0.0
  0
VERTEX
  5
35D
330
34A
100
AcDbEntity
  8
001
370
    50
100
AcDbVertex
100
AcDb2dVertex
 10
54.169416
 20
122.043947
 30
0.0
  0
VERTEX
  5
35E
330
34A
100
AcDbEntity
  8
001
370
    50
100
AcDbVertex
100
AcDb2dVertex
 10
54.569965
 20
122.182846
 30
0.0
  0
VERTEX
  5
35F
330
34A
100
AcDbEntity
  8
001
370
    50
100
AcDbVertex
100
AcDb2dVertex
 10
55.040351
 20
122.41238
 30
0.0
  0
VERTEX
  5
360
330
34A
100
AcDbEntity
  8
001
370
    50
100
AcDbVertex
100
AcDb2dVertex
 10
55.445932
 20
122.740747
 30
0.0
  0
VERTEX
  5
361
330
34A
100
AcDbEntity
  8
001
370
    50
100
AcDbVertex
100
AcDb2dVertex
 10
55.534533
 20
122.847073
 30
0.0
  0
VERTEX
  5
362
330
34A
100
AcDbEntity
  8
001
370
    50
100
AcDbVertex
100
AcDb2dVertex
 10
55.610375
 20
122.957235
 30
0.0
  0
VERTEX
  5
363
330
34A
100
AcDbEntity
  8
001
370
    50
100
AcDbVertex
100
AcDb2dVertex
 10
55.663007
 20
123.057123
 30
0.0
  0
VERTEX
  5
364
330
34A
100
AcDbEntity
  8
001
370
    50
100
AcDbVertex
100
AcDb2dVertex
 10
55.701012
 20
123.178337
 30
0.0
  0
VERTEX
  5
365
330
34A
100
AcDbEntity
  8
001
370
    50
100
AcDbVertex
100
AcDb2dVertex
 10
55.709871
 20
123.224063
 30
0.0
  0
VERTEX
  5
366
330
34A
100
AcDbEntity
  8
001
370
    50
100
AcDbVertex
100
AcDb2dVertex
 10
55.714824
 20
123.256484
 30
0.0
  0
SEQEND
  5
34B
330
34A
100
AcDbEntity
  8
001
370
    50
  0
POLYLINE
  5
367
330
1F
100
AcDbEntity
  8
001
370
    50
100
AcDb2dPolyline
 66
     1
 10
0.0
 20
0.0
 30
0.0
  0
VERTEX
  5
369
330
367
100
AcDbEntity
  8
001
370
    50
100
AcDbVertex
100
AcDb2dVertex
 10
53.878366
 20
124.371215
 30
0.0
  0
VERTEX
  5
36A
330
367
100
AcDbEntity
  8
001
370
    50
100
AcDbVertex
100
AcDb2dVertex
 10
53.717273
 20
124.317712
 30
0.0
  0
VERTEX
  5
36B
330
367
100
AcDbEntity
  8
001
370
    50
100
AcDbVertex
100
AcDb2dVertex
 10
53.553767
 20
124.273848
 30
0.0
  0
VERTEX
  5
36C
330
367
100
AcDbEntity
  8
001
370
    50
100
AcDbVertex
100
AcDb2dVertex
 10
53.36272
 20
124.245442
 30
0.0
  0
VERTEX
  5
36D
330
367
100
AcDbEntity
  8
001
370
    50
100
AcDbVertex
100
AcDb2dVertex
 10
53.169117
 20
124.241454
 30
0.0
  0
VERTEX
  5
36E
330
367
100
AcDbEntity
  8
001
370
    50
100
AcDbVertex
100
AcDb2dVertex
 10
52.998608
 20
124.258044
 30
0.0
  0
VERTEX
  5
36F
330
367
100
AcDbEntity
  8
001
370
    50
100
AcDbVertex
100
AcDb2dVertex
 10
52.831578
 20
124.294249
 30
0.0
  0
VERTEX
  5
370
330
367
100
AcDbEntity
  8
001
370
    50
100
AcDbVertex
100
AcDb2dVertex
 10
52.806689
 20
124.301475
 30
0.0
  0
VERTEX
  5
371
330
367
100
AcDbEntity
  8
001
370
    50
100
AcDbVertex
100
AcDb2dVertex
 10
52.78187
 20
124.308938
 30
0.0
  0
SEQEND
  5
368
330
367
100
AcDbEntity
  8
001
370
    50
  0
LINE
  5
372
330
1F
100
AcDbEntity
  8
001
370
    50
100
AcDbLine
 10
59.752841
 20
81.868487
 30
0.0
 11
59.752841
 21
80.136436
 31
0.0
  0
LINE
  5
373
330
1F
100
AcDbEntity
  8
001
370
    50
100
AcDbLine
 10
56.752841
 20
80.136436
 30
0.0
 11
56.752841
 21
81.868487
 31
0.0
  0
LINE
  5
374
330
1F
100
AcDbEntity
  8
001
370
    50
100
AcDbLine
 10
56.752841
 20
81.868487
 30
0.0
 11
58.252841
 21
82.734512
 31
0.0
  0
LINE
  5
375
330
1F
100
AcDbEntity
  8
001
370
    50
100
AcDbLine
 10
59.752841
 20
80.136436
 30
0.0
 11
58.252841
 21
79.270411
 31
0.0
  0
LINE
  5
376
330
1F
100
AcDbEntity
  8
001
370
    50
100
AcDbLine
 10
58.252841
 20
79.270411
 30
0.0
 11
56.752841
 21
80.136436
 31
0.0
  0
LINE
  5
377
330
1F
100
AcDbEntity
  8
001
370
    50
100
AcDbLine
 10
59.752841
 20
81.868487
 30
0.0
 11
58.252841
 21
82.734512
 31
0.0
  0
LINE
  5
378
330
1F
100
AcDbEntity
  8
001
  6
CENTER
370
     9
100
AcDbLine
 10
42.329135
 20
101.330316
 30
0.0
 11
166.577231
 21
101.330316
 31
0.0
  0
LINE
  5
379
330
1F
100
AcDbEntity
  8
001
370
    50
100
AcDbLine
 10
80.974223
 20
85.330316
 30
0.0
 11
80.974223
 21
117.330316
 31
0.0
  0
LINE
  5
37A
330
1F
100
AcDbEntity
  8
001
370
    50
100
AcDbLine
 10
80.974223
 20
116.830316
 30
0.0
 11
78.974223
 21
116.830316
 31
0.0
  0
LINE
  5
37B
330
1F
100
AcDbEntity
  8
001
370
    50
100
AcDbLine
 10
78.974223
 20
85.830316
 30
0.0
 11
80.974223
 21
85.830316
 31
0.0
  0
LINE
  5
37C
330
1F
100
AcDbEntity
  8
001
370
    50
100
AcDbLine
 10
163.974223
 20
101.330316
 30
0.0
 11
166.572299
 21
102.830316
 31
0.0
  0
LINE
  5
37D
330
1F
100
AcDbEntity
  8
001
370
    50
100
AcDbLine
 10
163.974223
 20
101.330316
 30
0.0
 11
166.572299
 21
99.830316
 31
0.0
  0
LINE
  5
37E
330
1F
100
AcDbEntity
  8
001
370
    50
100
AcDbLine
 10
50.912464
 20
84.433928
 30
0.0
 11
44.080357
 21
72.528501
 31
0.0
  0
LINE
  5
37F
330
1F
100
AcDbEntity
  8
001
370
    50
100
AcDbLine
 10
58.502773
 20
71.366255
 30
0.0
 11
44.776317
 21
71.330319
 31
0.0
  0
ARC
  5
380
330
1F
100
AcDbEntity
  8
001
370
    50
100
AcDbCircle
 10
44.774223
 20
72.130316
 30
0.0
 40
0.8
100
AcDbArc
 50
150.15
 51
270.15
  0
ARC
  5
381
330
1F
100
AcDbEntity
  8
001
370
    50
100
AcDbCircle
 10
58.500678
 20
72.166252
 30
0.0
 40
0.8
100
AcDbArc
 50
270.15
 51
30.15
  0
ARC
  5
382
330
1F
100
AcDbEntity
  8
001
370
    50
100
AcDbCircle
 10
51.606329
 20
84.035743
 30
0.0
 40
0.8
100
AcDbArc
 50
30.15
 51
150.15
  0
LINE
  5
383
330
1F
100
AcDbEntity
  8
001
370
    50
100
AcDbLine
 10
52.2981
 20
84.437556
 30
0.0
 11
52.96292
 21
83.292984
 31
0.0
  0
POLYLINE
  5
384
330
1F
100
AcDbEntity
  8
001
370
    50
100
AcDb2dPolyline
 66
     1
 10
0.0
 20
0.0
 30
0.0
  0
VERTEX
  5
386
330
384
100
AcDbEntity
  8
001
370
    50
100
AcDbVertex
100
AcDb2dVertex
 10
51.608074
 20
86.654788
 30
0.0
  0
VERTEX
  5
387
330
384
100
AcDbEntity
  8
001
370
    50
100
AcDbVertex
100
AcDb2dVertex
 10
51.486192
 20
86.641821
 30
0.0
  0
VERTEX
  5
388
330
384
100
AcDbEntity
  8
001
370
    50
100
AcDbVertex
100
AcDb2dVertex
 10
51.316154
 20
86.617855
 30
0.0
  0
VERTEX
  5
389
330
384
100
AcDbEntity
  8
001
370
    50
100
AcDbVertex
100
AcDb2dVertex
 10
51.047963
 20
86.560075
 30
0.0
  0
VERTEX
  5
38A
330
384
100
AcDbEntity
  8
001
370
    50
100
AcDbVertex
100
AcDb2dVertex
 10
50.813536
 20
86.48251
 30
0.0
  0
VERTEX
  5
38B
330
384
100
AcDbEntity
  8
001
370
    50
100
AcDbVertex
100
AcDb2dVertex
 10
50.577195
 20
86.382888
 30
0.0
  0
VERTEX
  5
38C
330
384
100
AcDbEntity
  8
001
370
    50
100
AcDbVertex
100
AcDb2dVertex
 10
50.34194
 20
86.261508
 30
0.0
  0
VERTEX
  5
38D
330
384
100
AcDbEntity
  8
001
370
    50
100
AcDbVertex
100
AcDb2dVertex
 10
49.721058
 20
85.783701
 30
0.0
  0
VERTEX
  5
38E
330
384
100
AcDbEntity
  8
001
370
    50
100
AcDbVertex
100
AcDb2dVertex
 10
49.249293
 20
85.163432
 30
0.0
  0
VERTEX
  5
38F
330
384
100
AcDbEntity
  8
001
370
    50
100
AcDbVertex
100
AcDb2dVertex
 10
49.029737
 20
84.688201
 30
0.0
  0
VERTEX
  5
390
330
384
100
AcDbEntity
  8
001
370
    50
100
AcDbVertex
100
AcDb2dVertex
 10
48.894708
 20
84.184377
 30
0.0
  0
VERTEX
  5
391
330
384
100
AcDbEntity
  8
001
370
    50
100
AcDbVertex
100
AcDb2dVertex
 10
48.860185
 20
83.925464
 30
0.0
  0
VERTEX
  5
392
330
384
100
AcDbEntity
  8
001
370
    50
100
AcDbVertex
100
AcDb2dVertex
 10
48.849356
 20
83.663432
 30
0.0
  0
VERTEX
  5
393
330
384
100
AcDbEntity
  8
001
370
    50
100
AcDbVertex
100
AcDb2dVertex
 10
48.862397
 20
83.39978
 30
0.0
  0
VERTEX
  5
394
330
384
100
AcDbEntity
  8
001
370
    50
100
AcDbVertex
100
AcDb2dVertex
 10
48.894708
 20
83.142488
 30
0.0
  0
VERTEX
  5
395
330
384
100
AcDbEntity
  8
001
370
    50
100
AcDbVertex
100
AcDb2dVertex
 10
49.012158
 20
82.661195
 30
0.0
  0
VERTEX
  5
396
330
384
100
AcDbEntity
  8
001
370
    50
100
AcDbVertex
100
AcDb2dVertex
 10
49.249293
 20
82.163432
 30
0.0
  0
VERTEX
  5
397
330
384
100
AcDbEntity
  8
001
370
    50
100
AcDbVertex
100
AcDb2dVertex
 10
49.359082
 20
81.989646
 30
0.0
  0
VERTEX
  5
398
330
384
100
AcDbEntity
  8
001
370
    50
100
AcDbVertex
100
AcDb2dVertex
 10
49.441284
 20
81.870294
 30
0.0
  0
SEQEND
  5
385
330
384
100
AcDbEntity
  8
001
370
    50
  0
POLYLINE
  5
399
330
1F
100
AcDbEntity
  8
001
370
    50
100
AcDb2dPolyline
 66
     1
 10
0.0
 20
0.0
 30
0.0
  0
VERTEX
  5
39B
330
399
100
AcDbEntity
  8
001
370
    50
100
AcDbVertex
100
AcDb2dVertex
 10
51.381625
 20
86.663432
 30
0.0
  0
VERTEX
  5
39C
330
399
100
AcDbEntity
  8
001
370
    50
100
AcDbVertex
100
AcDb2dVertex
 10
51.162813
 20
86.652021
 30
0.0
  0
VERTEX
  5
39D
330
399
100
AcDbEntity
  8
001
370
    50
100
AcDbVertex
100
AcDb2dVertex
 10
50.863256
 20
86.617855
 30
0.0
  0
VERTEX
  5
39E
330
399
100
AcDbEntity
  8
001
370
    50
100
AcDbVertex
100
AcDb2dVertex
 10
50.597764
 20
86.561131
 30
0.0
  0
VERTEX
  5
39F
330
399
100
AcDbEntity
  8
001
370
    50
100
AcDbVertex
100
AcDb2dVertex
 10
50.360638
 20
86.48251
 30
0.0
  0
VERTEX
  5
3A0
330
399
100
AcDbEntity
  8
001
370
    50
100
AcDbVertex
100
AcDb2dVertex
 10
50.123486
 20
86.382573
 30
0.0
  0
VERTEX
  5
3A1
330
399
100
AcDbEntity
  8
001
370
    50
100
AcDbVertex
100
AcDb2dVertex
 10
49.889042
 20
86.261508
 30
0.0
  0
VERTEX
  5
3A2
330
399
100
AcDbEntity
  8
001
370
    50
100
AcDbVertex
100
AcDb2dVertex
 10
49.268981
 20
85.783965
 30
0.0
  0
VERTEX
  5
3A3
330
399
100
AcDbEntity
  8
001
370
    50
100
AcDbVertex
100
AcDb2dVertex
 10
48.796395
 20
85.163432
 30
0.0
  0
VERTEX
  5
3A4
330
399
100
AcDbEntity
  8
001
370
    50
100
AcDbVertex
100
AcDb2dVertex
 10
48.576703
 20
84.688291
 30
0.0
  0
VERTEX
  5
3A5
330
399
100
AcDbEntity
  8
001
370
    50
100
AcDbVertex
100
AcDb2dVertex
 10
48.44181
 20
84.184377
 30
0.0
  0
VERTEX
  5
3A6
330
399
100
AcDbEntity
  8
001
370
    50
100
AcDbVertex
100
AcDb2dVertex
 10
48.407331
 20
83.92527
 30
0.0
  0
VERTEX
  5
3A7
330
399
100
AcDbEntity
  8
001
370
    50
100
AcDbVertex
100
AcDb2dVertex
 10
48.396458
 20
83.663432
 30
0.0
  0
VERTEX
  5
3A8
330
399
100
AcDbEntity
  8
001
370
    50
100
AcDbVertex
100
AcDb2dVertex
 10
48.409381
 20
83.400462
 30
0.0
  0
VERTEX
  5
3A9
330
399
100
AcDbEntity
  8
001
370
    50
100
AcDbVertex
100
AcDb2dVertex
 10
48.44181
 20
83.142488
 30
0.0
  0
VERTEX
  5
3AA
330
399
100
AcDbEntity
  8
001
370
    50
100
AcDbVertex
100
AcDb2dVertex
 10
48.560408
 20
82.65432
 30
0.0
  0
VERTEX
  5
3AB
330
399
100
AcDbEntity
  8
001
370
    50
100
AcDbVertex
100
AcDb2dVertex
 10
48.796395
 20
82.163432
 30
0.0
  0
VERTEX
  5
3AC
330
399
100
AcDbEntity
  8
001
370
    50
100
AcDbVertex
100
AcDb2dVertex
 10
49.052319
 20
81.798936
 30
0.0
  0
VERTEX
  5
3AD
330
399
100
AcDbEntity
  8
001
370
    50
100
AcDbVertex
100
AcDb2dVertex
 10
49.2595
 20
81.553522
 30
0.0
  0
SEQEND
  5
39A
330
399
100
AcDbEntity
  8
001
370
    50
  0
LINE
  5
3AE
330
1F
100
AcDbEntity
  8
001
370
    50
100
AcDbLine
 10
45.174223
 20
74.434638
 30
0.0
 11
45.174223
 21
86.105153
 31
0.0
  0
LINE
  5
3AF
330
1F
100
AcDbEntity
  8
001
370
    50
100
AcDbLine
 10
57.611389
 20
75.290058
 30
0.0
 11
59.192449
 21
72.568065
 31
0.0
  0
POLYLINE
  5
3B0
330
1F
100
AcDbEntity
  8
001
370
    50
100
AcDb2dPolyline
 66
     1
 10
0.0
 20
0.0
 30
0.0
  0
VERTEX
  5
3B2
330
3B0
100
AcDbEntity
  8
001
370
    50
100
AcDbVertex
100
AcDb2dVertex
 10
59.287336
 20
72.31175
 30
0.0
  0
VERTEX
  5
3B3
330
3B0
100
AcDbEntity
  8
001
370
    50
100
AcDbVertex
100
AcDb2dVertex
 10
59.470277
 20
72.316053
 30
0.0
  0
VERTEX
  5
3B4
330
3B0
100
AcDbEntity
  8
001
370
    50
100
AcDbVertex
100
AcDb2dVertex
 10
59.737653
 20
72.322362
 30
0.0
  0
VERTEX
  5
3B5
330
3B0
100
AcDbEntity
  8
001
370
    50
100
AcDbVertex
100
AcDb2dVertex
 10
60.00493
 20
72.328696
 30
0.0
  0
VERTEX
  5
3B6
330
3B0
100
AcDbEntity
  8
001
370
    50
100
AcDbVertex
100
AcDb2dVertex
 10
60.187804
 20
72.333043
 30
0.0
  0
SEQEND
  5
3B1
330
3B0
100
AcDbEntity
  8
001
370
    50
  0
LINE
  5
3B7
330
1F
100
AcDbEntity
  8
001
370
    50
100
AcDbLine
 10
59.295228
 20
72.25948
 30
0.0
 11
63.353437
 21
72.330316
 31
0.0
  0
ARC
  5
3B8
330
1F
100
AcDbEntity
  8
001
370
    50
100
AcDbCircle
 10
51.627077
 20
76.110771
 30
0.0
 40
1.9
100
AcDbArc
 50
63.646844
 51
356.107513
  0
LINE
  5
3B9
330
1F
100
AcDbEntity
  8
001
370
     9
100
AcDbLine
 10
43.974223
 20
72.130316
 30
0.0
 11
43.974223
 21
58.799079
 31
0.0
  0
LINE
  5
3BA
330
1F
100
AcDbEntity
  8
001
370
     9
100
AcDbLine
 10
33.139198
 20
71.330316
 30
0.0
 11
44.774223
 21
71.330316
 31
0.0
  0
LINE
  5
3BB
330
1F
100
AcDbEntity
  8
001
370
    50
100
AcDbLine
 10
55.592924
 20
-15.262827
 30
0.0
 11
54.807182
 21
-15.987641
 31
0.0
  0
LINE
  5
3BC
330
1F
100
AcDbEntity
  8
001
370
    50
100
AcDbLine
 10
55.668983
 20
-15.922747
 30
0.0
 11
55.592924
 21
-15.262827
 31
0.0
  0
LINE
  5
3BD
330
1F
100
AcDbEntity
  8
001
370
    50
100
AcDbLine
 10
62.747217
 20
-16.005242
 30
0.0
 11
62.732249
 21
-15.87537
 31
0.0
  0
LINE
  5
3BE
330
1F
100
AcDbEntity
  8
001
370
    50
100
AcDbLine
 10
56.355348
 20
-14.576594
 30
0.0
 11
55.592924
 21
-15.262827
 31
0.0
  0
LINE
  5
3BF
330
1F
100
AcDbEntity
  8
001
370
    50
100
AcDbLine
 10
56.355348
 20
-14.576594
 30
0.0
 11
62.732249
 21
-15.87537
 31
0.0
  0
LINE
  5
3C0
330
1F
100
AcDbEntity
  8
001
370
    50
100
AcDbLine
 10
62.732249
 20
-15.87537
 30
0.0
 11
62.802809
 21
-16.001592
 31
0.0
  0
LINE
  5
3C1
330
1F
100
AcDbEntity
  8
001
370
    50
100
AcDbLine
 10
45.174223
 20
-22.016618
 30
0.0
 11
44.544247
 21
-21.493596
 31
0.0
  0
POLYLINE
  5
3C2
330
1F
100
AcDbEntity
  8
001
370
    50
100
AcDb2dPolyline
 66
     1
 10
0.0
 20
0.0
 30
0.0
  0
VERTEX
  5
3C4
330
3C2
100
AcDbEntity
  8
001
370
    50
100
AcDbVertex
100
AcDb2dVertex
 10
44.44828
 20
-21.333788
 30
0.0
  0
VERTEX
  5
3C5
330
3C2
100
AcDbEntity
  8
001
370
    50
100
AcDbVertex
100
AcDb2dVertex
 10
44.454987
 20
-21.362669
 30
0.0
  0
VERTEX
  5
3C6
330
3C2
100
AcDbEntity
  8
001
370
    50
100
AcDbVertex
100
AcDb2dVertex
 10
44.468118
 20
-21.400553
 30
0.0
  0
VERTEX
  5
3C7
330
3C2
100
AcDbEntity
  8
001
370
    50
100
AcDbVertex
100
AcDb2dVertex
 10
44.486155
 20
-21.433417
 30
0.0
  0
VERTEX
  5
3C8
330
3C2
100
AcDbEntity
  8
001
370
    50
100
AcDbVertex
100
AcDb2dVertex
 10
44.511319
 20
-21.462527
 30
0.0
  0
VERTEX
  5
3C9
330
3C2
100
AcDbEntity
  8
001
370
    50
100
AcDbVertex
100
AcDb2dVertex
 10
44.530153
 20
-21.480866
 30
0.0
  0
VERTEX
  5
3CA
330
3C2
100
AcDbEntity
  8
001
370
    50
100
AcDbVertex
100
AcDb2dVertex
 10
44.544247
 20
-21.493596
 30
0.0
  0
SEQEND
  5
3C3
330
3C2
100
AcDbEntity
  8
001
370
    50
  0
LINE
  5
3CB
330
1F
100
AcDbEntity
  8
001
370
    50
100
AcDbLine
 10
45.25457
 20
-20.844462
 30
0.0
 11
58.930524
 21
-19.814647
 31
0.0
  0
POLYLINE
  5
3CC
330
1F
100
AcDbEntity
  8
001
370
    50
100
AcDb2dPolyline
 66
     1
 10
0.0
 20
0.0
 30
0.0
  0
VERTEX
  5
3CE
330
3CC
100
AcDbEntity
  8
001
370
    50
100
AcDbVertex
100
AcDb2dVertex
 10
59.433011
 20
-19.869223
 30
0.0
  0
VERTEX
  5
3CF
330
3CC
100
AcDbEntity
  8
001
370
    50
100
AcDbVertex
100
AcDb2dVertex
 10
59.363887
 20
-19.849609
 30
0.0
  0
VERTEX
  5
3D0
330
3CC
100
AcDbEntity
  8
001
370
    50
100
AcDbVertex
100
AcDb2dVertex
 10
59.268232
 20
-19.827746
 30
0.0
  0
VERTEX
  5
3D1
330
3CC
100
AcDbEntity
  8
001
370
    50
100
AcDbVertex
100
AcDb2dVertex
 10
59.139672
 20
-19.810469
 30
0.0
  0
VERTEX
  5
3D2
330
3CC
100
AcDbEntity
  8
001
370
    50
100
AcDbVertex
100
AcDb2dVertex
 10
59.00544
 20
-19.8108
 30
0.0
  0
VERTEX
  5
3D3
330
3CC
100
AcDbEntity
  8
001
370
    50
100
AcDbVertex
100
AcDb2dVertex
 10
58.961572
 20
-19.812823
 30
0.0
  0
VERTEX
  5
3D4
330
3CC
100
AcDbEntity
  8
001
370
    50
100
AcDbVertex
100
AcDb2dVertex
 10
58.930524
 20
-19.814647
 30
0.0
  0
SEQEND
  5
3CD
330
3CC
100
AcDbEntity
  8
001
370
    50
  0
POLYLINE
  5
3D5
330
1F
100
AcDbEntity
  8
001
370
    50
100
AcDb2dPolyline
 66
     1
 10
0.0
 20
0.0
 30
0.0
  0
VERTEX
  5
3D7
330
3D5
100
AcDbEntity
  8
001
370
    50
100
AcDbVertex
100
AcDb2dVertex
 10
45.25457
 20
-20.844462
 30
0.0
  0
VERTEX
  5
3D8
330
3D5
100
AcDbEntity
  8
001
370
    50
100
AcDbVertex
100
AcDb2dVertex
 10
45.228526
 20
-20.846737
 30
0.0
  0
VERTEX
  5
3D9
330
3D5
100
AcDbEntity
  8
001
370
    50
100
AcDbVertex
100
AcDb2dVertex
 10
45.191828
 20
-20.850439
 30
0.0
  0
VERTEX
  5
3DA
330
3D5
100
AcDbEntity
  8
001
370
    50
100
AcDbVertex
100
AcDb2dVertex
 10
45.119232
 20
-20.860128
 30
0.0
  0
VERTEX
  5
3DB
330
3D5
100
AcDbEntity
  8
001
370
    50
100
AcDbVertex
100
AcDb2dVertex
 10
45.055546
 20
-20.872187
 30
0.0
  0
VERTEX
  5
3DC
330
3D5
100
AcDbEntity
  8
001
370
    50
100
AcDbVertex
100
AcDb2dVertex
 10
44.930709
 20
-20.90421
 30
0.0
  0
VERTEX
  5
3DD
330
3D5
100
AcDbEntity
  8
001
370
    50
100
AcDbVertex
100
AcDb2dVertex
 10
44.803499
 20
-20.948471
 30
0.0
  0
VERTEX
  5
3DE
330
3D5
100
AcDbEntity
  8
001
370
    50
100
AcDbVertex
100
AcDb2dVertex
 10
44.656033
 20
-21.021806
 30
0.0
  0
VERTEX
  5
3DF
330
3D5
100
AcDbEntity
  8
001
370
    50
100
AcDbVertex
100
AcDb2dVertex
 10
44.531341
 20
-21.125389
 30
0.0
  0
VERTEX
  5
3E0
330
3D5
100
AcDbEntity
  8
001
370
    50
100
AcDbVertex
100
AcDb2dVertex
 10
44.504039
 20
-21.158931
 30
0.0
  0
VERTEX
  5
3E1
330
3D5
100
AcDbEntity
  8
001
370
    50
100
AcDbVertex
100
AcDb2dVertex
 10
44.48038
 20
-21.194083
 30
0.0
  0
VERTEX
  5
3E2
330
3D5
100
AcDbEntity
  8
001
370
    50
100
AcDbVertex
100
AcDb2dVertex
 10
44.463617
 20
-21.226449
 30
0.0
  0
VERTEX
  5
3E3
330
3D5
100
AcDbEntity
  8
001
370
    50
100
AcDbVertex
100
AcDb2dVertex
 10
44.45241
 20
-21.26426
 30
0.0
  0
VERTEX
  5
3E4
330
3D5
100
AcDbEntity
  8
001
370
    50
100
AcDbVertex
100
AcDb2dVertex
 10
44.448042
 20
-21.304442
 30
0.0
  0
VERTEX
  5
3E5
330
3D5
100
AcDbEntity
  8
001
370
    50
100
AcDbVertex
100
AcDb2dVertex
 10
44.44828
 20
-21.333788
 30
0.0
  0
SEQEND
  5
3D6
330
3D5
100
AcDbEntity
  8
001
370
    50
  0
POLYLINE
  5
3E6
330
1F
100
AcDbEntity
  8
001
370
    50
100
AcDb2dPolyline
 66
     1
 10
0.0
 20
0.0
 30
0.0
  0
VERTEX
  5
3E8
330
3E6
100
AcDbEntity
  8
001
370
    50
100
AcDbVertex
100
AcDb2dVertex
 10
44.781808
 20
-16.742563
 30
0.0
  0
VERTEX
  5
3E9
330
3E6
100
AcDbEntity
  8
001
370
    50
100
AcDbVertex
100
AcDb2dVertex
 10
44.755764
 20
-16.744839
 30
0.0
  0
VERTEX
  5
3EA
330
3E6
100
AcDbEntity
  8
001
370
    50
100
AcDbVertex
100
AcDb2dVertex
 10
44.719066
 20
-16.74854
 30
0.0
  0
VERTEX
  5
3EB
330
3E6
100
AcDbEntity
  8
001
370
    50
100
AcDbVertex
100
AcDb2dVertex
 10
44.64647
 20
-16.758229
 30
0.0
  0
VERTEX
  5
3EC
330
3E6
100
AcDbEntity
  8
001
370
    50
100
AcDbVertex
100
AcDb2dVertex
 10
44.582784
 20
-16.770288
 30
0.0
  0
VERTEX
  5
3ED
330
3E6
100
AcDbEntity
  8
001
370
    50
100
AcDbVertex
100
AcDb2dVertex
 10
44.457947
 20
-16.802312
 30
0.0
  0
VERTEX
  5
3EE
330
3E6
100
AcDbEntity
  8
001
370
    50
100
AcDbVertex
100
AcDb2dVertex
 10
44.330737
 20
-16.846572
 30
0.0
  0
VERTEX
  5
3EF
330
3E6
100
AcDbEntity
  8
001
370
    50
100
AcDbVertex
100
AcDb2dVertex
 10
44.183271
 20
-16.919907
 30
0.0
  0
VERTEX
  5
3F0
330
3E6
100
AcDbEntity
  8
001
370
    50
100
AcDbVertex
100
AcDb2dVertex
 10
44.058579
 20
-17.02349
 30
0.0
  0
VERTEX
  5
3F1
330
3E6
100
AcDbEntity
  8
001
370
    50
100
AcDbVertex
100
AcDb2dVertex
 10
44.031277
 20
-17.057032
 30
0.0
  0
VERTEX
  5
3F2
330
3E6
100
AcDbEntity
  8
001
370
    50
100
AcDbVertex
100
AcDb2dVertex
 10
44.007618
 20
-17.092185
 30
0.0
  0
VERTEX
  5
3F3
330
3E6
100
AcDbEntity
  8
001
370
    50
100
AcDbVertex
100
AcDb2dVertex
 10
43.990855
 20
-17.12455
 30
0.0
  0
VERTEX
  5
3F4
330
3E6
100
AcDbEntity
  8
001
370
    50
100
AcDbVertex
100
AcDb2dVertex
 10
43.979648
 20
-17.162362
 30
0.0
  0
VERTEX
  5
3F5
330
3E6
100
AcDbEntity
  8
001
370
    50
100
AcDbVertex
100
AcDb2dVertex
 10
43.97528
 20
-17.202544
 30
0.0
  0
VERTEX
  5
3F6
330
3E6
100
AcDbEntity
  8
001
370
    50
100
AcDbVertex
100
AcDb2dVertex
 10
43.975518
 20
-17.231889
 30
0.0
  0
SEQEND
  5
3E7
330
3E6
100
AcDbEntity
  8
001
370
    50
  0
LINE
  5
3F7
330
1F
100
AcDbEntity
  8
001
370
    50
100
AcDbLine
 10
43.975518
 20
-17.231889
 30
0.0
 11
44.44828
 21
-21.333788
 31
0.0
  0
LINE
  5
3F8
330
1F
100
AcDbEntity
  8
001
370
    50
100
AcDbLine
 10
44.781808
 20
-16.742563
 30
0.0
 11
58.457762
 21
-15.712749
 31
0.0
  0
LINE
  5
3F9
330
1F
100
AcDbEntity
  8
001
370
    50
100
AcDbLine
 10
59.670596
 20
-19.851487
 30
0.0
 11
59.22903
 21
-16.020255
 31
0.0
  0
POLYLINE
  5
3FA
330
1F
100
AcDbEntity
  8
001
370
    50
100
AcDb2dPolyline
 66
     1
 10
0.0
 20
0.0
 30
0.0
  0
VERTEX
  5
3FC
330
3FA
100
AcDbEntity
  8
001
370
    50
100
AcDbVertex
100
AcDb2dVertex
 10
59.22903
 20
-16.020255
 30
0.0
  0
VERTEX
  5
3FD
330
3FA
100
AcDbEntity
  8
001
370
    50
100
AcDbVertex
100
AcDb2dVertex
 10
59.222591
 20
-15.991624
 30
0.0
  0
VERTEX
  5
3FE
330
3FA
100
AcDbEntity
  8
001
370
    50
100
AcDbVertex
100
AcDb2dVertex
 10
59.209192
 20
-15.953489
 30
0.0
  0
VERTEX
  5
3FF
330
3FA
100
AcDbEntity
  8
001
370
    50
100
AcDbVertex
100
AcDb2dVertex
 10
59.189652
 20
-15.919221
 30
0.0
  0
VERTEX
  5
400
330
3FA
100
AcDbEntity
  8
001
370
    50
100
AcDbVertex
100
AcDb2dVertex
 10
59.165991
 20
-15.891515
 30
0.0
  0
VERTEX
  5
401
330
3FA
100
AcDbEntity
  8
001
370
    50
100
AcDbVertex
100
AcDb2dVertex
 10
59.13507
 20
-15.862655
 30
0.0
  0
VERTEX
  5
402
330
3FA
100
AcDbEntity
  8
001
370
    50
100
AcDbVertex
100
AcDb2dVertex
 10
59.100738
 20
-15.836215
 30
0.0
  0
VERTEX
  5
403
330
3FA
100
AcDbEntity
  8
001
370
    50
100
AcDbVertex
100
AcDb2dVertex
 10
58.952386
 20
-15.764034
 30
0.0
  0
VERTEX
  5
404
330
3FA
100
AcDbEntity
  8
001
370
    50
100
AcDbVertex
100
AcDb2dVertex
 10
58.79547
 20
-15.725847
 30
0.0
  0
VERTEX
  5
405
330
3FA
100
AcDbEntity
  8
001
370
    50
100
AcDbVertex
100
AcDb2dVertex
 10
58.67261
 20
-15.710629
 30
0.0
  0
VERTEX
  5
406
330
3FA
100
AcDbEntity
  8
001
370
    50
100
AcDbVertex
100
AcDb2dVertex
 10
58.532678
 20
-15.708901
 30
0.0
  0
VERTEX
  5
407
330
3FA
100
AcDbEntity
  8
001
370
    50
100
AcDbVertex
100
AcDb2dVertex
 10
58.488648
 20
-15.710866
 30
0.0
  0
VERTEX
  5
408
330
3FA
100
AcDbEntity
  8
001
370
    50
100
AcDbVertex
100
AcDb2dVertex
 10
58.457762
 20
-15.712749
 30
0.0
  0
SEQEND
  5
3FB
330
3FA
100
AcDbEntity
  8
001
370
    50
  0
ARC
  5
409
330
1F
100
AcDbEntity
  8
001
370
    50
100
AcDbCircle
 10
58.530936
 20
-19.974012
 30
0.0
 40
5.3
100
AcDbArc
 50
54.832291
 51
102.143895
  0
LINE
  5
40A
330
1F
100
AcDbEntity
  8
001
370
    50
100
AcDbLine
 10
60.973041
 20
-51.763218
 30
0.0
 11
58.254499
 21
-51.031167
 31
0.0
  0
LINE
  5
40B
330
1F
100
AcDbEntity
  8
001
370
    50
100
AcDbLine
 10
63.46068
 20
-56.093345
 30
0.0
 11
60.973041
 21
-51.763218
 31
0.0
  0
LINE
  5
40C
330
1F
100
AcDbEntity
  8
001
370
    50
100
AcDbLine
 10
62.732249
 20
-58.825396
 30
0.0
 11
63.46068
 21
-56.093345
 31
0.0
  0
LINE
  5
40D
330
1F
100
AcDbEntity
  8
001
370
    50
100
AcDbLine
 10
56.355348
 20
-62.525396
 30
0.0
 11
60.491716
 21
-60.125396
 31
0.0
  0
LINE
  5
40E
330
1F
100
AcDbEntity
  8
001
370
    50
100
AcDbLine
 10
60.491716
 20
-60.125396
 30
0.0
 11
62.732249
 21
-58.825396
 31
0.0
  0
LINE
  5
40F
330
1F
100
AcDbEntity
  8
001
370
    50
100
AcDbLine
 10
51.877598
 20
-54.731167
 30
0.0
 11
56.355348
 21
-62.525396
 31
0.0
  0
LINE
  5
410
330
1F
100
AcDbEntity
  8
001
370
    50
100
AcDbLine
 10
58.254499
 20
-51.031167
 30
0.0
 11
56.013966
 21
-52.331167
 31
0.0
  0
LINE
  5
411
330
1F
100
AcDbEntity
  8
001
370
    50
100
AcDbLine
 10
56.013966
 20
-52.331167
 30
0.0
 11
51.877598
 21
-54.731167
 31
0.0
  0
LINE
  5
412
330
1F
100
AcDbEntity
  8
001
370
    50
100
AcDbLine
 10
63.758639
 20
-56.093345
 30
0.0
 11
63.46068
 21
-56.093345
 31
0.0
  0
LINE
  5
413
330
1F
100
AcDbEntity
  8
001
370
    50
100
AcDbLine
 10
63.030208
 20
-58.825396
 30
0.0
 11
63.758639
 21
-56.093345
 31
0.0
  0
LINE
  5
414
330
1F
100
AcDbEntity
  8
001
370
    50
100
AcDbLine
 10
63.030208
 20
-58.825396
 30
0.0
 11
62.980548
 21
-58.825396
 31
0.0
  0
LINE
  5
415
330
1F
100
AcDbEntity
  8
001
370
    50
100
AcDbLine
 10
62.980548
 20
-58.825396
 30
0.0
 11
62.732249
 21
-58.825396
 31
0.0
  0
LINE
  5
416
330
1F
100
AcDbEntity
  8
001
370
    50
100
AcDbLine
 10
61.271
 20
-51.763218
 30
0.0
 11
60.973041
 21
-51.763218
 31
0.0
  0
LINE
  5
417
330
1F
100
AcDbEntity
  8
001
370
    50
100
AcDbLine
 10
63.758639
 20
-56.093345
 30
0.0
 11
61.271
 21
-51.763218
 31
0.0
  0
LINE
  5
418
330
1F
100
AcDbEntity
  8
001
370
    50
100
AcDbLine
 10
56.86217
 20
-62.375396
 30
0.0
 11
62.980548
 21
-58.825396
 31
0.0
  0
LINE
  5
419
330
1F
100
AcDbEntity
  8
001
370
    50
100
AcDbLine
 10
56.91183
 20
-62.375396
 30
0.0
 11
56.86217
 21
-62.375396
 31
0.0
  0
LINE
  5
41A
330
1F
100
AcDbEntity
  8
001
370
    50
100
AcDbLine
 10
55.791563
 20
-63.025396
 30
0.0
 11
56.91183
 21
-62.375396
 31
0.0
  0
LINE
  5
41B
330
1F
100
AcDbEntity
  8
001
370
    50
100
AcDbLine
 10
55.791563
 20
-63.025396
 30
0.0
 11
55.592924
 21
-63.025396
 31
0.0
  0
LINE
  5
41C
330
1F
100
AcDbEntity
  8
001
370
    50
100
AcDbLine
 10
56.355348
 20
-62.525396
 30
0.0
 11
55.592924
 21
-63.025396
 31
0.0
  0
LINE
  5
41D
330
1F
100
AcDbEntity
  8
001
370
    50
100
AcDbLine
 10
58.502798
 20
-51.031167
 30
0.0
 11
58.254499
 21
-51.031167
 31
0.0
  0
LINE
  5
41E
330
1F
100
AcDbEntity
  8
001
370
    50
100
AcDbLine
 10
58.552458
 20
-51.031167
 30
0.0
 11
58.502798
 21
-51.031167
 31
0.0
  0
LINE
  5
41F
330
1F
100
AcDbEntity
  8
001
370
    50
100
AcDbLine
 10
61.271
 20
-51.763218
 30
0.0
 11
58.552458
 21
-51.031167
 31
0.0
  0
LINE
  5
420
330
1F
100
AcDbEntity
  8
001
370
    50
100
AcDbLine
 10
55.592924
 20
-63.025396
 30
0.0
 11
54.332972
 21
-62.659371
 31
0.0
  0
LINE
  5
421
330
1F
100
AcDbEntity
  8
001
370
    50
100
AcDbLine
 10
54.332972
 20
-62.659371
 30
0.0
 11
50.850278
 21
-56.597193
 31
0.0
  0
LINE
  5
422
330
1F
100
AcDbEntity
  8
001
370
    50
100
AcDbLine
 10
50.850278
 20
-56.597193
 30
0.0
 11
51.115174
 21
-55.231167
 31
0.0
  0
LINE
  5
423
330
1F
100
AcDbEntity
  8
001
370
    50
100
AcDbLine
 10
51.115174
 20
-55.231167
 30
0.0
 11
51.877598
 21
-54.731167
 31
0.0
  0
LINE
  5
424
330
1F
100
AcDbEntity
  8
001
370
    50
100
AcDbLine
 10
56.91183
 20
-62.375396
 30
0.0
 11
56.899415
 21
-62.353786
 31
0.0
  0
POLYLINE
  5
425
330
1F
100
AcDbEntity
  8
001
370
    50
100
AcDb2dPolyline
 66
     1
 10
0.0
 20
0.0
 30
0.0
  0
VERTEX
  5
427
330
425
100
AcDbEntity
  8
001
370
    50
100
AcDbVertex
100
AcDb2dVertex
 10
56.013966
 20
-52.331167
 30
0.0
  0
VERTEX
  5
428
330
425
100
AcDbEntity
  8
001
370
    50
100
AcDbVertex
100
AcDb2dVertex
 10
55.242332
 20
-52.957996
 30
0.0
  0
VERTEX
  5
429
330
425
100
AcDbEntity
  8
001
370
    50
100
AcDbVertex
100
AcDb2dVertex
 10
54.374996
 20
-53.978282
 30
0.0
  0
VERTEX
  5
42A
330
425
100
AcDbEntity
  8
001
370
    50
100
AcDbVertex
100
AcDb2dVertex
 10
54.022898
 20
-54.70304
 30
0.0
  0
VERTEX
  5
42B
330
425
100
AcDbEntity
  8
001
370
    50
100
AcDbVertex
100
AcDb2dVertex
 10
53.843118
 20
-55.446865
 30
0.0
  0
VERTEX
  5
42C
330
425
100
AcDbEntity
  8
001
370
    50
100
AcDbVertex
100
AcDb2dVertex
 10
53.794288
 20
-55.834977
 30
0.0
  0
VERTEX
  5
42D
330
425
100
AcDbEntity
  8
001
370
    50
100
AcDbVertex
100
AcDb2dVertex
 10
53.775091
 20
-56.228282
 30
0.0
  0
VERTEX
  5
42E
330
425
100
AcDbEntity
  8
001
370
    50
100
AcDbVertex
100
AcDb2dVertex
 10
53.791454
 20
-56.620704
 30
0.0
  0
VERTEX
  5
42F
330
425
100
AcDbEntity
  8
001
370
    50
100
AcDbVertex
100
AcDb2dVertex
 10
53.843118
 20
-57.009698
 30
0.0
  0
VERTEX
  5
430
330
425
100
AcDbEntity
  8
001
370
    50
100
AcDbVertex
100
AcDb2dVertex
 10
54.045421
 20
-57.765795
 30
0.0
  0
VERTEX
  5
431
330
425
100
AcDbEntity
  8
001
370
    50
100
AcDbVertex
100
AcDb2dVertex
 10
54.374996
 20
-58.478282
 30
0.0
  0
VERTEX
  5
432
330
425
100
AcDbEntity
  8
001
370
    50
100
AcDbVertex
100
AcDb2dVertex
 10
55.083889
 20
-59.408991
 30
0.0
  0
VERTEX
  5
433
330
425
100
AcDbEntity
  8
001
370
    50
100
AcDbVertex
100
AcDb2dVertex
 10
56.013966
 20
-60.125396
 30
0.0
  0
VERTEX
  5
434
330
425
100
AcDbEntity
  8
001
370
    50
100
AcDbVertex
100
AcDb2dVertex
 10
56.365632
 20
-60.306998
 30
0.0
  0
VERTEX
  5
435
330
425
100
AcDbEntity
  8
001
370
    50
100
AcDbVertex
100
AcDb2dVertex
 10
56.72136
 20
-60.456898
 30
0.0
  0
VERTEX
  5
436
330
425
100
AcDbEntity
  8
001
370
    50
100
AcDbVertex
100
AcDb2dVertex
 10
57.07705
 20
-60.574829
 30
0.0
  0
VERTEX
  5
437
330
425
100
AcDbEntity
  8
001
370
    50
100
AcDbVertex
100
AcDb2dVertex
 10
57.475288
 20
-60.659917
 30
0.0
  0
VERTEX
  5
438
330
425
100
AcDbEntity
  8
001
370
    50
100
AcDbVertex
100
AcDb2dVertex
 10
57.924622
 20
-60.711164
 30
0.0
  0
VERTEX
  5
439
330
425
100
AcDbEntity
  8
001
370
    50
100
AcDbVertex
100
AcDb2dVertex
 10
58.252841
 20
-60.728282
 30
0.0
  0
SEQEND
  5
426
330
425
100
AcDbEntity
  8
001
370
    50
  0
POLYLINE
  5
43A
330
1F
100
AcDbEntity
  8
001
370
    50
100
AcDb2dPolyline
 66
     1
 10
0.0
 20
0.0
 30
0.0
  0
VERTEX
  5
43C
330
43A
100
AcDbEntity
  8
001
370
    50
100
AcDbVertex
100
AcDb2dVertex
 10
58.252841
 20
-60.728282
 30
0.0
  0
VERTEX
  5
43D
330
43A
100
AcDbEntity
  8
001
370
    50
100
AcDbVertex
100
AcDb2dVertex
 10
58.58106
 20
-60.711165
 30
0.0
  0
VERTEX
  5
43E
330
43A
100
AcDbEntity
  8
001
370
    50
100
AcDbVertex
100
AcDb2dVertex
 10
59.030394
 20
-60.659917
 30
0.0
  0
VERTEX
  5
43F
330
43A
100
AcDbEntity
  8
001
370
    50
100
AcDbVertex
100
AcDb2dVertex
 10
59.42863
 20
-60.574828
 30
0.0
  0
VERTEX
  5
440
330
43A
100
AcDbEntity
  8
001
370
    50
100
AcDbVertex
100
AcDb2dVertex
 10
59.784322
 20
-60.456898
 30
0.0
  0
VERTEX
  5
441
330
43A
100
AcDbEntity
  8
001
370
    50
100
AcDbVertex
100
AcDb2dVertex
 10
60.140059
 20
-60.307003
 30
0.0
  0
VERTEX
  5
442
330
43A
100
AcDbEntity
  8
001
370
    50
100
AcDbVertex
100
AcDb2dVertex
 10
60.491716
 20
-60.125396
 30
0.0
  0
VERTEX
  5
443
330
43A
100
AcDbEntity
  8
001
370
    50
100
AcDbVertex
100
AcDb2dVertex
 10
61.421626
 20
-59.408893
 30
0.0
  0
VERTEX
  5
444
330
43A
100
AcDbEntity
  8
001
370
    50
100
AcDbVertex
100
AcDb2dVertex
 10
62.130686
 20
-58.478282
 30
0.0
  0
VERTEX
  5
445
330
43A
100
AcDbEntity
  8
001
370
    50
100
AcDbVertex
100
AcDb2dVertex
 10
62.460678
 20
-57.76604
 30
0.0
  0
VERTEX
  5
446
330
43A
100
AcDbEntity
  8
001
370
    50
100
AcDbVertex
100
AcDb2dVertex
 10
62.662564
 20
-57.009698
 30
0.0
  0
VERTEX
  5
447
330
43A
100
AcDbEntity
  8
001
370
    50
100
AcDbVertex
100
AcDb2dVertex
 10
62.71361
 20
-56.620342
 30
0.0
  0
VERTEX
  5
448
330
43A
100
AcDbEntity
  8
001
370
    50
100
AcDbVertex
100
AcDb2dVertex
 10
62.730591
 20
-56.228282
 30
0.0
  0
VERTEX
  5
449
330
43A
100
AcDbEntity
  8
001
370
    50
100
AcDbVertex
100
AcDb2dVertex
 10
62.713518
 20
-55.836222
 30
0.0
  0
VERTEX
  5
44A
330
43A
100
AcDbEntity
  8
001
370
    50
100
AcDbVertex
100
AcDb2dVertex
 10
62.662564
 20
-55.446865
 30
0.0
  0
VERTEX
  5
44B
330
43A
100
AcDbEntity
  8
001
370
    50
100
AcDbVertex
100
AcDb2dVertex
 10
62.461408
 20
-54.690516
 30
0.0
  0
VERTEX
  5
44C
330
43A
100
AcDbEntity
  8
001
370
    50
100
AcDbVertex
100
AcDb2dVertex
 10
62.130686
 20
-53.978282
 30
0.0
  0
VERTEX
  5
44D
330
43A
100
AcDbEntity
  8
001
370
    50
100
AcDbVertex
100
AcDb2dVertex
 10
61.416492
 20
-53.047719
 30
0.0
  0
VERTEX
  5
44E
330
43A
100
AcDbEntity
  8
001
370
    50
100
AcDbVertex
100
AcDb2dVertex
 10
60.491716
 20
-52.331167
 30
0.0
  0
VERTEX
  5
44F
330
43A
100
AcDbEntity
  8
001
370
    50
100
AcDbVertex
100
AcDb2dVertex
 10
60.145179
 20
-52.149511
 30
0.0
  0
VERTEX
  5
450
330
43A
100
AcDbEntity
  8
001
370
    50
100
AcDbVertex
100
AcDb2dVertex
 10
59.784322
 20
-51.999665
 30
0.0
  0
VERTEX
  5
451
330
43A
100
AcDbEntity
  8
001
370
    50
100
AcDbVertex
100
AcDb2dVertex
 10
59.411575
 20
-51.8819
 30
0.0
  0
VERTEX
  5
452
330
43A
100
AcDbEntity
  8
001
370
    50
100
AcDbVertex
100
AcDb2dVertex
 10
59.030394
 20
-51.796647
 30
0.0
  0
VERTEX
  5
453
330
43A
100
AcDbEntity
  8
001
370
    50
100
AcDbVertex
100
AcDb2dVertex
 10
58.644136
 20
-51.744792
 30
0.0
  0
VERTEX
  5
454
330
43A
100
AcDbEntity
  8
001
370
    50
100
AcDbVertex
100
AcDb2dVertex
 10
58.252841
 20
-51.728282
 30
0.0
  0
VERTEX
  5
455
330
43A
100
AcDbEntity
  8
001
370
    50
100
AcDbVertex
100
AcDb2dVertex
 10
57.858719
 20
-51.747659
 30
0.0
  0
VERTEX
  5
456
330
43A
100
AcDbEntity
  8
001
370
    50
100
AcDbVertex
100
AcDb2dVertex
 10
57.475288
 20
-51.796647
 30
0.0
  0
VERTEX
  5
457
330
43A
100
AcDbEntity
  8
001
370
    50
100
AcDbVertex
100
AcDb2dVertex
 10
57.108248
 20
-51.873296
 30
0.0
  0
VERTEX
  5
458
330
43A
100
AcDbEntity
  8
001
370
    50
100
AcDbVertex
100
AcDb2dVertex
 10
56.72136
 20
-51.999665
 30
0.0
  0
VERTEX
  5
459
330
43A
100
AcDbEntity
  8
001
370
    50
100
AcDbVertex
100
AcDb2dVertex
 10
56.306727
 20
-52.181081
 30
0.0
  0
VERTEX
  5
45A
330
43A
100
AcDbEntity
  8
001
370
    50
100
AcDbVertex
100
AcDb2dVertex
 10
56.013966
 20
-52.331167
 30
0.0
  0
SEQEND
  5
43B
330
43A
100
AcDbEntity
  8
001
370
    50
  0
LINE
  5
45B
330
1F
100
AcDbEntity
  8
001
370
    50
100
AcDbLine
 10
45.174223
 20
-22.598801
 30
0.0
 11
44.544247
 21
-21.966868
 31
0.0
  0
POLYLINE
  5
45C
330
1F
100
AcDbEntity
  8
001
370
    50
100
AcDb2dPolyline
 66
     1
 10
0.0
 20
0.0
 30
0.0
  0
VERTEX
  5
45E
330
45C
100
AcDbEntity
  8
001
370
    50
100
AcDbVertex
100
AcDb2dVertex
 10
44.44828
 20
-21.745014
 30
0.0
  0
VERTEX
  5
45F
330
45C
100
AcDbEntity
  8
001
370
    50
100
AcDbVertex
100
AcDb2dVertex
 10
44.447961
 20
-21.77429
 30
0.0
  0
VERTEX
  5
460
330
45C
100
AcDbEntity
  8
001
370
    50
100
AcDbVertex
100
AcDb2dVertex
 10
44.45241
 20
-21.814541
 30
0.0
  0
VERTEX
  5
461
330
45C
100
AcDbEntity
  8
001
370
    50
100
AcDbVertex
100
AcDb2dVertex
 10
44.464069
 20
-21.852741
 30
0.0
  0
VERTEX
  5
462
330
45C
100
AcDbEntity
  8
001
370
    50
100
AcDbVertex
100
AcDb2dVertex
 10
44.48038
 20
-21.884718
 30
0.0
  0
VERTEX
  5
463
330
45C
100
AcDbEntity
  8
001
370
    50
100
AcDbVertex
100
AcDb2dVertex
 10
44.501976
 20
-21.918102
 30
0.0
  0
VERTEX
  5
464
330
45C
100
AcDbEntity
  8
001
370
    50
100
AcDbVertex
100
AcDb2dVertex
 10
44.531341
 20
-21.953413
 30
0.0
  0
VERTEX
  5
465
330
45C
100
AcDbEntity
  8
001
370
    50
100
AcDbVertex
100
AcDb2dVertex
 10
44.538897
 20
-21.961384
 30
0.0
  0
VERTEX
  5
466
330
45C
100
AcDbEntity
  8
001
370
    50
100
AcDbVertex
100
AcDb2dVertex
 10
44.544247
 20
-21.966868
 30
0.0
  0
SEQEND
  5
45D
330
45C
100
AcDbEntity
  8
001
370
    50
  0
LINE
  5
467
330
1F
100
AcDbEntity
  8
001
370
    50
100
AcDbLine
 10
45.174223
 20
-27.174931
 30
0.0
 11
44.071485
 21
-26.068766
 31
0.0
  0
POLYLINE
  5
468
330
1F
100
AcDbEntity
  8
001
370
    50
100
AcDb2dPolyline
 66
     1
 10
0.0
 20
0.0
 30
0.0
  0
VERTEX
  5
46A
330
468
100
AcDbEntity
  8
001
370
    50
100
AcDbVertex
100
AcDb2dVertex
 10
44.604331
 20
-21.543479
 30
0.0
  0
VERTEX
  5
46B
330
468
100
AcDbEntity
  8
001
370
    50
100
AcDbVertex
100
AcDb2dVertex
 10
44.592743
 20
-21.550547
 30
0.0
  0
VERTEX
  5
46C
330
468
100
AcDbEntity
  8
001
370
    50
100
AcDbVertex
100
AcDb2dVertex
 10
44.576572
 20
-21.560974
 30
0.0
  0
VERTEX
  5
46D
330
468
100
AcDbEntity
  8
001
370
    50
100
AcDbVertex
100
AcDb2dVertex
 10
44.540159
 20
-21.588486
 30
0.0
  0
VERTEX
  5
46E
330
468
100
AcDbEntity
  8
001
370
    50
100
AcDbVertex
100
AcDb2dVertex
 10
44.511319
 20
-21.616274
 30
0.0
  0
VERTEX
  5
46F
330
468
100
AcDbEntity
  8
001
370
    50
100
AcDbVertex
100
AcDb2dVertex
 10
44.488115
 20
-21.643745
 30
0.0
  0
VERTEX
  5
470
330
468
100
AcDbEntity
  8
001
370
    50
100
AcDbVertex
100
AcDb2dVertex
 10
44.468118
 20
-21.678248
 30
0.0
  0
VERTEX
  5
471
330
468
100
AcDbEntity
  8
001
370
    50
100
AcDbVertex
100
AcDb2dVertex
 10
44.454638
 20
-21.716425
 30
0.0
  0
VERTEX
  5
472
330
468
100
AcDbEntity
  8
001
370
    50
100
AcDbVertex
100
AcDb2dVertex
 10
44.44828
 20
-21.745014
 30
0.0
  0
SEQEND
  5
469
330
468
100
AcDbEntity
  8
001
370
    50
  0
LINE
  5
473
330
1F
100
AcDbEntity
  8
001
370
    50
100
AcDbLine
 10
44.44828
 20
-21.745014
 30
0.0
 11
43.975518
 21
-25.846912
 31
0.0
  0
POLYLINE
  5
474
330
1F
100
AcDbEntity
  8
001
370
    50
100
AcDb2dPolyline
 66
     1
 10
0.0
 20
0.0
 30
0.0
  0
VERTEX
  5
476
330
474
100
AcDbEntity
  8
001
370
    50
100
AcDbVertex
100
AcDb2dVertex
 10
43.975518
 20
-25.846912
 30
0.0
  0
VERTEX
  5
477
330
474
100
AcDbEntity
  8
001
370
    50
100
AcDbVertex
100
AcDb2dVertex
 10
43.975199
 20
-25.876189
 30
0.0
  0
VERTEX
  5
478
330
474
100
AcDbEntity
  8
001
370
    50
100
AcDbVertex
100
AcDb2dVertex
 10
43.979648
 20
-25.91644
 30
0.0
  0
VERTEX
  5
479
330
474
100
AcDbEntity
  8
001
370
    50
100
AcDbVertex
100
AcDb2dVertex
 10
43.991307
 20
-25.954639
 30
0.0
  0
VERTEX
  5
47A
330
474
100
AcDbEntity
  8
001
370
    50
100
AcDbVertex
100
AcDb2dVertex
 10
44.007618
 20
-25.986617
 30
0.0
  0
VERTEX
  5
47B
330
474
100
AcDbEntity
  8
001
370
    50
100
AcDbVertex
100
AcDb2dVertex
 10
44.029214
 20
-26.020001
 30
0.0
  0
VERTEX
  5
47C
330
474
100
AcDbEntity
  8
001
370
    50
100
AcDbVertex
100
AcDb2dVertex
 10
44.058579
 20
-26.055311
 30
0.0
  0
VERTEX
  5
47D
330
474
100
AcDbEntity
  8
001
370
    50
100
AcDbVertex
100
AcDb2dVertex
 10
44.066135
 20
-26.063282
 30
0.0
  0
VERTEX
  5
47E
330
474
100
AcDbEntity
  8
001
370
    50
100
AcDbVertex
100
AcDb2dVertex
 10
44.071485
 20
-26.068766
 30
0.0
  0
SEQEND
  5
475
330
474
100
AcDbEntity
  8
001
370
    50
  0
LINE
  5
47F
330
1F
100
AcDbEntity
  8
001
370
    50
100
AcDbLine
 10
71.974223
 20
-64.900427
 30
0.0
 11
78.974223
 21
-63.024782
 31
0.0
  0
LINE
  5
480
330
1F
100
AcDbEntity
  8
001
370
    50
100
AcDbLine
 10
78.974223
 20
-8.776071
 30
0.0
 11
71.974223
 21
-6.900427
 31
0.0
  0
LINE
  5
481
330
1F
100
AcDbEntity
  8
001
370
    50
100
AcDbLine
 10
78.974223
 20
-8.776071
 30
0.0
 11
78.974223
 21
-63.024782
 31
0.0
  0
LINE
  5
482
330
1F
100
AcDbEntity
  8
001
370
    50
100
AcDbLine
 10
71.974223
 20
-6.900427
 30
0.0
 11
71.974223
 21
-64.900427
 31
0.0
  0
POLYLINE
  5
483
330
1F
100
AcDbEntity
  8
001
370
    50
100
AcDb2dPolyline
 66
     1
 10
0.0
 20
0.0
 30
0.0
  0
VERTEX
  5
485
330
483
100
AcDbEntity
  8
001
370
    50
100
AcDbVertex
100
AcDb2dVertex
 10
67.09073
 20
-6.900427
 30
0.0
  0
VERTEX
  5
486
330
483
100
AcDbEntity
  8
001
370
    50
100
AcDbVertex
100
AcDb2dVertex
 10
67.088209
 20
-6.900479
 30
0.0
  0
VERTEX
  5
487
330
483
100
AcDbEntity
  8
001
370
    50
100
AcDbVertex
100
AcDb2dVertex
 10
67.084541
 20
-6.900694
 30
0.0
  0
VERTEX
  5
488
330
483
100
AcDbEntity
  8
001
370
    50
100
AcDbVertex
100
AcDb2dVertex
 10
67.053928
 20
-6.910578
 30
0.0
  0
VERTEX
  5
489
330
483
100
AcDbEntity
  8
001
370
    50
100
AcDbVertex
100
AcDb2dVertex
 10
67.035049
 20
-6.92346
 30
0.0
  0
SEQEND
  5
484
330
483
100
AcDbEntity
  8
001
370
    50
  0
LINE
  5
48A
330
1F
100
AcDbEntity
  8
001
370
    50
100
AcDbLine
 10
71.974223
 20
-6.900427
 30
0.0
 11
67.09073
 21
-6.900427
 31
0.0
  0
LINE
  5
48B
330
1F
100
AcDbEntity
  8
001
370
    50
100
AcDbLine
 10
63.353437
 20
-64.900427
 30
0.0
 11
71.974223
 21
-64.900427
 31
0.0
  0
POLYLINE
  5
48C
330
1F
100
AcDbEntity
  8
001
370
    50
100
AcDb2dPolyline
 66
     1
 10
0.0
 20
0.0
 30
0.0
  0
VERTEX
  5
48E
330
48C
100
AcDbEntity
  8
001
370
    50
100
AcDbVertex
100
AcDb2dVertex
 10
67.035049
 20
-6.92346
 30
0.0
  0
VERTEX
  5
48F
330
48C
100
AcDbEntity
  8
001
370
    50
100
AcDbVertex
100
AcDb2dVertex
 10
67.087192
 20
-6.937941
 30
0.0
  0
VERTEX
  5
490
330
48C
100
AcDbEntity
  8
001
370
    50
100
AcDbVertex
100
AcDb2dVertex
 10
67.138183
 20
-6.956384
 30
0.0
  0
VERTEX
  5
491
330
48C
100
AcDbEntity
  8
001
370
    50
100
AcDbVertex
100
AcDb2dVertex
 10
67.177789
 20
-6.977009
 30
0.0
  0
VERTEX
  5
492
330
48C
100
AcDbEntity
  8
001
370
    50
100
AcDbVertex
100
AcDb2dVertex
 10
67.2127
 20
-7.004136
 30
0.0
  0
VERTEX
  5
493
330
48C
100
AcDbEntity
  8
001
370
    50
100
AcDbVertex
100
AcDb2dVertex
 10
67.233571
 20
-7.0278
 30
0.0
  0
VERTEX
  5
494
330
48C
100
AcDbEntity
  8
001
370
    50
100
AcDbVertex
100
AcDb2dVertex
 10
67.252433
 20
-7.053437
 30
0.0
  0
SEQEND
  5
48D
330
48C
100
AcDbEntity
  8
001
370
    50
  0
POLYLINE
  5
495
330
1F
100
AcDbEntity
  8
001
370
    50
100
AcDb2dPolyline
 66
     1
 10
0.0
 20
0.0
 30
0.0
  0
VERTEX
  5
497
330
495
100
AcDbEntity
  8
001
370
    50
100
AcDbVertex
100
AcDb2dVertex
 10
67.182486
 20
-12.09105
 30
0.0
  0
VERTEX
  5
498
330
495
100
AcDbEntity
  8
001
370
    50
100
AcDbVertex
100
AcDb2dVertex
 10
66.406007
 20
-12.140025
 30
0.0
  0
VERTEX
  5
499
330
495
100
AcDbEntity
  8
001
370
    50
100
AcDbVertex
100
AcDb2dVertex
 10
65.271168
 20
-12.211829
 30
0.0
  0
VERTEX
  5
49A
330
495
100
AcDbEntity
  8
001
370
    50
100
AcDbVertex
100
AcDb2dVertex
 10
64.132509
 20
-12.284192
 30
0.0
  0
VERTEX
  5
49B
330
495
100
AcDbEntity
  8
001
370
    50
100
AcDbVertex
100
AcDb2dVertex
 10
63.353437
 20
-12.333857
 30
0.0
  0
SEQEND
  5
496
330
495
100
AcDbEntity
  8
001
370
    50
  0
LINE
  5
49C
330
1F
100
AcDbEntity
  8
001
370
    50
100
AcDbLine
 10
63.353437
 20
-64.107918
 30
0.0
 11
63.353437
 21
-64.900427
 31
0.0
  0
POLYLINE
  5
49D
330
1F
100
AcDbEntity
  8
001
370
    50
100
AcDb2dPolyline
 66
     1
 10
0.0
 20
0.0
 30
0.0
  0
VERTEX
  5
49F
330
49D
100
AcDbEntity
  8
001
370
    50
100
AcDbVertex
100
AcDb2dVertex
 10
63.353437
 20
-64.107918
 30
0.0
  0
VERTEX
  5
4A0
330
49D
100
AcDbEntity
  8
001
370
    50
100
AcDbVertex
100
AcDb2dVertex
 10
64.475459
 20
-64.080918
 30
0.0
  0
VERTEX
  5
4A1
330
49D
100
AcDbEntity
  8
001
370
    50
100
AcDbVertex
100
AcDb2dVertex
 10
66.115318
 20
-64.040686
 30
0.0
  0
VERTEX
  5
4A2
330
49D
100
AcDbEntity
  8
001
370
    50
100
AcDbVertex
100
AcDb2dVertex
 10
67.751201
 20
-63.99948
 30
0.0
  0
VERTEX
  5
4A3
330
49D
100
AcDbEntity
  8
001
370
    50
100
AcDbVertex
100
AcDb2dVertex
 10
68.870476
 20
-63.97076
 30
0.0
  0
SEQEND
  5
49E
330
49D
100
AcDbEntity
  8
001
370
    50
  0
POLYLINE
  5
4A4
330
1F
100
AcDbEntity
  8
001
370
    50
100
AcDb2dPolyline
 66
     1
 10
0.0
 20
0.0
 30
0.0
  0
VERTEX
  5
4A6
330
4A4
100
AcDbEntity
  8
001
370
    50
100
AcDbVertex
100
AcDb2dVertex
 10
67.252433
 20
-52.900427
 30
0.0
  0
VERTEX
  5
4A7
330
4A4
100
AcDbEntity
  8
001
370
    50
100
AcDbVertex
100
AcDb2dVertex
 10
67.377577
 20
-54.369021
 30
0.0
  0
VERTEX
  5
4A8
330
4A4
100
AcDbEntity
  8
001
370
    50
100
AcDbVertex
100
AcDb2dVertex
 10
67.587454
 20
-56.475026
 30
0.0
  0
VERTEX
  5
4A9
330
4A4
100
AcDbEntity
  8
001
370
    50
100
AcDbVertex
100
AcDb2dVertex
 10
67.854267
 20
-58.822416
 30
0.0
  0
VERTEX
  5
4AA
330
4A4
100
AcDbEntity
  8
001
370
    50
100
AcDbVertex
100
AcDb2dVertex
 10
68.150222
 20
-61.015163
 30
0.0
  0
VERTEX
  5
4AB
330
4A4
100
AcDbEntity
  8
001
370
    50
100
AcDbVertex
100
AcDb2dVertex
 10
68.328404
 20
-62.038914
 30
0.0
  0
VERTEX
  5
4AC
330
4A4
100
AcDbEntity
  8
001
370
    50
100
AcDbVertex
100
AcDb2dVertex
 10
68.607508
 20
-63.151513
 30
0.0
  0
VERTEX
  5
4AD
330
4A4
100
AcDbEntity
  8
001
370
    50
100
AcDbVertex
100
AcDb2dVertex
 10
68.755433
 20
-63.632955
 30
0.0
  0
VERTEX
  5
4AE
330
4A4
100
AcDbEntity
  8
001
370
    50
100
AcDbVertex
100
AcDb2dVertex
 10
68.870476
 20
-63.97076
 30
0.0
  0
SEQEND
  5
4A5
330
4A4
100
AcDbEntity
  8
001
370
    50
  0
POLYLINE
  5
4AF
330
1F
100
AcDbEntity
  8
001
370
    50
100
AcDb2dPolyline
 66
     1
 10
0.0
 20
0.0
 30
0.0
  0
VERTEX
  5
4B1
330
4AF
100
AcDbEntity
  8
001
370
    50
100
AcDbVertex
100
AcDb2dVertex
 10
67.035049
 20
-51.389693
 30
0.0
  0
VERTEX
  5
4B2
330
4AF
100
AcDbEntity
  8
001
370
    50
100
AcDbVertex
100
AcDb2dVertex
 10
67.108359
 20
-51.768373
 30
0.0
  0
VERTEX
  5
4B3
330
4AF
100
AcDbEntity
  8
001
370
    50
100
AcDbVertex
100
AcDb2dVertex
 10
67.171469
 20
-52.148518
 30
0.0
  0
VERTEX
  5
4B4
330
4AF
100
AcDbEntity
  8
001
370
    50
100
AcDbVertex
100
AcDb2dVertex
 10
67.216858
 20
-52.523768
 30
0.0
  0
VERTEX
  5
4B5
330
4AF
100
AcDbEntity
  8
001
370
    50
100
AcDbVertex
100
AcDb2dVertex
 10
67.252433
 20
-52.900427
 30
0.0
  0
SEQEND
  5
4B0
330
4AF
100
AcDbEntity
  8
001
370
    50
  0
POLYLINE
  5
4B6
330
1F
100
AcDbEntity
  8
001
370
    50
100
AcDb2dPolyline
 66
     1
 10
0.0
 20
0.0
 30
0.0
  0
VERTEX
  5
4B8
330
4B6
100
AcDbEntity
  8
001
370
    50
100
AcDbVertex
100
AcDb2dVertex
 10
68.354013
 20
-33.595796
 30
0.0
  0
VERTEX
  5
4B9
330
4B6
100
AcDbEntity
  8
001
370
    50
100
AcDbVertex
100
AcDb2dVertex
 10
67.340525
 20
-33.484263
 30
0.0
  0
VERTEX
  5
4BA
330
4B6
100
AcDbEntity
  8
001
370
    50
100
AcDbVertex
100
AcDb2dVertex
 10
65.85923
 20
-33.321636
 30
0.0
  0
VERTEX
  5
4BB
330
4B6
100
AcDbEntity
  8
001
370
    50
100
AcDbVertex
100
AcDb2dVertex
 10
64.371433
 20
-33.158836
 30
0.0
  0
VERTEX
  5
4BC
330
4B6
100
AcDbEntity
  8
001
370
    50
100
AcDbVertex
100
AcDb2dVertex
 10
63.353437
 20
-33.047708
 30
0.0
  0
SEQEND
  5
4B7
330
4B6
100
AcDbEntity
  8
001
370
    50
  0
LINE
  5
4BD
330
1F
100
AcDbEntity
  8
001
370
    50
100
AcDbLine
 10
63.353437
 20
-15.965465
 30
0.0
 11
63.353437
 21
-33.047708
 31
0.0
  0
POLYLINE
  5
4BE
330
1F
100
AcDbEntity
  8
001
370
    50
100
AcDb2dPolyline
 66
     1
 10
0.0
 20
0.0
 30
0.0
  0
VERTEX
  5
4C0
330
4BE
100
AcDbEntity
  8
001
370
    50
100
AcDbVertex
100
AcDb2dVertex
 10
68.870476
 20
-15.557146
 30
0.0
  0
VERTEX
  5
4C1
330
4BE
100
AcDbEntity
  8
001
370
    50
100
AcDbVertex
100
AcDb2dVertex
 10
67.751181
 20
-15.639539
 30
0.0
  0
VERTEX
  5
4C2
330
4BE
100
AcDbEntity
  8
001
370
    50
100
AcDbVertex
100
AcDb2dVertex
 10
66.115318
 20
-15.760341
 30
0.0
  0
VERTEX
  5
4C3
330
4BE
100
AcDbEntity
  8
001
370
    50
100
AcDbVertex
100
AcDb2dVertex
 10
64.47544
 20
-15.881978
 30
0.0
  0
VERTEX
  5
4C4
330
4BE
100
AcDbEntity
  8
001
370
    50
100
AcDbVertex
100
AcDb2dVertex
 10
63.353437
 20
-15.965465
 30
0.0
  0
SEQEND
  5
4BF
330
4BE
100
AcDbEntity
  8
001
370
    50
  0
POLYLINE
  5
4C5
330
1F
100
AcDbEntity
  8
001
370
    50
100
AcDb2dPolyline
 66
     1
 10
0.0
 20
0.0
 30
0.0
  0
VERTEX
  5
4C7
330
4C5
100
AcDbEntity
  8
001
370
    50
100
AcDbVertex
100
AcDb2dVertex
 10
68.870476
 20
-15.557146
 30
0.0
  0
VERTEX
  5
4C8
330
4C5
100
AcDbEntity
  8
001
370
    50
100
AcDbVertex
100
AcDb2dVertex
 10
68.58365
 20
-13.501913
 30
0.0
  0
VERTEX
  5
4C9
330
4C5
100
AcDbEntity
  8
001
370
    50
100
AcDbVertex
100
AcDb2dVertex
 10
68.139475
 20
-10.723681
 30
0.0
  0
VERTEX
  5
4CA
330
4C5
100
AcDbEntity
  8
001
370
    50
100
AcDbVertex
100
AcDb2dVertex
 10
67.928299
 20
-9.615315
 30
0.0
  0
VERTEX
  5
4CB
330
4C5
100
AcDbEntity
  8
001
370
    50
100
AcDbVertex
100
AcDb2dVertex
 10
67.72741
 20
-8.607017
 30
0.0
  0
VERTEX
  5
4CC
330
4C5
100
AcDbEntity
  8
001
370
    50
100
AcDbVertex
100
AcDb2dVertex
 10
67.59689
 20
-8.000305
 30
0.0
  0
VERTEX
  5
4CD
330
4C5
100
AcDbEntity
  8
001
370
    50
100
AcDbVertex
100
AcDb2dVertex
 10
67.372167
 20
-7.319649
 30
0.0
  0
VERTEX
  5
4CE
330
4C5
100
AcDbEntity
  8
001
370
    50
100
AcDbVertex
100
AcDb2dVertex
 10
67.304591
 20
-7.161417
 30
0.0
  0
VERTEX
  5
4CF
330
4C5
100
AcDbEntity
  8
001
370
    50
100
AcDbVertex
100
AcDb2dVertex
 10
67.252433
 20
-7.053437
 30
0.0
  0
SEQEND
  5
4C6
330
4C5
100
AcDbEntity
  8
001
370
    50
  0
POLYLINE
  5
4D0
330
1F
100
AcDbEntity
  8
001
370
    50
100
AcDb2dPolyline
 66
     1
 10
0.0
 20
0.0
 30
0.0
  0
VERTEX
  5
4D2
330
4D0
100
AcDbEntity
  8
001
370
    50
100
AcDbVertex
100
AcDb2dVertex
 10
68.354013
 20
-33.595796
 30
0.0
  0
VERTEX
  5
4D3
330
4D0
100
AcDbEntity
  8
001
370
    50
100
AcDbVertex
100
AcDb2dVertex
 10
68.27342
 20
-34.497814
 30
0.0
  0
VERTEX
  5
4D4
330
4D0
100
AcDbEntity
  8
001
370
    50
100
AcDbVertex
100
AcDb2dVertex
 10
68.160995
 20
-35.775945
 30
0.0
  0
VERTEX
  5
4D5
330
4D0
100
AcDbEntity
  8
001
370
    50
100
AcDbVertex
100
AcDb2dVertex
 10
67.932738
 20
-38.47789
 30
0.0
  0
VERTEX
  5
4D6
330
4D0
100
AcDbEntity
  8
001
370
    50
100
AcDbVertex
100
AcDb2dVertex
 10
67.746446
 20
-40.813587
 30
0.0
  0
VERTEX
  5
4D7
330
4D0
100
AcDbEntity
  8
001
370
    50
100
AcDbVertex
100
AcDb2dVertex
 10
67.582834
 20
-42.944552
 30
0.0
  0
VERTEX
  5
4D8
330
4D0
100
AcDbEntity
  8
001
370
    50
100
AcDbVertex
100
AcDb2dVertex
 10
67.422272
 20
-45.158959
 30
0.0
  0
VERTEX
  5
4D9
330
4D0
100
AcDbEntity
  8
001
370
    50
100
AcDbVertex
100
AcDb2dVertex
 10
67.261427
 20
-47.570406
 30
0.0
  0
VERTEX
  5
4DA
330
4D0
100
AcDbEntity
  8
001
370
    50
100
AcDbVertex
100
AcDb2dVertex
 10
67.096966
 20
-50.292489
 30
0.0
  0
VERTEX
  5
4DB
330
4D0
100
AcDbEntity
  8
001
370
    50
100
AcDbVertex
100
AcDb2dVertex
 10
67.060093
 20
-50.941108
 30
0.0
  0
VERTEX
  5
4DC
330
4D0
100
AcDbEntity
  8
001
370
    50
100
AcDbVertex
100
AcDb2dVertex
 10
67.035049
 20
-51.389693
 30
0.0
  0
SEQEND
  5
4D1
330
4D0
100
AcDbEntity
  8
001
370
    50
  0
POLYLINE
  5
4DD
330
1F
100
AcDbEntity
  8
001
370
    50
100
AcDb2dPolyline
 66
     1
 10
0.0
 20
0.0
 30
0.0
  0
VERTEX
  5
4DF
330
4DD
100
AcDbEntity
  8
001
370
    50
100
AcDbVertex
100
AcDb2dVertex
 10
60.187804
 20
-19.812912
 30
0.0
  0
VERTEX
  5
4E0
330
4DD
100
AcDbEntity
  8
001
370
    50
100
AcDbVertex
100
AcDb2dVertex
 10
58.50433
 20
-19.938716
 30
0.0
  0
VERTEX
  5
4E1
330
4DD
100
AcDbEntity
  8
001
370
    50
100
AcDbVertex
100
AcDb2dVertex
 10
56.043928
 20
-20.123384
 30
0.0
  0
VERTEX
  5
4E2
330
4DD
100
AcDbEntity
  8
001
370
    50
100
AcDbVertex
100
AcDb2dVertex
 10
53.195133
 20
-20.33842
 30
0.0
  0
VERTEX
  5
4E3
330
4DD
100
AcDbEntity
  8
001
370
    50
100
AcDbVertex
100
AcDb2dVertex
 10
50.331523
 20
-20.556157
 30
0.0
  0
VERTEX
  5
4E4
330
4DD
100
AcDbEntity
  8
001
370
    50
100
AcDbVertex
100
AcDb2dVertex
 10
47.858486
 20
-20.745255
 30
0.0
  0
VERTEX
  5
4E5
330
4DD
100
AcDbEntity
  8
001
370
    50
100
AcDbVertex
100
AcDb2dVertex
 10
46.166449
 20
-20.875182
 30
0.0
  0
SEQEND
  5
4DE
330
4DD
100
AcDbEntity
  8
001
370
    50
  0
POLYLINE
  5
4E6
330
1F
100
AcDbEntity
  8
001
370
    50
100
AcDb2dPolyline
 66
     1
 10
0.0
 20
0.0
 30
0.0
  0
VERTEX
  5
4E8
330
4E6
100
AcDbEntity
  8
001
370
    50
100
AcDbVertex
100
AcDb2dVertex
 10
60.187804
 20
-19.812912
 30
0.0
  0
VERTEX
  5
4E9
330
4E6
100
AcDbEntity
  8
001
370
    50
100
AcDbVertex
100
AcDb2dVertex
 10
60.053639
 20
-19.060123
 30
0.0
  0
VERTEX
  5
4EA
330
4E6
100
AcDbEntity
  8
001
370
    50
100
AcDbVertex
100
AcDb2dVertex
 10
59.824185
 20
-17.966918
 30
0.0
  0
VERTEX
  5
4EB
330
4E6
100
AcDbEntity
  8
001
370
    50
100
AcDbVertex
100
AcDb2dVertex
 10
59.559802
 20
-16.931672
 30
0.0
  0
VERTEX
  5
4EC
330
4E6
100
AcDbEntity
  8
001
370
    50
100
AcDbVertex
100
AcDb2dVertex
 10
59.356598
 20
-16.229083
 30
0.0
  0
SEQEND
  5
4E7
330
4E6
100
AcDbEntity
  8
001
370
    50
  0
POLYLINE
  5
4ED
330
1F
100
AcDbEntity
  8
001
370
    50
100
AcDb2dPolyline
 66
     1
 10
0.0
 20
0.0
 30
0.0
  0
VERTEX
  5
4EF
330
4ED
100
AcDbEntity
  8
001
370
    50
100
AcDbVertex
100
AcDb2dVertex
 10
63.353437
 20
-15.965465
 30
0.0
  0
VERTEX
  5
4F0
330
4ED
100
AcDbEntity
  8
001
370
    50
100
AcDbVertex
100
AcDb2dVertex
 10
62.542748
 20
-16.018685
 30
0.0
  0
VERTEX
  5
4F1
330
4ED
100
AcDbEntity
  8
001
370
    50
100
AcDbVertex
100
AcDb2dVertex
 10
61.357909
 20
-16.096683
 30
0.0
  0
VERTEX
  5
4F2
330
4ED
100
AcDbEntity
  8
001
370
    50
100
AcDbVertex
100
AcDb2dVertex
 10
60.169625
 20
-16.175208
 30
0.0
  0
VERTEX
  5
4F3
330
4ED
100
AcDbEntity
  8
001
370
    50
100
AcDbVertex
100
AcDb2dVertex
 10
59.356598
 20
-16.229083
 30
0.0
  0
SEQEND
  5
4EE
330
4ED
100
AcDbEntity
  8
001
370
    50
  0
POLYLINE
  5
4F4
330
1F
100
AcDbEntity
  8
001
370
    50
100
AcDb2dPolyline
 66
     1
 10
0.0
 20
0.0
 30
0.0
  0
VERTEX
  5
4F6
330
4F4
100
AcDbEntity
  8
001
370
    50
100
AcDbVertex
100
AcDb2dVertex
 10
63.353437
 20
-33.047708
 30
0.0
  0
VERTEX
  5
4F7
330
4F4
100
AcDbEntity
  8
001
370
    50
100
AcDbVertex
100
AcDb2dVertex
 10
61.439453
 20
-32.821232
 30
0.0
  0
VERTEX
  5
4F8
330
4F4
100
AcDbEntity
  8
001
370
    50
100
AcDbVertex
100
AcDb2dVertex
 10
58.641914
 20
-32.491731
 30
0.0
  0
VERTEX
  5
4F9
330
4F4
100
AcDbEntity
  8
001
370
    50
100
AcDbVertex
100
AcDb2dVertex
 10
55.813629
 20
-32.160746
 30
0.0
  0
VERTEX
  5
4FA
330
4F4
100
AcDbEntity
  8
001
370
    50
100
AcDbVertex
100
AcDb2dVertex
 10
53.878366
 20
-31.935314
 30
0.0
  0
SEQEND
  5
4F5
330
4F4
100
AcDbEntity
  8
001
370
    50
  0
POLYLINE
  5
4FB
330
1F
100
AcDbEntity
  8
001
370
    50
100
AcDb2dPolyline
 66
     1
 10
0.0
 20
0.0
 30
0.0
  0
VERTEX
  5
4FD
330
4FB
100
AcDbEntity
  8
001
370
    50
100
AcDbVertex
100
AcDb2dVertex
 10
53.878366
 20
-31.935314
 30
0.0
  0
VERTEX
  5
4FE
330
4FB
100
AcDbEntity
  8
001
370
    50
100
AcDbVertex
100
AcDb2dVertex
 10
53.714579
 20
-31.84331
 30
0.0
  0
VERTEX
  5
4FF
330
4FB
100
AcDbEntity
  8
001
370
    50
100
AcDbVertex
100
AcDb2dVertex
 10
53.544117
 20
-31.767287
 30
0.0
  0
VERTEX
  5
500
330
4FB
100
AcDbEntity
  8
001
370
    50
100
AcDbVertex
100
AcDb2dVertex
 10
53.381592
 20
-31.724184
 30
0.0
  0
VERTEX
  5
501
330
4FB
100
AcDbEntity
  8
001
370
    50
100
AcDbVertex
100
AcDb2dVertex
 10
53.21346
 20
-31.708686
 30
0.0
  0
VERTEX
  5
502
330
4FB
100
AcDbEntity
  8
001
370
    50
100
AcDbVertex
100
AcDb2dVertex
 10
53.044499
 20
-31.722478
 30
0.0
  0
VERTEX
  5
503
330
4FB
100
AcDbEntity
  8
001
370
    50
100
AcDbVertex
100
AcDb2dVertex
 10
52.881455
 20
-31.766203
 30
0.0
  0
VERTEX
  5
504
330
4FB
100
AcDbEntity
  8
001
370
    50
100
AcDbVertex
100
AcDb2dVertex
 10
52.831347
 20
-31.786339
 30
0.0
  0
VERTEX
  5
505
330
4FB
100
AcDbEntity
  8
001
370
    50
100
AcDbVertex
100
AcDb2dVertex
 10
52.78187
 20
-31.808027
 30
0.0
  0
SEQEND
  5
4FC
330
4FB
100
AcDbEntity
  8
001
370
    50
  0
POLYLINE
  5
506
330
1F
100
AcDbEntity
  8
001
370
    50
100
AcDb2dPolyline
 66
     1
 10
0.0
 20
0.0
 30
0.0
  0
VERTEX
  5
508
330
506
100
AcDbEntity
  8
001
370
    50
100
AcDbVertex
100
AcDb2dVertex
 10
52.78187
 20
-31.808027
 30
0.0
  0
VERTEX
  5
509
330
506
100
AcDbEntity
  8
001
370
    50
100
AcDbVertex
100
AcDb2dVertex
 10
51.319437
 20
-31.638751
 30
0.0
  0
VERTEX
  5
50A
330
506
100
AcDbEntity
  8
001
370
    50
100
AcDbVertex
100
AcDb2dVertex
 10
49.18194
 20
-31.39217
 30
0.0
  0
VERTEX
  5
50B
330
506
100
AcDbEntity
  8
001
370
    50
100
AcDbVertex
100
AcDb2dVertex
 10
47.391519
 20
-31.186515
 30
0.0
  0
VERTEX
  5
50C
330
506
100
AcDbEntity
  8
001
370
    50
100
AcDbVertex
100
AcDb2dVertex
 10
46.166449
 20
-31.046194
 30
0.0
  0
SEQEND
  5
507
330
506
100
AcDbEntity
  8
001
370
    50
  0
LINE
  5
50D
330
1F
100
AcDbEntity
  8
001
370
    50
100
AcDbLine
 10
46.166449
 20
-20.875182
 30
0.0
 11
46.166449
 21
-31.046194
 31
0.0
  0
POLYLINE
  5
50E
330
1F
100
AcDbEntity
  8
001
370
    50
100
AcDb2dPolyline
 66
     1
 10
0.0
 20
0.0
 30
0.0
  0
VERTEX
  5
510
330
50E
100
AcDbEntity
  8
001
370
    50
100
AcDbVertex
100
AcDb2dVertex
 10
55.714824
 20
-33.224414
 30
0.0
  0
VERTEX
  5
511
330
50E
100
AcDbEntity
  8
001
370
    50
100
AcDbVertex
100
AcDb2dVertex
 10
55.709866
 20
-33.191992
 30
0.0
  0
VERTEX
  5
512
330
50E
100
AcDbEntity
  8
001
370
    50
100
AcDbVertex
100
AcDb2dVertex
 10
55.701012
 20
-33.146267
 30
0.0
  0
VERTEX
  5
513
330
50E
100
AcDbEntity
  8
001
370
    50
100
AcDbVertex
100
AcDb2dVertex
 10
55.663143
 20
-33.025085
 30
0.0
  0
VERTEX
  5
514
330
50E
100
AcDbEntity
  8
001
370
    50
100
AcDbVertex
100
AcDb2dVertex
 10
55.610375
 20
-32.925166
 30
0.0
  0
VERTEX
  5
515
330
50E
100
AcDbEntity
  8
001
370
    50
100
AcDbVertex
100
AcDb2dVertex
 10
55.533826
 20
-32.814839
 30
0.0
  0
VERTEX
  5
516
330
50E
100
AcDbEntity
  8
001
370
    50
100
AcDbVertex
100
AcDb2dVertex
 10
55.445932
 20
-32.708677
 30
0.0
  0
VERTEX
  5
517
330
50E
100
AcDbEntity
  8
001
370
    50
100
AcDbVertex
100
AcDb2dVertex
 10
55.061473
 20
-32.385215
 30
0.0
  0
VERTEX
  5
518
330
50E
100
AcDbEntity
  8
001
370
    50
100
AcDbVertex
100
AcDb2dVertex
 10
54.569965
 20
-32.150776
 30
0.0
  0
VERTEX
  5
519
330
50E
100
AcDbEntity
  8
001
370
    50
100
AcDbVertex
100
AcDb2dVertex
 10
54.170318
 20
-32.016202
 30
0.0
  0
VERTEX
  5
51A
330
50E
100
AcDbEntity
  8
001
370
    50
100
AcDbVertex
100
AcDb2dVertex
 10
53.878366
 20
-31.935314
 30
0.0
  0
SEQEND
  5
50F
330
50E
100
AcDbEntity
  8
001
370
    50
  0
POLYLINE
  5
51B
330
1F
100
AcDbEntity
  8
001
370
    50
100
AcDb2dPolyline
 66
     1
 10
0.0
 20
0.0
 30
0.0
  0
VERTEX
  5
51D
330
51B
100
AcDbEntity
  8
001
370
    50
100
AcDbVertex
100
AcDb2dVertex
 10
50.647739
 20
-32.929532
 30
0.0
  0
VERTEX
  5
51E
330
51B
100
AcDbEntity
  8
001
370
    50
100
AcDbVertex
100
AcDb2dVertex
 10
50.652692
 20
-32.961952
 30
0.0
  0
VERTEX
  5
51F
330
51B
100
AcDbEntity
  8
001
370
    50
100
AcDbVertex
100
AcDb2dVertex
 10
50.661551
 20
-33.007679
 30
0.0
  0
VERTEX
  5
520
330
51B
100
AcDbEntity
  8
001
370
    50
100
AcDbVertex
100
AcDb2dVertex
 10
50.699556
 20
-33.128892
 30
0.0
  0
VERTEX
  5
521
330
51B
100
AcDbEntity
  8
001
370
    50
100
AcDbVertex
100
AcDb2dVertex
 10
50.752188
 20
-33.22878
 30
0.0
  0
VERTEX
  5
522
330
51B
100
AcDbEntity
  8
001
370
    50
100
AcDbVertex
100
AcDb2dVertex
 10
50.82803
 20
-33.338943
 30
0.0
  0
VERTEX
  5
523
330
51B
100
AcDbEntity
  8
001
370
    50
100
AcDbVertex
100
AcDb2dVertex
 10
50.916631
 20
-33.445269
 30
0.0
  0
VERTEX
  5
524
330
51B
100
AcDbEntity
  8
001
370
    50
100
AcDbVertex
100
AcDb2dVertex
 10
51.322212
 20
-33.773635
 30
0.0
  0
VERTEX
  5
525
330
51B
100
AcDbEntity
  8
001
370
    50
100
AcDbVertex
100
AcDb2dVertex
 10
51.792598
 20
-34.00317
 30
0.0
  0
VERTEX
  5
526
330
51B
100
AcDbEntity
  8
001
370
    50
100
AcDbVertex
100
AcDb2dVertex
 10
52.193147
 20
-34.142068
 30
0.0
  0
VERTEX
  5
527
330
51B
100
AcDbEntity
  8
001
370
    50
100
AcDbVertex
100
AcDb2dVertex
 10
52.602807
 20
-34.24406
 30
0.0
  0
VERTEX
  5
528
330
51B
100
AcDbEntity
  8
001
370
    50
100
AcDbVertex
100
AcDb2dVertex
 10
52.820899
 20
-34.283235
 30
0.0
  0
VERTEX
  5
529
330
51B
100
AcDbEntity
  8
001
370
    50
100
AcDbVertex
100
AcDb2dVertex
 10
53.040661
 20
-34.312897
 30
0.0
  0
VERTEX
  5
52A
330
51B
100
AcDbEntity
  8
001
370
    50
100
AcDbVertex
100
AcDb2dVertex
 10
53.261492
 20
-34.333252
 30
0.0
  0
VERTEX
  5
52B
330
51B
100
AcDbEntity
  8
001
370
    50
100
AcDbVertex
100
AcDb2dVertex
 10
53.482788
 20
-34.344181
 30
0.0
  0
VERTEX
  5
52C
330
51B
100
AcDbEntity
  8
001
370
    50
100
AcDbVertex
100
AcDb2dVertex
 10
53.904676
 20
-34.337639
 30
0.0
  0
VERTEX
  5
52D
330
51B
100
AcDbEntity
  8
001
370
    50
100
AcDbVertex
100
AcDb2dVertex
 10
54.326404
 20
-34.291459
 30
0.0
  0
VERTEX
  5
52E
330
51B
100
AcDbEntity
  8
001
370
    50
100
AcDbVertex
100
AcDb2dVertex
 10
54.837487
 20
-34.169149
 30
0.0
  0
VERTEX
  5
52F
330
51B
100
AcDbEntity
  8
001
370
    50
100
AcDbVertex
100
AcDb2dVertex
 10
55.305312
 20
-33.944601
 30
0.0
  0
VERTEX
  5
530
330
51B
100
AcDbEntity
  8
001
370
    50
100
AcDbVertex
100
AcDb2dVertex
 10
55.414686
 20
-33.864053
 30
0.0
  0
VERTEX
  5
531
330
51B
100
AcDbEntity
  8
001
370
    50
100
AcDbVertex
100
AcDb2dVertex
 10
55.514185
 20
-33.770587
 30
0.0
  0
VERTEX
  5
532
330
51B
100
AcDbEntity
  8
001
370
    50
100
AcDbVertex
100
AcDb2dVertex
 10
55.590241
 20
-33.676393
 30
0.0
  0
VERTEX
  5
533
330
51B
100
AcDbEntity
  8
001
370
    50
100
AcDbVertex
100
AcDb2dVertex
 10
55.652175
 20
-33.575499
 30
0.0
  0
VERTEX
  5
534
330
51B
100
AcDbEntity
  8
001
370
    50
100
AcDbVertex
100
AcDb2dVertex
 10
55.693332
 20
-33.478638
 30
0.0
  0
VERTEX
  5
535
330
51B
100
AcDbEntity
  8
001
370
    50
100
AcDbVertex
100
AcDb2dVertex
 10
55.715087
 20
-33.365263
 30
0.0
  0
VERTEX
  5
536
330
51B
100
AcDbEntity
  8
001
370
    50
100
AcDbVertex
100
AcDb2dVertex
 10
55.717653
 20
-33.283216
 30
0.0
  0
VERTEX
  5
537
330
51B
100
AcDbEntity
  8
001
370
    50
100
AcDbVertex
100
AcDb2dVertex
 10
55.714824
 20
-33.224414
 30
0.0
  0
SEQEND
  5
51C
330
51B
100
AcDbEntity
  8
001
370
    50
  0
POLYLINE
  5
538
330
1F
100
AcDbEntity
  8
001
370
    50
100
AcDb2dPolyline
 66
     1
 10
0.0
 20
0.0
 30
0.0
  0
VERTEX
  5
53A
330
538
100
AcDbEntity
  8
001
370
    50
100
AcDbVertex
100
AcDb2dVertex
 10
52.78187
 20
-31.808027
 30
0.0
  0
VERTEX
  5
53B
330
538
100
AcDbEntity
  8
001
370
    50
100
AcDbVertex
100
AcDb2dVertex
 10
52.469379
 20
-31.820074
 30
0.0
  0
VERTEX
  5
53C
330
538
100
AcDbEntity
  8
001
370
    50
100
AcDbVertex
100
AcDb2dVertex
 10
52.036159
 20
-31.862486
 30
0.0
  0
VERTEX
  5
53D
330
538
100
AcDbEntity
  8
001
370
    50
100
AcDbVertex
100
AcDb2dVertex
 10
51.503662
 20
-31.984603
 30
0.0
  0
VERTEX
  5
53E
330
538
100
AcDbEntity
  8
001
370
    50
100
AcDbVertex
100
AcDb2dVertex
 10
51.057251
 20
-32.209345
 30
0.0
  0
VERTEX
  5
53F
330
538
100
AcDbEntity
  8
001
370
    50
100
AcDbVertex
100
AcDb2dVertex
 10
50.948601
 20
-32.289899
 30
0.0
  0
VERTEX
  5
540
330
538
100
AcDbEntity
  8
001
370
    50
100
AcDbVertex
100
AcDb2dVertex
 10
50.848378
 20
-32.383358
 30
0.0
  0
VERTEX
  5
541
330
538
100
AcDbEntity
  8
001
370
    50
100
AcDbVertex
100
AcDb2dVertex
 10
50.772162
 20
-32.477551
 30
0.0
  0
VERTEX
  5
542
330
538
100
AcDbEntity
  8
001
370
    50
100
AcDbVertex
100
AcDb2dVertex
 10
50.710388
 20
-32.578447
 30
0.0
  0
VERTEX
  5
543
330
538
100
AcDbEntity
  8
001
370
    50
100
AcDbVertex
100
AcDb2dVertex
 10
50.669266
 20
-32.675308
 30
0.0
  0
VERTEX
  5
544
330
538
100
AcDbEntity
  8
001
370
    50
100
AcDbVertex
100
AcDb2dVertex
 10
50.647476
 20
-32.788683
 30
0.0
  0
VERTEX
  5
545
330
538
100
AcDbEntity
  8
001
370
    50
100
AcDbVertex
100
AcDb2dVertex
 10
50.644906
 20
-32.87073
 30
0.0
  0
VERTEX
  5
546
330
538
100
AcDbEntity
  8
001
370
    50
100
AcDbVertex
100
AcDb2dVertex
 10
50.647739
 20
-32.929532
 30
0.0
  0
SEQEND
  5
539
330
538
100
AcDbEntity
  8
001
370
    50
  0
POLYLINE
  5
547
330
1F
100
AcDbEntity
  8
001
370
    50
100
AcDb2dPolyline
 66
     1
 10
0.0
 20
0.0
 30
0.0
  0
VERTEX
  5
549
330
547
100
AcDbEntity
  8
001
370
    50
100
AcDbVertex
100
AcDb2dVertex
 10
63.996397
 20
-44.448368
 30
0.0
  0
VERTEX
  5
54A
330
547
100
AcDbEntity
  8
001
370
    50
100
AcDbVertex
100
AcDb2dVertex
 10
65.227854
 20
-44.01639
 30
0.0
  0
VERTEX
  5
54B
330
547
100
AcDbEntity
  8
001
370
    50
100
AcDbVertex
100
AcDb2dVertex
 10
66.721933
 20
-43.29232
 30
0.0
  0
VERTEX
  5
54C
330
547
100
AcDbEntity
  8
001
370
    50
100
AcDbVertex
100
AcDb2dVertex
 10
67.134384
 20
-42.996483
 30
0.0
  0
VERTEX
  5
54D
330
547
100
AcDbEntity
  8
001
370
    50
100
AcDbVertex
100
AcDb2dVertex
 10
67.543754
 20
-42.595842
 30
0.0
  0
VERTEX
  5
54E
330
547
100
AcDbEntity
  8
001
370
    50
100
AcDbVertex
100
AcDb2dVertex
 10
67.586985
 20
-42.54808
 30
0.0
  0
VERTEX
  5
54F
330
547
100
AcDbEntity
  8
001
370
    50
100
AcDbVertex
100
AcDb2dVertex
 10
67.616619
 20
-42.51478
 30
0.0
  0
SEQEND
  5
548
330
547
100
AcDbEntity
  8
001
370
    50
  0
POLYLINE
  5
550
330
1F
100
AcDbEntity
  8
001
370
    50
100
AcDb2dPolyline
 66
     1
 10
0.0
 20
0.0
 30
0.0
  0
VERTEX
  5
552
330
550
100
AcDbEntity
  8
001
370
    50
100
AcDbVertex
100
AcDb2dVertex
 10
63.996397
 20
-44.448368
 30
0.0
  0
VERTEX
  5
553
330
550
100
AcDbEntity
  8
001
370
    50
100
AcDbVertex
100
AcDb2dVertex
 10
63.173331
 20
-44.017018
 30
0.0
  0
VERTEX
  5
554
330
550
100
AcDbEntity
  8
001
370
    50
100
AcDbVertex
100
AcDb2dVertex
 10
61.925172
 20
-43.498272
 30
0.0
  0
VERTEX
  5
555
330
550
100
AcDbEntity
  8
001
370
    50
100
AcDbVertex
100
AcDb2dVertex
 10
59.898818
 20
-43.022225
 30
0.0
  0
VERTEX
  5
556
330
550
100
AcDbEntity
  8
001
370
    50
100
AcDbVertex
100
AcDb2dVertex
 10
58.467977
 20
-42.900427
 30
0.0
  0
SEQEND
  5
551
330
550
100
AcDbEntity
  8
001
370
    50
  0
LINE
  5
557
330
1F
100
AcDbEntity
  8
001
370
    50
100
AcDbLine
 10
58.467977
 20
-42.900427
 30
0.0
 11
47.955791
 21
-42.900427
 31
0.0
  0
POLYLINE
  5
558
330
1F
100
AcDbEntity
  8
001
370
    50
100
AcDb2dPolyline
 66
     1
 10
0.0
 20
0.0
 30
0.0
  0
VERTEX
  5
55A
330
558
100
AcDbEntity
  8
001
370
    50
100
AcDbVertex
100
AcDb2dVertex
 10
45.174223
 20
-38.499516
 30
0.0
  0
VERTEX
  5
55B
330
558
100
AcDbEntity
  8
001
370
    50
100
AcDbVertex
100
AcDb2dVertex
 10
45.595533
 20
-39.037635
 30
0.0
  0
VERTEX
  5
55C
330
558
100
AcDbEntity
  8
001
370
    50
100
AcDbVertex
100
AcDb2dVertex
 10
46.009366
 20
-39.581427
 30
0.0
  0
VERTEX
  5
55D
330
558
100
AcDbEntity
  8
001
370
    50
100
AcDbVertex
100
AcDb2dVertex
 10
46.398945
 20
-40.121306
 30
0.0
  0
VERTEX
  5
55E
330
558
100
AcDbEntity
  8
001
370
    50
100
AcDbVertex
100
AcDb2dVertex
 10
46.771938
 20
-40.672849
 30
0.0
  0
VERTEX
  5
55F
330
558
100
AcDbEntity
  8
001
370
    50
100
AcDbVertex
100
AcDb2dVertex
 10
47.115048
 20
-41.219782
 30
0.0
  0
VERTEX
  5
560
330
558
100
AcDbEntity
  8
001
370
    50
100
AcDbVertex
100
AcDb2dVertex
 10
47.435425
 20
-41.780296
 30
0.0
  0
VERTEX
  5
561
330
558
100
AcDbEntity
  8
001
370
    50
100
AcDbVertex
100
AcDb2dVertex
 10
47.580799
 20
-42.057694
 30
0.0
  0
VERTEX
  5
562
330
558
100
AcDbEntity
  8
001
370
    50
100
AcDbVertex
100
AcDb2dVertex
 10
47.716893
 20
-42.339621
 30
0.0
  0
VERTEX
  5
563
330
558
100
AcDbEntity
  8
001
370
    50
100
AcDbVertex
100
AcDb2dVertex
 10
47.8392
 20
-42.618733
 30
0.0
  0
VERTEX
  5
564
330
558
100
AcDbEntity
  8
001
370
    50
100
AcDbVertex
100
AcDb2dVertex
 10
47.955791
 20
-42.900427
 30
0.0
  0
SEQEND
  5
559
330
558
100
AcDbEntity
  8
001
370
    50
  0
LINE
  5
565
330
1F
100
AcDbEntity
  8
001
370
    50
100
AcDbLine
 10
45.174223
 20
-38.499516
 30
0.0
 11
45.174223
 21
-31.235562
 31
0.0
  0
LINE
  5
566
330
1F
100
AcDbEntity
  8
001
370
    50
100
AcDbLine
 10
45.174223
 20
-31.235562
 30
0.0
 11
46.166449
 21
-31.046194
 31
0.0
  0
LINE
  5
567
330
1F
100
AcDbEntity
  8
001
370
    50
100
AcDbLine
 10
46.166449
 20
-20.875182
 30
0.0
 11
45.174223
 21
-21.235318
 31
0.0
  0
LINE
  5
568
330
1F
100
AcDbEntity
  8
001
370
    50
100
AcDbLine
 10
45.174223
 20
-21.235318
 30
0.0
 11
45.174223
 21
-31.235562
 31
0.0
  0
LINE
  5
569
330
1F
100
AcDbEntity
  8
001
370
    50
100
AcDbLine
 10
59.26296
 20
-16.314654
 30
0.0
 11
59.356598
 21
-16.229083
 31
0.0
  0
POLYLINE
  5
56A
330
1F
100
AcDbEntity
  8
001
370
    50
100
AcDb2dPolyline
 66
     1
 10
0.0
 20
0.0
 30
0.0
  0
VERTEX
  5
56C
330
56A
100
AcDbEntity
  8
001
370
    50
100
AcDbVertex
100
AcDb2dVertex
 10
67.144278
 20
-49.556568
 30
0.0
  0
VERTEX
  5
56D
330
56A
100
AcDbEntity
  8
001
370
    50
100
AcDbVertex
100
AcDb2dVertex
 10
67.113086
 20
-49.373153
 30
0.0
  0
VERTEX
  5
56E
330
56A
100
AcDbEntity
  8
001
370
    50
100
AcDbVertex
100
AcDb2dVertex
 10
67.079285
 20
-49.190233
 30
0.0
  0
VERTEX
  5
56F
330
56A
100
AcDbEntity
  8
001
370
    50
100
AcDbVertex
100
AcDb2dVertex
 10
67.001812
 20
-48.845091
 30
0.0
  0
VERTEX
  5
570
330
56A
100
AcDbEntity
  8
001
370
    50
100
AcDbVertex
100
AcDb2dVertex
 10
66.90765
 20
-48.50397
 30
0.0
  0
VERTEX
  5
571
330
56A
100
AcDbEntity
  8
001
370
    50
100
AcDbVertex
100
AcDb2dVertex
 10
66.792874
 20
-48.151191
 30
0.0
  0
VERTEX
  5
572
330
56A
100
AcDbEntity
  8
001
370
    50
100
AcDbVertex
100
AcDb2dVertex
 10
66.661613
 20
-47.804282
 30
0.0
  0
VERTEX
  5
573
330
56A
100
AcDbEntity
  8
001
370
    50
100
AcDbVertex
100
AcDb2dVertex
 10
66.506036
 20
-47.448192
 30
0.0
  0
VERTEX
  5
574
330
56A
100
AcDbEntity
  8
001
370
    50
100
AcDbVertex
100
AcDb2dVertex
 10
66.3323
 20
-47.100559
 30
0.0
  0
VERTEX
  5
575
330
56A
100
AcDbEntity
  8
001
370
    50
100
AcDbVertex
100
AcDb2dVertex
 10
66.130944
 20
-46.745719
 30
0.0
  0
VERTEX
  5
576
330
56A
100
AcDbEntity
  8
001
370
    50
100
AcDbVertex
100
AcDb2dVertex
 10
65.910837
 20
-46.40219
 30
0.0
  0
VERTEX
  5
577
330
56A
100
AcDbEntity
  8
001
370
    50
100
AcDbVertex
100
AcDb2dVertex
 10
65.659137
 20
-46.053088
 30
0.0
  0
VERTEX
  5
578
330
56A
100
AcDbEntity
  8
001
370
    50
100
AcDbVertex
100
AcDb2dVertex
 10
65.388351
 20
-45.718566
 30
0.0
  0
VERTEX
  5
579
330
56A
100
AcDbEntity
  8
001
370
    50
100
AcDbVertex
100
AcDb2dVertex
 10
65.09375
 20
-45.393672
 30
0.0
  0
VERTEX
  5
57A
330
56A
100
AcDbEntity
  8
001
370
    50
100
AcDbVertex
100
AcDb2dVertex
 10
64.781097
 20
-45.086046
 30
0.0
  0
VERTEX
  5
57B
330
56A
100
AcDbEntity
  8
001
370
    50
100
AcDbVertex
100
AcDb2dVertex
 10
64.423816
 20
-44.774253
 30
0.0
  0
VERTEX
  5
57C
330
56A
100
AcDbEntity
  8
001
370
    50
100
AcDbVertex
100
AcDb2dVertex
 10
64.048004
 20
-44.485332
 30
0.0
  0
VERTEX
  5
57D
330
56A
100
AcDbEntity
  8
001
370
    50
100
AcDbVertex
100
AcDb2dVertex
 10
64.022219
 20
-44.466823
 30
0.0
  0
VERTEX
  5
57E
330
56A
100
AcDbEntity
  8
001
370
    50
100
AcDbVertex
100
AcDb2dVertex
 10
63.996397
 20
-44.448368
 30
0.0
  0
SEQEND
  5
56B
330
56A
100
AcDbEntity
  8
001
370
    50
  0
LINE
  5
57F
330
1F
100
AcDbEntity
  8
001
370
    50
100
AcDbLine
 10
67.252433
 20
-7.053437
 30
0.0
 11
68.237886
 21
-15.603673
 31
0.0
  0
LINE
  5
580
330
1F
100
AcDbEntity
  8
001
370
    50
100
AcDbLine
 10
45.174223
 20
-51.142666
 30
0.0
 11
45.174223
 21
-48.273246
 31
0.0
  0
POLYLINE
  5
581
330
1F
100
AcDbEntity
  8
001
370
    50
100
AcDb2dPolyline
 66
     1
 10
0.0
 20
0.0
 30
0.0
  0
VERTEX
  5
583
330
581
100
AcDbEntity
  8
001
370
    50
100
AcDbVertex
100
AcDb2dVertex
 10
49.33088
 20
-42.900427
 30
0.0
  0
VERTEX
  5
584
330
581
100
AcDbEntity
  8
001
370
    50
100
AcDbVertex
100
AcDb2dVertex
 10
48.848855
 20
-43.945548
 30
0.0
  0
VERTEX
  5
585
330
581
100
AcDbEntity
  8
001
370
    50
100
AcDbVertex
100
AcDb2dVertex
 10
48.35733
 20
-44.986123
 30
0.0
  0
VERTEX
  5
586
330
581
100
AcDbEntity
  8
001
370
    50
100
AcDbVertex
100
AcDb2dVertex
 10
47.848903
 20
-46.019572
 30
0.0
  0
VERTEX
  5
587
330
581
100
AcDbEntity
  8
001
370
    50
100
AcDbVertex
100
AcDb2dVertex
 10
47.326958
 20
-47.046354
 30
0.0
  0
VERTEX
  5
588
330
581
100
AcDbEntity
  8
001
370
    50
100
AcDbVertex
100
AcDb2dVertex
 10
46.258617
 20
-49.090208
 30
0.0
  0
VERTEX
  5
589
330
581
100
AcDbEntity
  8
001
370
    50
100
AcDbVertex
100
AcDb2dVertex
 10
45.174223
 20
-51.125589
 30
0.0
  0
SEQEND
  5
582
330
581
100
AcDbEntity
  8
001
370
    50
  0
POLYLINE
  5
58A
330
1F
100
AcDbEntity
  8
001
370
    50
100
AcDb2dPolyline
 66
     1
 10
0.0
 20
0.0
 30
0.0
  0
VERTEX
  5
58C
330
58A
100
AcDbEntity
  8
001
370
    50
100
AcDbVertex
100
AcDb2dVertex
 10
45.174223
 20
-48.273246
 30
0.0
  0
VERTEX
  5
58D
330
58A
100
AcDbEntity
  8
001
370
    50
100
AcDbVertex
100
AcDb2dVertex
 10
45.597206
 20
-47.265705
 30
0.0
  0
VERTEX
  5
58E
330
58A
100
AcDbEntity
  8
001
370
    50
100
AcDbVertex
100
AcDb2dVertex
 10
46.009366
 20
-46.253806
 30
0.0
  0
VERTEX
  5
58F
330
58A
100
AcDbEntity
  8
001
370
    50
100
AcDbVertex
100
AcDb2dVertex
 10
46.402017
 20
-45.232596
 30
0.0
  0
VERTEX
  5
590
330
58A
100
AcDbEntity
  8
001
370
    50
100
AcDbVertex
100
AcDb2dVertex
 10
46.771938
 20
-44.202796
 30
0.0
  0
VERTEX
  5
591
330
58A
100
AcDbEntity
  8
001
370
    50
100
AcDbVertex
100
AcDb2dVertex
 10
47.119276
 20
-43.157527
 30
0.0
  0
VERTEX
  5
592
330
58A
100
AcDbEntity
  8
001
370
    50
100
AcDbVertex
100
AcDb2dVertex
 10
47.435425
 20
-42.102608
 30
0.0
  0
VERTEX
  5
593
330
58A
100
AcDbEntity
  8
001
370
    50
100
AcDbVertex
100
AcDb2dVertex
 10
47.464895
 20
-41.997228
 30
0.0
  0
VERTEX
  5
594
330
58A
100
AcDbEntity
  8
001
370
    50
100
AcDbVertex
100
AcDb2dVertex
 10
47.494176
 20
-41.891795
 30
0.0
  0
SEQEND
  5
58B
330
58A
100
AcDbEntity
  8
001
370
    50
  0
POLYLINE
  5
595
330
1F
100
AcDbEntity
  8
001
370
    50
100
AcDb2dPolyline
 66
     1
 10
0.0
 20
0.0
 30
0.0
  0
VERTEX
  5
597
330
595
100
AcDbEntity
  8
001
370
    50
100
AcDbVertex
100
AcDb2dVertex
 10
67.163617
 20
-8.78283
 30
0.0
  0
VERTEX
  5
598
330
595
100
AcDbEntity
  8
001
370
    50
100
AcDbVertex
100
AcDb2dVertex
 10
67.181014
 20
-9.082949
 30
0.0
  0
VERTEX
  5
599
330
595
100
AcDbEntity
  8
001
370
    50
100
AcDbVertex
100
AcDb2dVertex
 10
67.195999
 20
-9.383176
 30
0.0
  0
VERTEX
  5
59A
330
595
100
AcDbEntity
  8
001
370
    50
100
AcDbVertex
100
AcDb2dVertex
 10
67.206926
 20
-9.690236
 30
0.0
  0
VERTEX
  5
59B
330
595
100
AcDbEntity
  8
001
370
    50
100
AcDbVertex
100
AcDb2dVertex
 10
67.213901
 20
-9.997433
 30
0.0
  0
VERTEX
  5
59C
330
595
100
AcDbEntity
  8
001
370
    50
100
AcDbVertex
100
AcDb2dVertex
 10
67.21888
 20
-10.630331
 30
0.0
  0
VERTEX
  5
59D
330
595
100
AcDbEntity
  8
001
370
    50
100
AcDbVertex
100
AcDb2dVertex
 10
67.211769
 20
-11.263205
 30
0.0
  0
VERTEX
  5
59E
330
595
100
AcDbEntity
  8
001
370
    50
100
AcDbVertex
100
AcDb2dVertex
 10
67.191965
 20
-11.912932
 30
0.0
  0
VERTEX
  5
59F
330
595
100
AcDbEntity
  8
001
370
    50
100
AcDbVertex
100
AcDb2dVertex
 10
67.159636
 20
-12.562153
 30
0.0
  0
VERTEX
  5
5A0
330
595
100
AcDbEntity
  8
001
370
    50
100
AcDbVertex
100
AcDb2dVertex
 10
67.114648
 20
-13.213614
 30
0.0
  0
VERTEX
  5
5A1
330
595
100
AcDbEntity
  8
001
370
    50
100
AcDbVertex
100
AcDb2dVertex
 10
67.057015
 20
-13.864105
 30
0.0
  0
VERTEX
  5
5A2
330
595
100
AcDbEntity
  8
001
370
    50
100
AcDbVertex
100
AcDb2dVertex
 10
66.960949
 20
-14.722061
 30
0.0
  0
VERTEX
  5
5A3
330
595
100
AcDbEntity
  8
001
370
    50
100
AcDbVertex
100
AcDb2dVertex
 10
66.840926
 20
-15.576924
 30
0.0
  0
VERTEX
  5
5A4
330
595
100
AcDbEntity
  8
001
370
    50
100
AcDbVertex
100
AcDb2dVertex
 10
66.830541
 20
-15.643337
 30
0.0
  0
VERTEX
  5
5A5
330
595
100
AcDbEntity
  8
001
370
    50
100
AcDbVertex
100
AcDb2dVertex
 10
66.820079
 20
-15.709737
 30
0.0
  0
SEQEND
  5
596
330
595
100
AcDbEntity
  8
001
370
    50
  0
POLYLINE
  5
5A6
330
1F
100
AcDbEntity
  8
001
370
    50
100
AcDb2dPolyline
 66
     1
 10
0.0
 20
0.0
 30
0.0
  0
VERTEX
  5
5A8
330
5A6
100
AcDbEntity
  8
001
370
    50
100
AcDbVertex
100
AcDb2dVertex
 10
67.163617
 20
-8.78283
 30
0.0
  0
VERTEX
  5
5A9
330
5A6
100
AcDbEntity
  8
001
370
    50
100
AcDbVertex
100
AcDb2dVertex
 10
67.136887
 20
-8.392971
 30
0.0
  0
VERTEX
  5
5AA
330
5A6
100
AcDbEntity
  8
001
370
    50
100
AcDbVertex
100
AcDb2dVertex
 10
67.097624
 20
-7.82319
 30
0.0
  0
VERTEX
  5
5AB
330
5A6
100
AcDbEntity
  8
001
370
    50
100
AcDbVertex
100
AcDb2dVertex
 10
67.060548
 20
-7.28897
 30
0.0
  0
VERTEX
  5
5AC
330
5A6
100
AcDbEntity
  8
001
370
    50
100
AcDbVertex
100
AcDb2dVertex
 10
67.035049
 20
-6.92346
 30
0.0
  0
SEQEND
  5
5A7
330
5A6
100
AcDbEntity
  8
001
370
    50
  0
POLYLINE
  5
5AD
330
1F
100
AcDbEntity
  8
001
370
    50
100
AcDb2dPolyline
 66
     1
 10
0.0
 20
0.0
 30
0.0
  0
VERTEX
  5
5AF
330
5AD
100
AcDbEntity
  8
001
370
    50
100
AcDbVertex
100
AcDb2dVertex
 10
59.356598
 20
-64.271662
 30
0.0
  0
VERTEX
  5
5B0
330
5AD
100
AcDbEntity
  8
001
370
    50
100
AcDbVertex
100
AcDb2dVertex
 10
60.169638
 20
-64.238853
 30
0.0
  0
VERTEX
  5
5B1
330
5AD
100
AcDbEntity
  8
001
370
    50
100
AcDbVertex
100
AcDb2dVertex
 10
61.357909
 20
-64.190471
 30
0.0
  0
VERTEX
  5
5B2
330
5AD
100
AcDbEntity
  8
001
370
    50
100
AcDbVertex
100
AcDb2dVertex
 10
62.542761
 20
-64.14163
 30
0.0
  0
VERTEX
  5
5B3
330
5AD
100
AcDbEntity
  8
001
370
    50
100
AcDbVertex
100
AcDb2dVertex
 10
63.353437
 20
-64.107918
 30
0.0
  0
SEQEND
  5
5AE
330
5AD
100
AcDbEntity
  8
001
370
    50
  0
LINE
  5
5B4
330
1F
100
AcDbEntity
  8
001
370
    50
100
AcDbLine
 10
57.860625
 20
-61.796073
 30
0.0
 11
59.356598
 21
-64.271662
 31
0.0
  0
POLYLINE
  5
5B5
330
1F
100
AcDbEntity
  8
001
370
    50
100
AcDb2dPolyline
 66
     1
 10
0.0
 20
0.0
 30
0.0
  0
VERTEX
  5
5B7
330
5B5
100
AcDbEntity
  8
001
370
    50
100
AcDbVertex
100
AcDb2dVertex
 10
54.354386
 20
-53.294087
 30
0.0
  0
VERTEX
  5
5B8
330
5B5
100
AcDbEntity
  8
001
370
    50
100
AcDbVertex
100
AcDb2dVertex
 10
54.342497
 20
-53.191934
 30
0.0
  0
VERTEX
  5
5B9
330
5B5
100
AcDbEntity
  8
001
370
    50
100
AcDbVertex
100
AcDb2dVertex
 10
54.32144
 20
-53.046366
 30
0.0
  0
VERTEX
  5
5BA
330
5B5
100
AcDbEntity
  8
001
370
    50
100
AcDbVertex
100
AcDb2dVertex
 10
54.1837
 20
-52.507109
 30
0.0
  0
VERTEX
  5
5BB
330
5B5
100
AcDbEntity
  8
001
370
    50
100
AcDbVertex
100
AcDb2dVertex
 10
53.966855
 20
-52.067311
 30
0.0
  0
VERTEX
  5
5BC
330
5B5
100
AcDbEntity
  8
001
370
    50
100
AcDbVertex
100
AcDb2dVertex
 10
53.495405
 20
-51.460877
 30
0.0
  0
VERTEX
  5
5BD
330
5B5
100
AcDbEntity
  8
001
370
    50
100
AcDbVertex
100
AcDb2dVertex
 10
52.874208
 20
-50.969235
 30
0.0
  0
VERTEX
  5
5BE
330
5B5
100
AcDbEntity
  8
001
370
    50
100
AcDbVertex
100
AcDb2dVertex
 10
52.639704
 20
-50.847434
 30
0.0
  0
VERTEX
  5
5BF
330
5B5
100
AcDbEntity
  8
001
370
    50
100
AcDbVertex
100
AcDb2dVertex
 10
52.402612
 20
-50.748233
 30
0.0
  0
VERTEX
  5
5C0
330
5B5
100
AcDbEntity
  8
001
370
    50
100
AcDbVertex
100
AcDb2dVertex
 10
52.165502
 20
-50.669805
 30
0.0
  0
VERTEX
  5
5C1
330
5B5
100
AcDbEntity
  8
001
370
    50
100
AcDbVertex
100
AcDb2dVertex
 10
51.899994
 20
-50.612888
 30
0.0
  0
VERTEX
  5
5C2
330
5B5
100
AcDbEntity
  8
001
370
    50
100
AcDbVertex
100
AcDb2dVertex
 10
51.600434
 20
-50.578684
 30
0.0
  0
VERTEX
  5
5C3
330
5B5
100
AcDbEntity
  8
001
370
    50
100
AcDbVertex
100
AcDb2dVertex
 10
51.381625
 20
-50.567311
 30
0.0
  0
SEQEND
  5
5B6
330
5B5
100
AcDbEntity
  8
001
370
    50
  0
POLYLINE
  5
5C4
330
1F
100
AcDbEntity
  8
001
370
    50
100
AcDb2dPolyline
 66
     1
 10
0.0
 20
0.0
 30
0.0
  0
VERTEX
  5
5C6
330
5C4
100
AcDbEntity
  8
001
370
    50
100
AcDbVertex
100
AcDb2dVertex
 10
59.356598
 20
-64.271662
 30
0.0
  0
VERTEX
  5
5C7
330
5C4
100
AcDbEntity
  8
001
370
    50
100
AcDbVertex
100
AcDb2dVertex
 10
59.557299
 20
-64.456482
 30
0.0
  0
VERTEX
  5
5C8
330
5C4
100
AcDbEntity
  8
001
370
    50
100
AcDbVertex
100
AcDb2dVertex
 10
59.868124
 20
-64.704384
 30
0.0
  0
VERTEX
  5
5C9
330
5C4
100
AcDbEntity
  8
001
370
    50
100
AcDbVertex
100
AcDb2dVertex
 10
60.054358
 20
-64.825121
 30
0.0
  0
VERTEX
  5
5CA
330
5C4
100
AcDbEntity
  8
001
370
    50
100
AcDbVertex
100
AcDb2dVertex
 10
60.187804
 20
-64.8977
 30
0.0
  0
SEQEND
  5
5C5
330
5C4
100
AcDbEntity
  8
001
370
    50
  0
LINE
  5
5CB
330
1F
100
AcDbEntity
  8
001
370
    50
100
AcDbLine
 10
45.174223
 20
-16.713014
 30
0.0
 11
45.174223
 21
-13.664563
 31
0.0
  0
LINE
  5
5CC
330
1F
100
AcDbEntity
  8
001
370
    50
100
AcDbLine
 10
45.174223
 20
-13.664563
 30
0.0
 11
46.166449
 21
-13.303658
 31
0.0
  0
POLYLINE
  5
5CD
330
1F
100
AcDbEntity
  8
001
370
    50
100
AcDb2dPolyline
 66
     1
 10
0.0
 20
0.0
 30
0.0
  0
VERTEX
  5
5CF
330
5CD
100
AcDbEntity
  8
001
370
    50
100
AcDbVertex
100
AcDb2dVertex
 10
52.78187
 20
-12.921805
 30
0.0
  0
VERTEX
  5
5D0
330
5CD
100
AcDbEntity
  8
001
370
    50
100
AcDbVertex
100
AcDb2dVertex
 10
50.363858
 20
-13.060267
 30
0.0
  0
VERTEX
  5
5D1
330
5CD
100
AcDbEntity
  8
001
370
    50
100
AcDbVertex
100
AcDb2dVertex
 10
46.829972
 20
-13.264892
 30
0.0
  0
VERTEX
  5
5D2
330
5CD
100
AcDbEntity
  8
001
370
    50
100
AcDbVertex
100
AcDb2dVertex
 10
46.436004
 20
-13.287898
 30
0.0
  0
VERTEX
  5
5D3
330
5CD
100
AcDbEntity
  8
001
370
    50
100
AcDbVertex
100
AcDb2dVertex
 10
46.166449
 20
-13.303658
 30
0.0
  0
SEQEND
  5
5CE
330
5CD
100
AcDbEntity
  8
001
370
    50
  0
POLYLINE
  5
5D4
330
1F
100
AcDbEntity
  8
001
370
    50
100
AcDb2dPolyline
 66
     1
 10
0.0
 20
0.0
 30
0.0
  0
VERTEX
  5
5D6
330
5D4
100
AcDbEntity
  8
001
370
    50
100
AcDbVertex
100
AcDb2dVertex
 10
52.78187
 20
-12.921805
 30
0.0
  0
VERTEX
  5
5D7
330
5D4
100
AcDbEntity
  8
001
370
    50
100
AcDbVertex
100
AcDb2dVertex
 10
52.708148
 20
-12.934771
 30
0.0
  0
VERTEX
  5
5D8
330
5D4
100
AcDbEntity
  8
001
370
    50
100
AcDbVertex
100
AcDb2dVertex
 10
52.602807
 20
-12.954614
 30
0.0
  0
VERTEX
  5
5D9
330
5D4
100
AcDbEntity
  8
001
370
    50
100
AcDbVertex
100
AcDb2dVertex
 10
52.164862
 20
-13.061188
 30
0.0
  0
VERTEX
  5
5DA
330
5D4
100
AcDbEntity
  8
001
370
    50
100
AcDbVertex
100
AcDb2dVertex
 10
51.792598
 20
-13.195504
 30
0.0
  0
VERTEX
  5
5DB
330
5D4
100
AcDbEntity
  8
001
370
    50
100
AcDbVertex
100
AcDb2dVertex
 10
51.330755
 20
-13.423654
 30
0.0
  0
VERTEX
  5
5DC
330
5D4
100
AcDbEntity
  8
001
370
    50
100
AcDbVertex
100
AcDb2dVertex
 10
50.916631
 20
-13.753405
 30
0.0
  0
VERTEX
  5
5DD
330
5D4
100
AcDbEntity
  8
001
370
    50
100
AcDbVertex
100
AcDb2dVertex
 10
50.827745
 20
-13.859777
 30
0.0
  0
VERTEX
  5
5DE
330
5D4
100
AcDbEntity
  8
001
370
    50
100
AcDbVertex
100
AcDb2dVertex
 10
50.752188
 20
-13.969893
 30
0.0
  0
VERTEX
  5
5DF
330
5D4
100
AcDbEntity
  8
001
370
    50
100
AcDbVertex
100
AcDb2dVertex
 10
50.699611
 20
-14.069772
 30
0.0
  0
VERTEX
  5
5E0
330
5D4
100
AcDbEntity
  8
001
370
    50
100
AcDbVertex
100
AcDb2dVertex
 10
50.661551
 20
-14.190994
 30
0.0
  0
VERTEX
  5
5E1
330
5D4
100
AcDbEntity
  8
001
370
    50
100
AcDbVertex
100
AcDb2dVertex
 10
50.65269
 20
-14.236721
 30
0.0
  0
VERTEX
  5
5E2
330
5D4
100
AcDbEntity
  8
001
370
    50
100
AcDbVertex
100
AcDb2dVertex
 10
50.647739
 20
-14.269142
 30
0.0
  0
SEQEND
  5
5D5
330
5D4
100
AcDbEntity
  8
001
370
    50
  0
POLYLINE
  5
5E3
330
1F
100
AcDbEntity
  8
001
370
    50
100
AcDb2dPolyline
 66
     1
 10
0.0
 20
0.0
 30
0.0
  0
VERTEX
  5
5E5
330
5E3
100
AcDbEntity
  8
001
370
    50
100
AcDbVertex
100
AcDb2dVertex
 10
63.353437
 20
-12.333857
 30
0.0
  0
VERTEX
  5
5E6
330
5E3
100
AcDbEntity
  8
001
370
    50
100
AcDbVertex
100
AcDb2dVertex
 10
61.439347
 20
-12.438279
 30
0.0
  0
VERTEX
  5
5E7
330
5E3
100
AcDbEntity
  8
001
370
    50
100
AcDbVertex
100
AcDb2dVertex
 10
58.641914
 20
-12.592415
 30
0.0
  0
VERTEX
  5
5E8
330
5E3
100
AcDbEntity
  8
001
370
    50
100
AcDbVertex
100
AcDb2dVertex
 10
55.813523
 20
-12.750395
 30
0.0
  0
VERTEX
  5
5E9
330
5E3
100
AcDbEntity
  8
001
370
    50
100
AcDbVertex
100
AcDb2dVertex
 10
53.878366
 20
-12.859528
 30
0.0
  0
SEQEND
  5
5E4
330
5E3
100
AcDbEntity
  8
001
370
    50
  0
POLYLINE
  5
5EA
330
1F
100
AcDbEntity
  8
001
370
    50
100
AcDb2dPolyline
 66
     1
 10
0.0
 20
0.0
 30
0.0
  0
VERTEX
  5
5EC
330
5EA
100
AcDbEntity
  8
001
370
    50
100
AcDbVertex
100
AcDb2dVertex
 10
55.714824
 20
-13.974259
 30
0.0
  0
VERTEX
  5
5ED
330
5EA
100
AcDbEntity
  8
001
370
    50
100
AcDbVertex
100
AcDb2dVertex
 10
55.717658
 20
-13.915457
 30
0.0
  0
VERTEX
  5
5EE
330
5EA
100
AcDbEntity
  8
001
370
    50
100
AcDbVertex
100
AcDb2dVertex
 10
55.715087
 20
-13.833411
 30
0.0
  0
VERTEX
  5
5EF
330
5EA
100
AcDbEntity
  8
001
370
    50
100
AcDbVertex
100
AcDb2dVertex
 10
55.693291
 20
-13.720033
 30
0.0
  0
VERTEX
  5
5F0
330
5EA
100
AcDbEntity
  8
001
370
    50
100
AcDbVertex
100
AcDb2dVertex
 10
55.652175
 20
-13.623174
 30
0.0
  0
VERTEX
  5
5F1
330
5EA
100
AcDbEntity
  8
001
370
    50
100
AcDbVertex
100
AcDb2dVertex
 10
55.590428
 20
-13.52229
 30
0.0
  0
VERTEX
  5
5F2
330
5EA
100
AcDbEntity
  8
001
370
    50
100
AcDbVertex
100
AcDb2dVertex
 10
55.514185
 20
-13.428086
 30
0.0
  0
VERTEX
  5
5F3
330
5EA
100
AcDbEntity
  8
001
370
    50
100
AcDbVertex
100
AcDb2dVertex
 10
55.413838
 20
-13.334573
 30
0.0
  0
VERTEX
  5
5F4
330
5EA
100
AcDbEntity
  8
001
370
    50
100
AcDbVertex
100
AcDb2dVertex
 10
55.305312
 20
-13.254072
 30
0.0
  0
VERTEX
  5
5F5
330
5EA
100
AcDbEntity
  8
001
370
    50
100
AcDbVertex
100
AcDb2dVertex
 10
54.862572
 20
-13.030891
 30
0.0
  0
VERTEX
  5
5F6
330
5EA
100
AcDbEntity
  8
001
370
    50
100
AcDbVertex
100
AcDb2dVertex
 10
54.326404
 20
-12.907214
 30
0.0
  0
VERTEX
  5
5F7
330
5EA
100
AcDbEntity
  8
001
370
    50
100
AcDbVertex
100
AcDb2dVertex
 10
54.06454
 20
-12.875364
 30
0.0
  0
VERTEX
  5
5F8
330
5EA
100
AcDbEntity
  8
001
370
    50
100
AcDbVertex
100
AcDb2dVertex
 10
53.878366
 20
-12.859528
 30
0.0
  0
SEQEND
  5
5EB
330
5EA
100
AcDbEntity
  8
001
370
    50
  0
POLYLINE
  5
5F9
330
1F
100
AcDbEntity
  8
001
370
    50
100
AcDb2dPolyline
 66
     1
 10
0.0
 20
0.0
 30
0.0
  0
VERTEX
  5
5FB
330
5F9
100
AcDbEntity
  8
001
370
    50
100
AcDbVertex
100
AcDb2dVertex
 10
50.647739
 20
-14.269142
 30
0.0
  0
VERTEX
  5
5FC
330
5F9
100
AcDbEntity
  8
001
370
    50
100
AcDbVertex
100
AcDb2dVertex
 10
50.64491
 20
-14.327944
 30
0.0
  0
VERTEX
  5
5FD
330
5F9
100
AcDbEntity
  8
001
370
    50
100
AcDbVertex
100
AcDb2dVertex
 10
50.647476
 20
-14.40999
 30
0.0
  0
VERTEX
  5
5FE
330
5F9
100
AcDbEntity
  8
001
370
    50
100
AcDbVertex
100
AcDb2dVertex
 10
50.669231
 20
-14.523365
 30
0.0
  0
VERTEX
  5
5FF
330
5F9
100
AcDbEntity
  8
001
370
    50
100
AcDbVertex
100
AcDb2dVertex
 10
50.710388
 20
-14.620226
 30
0.0
  0
VERTEX
  5
600
330
5F9
100
AcDbEntity
  8
001
370
    50
100
AcDbVertex
100
AcDb2dVertex
 10
50.772322
 20
-14.721121
 30
0.0
  0
VERTEX
  5
601
330
5F9
100
AcDbEntity
  8
001
370
    50
100
AcDbVertex
100
AcDb2dVertex
 10
50.848378
 20
-14.815315
 30
0.0
  0
VERTEX
  5
602
330
5F9
100
AcDbEntity
  8
001
370
    50
100
AcDbVertex
100
AcDb2dVertex
 10
50.947877
 20
-14.908781
 30
0.0
  0
VERTEX
  5
603
330
5F9
100
AcDbEntity
  8
001
370
    50
100
AcDbVertex
100
AcDb2dVertex
 10
51.057251
 20
-14.989329
 30
0.0
  0
VERTEX
  5
604
330
5F9
100
AcDbEntity
  8
001
370
    50
100
AcDbVertex
100
AcDb2dVertex
 10
51.525076
 20
-15.213877
 30
0.0
  0
VERTEX
  5
605
330
5F9
100
AcDbEntity
  8
001
370
    50
100
AcDbVertex
100
AcDb2dVertex
 10
52.036159
 20
-15.336187
 30
0.0
  0
VERTEX
  5
606
330
5F9
100
AcDbEntity
  8
001
370
    50
100
AcDbVertex
100
AcDb2dVertex
 10
52.457887
 20
-15.382367
 30
0.0
  0
VERTEX
  5
607
330
5F9
100
AcDbEntity
  8
001
370
    50
100
AcDbVertex
100
AcDb2dVertex
 10
52.879775
 20
-15.388909
 30
0.0
  0
VERTEX
  5
608
330
5F9
100
AcDbEntity
  8
001
370
    50
100
AcDbVertex
100
AcDb2dVertex
 10
53.101071
 20
-15.377979
 30
0.0
  0
VERTEX
  5
609
330
5F9
100
AcDbEntity
  8
001
370
    50
100
AcDbVertex
100
AcDb2dVertex
 10
53.321902
 20
-15.357625
 30
0.0
  0
VERTEX
  5
60A
330
5F9
100
AcDbEntity
  8
001
370
    50
100
AcDbVertex
100
AcDb2dVertex
 10
53.541664
 20
-15.327962
 30
0.0
  0
VERTEX
  5
60B
330
5F9
100
AcDbEntity
  8
001
370
    50
100
AcDbVertex
100
AcDb2dVertex
 10
53.759756
 20
-15.288787
 30
0.0
  0
VERTEX
  5
60C
330
5F9
100
AcDbEntity
  8
001
370
    50
100
AcDbVertex
100
AcDb2dVertex
 10
54.169416
 20
-15.186796
 30
0.0
  0
VERTEX
  5
60D
330
5F9
100
AcDbEntity
  8
001
370
    50
100
AcDbVertex
100
AcDb2dVertex
 10
54.569965
 20
-15.047897
 30
0.0
  0
VERTEX
  5
60E
330
5F9
100
AcDbEntity
  8
001
370
    50
100
AcDbVertex
100
AcDb2dVertex
 10
55.040351
 20
-14.818362
 30
0.0
  0
VERTEX
  5
60F
330
5F9
100
AcDbEntity
  8
001
370
    50
100
AcDbVertex
100
AcDb2dVertex
 10
55.445932
 20
-14.489996
 30
0.0
  0
VERTEX
  5
610
330
5F9
100
AcDbEntity
  8
001
370
    50
100
AcDbVertex
100
AcDb2dVertex
 10
55.534533
 20
-14.38367
 30
0.0
  0
VERTEX
  5
611
330
5F9
100
AcDbEntity
  8
001
370
    50
100
AcDbVertex
100
AcDb2dVertex
 10
55.610375
 20
-14.273508
 30
0.0
  0
VERTEX
  5
612
330
5F9
100
AcDbEntity
  8
001
370
    50
100
AcDbVertex
100
AcDb2dVertex
 10
55.663007
 20
-14.17362
 30
0.0
  0
VERTEX
  5
613
330
5F9
100
AcDbEntity
  8
001
370
    50
100
AcDbVertex
100
AcDb2dVertex
 10
55.701012
 20
-14.052406
 30
0.0
  0
VERTEX
  5
614
330
5F9
100
AcDbEntity
  8
001
370
    50
100
AcDbVertex
100
AcDb2dVertex
 10
55.709871
 20
-14.00668
 30
0.0
  0
VERTEX
  5
615
330
5F9
100
AcDbEntity
  8
001
370
    50
100
AcDbVertex
100
AcDb2dVertex
 10
55.714824
 20
-13.974259
 30
0.0
  0
SEQEND
  5
5FA
330
5F9
100
AcDbEntity
  8
001
370
    50
  0
POLYLINE
  5
616
330
1F
100
AcDbEntity
  8
001
370
    50
100
AcDb2dPolyline
 66
     1
 10
0.0
 20
0.0
 30
0.0
  0
VERTEX
  5
618
330
616
100
AcDbEntity
  8
001
370
    50
100
AcDbVertex
100
AcDb2dVertex
 10
53.878366
 20
-12.859528
 30
0.0
  0
VERTEX
  5
619
330
616
100
AcDbEntity
  8
001
370
    50
100
AcDbVertex
100
AcDb2dVertex
 10
53.717273
 20
-12.913031
 30
0.0
  0
VERTEX
  5
61A
330
616
100
AcDbEntity
  8
001
370
    50
100
AcDbVertex
100
AcDb2dVertex
 10
53.553767
 20
-12.956895
 30
0.0
  0
VERTEX
  5
61B
330
616
100
AcDbEntity
  8
001
370
    50
100
AcDbVertex
100
AcDb2dVertex
 10
53.36272
 20
-12.985301
 30
0.0
  0
VERTEX
  5
61C
330
616
100
AcDbEntity
  8
001
370
    50
100
AcDbVertex
100
AcDb2dVertex
 10
53.169117
 20
-12.989289
 30
0.0
  0
VERTEX
  5
61D
330
616
100
AcDbEntity
  8
001
370
    50
100
AcDbVertex
100
AcDb2dVertex
 10
52.998608
 20
-12.972699
 30
0.0
  0
VERTEX
  5
61E
330
616
100
AcDbEntity
  8
001
370
    50
100
AcDbVertex
100
AcDb2dVertex
 10
52.831578
 20
-12.936494
 30
0.0
  0
VERTEX
  5
61F
330
616
100
AcDbEntity
  8
001
370
    50
100
AcDbVertex
100
AcDb2dVertex
 10
52.806689
 20
-12.929268
 30
0.0
  0
VERTEX
  5
620
330
616
100
AcDbEntity
  8
001
370
    50
100
AcDbVertex
100
AcDb2dVertex
 10
52.78187
 20
-12.921805
 30
0.0
  0
SEQEND
  5
617
330
616
100
AcDbEntity
  8
001
370
    50
  0
LINE
  5
621
330
1F
100
AcDbEntity
  8
001
370
    50
100
AcDbLine
 10
59.752841
 20
-55.362256
 30
0.0
 11
59.752841
 21
-57.094307
 31
0.0
  0
LINE
  5
622
330
1F
100
AcDbEntity
  8
001
370
    50
100
AcDbLine
 10
56.752841
 20
-57.094307
 30
0.0
 11
56.752841
 21
-55.362256
 31
0.0
  0
LINE
  5
623
330
1F
100
AcDbEntity
  8
001
370
    50
100
AcDbLine
 10
56.752841
 20
-55.362256
 30
0.0
 11
58.252841
 21
-54.496231
 31
0.0
  0
LINE
  5
624
330
1F
100
AcDbEntity
  8
001
370
    50
100
AcDbLine
 10
59.752841
 20
-57.094307
 30
0.0
 11
58.252841
 21
-57.960332
 31
0.0
  0
LINE
  5
625
330
1F
100
AcDbEntity
  8
001
370
    50
100
AcDbLine
 10
58.252841
 20
-57.960332
 30
0.0
 11
56.752841
 21
-57.094307
 31
0.0
  0
LINE
  5
626
330
1F
100
AcDbEntity
  8
001
370
    50
100
AcDbLine
 10
59.752841
 20
-55.362256
 30
0.0
 11
58.252841
 21
-54.496231
 31
0.0
  0
LINE
  5
627
330
1F
100
AcDbEntity
  8
001
  6
CENTER
370
     9
100
AcDbLine
 10
42.329135
 20
-35.900427
 30
0.0
 11
166.577231
 21
-35.900427
 31
0.0
  0
LINE
  5
628
330
1F
100
AcDbEntity
  8
001
370
    50
100
AcDbLine
 10
50.912464
 20
-52.796815
 30
0.0
 11
44.080357
 21
-64.702242
 31
0.0
  0
LINE
  5
629
330
1F
100
AcDbEntity
  8
001
370
    50
100
AcDbLine
 10
58.502773
 20
-65.864488
 30
0.0
 11
44.776317
 21
-65.900424
 31
0.0
  0
ARC
  5
62A
330
1F
100
AcDbEntity
  8
001
370
    50
100
AcDbCircle
 10
44.774223
 20
-65.100427
 30
0.0
 40
0.8
100
AcDbArc
 50
150.15
 51
270.15
  0
ARC
  5
62B
330
1F
100
AcDbEntity
  8
001
370
    50
100
AcDbCircle
 10
58.500678
 20
-65.064491
 30
0.0
 40
0.8
100
AcDbArc
 50
270.15
 51
30.15
  0
ARC
  5
62C
330
1F
100
AcDbEntity
  8
001
370
    50
100
AcDbCircle
 10
51.606329
 20
-53.194999
 30
0.0
 40
0.8
100
AcDbArc
 50
30.15
 51
150.15
  0
LINE
  5
62D
330
1F
100
AcDbEntity
  8
001
370
    50
100
AcDbLine
 10
52.2981
 20
-52.793187
 30
0.0
 11
52.96292
 21
-53.937759
 31
0.0
  0
POLYLINE
  5
62E
330
1F
100
AcDbEntity
  8
001
370
    50
100
AcDb2dPolyline
 66
     1
 10
0.0
 20
0.0
 30
0.0
  0
VERTEX
  5
630
330
62E
100
AcDbEntity
  8
001
370
    50
100
AcDbVertex
100
AcDb2dVertex
 10
51.608074
 20
-50.575955
 30
0.0
  0
VERTEX
  5
631
330
62E
100
AcDbEntity
  8
001
370
    50
100
AcDbVertex
100
AcDb2dVertex
 10
51.486192
 20
-50.588922
 30
0.0
  0
VERTEX
  5
632
330
62E
100
AcDbEntity
  8
001
370
    50
100
AcDbVertex
100
AcDb2dVertex
 10
51.316154
 20
-50.612888
 30
0.0
  0
VERTEX
  5
633
330
62E
100
AcDbEntity
  8
001
370
    50
100
AcDbVertex
100
AcDb2dVertex
 10
51.047963
 20
-50.670668
 30
0.0
  0
VERTEX
  5
634
330
62E
100
AcDbEntity
  8
001
370
    50
100
AcDbVertex
100
AcDb2dVertex
 10
50.813536
 20
-50.748233
 30
0.0
  0
VERTEX
  5
635
330
62E
100
AcDbEntity
  8
001
370
    50
100
AcDbVertex
100
AcDb2dVertex
 10
50.577195
 20
-50.847855
 30
0.0
  0
VERTEX
  5
636
330
62E
100
AcDbEntity
  8
001
370
    50
100
AcDbVertex
100
AcDb2dVertex
 10
50.34194
 20
-50.969235
 30
0.0
  0
VERTEX
  5
637
330
62E
100
AcDbEntity
  8
001
370
    50
100
AcDbVertex
100
AcDb2dVertex
 10
49.721058
 20
-51.447042
 30
0.0
  0
VERTEX
  5
638
330
62E
100
AcDbEntity
  8
001
370
    50
100
AcDbVertex
100
AcDb2dVertex
 10
49.249293
 20
-52.067311
 30
0.0
  0
VERTEX
  5
639
330
62E
100
AcDbEntity
  8
001
370
    50
100
AcDbVertex
100
AcDb2dVertex
 10
49.029737
 20
-52.542542
 30
0.0
  0
VERTEX
  5
63A
330
62E
100
AcDbEntity
  8
001
370
    50
100
AcDbVertex
100
AcDb2dVertex
 10
48.894708
 20
-53.046366
 30
0.0
  0
VERTEX
  5
63B
330
62E
100
AcDbEntity
  8
001
370
    50
100
AcDbVertex
100
AcDb2dVertex
 10
48.860185
 20
-53.305279
 30
0.0
  0
VERTEX
  5
63C
330
62E
100
AcDbEntity
  8
001
370
    50
100
AcDbVertex
100
AcDb2dVertex
 10
48.849356
 20
-53.567311
 30
0.0
  0
VERTEX
  5
63D
330
62E
100
AcDbEntity
  8
001
370
    50
100
AcDbVertex
100
AcDb2dVertex
 10
48.862397
 20
-53.830963
 30
0.0
  0
VERTEX
  5
63E
330
62E
100
AcDbEntity
  8
001
370
    50
100
AcDbVertex
100
AcDb2dVertex
 10
48.894708
 20
-54.088255
 30
0.0
  0
VERTEX
  5
63F
330
62E
100
AcDbEntity
  8
001
370
    50
100
AcDbVertex
100
AcDb2dVertex
 10
49.012158
 20
-54.569548
 30
0.0
  0
VERTEX
  5
640
330
62E
100
AcDbEntity
  8
001
370
    50
100
AcDbVertex
100
AcDb2dVertex
 10
49.249293
 20
-55.067311
 30
0.0
  0
VERTEX
  5
641
330
62E
100
AcDbEntity
  8
001
370
    50
100
AcDbVertex
100
AcDb2dVertex
 10
49.359082
 20
-55.241097
 30
0.0
  0
VERTEX
  5
642
330
62E
100
AcDbEntity
  8
001
370
    50
100
AcDbVertex
100
AcDb2dVertex
 10
49.441284
 20
-55.360449
 30
0.0
  0
SEQEND
  5
62F
330
62E
100
AcDbEntity
  8
001
370
    50
  0
POLYLINE
  5
643
330
1F
100
AcDbEntity
  8
001
370
    50
100
AcDb2dPolyline
 66
     1
 10
0.0
 20
0.0
 30
0.0
  0
VERTEX
  5
645
330
643
100
AcDbEntity
  8
001
370
    50
100
AcDbVertex
100
AcDb2dVertex
 10
51.381625
 20
-50.567311
 30
0.0
  0
VERTEX
  5
646
330
643
100
AcDbEntity
  8
001
370
    50
100
AcDbVertex
100
AcDb2dVertex
 10
51.162813
 20
-50.578722
 30
0.0
  0
VERTEX
  5
647
330
643
100
AcDbEntity
  8
001
370
    50
100
AcDbVertex
100
AcDb2dVertex
 10
50.863256
 20
-50.612888
 30
0.0
  0
VERTEX
  5
648
330
643
100
AcDbEntity
  8
001
370
    50
100
AcDbVertex
100
AcDb2dVertex
 10
50.597764
 20
-50.669612
 30
0.0
  0
VERTEX
  5
649
330
643
100
AcDbEntity
  8
001
370
    50
100
AcDbVertex
100
AcDb2dVertex
 10
50.360638
 20
-50.748233
 30
0.0
  0
VERTEX
  5
64A
330
643
100
AcDbEntity
  8
001
370
    50
100
AcDbVertex
100
AcDb2dVertex
 10
50.123486
 20
-50.84817
 30
0.0
  0
VERTEX
  5
64B
330
643
100
AcDbEntity
  8
001
370
    50
100
AcDbVertex
100
AcDb2dVertex
 10
49.889042
 20
-50.969235
 30
0.0
  0
VERTEX
  5
64C
330
643
100
AcDbEntity
  8
001
370
    50
100
AcDbVertex
100
AcDb2dVertex
 10
49.268981
 20
-51.446778
 30
0.0
  0
VERTEX
  5
64D
330
643
100
AcDbEntity
  8
001
370
    50
100
AcDbVertex
100
AcDb2dVertex
 10
48.796395
 20
-52.067311
 30
0.0
  0
VERTEX
  5
64E
330
643
100
AcDbEntity
  8
001
370
    50
100
AcDbVertex
100
AcDb2dVertex
 10
48.576703
 20
-52.542452
 30
0.0
  0
VERTEX
  5
64F
330
643
100
AcDbEntity
  8
001
370
    50
100
AcDbVertex
100
AcDb2dVertex
 10
48.44181
 20
-53.046366
 30
0.0
  0
VERTEX
  5
650
330
643
100
AcDbEntity
  8
001
370
    50
100
AcDbVertex
100
AcDb2dVertex
 10
48.407331
 20
-53.305473
 30
0.0
  0
VERTEX
  5
651
330
643
100
AcDbEntity
  8
001
370
    50
100
AcDbVertex
100
AcDb2dVertex
 10
48.396458
 20
-53.567311
 30
0.0
  0
VERTEX
  5
652
330
643
100
AcDbEntity
  8
001
370
    50
100
AcDbVertex
100
AcDb2dVertex
 10
48.409381
 20
-53.830281
 30
0.0
  0
VERTEX
  5
653
330
643
100
AcDbEntity
  8
001
370
    50
100
AcDbVertex
100
AcDb2dVertex
 10
48.44181
 20
-54.088255
 30
0.0
  0
VERTEX
  5
654
330
643
100
AcDbEntity
  8
001
370
    50
100
AcDbVertex
100
AcDb2dVertex
 10
48.560408
 20
-54.576423
 30
0.0
  0
VERTEX
  5
655
330
643
100
AcDbEntity
  8
001
370
    50
100
AcDbVertex
100
AcDb2dVertex
 10
48.796395
 20
-55.067311
 30
0.0
  0
VERTEX
  5
656
330
643
100
AcDbEntity
  8
001
370
    50
100
AcDbVertex
100
AcDb2dVertex
 10
49.052319
 20
-55.431807
 30
0.0
  0
VERTEX
  5
657
330
643
100
AcDbEntity
  8
001
370
    50
100
AcDbVertex
100
AcDb2dVertex
 10
49.2595
 20
-55.677221
 30
0.0
  0
SEQEND
  5
644
330
643
100
AcDbEntity
  8
001
370
    50
  0
LINE
  5
658
330
1F
100
AcDbEntity
  8
001
370
    50
100
AcDbLine
 10
45.174223
 20
-62.796105
 30
0.0
 11
45.174223
 21
-51.125589
 31
0.0
  0
LINE
  5
659
330
1F
100
AcDbEntity
  8
001
370
    50
100
AcDbLine
 10
57.611389
 20
-61.940685
 30
0.0
 11
59.192449
 21
-64.662678
 31
0.0
  0
POLYLINE
  5
65A
330
1F
100
AcDbEntity
  8
001
370
    50
100
AcDb2dPolyline
 66
     1
 10
0.0
 20
0.0
 30
0.0
  0
VERTEX
  5
65C
330
65A
100
AcDbEntity
  8
001
370
    50
100
AcDbVertex
100
AcDb2dVertex
 10
59.287336
 20
-64.918993
 30
0.0
  0
VERTEX
  5
65D
330
65A
100
AcDbEntity
  8
001
370
    50
100
AcDbVertex
100
AcDb2dVertex
 10
59.470277
 20
-64.91469
 30
0.0
  0
VERTEX
  5
65E
330
65A
100
AcDbEntity
  8
001
370
    50
100
AcDbVertex
100
AcDb2dVertex
 10
59.737653
 20
-64.908381
 30
0.0
  0
VERTEX
  5
65F
330
65A
100
AcDbEntity
  8
001
370
    50
100
AcDbVertex
100
AcDb2dVertex
 10
60.00493
 20
-64.902047
 30
0.0
  0
VERTEX
  5
660
330
65A
100
AcDbEntity
  8
001
370
    50
100
AcDbVertex
100
AcDb2dVertex
 10
60.187804
 20
-64.8977
 30
0.0
  0
SEQEND
  5
65B
330
65A
100
AcDbEntity
  8
001
370
    50
  0
LINE
  5
661
330
1F
100
AcDbEntity
  8
001
370
    50
100
AcDbLine
 10
59.295228
 20
-64.971263
 30
0.0
 11
63.353437
 21
-64.900427
 31
0.0
  0
ARC
  5
662
330
1F
100
AcDbEntity
  8
001
370
    50
100
AcDbCircle
 10
51.627077
 20
-61.119972
 30
0.0
 40
1.9
100
AcDbArc
 50
63.646844
 51
356.107513
  0
LINE
  5
663
330
1F
100
AcDbEntity
  8
001
370
    50
100
AcDbLine
 10
80.974223
 20
-14.900427
 30
0.0
 11
155.974223
 21
-14.900427
 31
0.0
  0
ARC
  5
664
330
1F
100
AcDbEntity
  8
001
370
    50
100
AcDbCircle
 10
155.974223
 20
-22.900427
 30
0.0
 40
8.0
100
AcDbArc
 50
0.0
 51
90.0
  0
LINE
  5
665
330
1F
100
AcDbEntity
  8
001
370
    50
100
AcDbLine
 10
163.974223
 20
-48.900427
 30
0.0
 11
163.974223
 21
-22.900427
 31
0.0
  0
LINE
  5
666
330
1F
100
AcDbEntity
  8
001
370
    50
100
AcDbLine
 10
163.974223
 20
-35.900427
 30
0.0
 11
166.572299
 21
-37.400427
 31
0.0
  0
LINE
  5
667
330
1F
100
AcDbEntity
  8
001
370
    50
100
AcDbLine
 10
163.974223
 20
-35.900427
 30
0.0
 11
166.572299
 21
-34.400427
 31
0.0
  0
LINE
  5
668
330
1F
100
AcDbEntity
  8
001
370
    50
100
AcDbLine
 10
80.974223
 20
-56.900427
 30
0.0
 11
80.974223
 21
-14.900427
 31
0.0
  0
LINE
  5
669
330
1F
100
AcDbEntity
  8
001
370
    50
100
AcDbLine
 10
80.974223
 20
-15.400427
 30
0.0
 11
78.974223
 21
-15.400427
 31
0.0
  0
LINE
  5
66A
330
1F
100
AcDbEntity
  8
001
370
    50
100
AcDbLine
 10
80.974223
 20
-56.900427
 30
0.0
 11
155.974223
 21
-56.900427
 31
0.0
  0
ARC
  5
66B
330
1F
100
AcDbEntity
  8
001
370
    50
100
AcDbCircle
 10
155.974223
 20
-48.900427
 30
0.0
 40
8.0
100
AcDbArc
 50
270.0
 51
0.0
  0
LINE
  5
66C
330
1F
100
AcDbEntity
  8
001
370
    50
100
AcDbLine
 10
80.974223
 20
-56.400427
 30
0.0
 11
78.974223
 21
-56.400427
 31
0.0
  0
ENDSEC
  0
SECTION
  2
OBJECTS
  0
DICTIONARY
  5
C
330
0
100
AcDbDictionary
281
     1
  3
ACAD_GROUP
350
D
  3
ACAD_LAYOUT
350
1A
  3
ACAD_MLEADERSTYLE
350
670
  3
ACAD_MLINESTYLE
350
17
  3
ACAD_PLOTSETTINGS
350
19
  3
ACAD_PLOTSTYLENAME
350
E
  3
ACAD_SCALELIST
350
3B
  3
ACAD_TABLESTYLE
350
66F
  3
ACAD_VISUALSTYLE
350
2A
  3
AcDbVariableDictionary
350
66D
  0
DICTIONARY
  5
D
102
{ACAD_REACTORS
330
C
102
}
330
C
100
AcDbDictionary
281
     1
  0
DICTIONARY
  5
1A
102
{ACAD_REACTORS
330
C
102
}
330
C
100
AcDbDictionary
281
     1
  3
Layout1
350
1E
  3
Layout2
350
26
  3
Model
350
22
  0
DICTIONARY
  5
670
102
{ACAD_REACTORS
330
C
102
}
330
C
100
AcDbDictionary
281
     1
  0
DICTIONARY
  5
17
102
{ACAD_REACTORS
330
C
102
}
330
C
100
AcDbDictionary
281
     1
  3
Standard
350
18
  0
DICTIONARY
  5
19
102
{ACAD_REACTORS
330
C
102
}
330
C
100
AcDbDictionary
281
     1
  0
ACDBDICTIONARYWDFLT
  5
E
102
{ACAD_REACTORS
330
C
102
}
330
C
100
AcDbDictionary
281
     1
  3
Normal
350
F
100
AcDbDictionaryWithDefault
340
F
  0
DICTIONARY
  5
3B
102
{ACAD_REACTORS
330
C
102
}
330
C
100
AcDbDictionary
281
     1
  3
A0
350
3C
  3
A1
350
3D
  3
A2
350
3E
  3
A3
350
3F
  3
A4
350
40
  3
A5
350
41
  3
A6
350
42
  3
A7
350
43
  3
A8
350
44
  3
A9
350
45
  3
B0
350
46
  3
B1
350
47
  3
B2
350
48
  3
B3
350
49
  3
B4
350
4A
  3
B5
350
4B
  3
B6
350
4C
  3
B7
350
4D
  3
B8
350
4E
  3
B9
350
4F
  3
C0
350
50
  3
C1
350
51
  3
C2
350
52
  3
C3
350
53
  3
C4
350
54
  3
C5
350
55
  3
C6
350
56
  3
C7
350
57
  3
C8
350
58
  3
C9
350
59
  3
D0
350
5A
  3
D1
350
5B
  3
D2
350
5C
  0
DICTIONARY
  5
66F
102
{ACAD_REACTORS
330
C
102
}
330
C
100
AcDbDictionary
281
     1
  0
DICTIONARY
  5
2A
102
{ACAD_REACTORS
330
C
102
}
330
C
100
AcDbDictionary
281
     1
  3
2dWireframe
350
2F
  3
3D Hidden
350
31
  3
3dWireframe
350
30
  3
Basic
350
32
  3
Brighten
350
36
  3
ColorChange
350
3A
  3
Conceptual
350
34
  3
Dim
350
35
  3
Facepattern
350
39
  3
Flat
350
2B
  3
FlatWithEdges
350
2C
  3
Gouraud
350
2D
  3
GouraudWithEdges
350
2E
  3
Linepattern
350
38
  3
Realistic
350
33
  3
Thicken
350
37
  0
DICTIONARY
  5
66D
102
{ACAD_REACTORS
330
C
102
}
330
C
100
AcDbDictionary
281
     1
  3
CANNOSCALE
350
66E
  3
PSOLHEIGHT
350
672
  3
PSOLWIDTH
350
671
  0
LAYOUT
  5
1E
102
{ACAD_REACTORS
330
1A
102
}
330
1A
100
AcDbPlotSettings
  1

  2
none_device
  4

  6

 40
0.0
 41
0.0
 42
0.0
 43
0.0
 44
0.0
 45
0.0
 46
0.0
 47
0.0
 48
0.0
 49
0.0
140
0.0
141
0.0
142
1.0
143
1.0
 70
   688
 72
     0
 73
     0
 74
     5
  7

 75
    16
147
1.0
148
0.0
149
0.0
100
AcDbLayout
  1
Layout1
 70
     1
 71
     1
 10
0.0
 20
0.0
 11
12.0
 21
9.0
 12
0.0
 22
0.0
 32
0.0
 14
1.000000E+20
 24
1.000000E+20
 34
0.0
 15
-1.000000E+20
 25
-1.000000E+20
 35
0.0
146
0.0
 13
0.0
 23
0.0
 33
0.0
 16
1.0
 26
0.0
 36
0.0
 17
0.0
 27
1.0
 37
0.0
 76
     0
330
1B
  0
LAYOUT
  5
26
102
{ACAD_REACTORS
330
1A
102
}
330
1A
100
AcDbPlotSettings
  1

  2
none_device
  4

  6

 40
0.0
 41
0.0
 42
0.0
 43
0.0
 44
0.0
 45
0.0
 46
0.0
 47
0.0
 48
0.0
 49
0.0
140
0.0
141
0.0
142
1.0
143
1.0
 70
   688
 72
     0
 73
     0
 74
     5
  7

 75
    16
147
1.0
148
0.0
149
0.0
100
AcDbLayout
  1
Layout2
 70
     1
 71
     2
 10
0.0
 20
0.0
 11
0.0
 21
0.0
 12
0.0
 22
0.0
 32
0.0
 14
0.0
 24
0.0
 34
0.0
 15
0.0
 25
0.0
 35
0.0
146
0.0
 13
0.0
 23
0.0
 33
0.0
 16
1.0
 26
0.0
 36
0.0
 17
0.0
 27
1.0
 37
0.0
 76
     0
330
23
  0
LAYOUT
  5
22
102
{ACAD_REACTORS
330
1A
102
}
330
1A
100
AcDbPlotSettings
  1

  2
none_device
  4

  6

 40
0.0
 41
0.0
 42
0.0
 43
0.0
 44
0.0
 45
0.0
 46
0.0
 47
0.0
 48
0.0
 49
0.0
140
0.0
141
0.0
142
1.0
143
1.0
 70
  1712
 72
     0
 73
     0
 74
     0
  7

 75
     0
147
1.0
148
0.0
149
0.0
100
AcDbLayout
  1
Model
 70
     1
 71
     0
 10
0.0
 20
0.0
 11
12.0
 21
9.0
 12
0.0
 22
0.0
 32
0.0
 14
-2.425934
 24
-65.900421
 34
0.0
 15
207.574066
 25
159.063629
 35
0.0
146
0.0
 13
0.0
 23
0.0
 33
0.0
 16
1.0
 26
0.0
 36
0.0
 17
0.0
 27
1.0
 37
0.0
 76
     0
330
1F
331
29
  0
MLINESTYLE
  5
18
102
{ACAD_REACTORS
330
17
102
}
330
17
100
AcDbMlineStyle
  2
Standard
 70
     0
  3

 62
   256
 51
90.0
 52
90.0
 71
     2
 49
0.5
 62
   256
  6
BYLAYER
 49
-0.5
 62
   256
  6
BYLAYER
  0
ACDBPLACEHOLDER
  5
F
102
{ACAD_REACTORS
330
E
102
}
330
E
  0
SCALE
  5
3C
102
{ACAD_REACTORS
330
3B
102
}
330
3B
100
AcDbScale
 70
     0
300
1:1
140
1.0
141
1.0
290
     1
  0
SCALE
  5
3D
102
{ACAD_REACTORS
330
3B
102
}
330
3B
100
AcDbScale
 70
     0
300
1:2
140
1.0
141
2.0
290
     0
  0
SCALE
  5
3E
102
{ACAD_REACTORS
330
3B
102
}
330
3B
100
AcDbScale
 70
     0
300
1:4
140
1.0
141
4.0
290
     0
  0
SCALE
  5
3F
102
{ACAD_REACTORS
330
3B
102
}
330
3B
100
AcDbScale
 70
     0
300
1:5
140
1.0
141
5.0
290
     0
  0
SCALE
  5
40
102
{ACAD_REACTORS
330
3B
102
}
330
3B
100
AcDbScale
 70
     0
300
1:8
140
1.0
141
8.0
290
     0
  0
SCALE
  5
41
102
{ACAD_REACTORS
330
3B
102
}
330
3B
100
AcDbScale
 70
     0
300
1:10
140
1.0
141
10.0
290
     0
  0
SCALE
  5
42
102
{ACAD_REACTORS
330
3B
102
}
330
3B
100
AcDbScale
 70
     0
300
1:16
140
1.0
141
16.0
290
     0
  0
SCALE
  5
43
102
{ACAD_REACTORS
330
3B
102
}
330
3B
100
AcDbScale
 70
     0
300
1:20
140
1.0
141
20.0
290
     0
  0
SCALE
  5
44
102
{ACAD_REACTORS
330
3B
102
}
330
3B
100
AcDbScale
 70
     0
300
1:30
140
1.0
141
30.0
290
     0
  0
SCALE
  5
45
102
{ACAD_REACTORS
330
3B
102
}
330
3B
100
AcDbScale
 70
     0
300
1:40
140
1.0
141
40.0
290
     0
  0
SCALE
  5
46
102
{ACAD_REACTORS
330
3B
102
}
330
3B
100
AcDbScale
 70
     0
300
1:50
140
1.0
141
50.0
290
     0
  0
SCALE
  5
47
102
{ACAD_REACTORS
330
3B
102
}
330
3B
100
AcDbScale
 70
     0
300
1:100
140
1.0
141
100.0
290
     0
  0
SCALE
  5
48
102
{ACAD_REACTORS
330
3B
102
}
330
3B
100
AcDbScale
 70
     0
300
2:1
140
2.0
141
1.0
290
     0
  0
SCALE
  5
49
102
{ACAD_REACTORS
330
3B
102
}
330
3B
100
AcDbScale
 70
     0
300
4:1
140
4.0
141
1.0
290
     0
  0
SCALE
  5
4A
102
{ACAD_REACTORS
330
3B
102
}
330
3B
100
AcDbScale
 70
     0
300
8:1
140
8.0
141
1.0
290
     0
  0
SCALE
  5
4B
102
{ACAD_REACTORS
330
3B
102
}
330
3B
100
AcDbScale
 70
     0
300
10:1
140
10.0
141
1.0
290
     0
  0
SCALE
  5
4C
102
{ACAD_REACTORS
330
3B
102
}
330
3B
100
AcDbScale
 70
     0
300
100:1
140
100.0
141
1.0
290
     0
  0
SCALE
  5
4D
102
{ACAD_REACTORS
330
3B
102
}
330
3B
100
AcDbScale
 70
     0
300
1/128" = 1'-0"
140
0.007812
141
12.0
290
     0
  0
SCALE
  5
4E
102
{ACAD_REACTORS
330
3B
102
}
330
3B
100
AcDbScale
 70
     0
300
1/64" = 1'-0"
140
0.015625
141
12.0
290
     0
  0
SCALE
  5
4F
102
{ACAD_REACTORS
330
3B
102
}
330
3B
100
AcDbScale
 70
     0
300
1/32" = 1'-0"
140
0.03125
141
12.0
290
     0
  0
SCALE
  5
50
102
{ACAD_REACTORS
330
3B
102
}
330
3B
100
AcDbScale
 70
     0
300
1/16" = 1'-0"
140
0.0625
141
12.0
290
     0
  0
SCALE
  5
51
102
{ACAD_REACTORS
330
3B
102
}
330
3B
100
AcDbScale
 70
     0
300
3/32" = 1'-0"
140
0.09375
141
12.0
290
     0
  0
SCALE
  5
52
102
{ACAD_REACTORS
330
3B
102
}
330
3B
100
AcDbScale
 70
     0
300
1/8" = 1'-0"
140
0.125
141
12.0
290
     0
  0
SCALE
  5
53
102
{ACAD_REACTORS
330
3B
102
}
330
3B
100
AcDbScale
 70
     0
300
3/16" = 1'-0"
140
0.1875
141
12.0
290
     0
  0
SCALE
  5
54
102
{ACAD_REACTORS
330
3B
102
}
330
3B
100
AcDbScale
 70
     0
300
1/4" = 1'-0"
140
0.25
141
12.0
290
     0
  0
SCALE
  5
55
102
{ACAD_REACTORS
330
3B
102
}
330
3B
100
AcDbScale
 70
     0
300
3/8" = 1'-0"
140
0.375
141
12.0
290
     0
  0
SCALE
  5
56
102
{ACAD_REACTORS
330
3B
102
}
330
3B
100
AcDbScale
 70
     0
300
1/2" = 1'-0"
140
0.5
141
12.0
290
     0
  0
SCALE
  5
57
102
{ACAD_REACTORS
330
3B
102
}
330
3B
100
AcDbScale
 70
     0
300
3/4" = 1'-0"
140
0.75
141
12.0
290
     0
  0
SCALE
  5
58
102
{ACAD_REACTORS
330
3B
102
}
330
3B
100
AcDbScale
 70
     0
300
1" = 1'-0"
140
1.0
141
12.0
290
     0
  0
SCALE
  5
59
102
{ACAD_REACTORS
330
3B
102
}
330
3B
100
AcDbScale
 70
     0
300
1-1/2" = 1'-0"
140
1.5
141
12.0
290
     0
  0
SCALE
  5
5A
102
{ACAD_REACTORS
330
3B
102
}
330
3B
100
AcDbScale
 70
     0
300
3" = 1'-0"
140
3.0
141
12.0
290
     0
  0
SCALE
  5
5B
102
{ACAD_REACTORS
330
3B
102
}
330
3B
100
AcDbScale
 70
     0
300
6" = 1'-0"
140
6.0
141
12.0
290
     0
  0
SCALE
  5
5C
102
{ACAD_REACTORS
330
3B
102
}
330
3B
100
AcDbScale
 70
     0
300
1'-0" = 1'-0"
140
12.0
141
12.0
290
     0
  0
VISUALSTYLE
  5
2F
102
{ACAD_REACTORS
330
2A
102
}
330
2A
100
AcDbVisualStyle
  2
2dWireframe
 70
     4
 71
     0
 72
     2
 73
     0
 90
        0
 40
-0.6
 41
-30.0
 62
     5
 63
     7
 74
     1
 91
        4
 64
     7
 65
   257
 75
     1
175
     1
 42
1.0
 92
        0
 66
   257
 43
1.0
 76
     1
 77
     6
 78
     2
 67
     7
 79
     5
170
     0
171
     0
290
     0
174
     0
 93
        1
 44
0.0
173
     0
291
     0
 45
0.0
1001
ACAD
1000
AcDbSavedByObjectVersion
1070
     0
  0
VISUALSTYLE
  5
31
102
{ACAD_REACTORS
330
2A
102
}
330
2A
100
AcDbVisualStyle
  2
3D Hidden
 70
     6
 71
     1
 72
     2
 73
     2
 90
        0
 40
-0.6
 41
-30.0
 62
     5
 63
     7
 74
     2
 91
        2
 64
     7
 65
   257
 75
     2
175
     1
 42
40.0
 92
        0
 66
   257
 43
1.0
 76
     1
 77
     6
 78
     2
 67
     7
 79
     3
170
     0
171
     0
290
     0
174
     0
 93
        1
 44
0.0
173
     0
291
     0
 45
0.0
1001
ACAD
1000
AcDbSavedByObjectVersion
1070
     0
  0
VISUALSTYLE
  5
30
102
{ACAD_REACTORS
330
2A
102
}
330
2A
100
AcDbVisualStyle
  2
3dWireframe
 70
     5
 71
     0
 72
     2
 73
     0
 90
        0
 40
-0.6
 41
-30.0
 62
     5
 63
     7
 74
     1
 91
        4
 64
     7
 65
   257
 75
     1
175
     1
 42
1.0
 92
        0
 66
   257
 43
1.0
 76
     1
 77
     6
 78
     2
 67
     7
 79
     5
170
     0
171
     0
290
     0
174
     0
 93
        1
 44
0.0
173
     0
291
     0
 45
0.0
1001
ACAD
1000
AcDbSavedByObjectVersion
1070
     0
  0
VISUALSTYLE
  5
32
102
{ACAD_REACTORS
330
2A
102
}
330
2A
100
AcDbVisualStyle
  2
Basic
 70
     7
 71
     1
 72
     0
 73
     1
 90
        0
 40
-0.6
 41
-30.0
 62
     5
 63
     7
 74
     0
 91
        4
 64
     7
 65
   257
 75
     1
175
     1
 42
1.0
 92
        8
 66
     7
 43
1.0
 76
     1
 77
     6
 78
     2
 67
     7
 79
     5
170
     0
171
     0
290
     0
174
     0
 93
        1
 44
0.0
173
     0
291
     1
 45
0.0
1001
ACAD
1000
AcDbSavedByObjectVersion
1070
     0
  0
VISUALSTYLE
  5
36
102
{ACAD_REACTORS
330
2A
102
}
330
2A
100
AcDbVisualStyle
  2
Brighten
 70
    12
 71
     2
 72
     2
 73
     0
 90
        0
 40
-0.6
 41
-30.0
 62
     5
 63
     7
 74
     1
 91
        4
 64
     7
 65
   257
 75
     1
175
     1
 42
1.0
 92
        8
 66
     7
 43
1.0
 76
     1
 77
     6
 78
     2
 67
     7
 79
     5
170
     0
171
     0
290
     0
174
     0
 93
        1
 44
50.0
173
     0
291
     1
 45
0.0
1001
ACAD
1000
AcDbSavedByObjectVersion
1070
     0
  0
VISUALSTYLE
  5
3A
102
{ACAD_REACTORS
330
2A
102
}
330
2A
100
AcDbVisualStyle
  2
ColorChange
 70
    16
 71
     2
 72
     2
 73
     3
 90
        0
 40
-0.6
 41
-30.0
 62
     5
 63
     8
 74
     1
 91
        4
 64
     7
 65
   257
 75
     1
175
     1
 42
1.0
 92
        8
 66
     8
 43
1.0
 76
     1
 77
     6
 78
     2
 67
     7
 79
     5
170
     0
171
     0
290
     0
174
     0
 93
        1
 44
0.0
173
     0
291
     1
 45
0.0
1001
ACAD
1000
AcDbSavedByObjectVersion
1070
     0
  0
VISUALSTYLE
  5
34
102
{ACAD_REACTORS
330
2A
102
}
330
2A
100
AcDbVisualStyle
  2
Conceptual
 70
     9
 71
     3
 72
     2
 73
     0
 90
        0
 40
-0.6
 41
-30.0
 62
     5
 63
     7
 74
     2
 91
        2
 64
     7
 65
   257
 75
     1
175
     1
 42
40.0
 92
        8
 66
     7
 43
1.0
 76
     1
 77
     6
 78
     2
 67
     7
 79
     3
170
     0
171
     0
290
     0
174
     0
 93
        1
 44
0.0
173
     0
291
     0
 45
0.0
1001
ACAD
1000
AcDbSavedByObjectVersion
1070
     0
  0
VISUALSTYLE
  5
35
102
{ACAD_REACTORS
330
2A
102
}
330
2A
100
AcDbVisualStyle
  2
Dim
 70
    11
 71
     2
 72
     2
 73
     0
 90
        0
 40
-0.6
 41
-30.0
 62
     5
 63
     7
 74
     1
 91
        4
 64
     7
 65
   257
 75
     1
175
     1
 42
1.0
 92
        8
 66
     7
 43
1.0
 76
     1
 77
     6
 78
     2
 67
     7
 79
     5
170
     0
171
     0
290
     0
174
     0
 93
        1
 44
-50.0
173
     0
291
     1
 45
0.0
1001
ACAD
1000
AcDbSavedByObjectVersion
1070
     0
  0
VISUALSTYLE
  5
39
102
{ACAD_REACTORS
330
2A
102
}
330
2A
100
AcDbVisualStyle
  2
Facepattern
 70
    15
 71
     2
 72
     2
 73
     0
 90
        0
 40
-0.6
 41
-30.0
 62
     5
 63
     7
 74
     1
 91
        4
 64
     7
 65
   257
 75
     1
175
     1
 42
1.0
 92
        8
 66
     7
 43
1.0
 76
     1
 77
     6
 78
     2
 67
     7
 79
     5
170
     0
171
     0
290
     0
174
     0
 93
        1
 44
0.0
173
     0
291
     1
 45
0.0
1001
ACAD
1000
AcDbSavedByObjectVersion
1070
     0
  0
VISUALSTYLE
  5
2B
102
{ACAD_REACTORS
330
2A
102
}
330
2A
100
AcDbVisualStyle
  2
Flat
 70
     0
 71
     2
 72
     1
 73
     1
 90
        2
 40
-0.6
 41
30.0
 62
     5
 63
     7
 74
     0
 91
        4
 64
     7
 65
   257
 75
     1
175
     1
 42
1.0
 92
        8
 66
     7
 43
1.0
 76
     1
 77
     6
 78
     2
 67
     7
 79
     5
170
     0
171
     0
290
     0
174
     0
 93
       13
 44
0.0
173
     0
291
     1
 45
0.0
1001
ACAD
1000
AcDbSavedByObjectVersion
1070
     0
  0
VISUALSTYLE
  5
2C
102
{ACAD_REACTORS
330
2A
102
}
330
2A
100
AcDbVisualStyle
  2
FlatWithEdges
 70
     1
 71
     2
 72
     1
 73
     1
 90
        2
 40
-0.6
 41
30.0
 62
     5
 63
     7
 74
     1
 91
        4
 64
     7
 65
   257
 75
     1
175
     1
 42
1.0
 92
        0
 66
   257
 43
1.0
 76
     1
 77
     6
 78
     2
 67
     7
 79
     5
170
     0
171
     0
290
     0
174
     0
 93
       13
 44
0.0
173
     0
291
     1
 45
0.0
1001
ACAD
1000
AcDbSavedByObjectVersion
1070
     0
  0
VISUALSTYLE
  5
2D
102
{ACAD_REACTORS
330
2A
102
}
330
2A
100
AcDbVisualStyle
  2
Gouraud
 70
     2
 71
     2
 72
     2
 73
     1
 90
        2
 40
-0.6
 41
30.0
 62
     5
 63
     7
 74
     0
 91
        4
 64
     7
 65
   257
 75
     1
175
     1
 42
1.0
 92
        0
 66
     7
 43
1.0
 76
     1
 77
     6
 78
     2
 67
     7
 79
     5
170
     0
171
     0
290
     0
174
     0
 93
       13
 44
0.0
173
     0
291
     1
 45
0.0
1001
ACAD
1000
AcDbSavedByObjectVersion
1070
     0
  0
VISUALSTYLE
  5
2E
102
{ACAD_REACTORS
330
2A
102
}
330
2A
100
AcDbVisualStyle
  2
GouraudWithEdges
 70
     3
 71
     2
 72
     2
 73
     1
 90
        2
 40
-0.6
 41
30.0
 62
     5
 63
     7
 74
     1
 91
        4
 64
     7
 65
   257
 75
     1
175
     1
 42
1.0
 92
        0
 66
   257
 43
1.0
 76
     1
 77
     6
 78
     2
 67
     7
 79
     5
170
     0
171
     0
290
     0
174
     0
 93
       13
 44
0.0
173
     0
291
     1
 45
0.0
1001
ACAD
1000
AcDbSavedByObjectVersion
1070
     0
  0
VISUALSTYLE
  5
38
102
{ACAD_REACTORS
330
2A
102
}
330
2A
100
AcDbVisualStyle
  2
Linepattern
 70
    14
 71
     2
 72
     2
 73
     0
 90
        0
 40
-0.6
 41
-30.0
 62
     5
 63
     7
 74
     1
 91
        4
 64
     7
 65
   257
 75
     7
175
     7
 42
1.0
 92
        8
 66
     7
 43
1.0
 76
     1
 77
     6
 78
     2
 67
     7
 79
     5
170
     0
171
     0
290
     0
174
     0
 93
        1
 44
0.0
173
     0
291
     1
 45
0.0
1001
ACAD
1000
AcDbSavedByObjectVersion
1070
     0
  0
VISUALSTYLE
  5
33
102
{ACAD_REACTORS
330
2A
102
}
330
2A
100
AcDbVisualStyle
  2
Realistic
 70
     8
 71
     2
 72
     2
 73
     0
 90
        0
 40
-0.6
 41
-30.0
 62
     5
 63
     7
 74
     1
 91
        0
 64
     7
 65
   257
 75
     1
175
     1
 42
1.0
 92
        8
 66
     8
 43
1.0
 76
     1
 77
     6
 78
     2
 67
     7
 79
     5
170
     0
171
     0
290
     0
174
     0
 93
       13
 44
0.0
173
     0
291
     0
 45
0.0
1001
ACAD
1000
AcDbSavedByObjectVersion
1070
     0
  0
VISUALSTYLE
  5
37
102
{ACAD_REACTORS
330
2A
102
}
330
2A
100
AcDbVisualStyle
  2
Thicken
 70
    13
 71
     2
 72
     2
 73
     0
 90
        0
 40
-0.6
 41
-30.0
 62
     5
 63
     7
 74
     1
 91
        4
 64
     7
 65
   257
 75
     1
175
     1
 42
1.0
 92
       12
 66
     7
 43
1.0
 76
     1
 77
     6
 78
     2
 67
     7
 79
     5
170
     0
171
     0
290
     0
174
     0
 93
        1
 44
0.0
173
     0
291
     1
 45
0.0
1001
ACAD
1000
AcDbSavedByObjectVersion
1070
     0
  0
DICTIONARYVAR
  5
66E
102
{ACAD_REACTORS
330
66D
102
}
330
66D
100
DictionaryVariables
280
     0
  1
1:1
  0
DICTIONARYVAR
  5
672
102
{ACAD_REACTORS
330
66D
102
}
330
66D
100
DictionaryVariables
280
     0
  1
80.000000
  0
DICTIONARYVAR
  5
671
102
{ACAD_REACTORS
330
66D
102
}
330
66D
100
DictionaryVariables
280
     0
  1
5.000000
  0
ENDSEC
  0
EOF
