  0
SECTION
  2
HEADER
  9
$ACADVER
  1
AC1015
  9
$ACADMAINTVER
 70
     6
  9
$DWGCODEPAGE
  3
ANSI_932
  9
$INSBASE
 10
0.0
 20
0.0
 30
0.0
  9
$EXTMIN
 10
4.250153
 20
-110.303574
 30
0.0
  9
$EXTMAX
 10
214.250153
 20
179.091904
 30
0.0
  9
$LIMMIN
 10
0.0
 20
0.0
  9
$LIMMAX
 10
12.0
 20
9.0
  9
$ORTHOMODE
 70
     0
  9
$REGENMODE
 70
     1
  9
$FILLMODE
 70
     1
  9
$QTEXTMODE
 70
     0
  9
$MIRRTEXT
 70
     1
  9
$LTSCALE
 40
3.575608
  9
$ATTMODE
 70
     1
  9
$TEXTSIZE
 40
3.2
  9
$TRACEWID
 40
1.0
  9
$TEXTSTYLE
  7
Standard
  9
$CLAYER
  8
0
  9
$CELTYPE
  6
ByLayer
  9
$CECOLOR
 62
   256
  9
$CELTSCALE
 40
1.0
  9
$DISPSILH
 70
     0
  9
$DIMSCALE
 40
1.0
  9
$DIMASZ
 40
2.5
  9
$DIMEXO
 40
0.625
  9
$DIMDLI
 40
3.75
  9
$DIMRND
 40
0.0
  9
$DIMDLE
 40
0.0
  9
$DIMEXE
 40
1.25
  9
$DIMTP
 40
0.0
  9
$DIMTM
 40
0.0
  9
$DIMTXT
 40
2.5
  9
$DIMCEN
 40
0.09
  9
$DIMTSZ
 40
0.0
  9
$DIMTOL
 70
     0
  9
$DIMLIM
 70
     0
  9
$DIMTIH
 70
     0
  9
$DIMTOH
 70
     0
  9
$DIMSE1
 70
     0
  9
$DIMSE2
 70
     0
  9
$DIMTAD
 70
     0
  9
$DIMZIN
 70
     8
  9
$DIMBLK
  1

  9
$DIMASO
 70
     1
  9
$DIMSHO
 70
     0
  9
$DIMPOST
  1

  9
$DIMAPOST
  1

  9
$DIMALT
 70
     0
  9
$DIMALTD
 70
     3
  9
$DIMALTF
 40
0.03937
  9
$DIMLFAC
 40
1.0
  9
$DIMTOFL
 70
     1
  9
$DIMTVP
 40
0.0
  9
$DIMTIX
 70
     0
  9
$DIMSOXD
 70
     0
  9
$DIMSAH
 70
     0
  9
$DIMBLK1
  1

  9
$DIMBLK2
  1

  9
$DIMSTYLE
  2
ISO-25
  9
$DIMCLRD
 70
     0
  9
$DIMCLRE
 70
     0
  9
$DIMCLRT
 70
     0
  9
$DIMTFAC
 40
1.0
  9
$DIMGAP
 40
0.625
  9
$DIMJUST
 70
     0
  9
$DIMSD1
 70
     0
  9
$DIMSD2
 70
     0
  9
$DIMTOLJ
 70
     0
  9
$DIMTZIN
 70
     8
  9
$DIMALTZ
 70
     0
  9
$DIMALTTZ
 70
     0
  9
$DIMUPT
 70
     0
  9
$DIMDEC
 70
     2
  9
$DIMTDEC
 70
     2
  9
$DIMALTU
 70
     2
  9
$DIMALTTD
 70
     3
  9
$DIMTXSTY
  7
Standard
  9
$DIMAUNIT
 70
     0
  9
$DIMADEC
 70
     0
  9
$DIMALTRND
 40
0.0
  9
$DIMAZIN
 70
     0
  9
$DIMDSEP
 70
    44
  9
$DIMATFIT
 70
     3
  9
$DIMFRAC
 70
     0
  9
$DIMLDRBLK
  1

  9
$DIMLUNIT
 70
     2
  9
$DIMLWD
 70
    -2
  9
$DIMLWE
 70
    -2
  9
$DIMTMOVE
 70
     0
  9
$LUNITS
 70
     2
  9
$LUPREC
 70
     4
  9
$SKETCHINC
 40
1.0
  9
$FILLETRAD
 40
0.0
  9
$AUNITS
 70
     0
  9
$AUPREC
 70
     0
  9
$MENU
  1
.
  9
$ELEVATION
 40
0.0
  9
$PELEVATION
 40
0.0
  9
$THICKNESS
 40
0.0
  9
$LIMCHECK
 70
     0
  9
$CHAMFERA
 40
10.0
  9
$CHAMFERB
 40
10.0
  9
$CHAMFERC
 40
20.0
  9
$CHAMFERD
 40
0.0
  9
$SKPOLY
 70
     0
  9
$TDCREATE
 40
2454818.80943206
  9
$TDUCREATE
 40
2454818.43443206
  9
$TDUPDATE
 40
2454818.809432072
  9
$TDUUPDATE
 40
2454818.434432072
  9
$TDINDWG
 40
0.0000000116
  9
$TDUSRTIMER
 40
0.0000000116
  9
$USRTIMER
 70
     1
  9
$ANGBASE
 50
0.0
  9
$ANGDIR
 70
     0
  9
$PDMODE
 70
     0
  9
$PDSIZE
 40
0.0
  9
$PLINEWID
 40
0.0
  9
$SPLFRAME
 70
     0
  9
$SPLINETYPE
 70
     6
  9
$SPLINESEGS
 70
     8
  9
$HANDSEED
  5
627
  9
$SURFTAB1
 70
     6
  9
$SURFTAB2
 70
     6
  9
$SURFTYPE
 70
     6
  9
$SURFU
 70
     6
  9
$SURFV
 70
     6
  9
$UCSBASE
  2

  9
$UCSNAME
  2

  9
$UCSORG
 10
0.0
 20
0.0
 30
0.0
  9
$UCSXDIR
 10
1.0
 20
0.0
 30
0.0
  9
$UCSYDIR
 10
0.0
 20
1.0
 30
0.0
  9
$UCSORTHOREF
  2

  9
$UCSORTHOVIEW
 70
     0
  9
$UCSORGTOP
 10
0.0
 20
0.0
 30
0.0
  9
$UCSORGBOTTOM
 10
0.0
 20
0.0
 30
0.0
  9
$UCSORGLEFT
 10
0.0
 20
0.0
 30
0.0
  9
$UCSORGRIGHT
 10
0.0
 20
0.0
 30
0.0
  9
$UCSORGFRONT
 10
0.0
 20
0.0
 30
0.0
  9
$UCSORGBACK
 10
0.0
 20
0.0
 30
0.0
  9
$PUCSBASE
  2

  9
$PUCSNAME
  2

  9
$PUCSORG
 10
0.0
 20
0.0
 30
0.0
  9
$PUCSXDIR
 10
1.0
 20
0.0
 30
0.0
  9
$PUCSYDIR
 10
0.0
 20
1.0
 30
0.0
  9
$PUCSORTHOREF
  2

  9
$PUCSORTHOVIEW
 70
     0
  9
$PUCSORGTOP
 10
0.0
 20
0.0
 30
0.0
  9
$PUCSORGBOTTOM
 10
0.0
 20
0.0
 30
0.0
  9
$PUCSORGLEFT
 10
0.0
 20
0.0
 30
0.0
  9
$PUCSORGRIGHT
 10
0.0
 20
0.0
 30
0.0
  9
$PUCSORGFRONT
 10
0.0
 20
0.0
 30
0.0
  9
$PUCSORGBACK
 10
0.0
 20
0.0
 30
0.0
  9
$USERI1
 70
     0
  9
$USERI2
 70
     0
  9
$USERI3
 70
     0
  9
$USERI4
 70
     0
  9
$USERI5
 70
     0
  9
$USERR1
 40
0.0
  9
$USERR2
 40
0.0
  9
$USERR3
 40
0.0
  9
$USERR4
 40
0.0
  9
$USERR5
 40
0.0
  9
$WORLDVIEW
 70
     1
  9
$SHADEDGE
 70
     3
  9
$SHADEDIF
 70
    70
  9
$TILEMODE
 70
     1
  9
$MAXACTVP
 70
    64
  9
$PINSBASE
 10
0.0
 20
0.0
 30
0.0
  9
$PLIMCHECK
 70
     0
  9
$PEXTMIN
 10
1.000000E+20
 20
1.000000E+20
 30
0.0
  9
$PEXTMAX
 10
-1.000000E+20
 20
-1.000000E+20
 30
0.0
  9
$PLIMMIN
 10
0.0
 20
0.0
  9
$PLIMMAX
 10
12.0
 20
9.0
  9
$UNITMODE
 70
     0
  9
$VISRETAIN
 70
     1
  9
$PLINEGEN
 70
     0
  9
$PSLTSCALE
 70
     1
  9
$TREEDEPTH
 70
  3020
  9
$CMLSTYLE
  2
Standard
  9
$CMLJUST
 70
     0
  9
$CMLSCALE
 40
20.0
  9
$PROXYGRAPHICS
 70
     1
  9
$MEASUREMENT
 70
     1
  9
$CELWEIGHT
370
    -1
  9
$ENDCAPS
280
     0
  9
$JOINSTYLE
280
     0
  9
$LWDISPLAY
290
     0
  9
$INSUNITS
 70
     4
  9
$HYPERLINKBASE
  1

  9
$STYLESHEET
  1

  9
$XEDIT
290
     1
  9
$CEPSNTYPE
380
     0
  9
$PSTYLEMODE
290
     1
  9
$FINGERPRINTGUID
  2
{D9A30C76-D27E-4F06-B009-DA22354158D4}
  9
$VERSIONGUID
  2
{FAEB1C32-E019-11D5-929B-00C0DF256EC4}
  9
$EXTNAMES
290
     1
  9
$PSVPSCALE
 40
0.0
  9
$OLESTARTUP
290
     0
  0
ENDSEC
  0
SECTION
  2
CLASSES
  0
CLASS
  1
ACDBDICTIONARYWDFLT
  2
AcDbDictionaryWithDefault
  3
ObjectDBX Classes
 90
        0
280
     0
281
     0
  0
CLASS
  1
VISUALSTYLE
  2
AcDbVisualStyle
  3
ObjectDBX Classes
 90
     4095
280
     0
281
     0
  0
CLASS
  1
SCALE
  2
AcDbScale
  3
ObjectDBX Classes
 90
     1153
280
     0
281
     0
  0
CLASS
  1
DICTIONARYVAR
  2
AcDbDictionaryVar
  3
ObjectDBX Classes
 90
        0
280
     0
281
     0
  0
CLASS
  1
ACDBPLACEHOLDER
  2
AcDbPlaceHolder
  3
ObjectDBX Classes
 90
        0
280
     0
281
     0
  0
CLASS
  1
LAYOUT
  2
AcDbLayout
  3
ObjectDBX Classes
 90
        0
280
     0
281
     0
  0
ENDSEC
  0
SECTION
  2
TABLES
  0
TABLE
  2
VPORT
  5
8
330
0
100
AcDbSymbolTable
 70
     1
  0
VPORT
  5
29
330
8
100
AcDbSymbolTableRecord
100
AcDbViewportTableRecord
  2
*Active
 70
     0
 10
0.0
 20
0.0
 11
1.0
 21
1.0
 12
109.250153
 22
34.394165
 13
0.0
 23
0.0
 14
1.0
 24
1.0
 15
0.0
 25
0.0
 16
0.0
 26
0.0
 36
1.0
 17
0.0
 27
0.0
 37
0.0
 40
292.289432
 41
1.691288
 42
50.0
 43
0.0
 44
0.0
 50
0.0
 51
0.0
 71
     0
 72
   100
 73
     1
 74
     3
 75
     0
 76
     0
 77
     0
 78
     0
281
     0
 65
     1
110
0.0
120
0.0
130
0.0
111
1.0
121
0.0
131
0.0
112
0.0
122
1.0
132
0.0
 79
     0
146
0.0
  0
ENDTAB
  0
TABLE
  2
LTYPE
  5
5
330
0
100
AcDbSymbolTable
 70
     5
  0
LTYPE
  5
14
330
5
100
AcDbSymbolTableRecord
100
AcDbLinetypeTableRecord
  2
ByBlock
 70
     0
  3

 72
    65
 73
     0
 40
0.0
  0
LTYPE
  5
15
330
5
100
AcDbSymbolTableRecord
100
AcDbLinetypeTableRecord
  2
ByLayer
 70
     0
  3

 72
    65
 73
     0
 40
0.0
  0
LTYPE
  5
16
330
5
100
AcDbSymbolTableRecord
100
AcDbLinetypeTableRecord
  2
Continuous
 70
     0
  3
Solid line
 72
    65
 73
     0
 40
0.0
  0
LTYPE
  5
5D
330
5
100
AcDbSymbolTableRecord
100
AcDbLinetypeTableRecord
  2
DASHED
 70
     0
  3
DASHED
 72
    83
 73
     2
 40
0.75
 49
0.5
 74
     0
 49
-0.25
 74
     0
  0
LTYPE
  5
5E
330
5
100
AcDbSymbolTableRecord
100
AcDbLinetypeTableRecord
  2
HIDDEN
 70
     0
  3
HIDDEN
 72
    83
 73
     2
 40
0.375
 49
0.25
 74
     0
 49
-0.125
 74
     0
  0
LTYPE
  5
5F
330
5
100
AcDbSymbolTableRecord
100
AcDbLinetypeTableRecord
  2
CENTER
 70
     0
  3
CENTER
 72
    83
 73
     4
 40
2.0
 49
1.25
 74
     0
 49
-0.25
 74
     0
 49
0.25
 74
     0
 49
-0.25
 74
     0
  0
LTYPE
  5
60
330
5
100
AcDbSymbolTableRecord
100
AcDbLinetypeTableRecord
  2
PHANTOM
 70
     0
  3
PHANTOM
 72
    83
 73
     6
 40
2.5
 49
1.25
 74
     0
 49
-0.25
 74
     0
 49
0.25
 74
     0
 49
-0.25
 74
     0
 49
0.25
 74
     0
 49
-0.25
 74
     0
  0
ENDTAB
  0
TABLE
  2
LAYER
  5
2
330
0
100
AcDbSymbolTable
 70
     2
  0
LAYER
  5
10
330
2
100
AcDbSymbolTableRecord
100
AcDbLayerTableRecord
  2
0
 70
     0
 62
     7
  6
Continuous
370
    -3
390
F
  0
LAYER
  5
61
330
2
100
AcDbSymbolTableRecord
100
AcDbLayerTableRecord
  2
001
 70
     0
 62
     7
  6
Continuous
370
    -3
390
F
  0
ENDTAB
  0
TABLE
  2
STYLE
  5
3
330
0
100
AcDbSymbolTable
 70
     2
  0
STYLE
  5
11
330
3
100
AcDbSymbolTableRecord
100
AcDbTextStyleTableRecord
  2
Standard
 70
     0
 40
0.0
 41
1.0
 50
0.0
 71
     0
 42
0.2
  3
TXT
  4
BIGFONT
  0
STYLE
  5
62
330
3
100
AcDbSymbolTableRecord
100
AcDbTextStyleTableRecord
  2
TATEGAKI
 70
     4
 40
1.0
 41
1.0
 50
0.0
 71
     0
 42
0.2
  3
TXT
  4
BIGFONT
  0
ENDTAB
  0
TABLE
  2
VIEW
  5
6
330
0
100
AcDbSymbolTable
 70
     0
  0
ENDTAB
  0
TABLE
  2
UCS
  5
7
330
0
100
AcDbSymbolTable
 70
     0
  0
ENDTAB
  0
TABLE
  2
APPID
  5
9
330
0
100
AcDbSymbolTable
 70
     1
  0
APPID
  5
12
330
9
100
AcDbSymbolTableRecord
100
AcDbRegAppTableRecord
  2
ACAD
 70
     0
  0
ENDTAB
  0
TABLE
  2
DIMSTYLE
  5
A
330
0
100
AcDbSymbolTable
 70
     2
100
AcDbDimStyleTable
  0
DIMSTYLE
105
27
330
A
100
AcDbSymbolTableRecord
100
AcDbDimStyleTableRecord
  2
ISO-25
 70
     0
 41
2.5
 42
0.625
 43
3.75
 44
1.25
 73
     0
 74
     0
 77
     1
 78
     8
140
2.5
141
2.5
143
0.03937
147
0.625
171
     3
172
     1
271
     2
272
     2
274
     3
278
    44
283
     0
284
     8
340
11
  0
DIMSTYLE
105
63
102
{ACAD_REACTORS
330
FF
330
100
330
101
330
102
330
103
330
104
330
105
102
}
330
A
100
AcDbSymbolTableRecord
100
AcDbDimStyleTableRecord
  2
Standard
 70
     0
 41
1.5
 42
0.0
 44
2.75
 73
     0
 74
     0
 77
     1
 78
     8
 79
     2
140
4.0
146
0.8
147
1.0
172
     1
179
     1
271
     1
340
11
  0
ENDTAB
  0
TABLE
  2
BLOCK_RECORD
  5
1
330
0
100
AcDbSymbolTable
 70
     8
  0
BLOCK_RECORD
  5
1F
330
1
100
AcDbSymbolTableRecord
100
AcDbBlockTableRecord
  2
*Model_Space
340
22
  0
BLOCK_RECORD
  5
1B
330
1
100
AcDbSymbolTableRecord
100
AcDbBlockTableRecord
  2
*Paper_Space
340
1E
  0
BLOCK_RECORD
  5
23
330
1
100
AcDbSymbolTableRecord
100
AcDbBlockTableRecord
  2
*Paper_Space0
340
26
  0
BLOCK_RECORD
  5
64
330
1
100
AcDbSymbolTableRecord
100
AcDbBlockTableRecord
  2
*D1
340
0
  0
BLOCK_RECORD
  5
78
330
1
100
AcDbSymbolTableRecord
100
AcDbBlockTableRecord
  2
*D2
340
0
  0
BLOCK_RECORD
  5
8C
330
1
100
AcDbSymbolTableRecord
100
AcDbBlockTableRecord
  2
*D3
340
0
  0
BLOCK_RECORD
  5
A0
330
1
100
AcDbSymbolTableRecord
100
AcDbBlockTableRecord
  2
*D4
340
0
  0
BLOCK_RECORD
  5
B4
330
1
100
AcDbSymbolTableRecord
100
AcDbBlockTableRecord
  2
*D5
340
0
  0
BLOCK_RECORD
  5
CA
330
1
100
AcDbSymbolTableRecord
100
AcDbBlockTableRecord
  2
*D6
340
0
  0
BLOCK_RECORD
  5
DF
330
1
100
AcDbSymbolTableRecord
100
AcDbBlockTableRecord
  2
*D7
340
0
  0
ENDTAB
  0
ENDSEC
  0
SECTION
  2
BLOCKS
  0
BLOCK
  5
20
330
1F
100
AcDbEntity
  8
0
100
AcDbBlockBegin
  2
*Model_Space
 70
     0
 10
0.0
 20
0.0
 30
0.0
  3
*Model_Space
  1

  0
ENDBLK
  5
21
330
1F
100
AcDbEntity
  8
0
100
AcDbBlockEnd
  0
BLOCK
  5
1C
330
1B
100
AcDbEntity
 67
     1
  8
0
100
AcDbBlockBegin
  2
*Paper_Space
 70
     0
 10
0.0
 20
0.0
 30
0.0
  3
*Paper_Space
  1

  0
ENDBLK
  5
1D
330
1B
100
AcDbEntity
 67
     1
  8
0
100
AcDbBlockEnd
  0
BLOCK
  5
24
330
23
100
AcDbEntity
  8
0
100
AcDbBlockBegin
  2
*Paper_Space0
 70
     0
 10
0.0
 20
0.0
 30
0.0
  3
*Paper_Space0
  1

  0
ENDBLK
  5
25
330
23
100
AcDbEntity
  8
0
100
AcDbBlockEnd
  0
BLOCK
  5
65
330
64
100
AcDbEntity
  8
0
100
AcDbBlockBegin
  2
*D1
 70
     1
 10
0.0
 20
0.0
 30
0.0
  3
*D1
  1

  0
LINE
  5
67
330
64
100
AcDbEntity
  8
001
370
     9
100
AcDbLine
 10
163.456315
 20
121.203415
 30
0.0
 11
199.155047
 21
121.203415
 31
0.0
  0
LINE
  5
68
330
64
100
AcDbEntity
  8
001
370
     9
100
AcDbLine
 10
163.456315
 20
89.203415
 30
0.0
 11
199.155047
 21
89.203415
 31
0.0
  0
LINE
  5
69
330
64
100
AcDbEntity
  8
001
370
     9
100
AcDbLine
 10
196.405047
 20
121.203415
 30
0.0
 11
196.405047
 21
89.203415
 31
0.0
  0
POLYLINE
  5
6A
330
64
100
AcDbEntity
  8
001
370
     9
100
AcDb2dPolyline
 66
     1
 10
0.0
 20
0.0
 30
0.0
  0
VERTEX
  5
6C
330
6A
100
AcDbEntity
  8
001
370
     9
100
AcDbVertex
100
AcDb2dVertex
 10
196.003123
 20
119.703415
 30
0.0
  0
VERTEX
  5
6D
330
6A
100
AcDbEntity
  8
001
370
     9
100
AcDbVertex
100
AcDb2dVertex
 10
196.405047
 20
121.203415
 30
0.0
  0
VERTEX
  5
6E
330
6A
100
AcDbEntity
  8
001
370
     9
100
AcDbVertex
100
AcDb2dVertex
 10
196.806971
 20
119.703415
 30
0.0
  0
SEQEND
  5
6B
330
6A
100
AcDbEntity
  8
001
370
     9
  0
POLYLINE
  5
6F
330
64
100
AcDbEntity
  8
001
370
     9
100
AcDb2dPolyline
 66
     1
 10
0.0
 20
0.0
 30
0.0
  0
VERTEX
  5
71
330
6F
100
AcDbEntity
  8
001
370
     9
100
AcDbVertex
100
AcDb2dVertex
 10
196.806971
 20
90.703415
 30
0.0
  0
VERTEX
  5
72
330
6F
100
AcDbEntity
  8
001
370
     9
100
AcDbVertex
100
AcDb2dVertex
 10
196.405047
 20
89.203415
 30
0.0
  0
VERTEX
  5
73
330
6F
100
AcDbEntity
  8
001
370
     9
100
AcDbVertex
100
AcDb2dVertex
 10
196.003123
 20
90.703415
 30
0.0
  0
SEQEND
  5
70
330
6F
100
AcDbEntity
  8
001
370
     9
  0
TEXT
  5
74
330
64
100
AcDbEntity
  8
001
370
    30
100
AcDbText
 10
195.405047
 20
99.203415
 30
0.0
 40
4.0
  1
%%c３２
 50
90.000003
 41
0.882353
100
AcDbText
  0
POINT
  5
75
330
64
100
AcDbEntity
  8
001
370
     9
100
AcDbPoint
 10
163.456315
 20
121.203415
 30
0.0
  0
POINT
  5
76
330
64
100
AcDbEntity
  8
001
370
     9
100
AcDbPoint
 10
163.456315
 20
89.203415
 30
0.0
  0
POINT
  5
77
330
64
100
AcDbEntity
  8
001
370
     9
100
AcDbPoint
 10
196.405047
 20
89.203415
 30
0.0
  0
ENDBLK
  5
66
330
64
100
AcDbEntity
  8
0
100
AcDbBlockEnd
  0
BLOCK
  5
79
330
78
100
AcDbEntity
  8
0
100
AcDbBlockBegin
  2
*D2
 70
     1
 10
0.0
 20
0.0
 30
0.0
  3
*D2
  1

  0
LINE
  5
7B
330
78
100
AcDbEntity
  8
001
370
     9
100
AcDbLine
 10
51.456315
 20
52.77554
 30
0.0
 11
51.456315
 21
7.839005
 31
0.0
  0
LINE
  5
7C
330
78
100
AcDbEntity
  8
001
370
     9
100
AcDbLine
 10
171.456315
 20
97.203415
 30
0.0
 11
171.456315
 21
7.839005
 31
0.0
  0
LINE
  5
7D
330
78
100
AcDbEntity
  8
001
370
     9
100
AcDbLine
 10
51.456315
 20
10.589005
 30
0.0
 11
171.456315
 21
10.589005
 31
0.0
  0
POLYLINE
  5
7E
330
78
100
AcDbEntity
  8
001
370
     9
100
AcDb2dPolyline
 66
     1
 10
0.0
 20
0.0
 30
0.0
  0
VERTEX
  5
80
330
7E
100
AcDbEntity
  8
001
370
     9
100
AcDbVertex
100
AcDb2dVertex
 10
52.956315
 20
10.187082
 30
0.0
  0
VERTEX
  5
81
330
7E
100
AcDbEntity
  8
001
370
     9
100
AcDbVertex
100
AcDb2dVertex
 10
51.456315
 20
10.589005
 30
0.0
  0
VERTEX
  5
82
330
7E
100
AcDbEntity
  8
001
370
     9
100
AcDbVertex
100
AcDb2dVertex
 10
52.956315
 20
10.990929
 30
0.0
  0
SEQEND
  5
7F
330
7E
100
AcDbEntity
  8
001
370
     9
  0
POLYLINE
  5
83
330
78
100
AcDbEntity
  8
001
370
     9
100
AcDb2dPolyline
 66
     1
 10
0.0
 20
0.0
 30
0.0
  0
VERTEX
  5
85
330
83
100
AcDbEntity
  8
001
370
     9
100
AcDbVertex
100
AcDb2dVertex
 10
169.956315
 20
10.990929
 30
0.0
  0
VERTEX
  5
86
330
83
100
AcDbEntity
  8
001
370
     9
100
AcDbVertex
100
AcDb2dVertex
 10
171.456315
 20
10.589005
 30
0.0
  0
VERTEX
  5
87
330
83
100
AcDbEntity
  8
001
370
     9
100
AcDbVertex
100
AcDb2dVertex
 10
169.956315
 20
10.187082
 30
0.0
  0
SEQEND
  5
84
330
83
100
AcDbEntity
  8
001
370
     9
  0
TEXT
  5
88
330
78
100
AcDbEntity
  8
001
370
    30
100
AcDbText
 10
103.67877
 20
11.589005
 30
0.0
 40
4.0
  1
１２０
 41
0.833333
100
AcDbText
  0
POINT
  5
89
330
78
100
AcDbEntity
  8
001
370
     9
100
AcDbPoint
 10
51.456315
 20
52.77554
 30
0.0
  0
POINT
  5
8A
330
78
100
AcDbEntity
  8
001
370
     9
100
AcDbPoint
 10
171.456315
 20
97.203415
 30
0.0
  0
POINT
  5
8B
330
78
100
AcDbEntity
  8
001
370
     9
100
AcDbPoint
 10
171.456315
 20
10.589005
 30
0.0
  0
ENDBLK
  5
7A
330
78
100
AcDbEntity
  8
0
100
AcDbBlockEnd
  0
BLOCK
  5
8D
330
8C
100
AcDbEntity
  8
0
100
AcDbBlockBegin
  2
*D3
 70
     1
 10
0.0
 20
0.0
 30
0.0
  3
*D3
  1

  0
LINE
  5
8F
330
8C
100
AcDbEntity
  8
001
370
     9
100
AcDbLine
 10
171.456315
 20
97.203415
 30
0.0
 11
171.456315
 21
20.903965
 31
0.0
  0
LINE
  5
90
330
8C
100
AcDbEntity
  8
001
370
     9
100
AcDbLine
 10
86.456315
 20
67.879059
 30
0.0
 11
86.456315
 21
20.903965
 31
0.0
  0
LINE
  5
91
330
8C
100
AcDbEntity
  8
001
370
     9
100
AcDbLine
 10
171.456315
 20
23.653965
 30
0.0
 11
86.456315
 21
23.653965
 31
0.0
  0
POLYLINE
  5
92
330
8C
100
AcDbEntity
  8
001
370
     9
100
AcDb2dPolyline
 66
     1
 10
0.0
 20
0.0
 30
0.0
  0
VERTEX
  5
94
330
92
100
AcDbEntity
  8
001
370
     9
100
AcDbVertex
100
AcDb2dVertex
 10
169.956315
 20
24.055889
 30
0.0
  0
VERTEX
  5
95
330
92
100
AcDbEntity
  8
001
370
     9
100
AcDbVertex
100
AcDb2dVertex
 10
171.456315
 20
23.653965
 30
0.0
  0
VERTEX
  5
96
330
92
100
AcDbEntity
  8
001
370
     9
100
AcDbVertex
100
AcDb2dVertex
 10
169.956315
 20
23.252041
 30
0.0
  0
SEQEND
  5
93
330
92
100
AcDbEntity
  8
001
370
     9
  0
POLYLINE
  5
97
330
8C
100
AcDbEntity
  8
001
370
     9
100
AcDb2dPolyline
 66
     1
 10
0.0
 20
0.0
 30
0.0
  0
VERTEX
  5
99
330
97
100
AcDbEntity
  8
001
370
     9
100
AcDbVertex
100
AcDb2dVertex
 10
87.956315
 20
23.252041
 30
0.0
  0
VERTEX
  5
9A
330
97
100
AcDbEntity
  8
001
370
     9
100
AcDbVertex
100
AcDb2dVertex
 10
86.456315
 20
23.653965
 30
0.0
  0
VERTEX
  5
9B
330
97
100
AcDbEntity
  8
001
370
     9
100
AcDbVertex
100
AcDb2dVertex
 10
87.956315
 20
24.055889
 30
0.0
  0
SEQEND
  5
98
330
97
100
AcDbEntity
  8
001
370
     9
  0
TEXT
  5
9C
330
8C
100
AcDbEntity
  8
001
370
    30
100
AcDbText
 10
124.956315
 20
24.653965
 30
0.0
 40
4.0
  1
８５
 41
0.833333
100
AcDbText
  0
POINT
  5
9D
330
8C
100
AcDbEntity
  8
001
370
     9
100
AcDbPoint
 10
171.456315
 20
97.203415
 30
0.0
  0
POINT
  5
9E
330
8C
100
AcDbEntity
  8
001
370
     9
100
AcDbPoint
 10
86.456315
 20
67.879059
 30
0.0
  0
POINT
  5
9F
330
8C
100
AcDbEntity
  8
001
370
     9
100
AcDbPoint
 10
86.456315
 20
23.653965
 30
0.0
  0
ENDBLK
  5
8E
330
8C
100
AcDbEntity
  8
0
100
AcDbBlockEnd
  0
BLOCK
  5
A1
330
A0
100
AcDbEntity
  8
0
100
AcDbBlockBegin
  2
*D4
 70
     1
 10
0.0
 20
0.0
 30
0.0
  3
*D4
  1

  0
LINE
  5
A3
330
A0
100
AcDbEntity
  8
001
370
     9
100
AcDbLine
 10
86.456315
 20
67.879059
 30
0.0
 11
86.456315
 21
20.903965
 31
0.0
  0
LINE
  5
A4
330
A0
100
AcDbEntity
  8
001
370
     9
100
AcDbLine
 10
51.456315
 20
52.77554
 30
0.0
 11
51.456315
 21
20.903965
 31
0.0
  0
LINE
  5
A5
330
A0
100
AcDbEntity
  8
001
370
     9
100
AcDbLine
 10
86.456315
 20
23.653965
 30
0.0
 11
51.456315
 21
23.653965
 31
0.0
  0
POLYLINE
  5
A6
330
A0
100
AcDbEntity
  8
001
370
     9
100
AcDb2dPolyline
 66
     1
 10
0.0
 20
0.0
 30
0.0
  0
VERTEX
  5
A8
330
A6
100
AcDbEntity
  8
001
370
     9
100
AcDbVertex
100
AcDb2dVertex
 10
84.956315
 20
24.055889
 30
0.0
  0
VERTEX
  5
A9
330
A6
100
AcDbEntity
  8
001
370
     9
100
AcDbVertex
100
AcDb2dVertex
 10
86.456315
 20
23.653965
 30
0.0
  0
VERTEX
  5
AA
330
A6
100
AcDbEntity
  8
001
370
     9
100
AcDbVertex
100
AcDb2dVertex
 10
84.956315
 20
23.252041
 30
0.0
  0
SEQEND
  5
A7
330
A6
100
AcDbEntity
  8
001
370
     9
  0
POLYLINE
  5
AB
330
A0
100
AcDbEntity
  8
001
370
     9
100
AcDb2dPolyline
 66
     1
 10
0.0
 20
0.0
 30
0.0
  0
VERTEX
  5
AD
330
AB
100
AcDbEntity
  8
001
370
     9
100
AcDbVertex
100
AcDb2dVertex
 10
52.956315
 20
23.252041
 30
0.0
  0
VERTEX
  5
AE
330
AB
100
AcDbEntity
  8
001
370
     9
100
AcDbVertex
100
AcDb2dVertex
 10
51.456315
 20
23.653965
 30
0.0
  0
VERTEX
  5
AF
330
AB
100
AcDbEntity
  8
001
370
     9
100
AcDbVertex
100
AcDb2dVertex
 10
52.956315
 20
24.055889
 30
0.0
  0
SEQEND
  5
AC
330
AB
100
AcDbEntity
  8
001
370
     9
  0
TEXT
  5
B0
330
A0
100
AcDbEntity
  8
001
370
    30
100
AcDbText
 10
64.956315
 20
24.653965
 30
0.0
 40
4.0
  1
３５
 41
0.833333
100
AcDbText
  0
POINT
  5
B1
330
A0
100
AcDbEntity
  8
001
370
     9
100
AcDbPoint
 10
86.456315
 20
67.879059
 30
0.0
  0
POINT
  5
B2
330
A0
100
AcDbEntity
  8
001
370
     9
100
AcDbPoint
 10
51.456315
 20
52.77554
 30
0.0
  0
POINT
  5
B3
330
A0
100
AcDbEntity
  8
001
370
     9
100
AcDbPoint
 10
51.456315
 20
23.653965
 30
0.0
  0
ENDBLK
  5
A2
330
A0
100
AcDbEntity
  8
0
100
AcDbBlockEnd
  0
BLOCK
  5
B5
330
B4
100
AcDbEntity
  8
0
100
AcDbBlockBegin
  2
*D5
 70
     1
 10
0.0
 20
0.0
 30
0.0
  3
*D5
  1

  0
LINE
  5
B7
330
B4
100
AcDbEntity
  8
001
370
     9
100
AcDbLine
 10
65.984865
 20
65.239354
 30
0.0
 11
65.984865
 21
33.361252
 31
0.0
  0
LINE
  5
B8
330
B4
100
AcDbEntity
  8
001
370
     9
100
AcDbLine
 10
51.456315
 20
57.338129
 30
0.0
 11
51.456315
 21
33.361252
 31
0.0
  0
LINE
  5
B9
330
B4
100
AcDbEntity
  8
001
370
     9
100
AcDbLine
 10
65.984865
 20
36.111252
 30
0.0
 11
51.456315
 21
36.111252
 31
0.0
  0
POLYLINE
  5
BA
330
B4
100
AcDbEntity
  8
001
370
     9
100
AcDb2dPolyline
 66
     1
 10
0.0
 20
0.0
 30
0.0
  0
VERTEX
  5
BC
330
BA
100
AcDbEntity
  8
001
370
     9
100
AcDbVertex
100
AcDb2dVertex
 10
67.484865
 20
35.709328
 30
0.0
  0
VERTEX
  5
BD
330
BA
100
AcDbEntity
  8
001
370
     9
100
AcDbVertex
100
AcDb2dVertex
 10
65.984865
 20
36.111252
 30
0.0
  0
VERTEX
  5
BE
330
BA
100
AcDbEntity
  8
001
370
     9
100
AcDbVertex
100
AcDb2dVertex
 10
67.484865
 20
36.513176
 30
0.0
  0
SEQEND
  5
BB
330
BA
100
AcDbEntity
  8
001
370
     9
  0
POLYLINE
  5
BF
330
B4
100
AcDbEntity
  8
001
370
     9
100
AcDb2dPolyline
 66
     1
 10
0.0
 20
0.0
 30
0.0
  0
VERTEX
  5
C1
330
BF
100
AcDbEntity
  8
001
370
     9
100
AcDbVertex
100
AcDb2dVertex
 10
49.956315
 20
36.513176
 30
0.0
  0
VERTEX
  5
C2
330
BF
100
AcDbEntity
  8
001
370
     9
100
AcDbVertex
100
AcDb2dVertex
 10
51.456315
 20
36.111252
 30
0.0
  0
VERTEX
  5
C3
330
BF
100
AcDbEntity
  8
001
370
     9
100
AcDbVertex
100
AcDb2dVertex
 10
49.956315
 20
35.709328
 30
0.0
  0
SEQEND
  5
C0
330
BF
100
AcDbEntity
  8
001
370
     9
  0
TEXT
  5
C4
330
B4
100
AcDbEntity
  8
001
370
    30
100
AcDbText
 10
71.699236
 20
37.111252
 30
0.0
 40
4.0
  1
（１４．５）
 41
0.833333
100
AcDbText
  0
POINT
  5
C5
330
B4
100
AcDbEntity
  8
001
370
     9
100
AcDbPoint
 10
65.984865
 20
65.239354
 30
0.0
  0
POINT
  5
C6
330
B4
100
AcDbEntity
  8
001
370
     9
100
AcDbPoint
 10
51.456315
 20
57.338129
 30
0.0
  0
POINT
  5
C7
330
B4
100
AcDbEntity
  8
001
370
     9
100
AcDbPoint
 10
51.456315
 20
36.111252
 30
0.0
  0
LINE
  5
C8
330
B4
100
AcDbEntity
  8
001
370
     9
100
AcDbLine
 10
65.984865
 20
36.111252
 30
0.0
 11
98.699236
 21
36.111252
 31
0.0
  0
LINE
  5
C9
330
B4
100
AcDbEntity
  8
001
370
     9
100
AcDbLine
 10
51.456315
 20
36.111252
 30
0.0
 11
48.956315
 21
36.111252
 31
0.0
  0
ENDBLK
  5
B6
330
B4
100
AcDbEntity
  8
0
100
AcDbBlockEnd
  0
BLOCK
  5
CB
330
CA
100
AcDbEntity
  8
0
100
AcDbBlockBegin
  2
*D6
 70
     1
 10
0.0
 20
0.0
 30
0.0
  3
*D6
  1

  0
LINE
  5
CD
330
CA
100
AcDbEntity
  8
001
370
     9
100
AcDbLine
 10
51.456315
 20
57.338129
 30
0.0
 11
51.456315
 21
41.138485
 31
0.0
  0
LINE
  5
CE
330
CA
100
AcDbEntity
  8
001
370
     9
100
AcDbLine
 10
43.788219
 20
65.203415
 30
0.0
 11
27.391385
 21
65.203415
 31
0.0
  0
ARC
  5
CF
330
CA
100
AcDbEntity
  8
001
370
     9
100
AcDbCircle
 10
51.456315
 20
65.203415
 30
0.0
 40
21.31493053009534
100
AcDbArc
 50
180.0
 51
270.0
  0
POLYLINE
  5
D0
330
CA
100
AcDbEntity
  8
001
370
     9
100
AcDb2dPolyline
 66
     1
 10
0.0
 20
0.0
 30
0.0
  0
VERTEX
  5
D2
330
D0
100
AcDbEntity
  8
001
370
     9
100
AcDbVertex
100
AcDb2dVertex
 10
49.971383
 20
44.342929
 30
0.0
  0
VERTEX
  5
D3
330
D0
100
AcDbEntity
  8
001
370
     9
100
AcDbVertex
100
AcDb2dVertex
 10
51.456315
 20
43.888485
 30
0.0
  0
VERTEX
  5
D4
330
D0
100
AcDbEntity
  8
001
370
     9
100
AcDbVertex
100
AcDb2dVertex
 10
49.943104
 20
43.539579
 30
0.0
  0
SEQEND
  5
D1
330
D0
100
AcDbEntity
  8
001
370
     9
  0
POLYLINE
  5
D5
330
CA
100
AcDbEntity
  8
001
370
     9
100
AcDb2dPolyline
 66
     1
 10
0.0
 20
0.0
 30
0.0
  0
VERTEX
  5
D7
330
D5
100
AcDbEntity
  8
001
370
     9
100
AcDbVertex
100
AcDb2dVertex
 10
29.792479
 20
63.690204
 30
0.0
  0
VERTEX
  5
D8
330
D5
100
AcDbEntity
  8
001
370
     9
100
AcDbVertex
100
AcDb2dVertex
 10
30.141385
 20
65.203415
 30
0.0
  0
VERTEX
  5
D9
330
D5
100
AcDbEntity
  8
001
370
     9
100
AcDbVertex
100
AcDb2dVertex
 10
30.595829
 20
63.718483
 30
0.0
  0
SEQEND
  5
D6
330
D5
100
AcDbEntity
  8
001
370
     9
  0
TEXT
  5
DA
330
CA
100
AcDbEntity
  8
001
370
    30
100
AcDbText
 10
32.848849
 20
55.081231
 30
0.0
 40
4.0
  1
９０%%d
 50
314.999992
 41
0.978261
100
AcDbText
  0
POINT
  5
DB
330
CA
100
AcDbEntity
  8
001
370
     9
100
AcDbPoint
 10
51.456315
 20
57.338129
 30
0.0
  0
POINT
  5
DC
330
CA
100
AcDbEntity
  8
001
370
     9
100
AcDbPoint
 10
51.456315
 20
65.203415
 30
0.0
  0
POINT
  5
DD
330
CA
100
AcDbEntity
  8
001
370
     9
100
AcDbPoint
 10
51.456315
 20
65.203415
 30
0.0
  0
POINT
  5
DE
330
CA
100
AcDbEntity
  8
001
370
     9
100
AcDbPoint
 10
43.788219
 20
65.203415
 30
0.0
  0
ENDBLK
  5
CC
330
CA
100
AcDbEntity
  8
0
100
AcDbBlockEnd
  0
BLOCK
  5
E0
330
DF
100
AcDbEntity
  8
0
100
AcDbBlockBegin
  2
*D7
 70
     1
 10
0.0
 20
0.0
 30
0.0
  3
*D7
  1

  0
LINE
  5
E2
330
DF
100
AcDbEntity
  8
001
370
     9
100
AcDbLine
 10
163.456315
 20
-49.30357
 30
0.0
 11
197.003786
 21
-49.30357
 31
0.0
  0
LINE
  5
E3
330
DF
100
AcDbEntity
  8
001
370
     9
100
AcDbLine
 10
163.456315
 20
-91.30357
 30
0.0
 11
197.003786
 21
-91.30357
 31
0.0
  0
LINE
  5
E4
330
DF
100
AcDbEntity
  8
001
370
     9
100
AcDbLine
 10
194.253786
 20
-49.30357
 30
0.0
 11
194.253786
 21
-91.30357
 31
0.0
  0
POLYLINE
  5
E5
330
DF
100
AcDbEntity
  8
001
370
     9
100
AcDb2dPolyline
 66
     1
 10
0.0
 20
0.0
 30
0.0
  0
VERTEX
  5
E7
330
E5
100
AcDbEntity
  8
001
370
     9
100
AcDbVertex
100
AcDb2dVertex
 10
193.851862
 20
-50.80357
 30
0.0
  0
VERTEX
  5
E8
330
E5
100
AcDbEntity
  8
001
370
     9
100
AcDbVertex
100
AcDb2dVertex
 10
194.253786
 20
-49.30357
 30
0.0
  0
VERTEX
  5
E9
330
E5
100
AcDbEntity
  8
001
370
     9
100
AcDbVertex
100
AcDb2dVertex
 10
194.65571
 20
-50.80357
 30
0.0
  0
SEQEND
  5
E6
330
E5
100
AcDbEntity
  8
001
370
     9
  0
POLYLINE
  5
EA
330
DF
100
AcDbEntity
  8
001
370
     9
100
AcDb2dPolyline
 66
     1
 10
0.0
 20
0.0
 30
0.0
  0
VERTEX
  5
EC
330
EA
100
AcDbEntity
  8
001
370
     9
100
AcDbVertex
100
AcDb2dVertex
 10
194.65571
 20
-89.80357
 30
0.0
  0
VERTEX
  5
ED
330
EA
100
AcDbEntity
  8
001
370
     9
100
AcDbVertex
100
AcDb2dVertex
 10
194.253786
 20
-91.30357
 30
0.0
  0
VERTEX
  5
EE
330
EA
100
AcDbEntity
  8
001
370
     9
100
AcDbVertex
100
AcDb2dVertex
 10
193.851862
 20
-89.80357
 30
0.0
  0
SEQEND
  5
EB
330
EA
100
AcDbEntity
  8
001
370
     9
  0
TEXT
  5
EF
330
DF
100
AcDbEntity
  8
001
370
    30
100
AcDbText
 10
193.253786
 20
-76.30357
 30
0.0
 40
4.0
  1
%%c４２
 50
90.000003
 41
0.882353
100
AcDbText
  0
POINT
  5
F0
330
DF
100
AcDbEntity
  8
001
370
     9
100
AcDbPoint
 10
163.456315
 20
-49.30357
 30
0.0
  0
POINT
  5
F1
330
DF
100
AcDbEntity
  8
001
370
     9
100
AcDbPoint
 10
163.456315
 20
-91.30357
 30
0.0
  0
POINT
  5
F2
330
DF
100
AcDbEntity
  8
001
370
     9
100
AcDbPoint
 10
194.253786
 20
-91.30357
 30
0.0
  0
ENDBLK
  5
E1
330
DF
100
AcDbEntity
  8
0
100
AcDbBlockEnd
  0
ENDSEC
  0
SECTION
  2
ENTITIES
  0
TEXT
  5
F3
330
1F
100
AcDbEntity
  8
001
370
    30
100
AcDbText
 10
24.649066
 20
99.203415
 30
0.0
 40
4.0
  1
%%c８０
 50
90.000003
 41
0.882353
100
AcDbText
  0
POLYLINE
  5
F4
330
1F
100
AcDbEntity
  8
001
370
     9
100
AcDb2dPolyline
 66
     1
 10
0.0
 20
0.0
 30
0.0
  0
VERTEX
  5
F6
330
F4
100
AcDbEntity
  8
001
370
     9
100
AcDbVertex
100
AcDb2dVertex
 10
26.05099
 20
66.703415
 30
0.0
  0
VERTEX
  5
F7
330
F4
100
AcDbEntity
  8
001
370
     9
100
AcDbVertex
100
AcDb2dVertex
 10
25.649066
 20
65.203415
 30
0.0
  0
VERTEX
  5
F8
330
F4
100
AcDbEntity
  8
001
370
     9
100
AcDbVertex
100
AcDb2dVertex
 10
25.247142
 20
66.703415
 30
0.0
  0
SEQEND
  5
F5
330
F4
100
AcDbEntity
  8
001
370
     9
  0
LINE
  5
F9
330
1F
100
AcDbEntity
  8
001
370
     9
100
AcDbLine
 10
25.649066
 20
65.203415
 30
0.0
 11
25.649066
 21
145.203415
 31
0.0
  0
POLYLINE
  5
FA
330
1F
100
AcDbEntity
  8
001
370
     9
100
AcDb2dPolyline
 66
     1
 10
0.0
 20
0.0
 30
0.0
  0
VERTEX
  5
FC
330
FA
100
AcDbEntity
  8
001
370
     9
100
AcDbVertex
100
AcDb2dVertex
 10
40.321863
 20
65.203415
 30
0.0
  0
VERTEX
  5
FD
330
FA
100
AcDbEntity
  8
001
370
     9
100
AcDbVertex
100
AcDb2dVertex
 10
25.649066
 20
65.203415
 30
0.0
  0
VERTEX
  5
FE
330
FA
100
AcDbEntity
  8
001
370
     9
100
AcDbVertex
100
AcDb2dVertex
 10
22.899066
 20
65.203415
 30
0.0
  0
SEQEND
  5
FB
330
FA
100
AcDbEntity
  8
001
370
     9
  0
DIMENSION
  5
FF
330
1F
100
AcDbEntity
  8
001
370
     9
100
AcDbDimension
  2
*D1
 10
196.405047
 20
89.203415
 30
0.0
 11
193.405047
 21
105.203415
 31
0.0
 70
   160
 71
     5
 42
-1.0
  3
Standard
100
AcDbAlignedDimension
 13
163.456315
 23
121.203415
 33
0.0
 14
163.456315
 24
89.203415
 34
0.0
 50
270.0
100
AcDbRotatedDimension
  0
DIMENSION
  5
100
330
1F
100
AcDbEntity
  8
001
370
     9
100
AcDbDimension
  2
*D2
 10
171.456315
 20
10.589005
 30
0.0
 11
109.67877
 21
13.589005
 31
0.0
 70
   160
 71
     5
 42
-1.0
  3
Standard
100
AcDbAlignedDimension
 13
51.456315
 23
52.77554
 33
0.0
 14
171.456315
 24
97.203415
 34
0.0
100
AcDbRotatedDimension
  0
DIMENSION
  5
101
330
1F
100
AcDbEntity
  8
001
370
     9
100
AcDbDimension
  2
*D3
 10
86.456315
 20
23.653965
 30
0.0
 11
128.956315
 21
26.653965
 31
0.0
 70
   160
 71
     5
 42
-1.0
  3
Standard
100
AcDbAlignedDimension
 13
171.456315
 23
97.203415
 33
0.0
 14
86.456315
 24
67.879059
 34
0.0
 50
180.0
100
AcDbRotatedDimension
  0
DIMENSION
  5
102
330
1F
100
AcDbEntity
  8
001
370
     9
100
AcDbDimension
  2
*D4
 10
51.456315
 20
23.653965
 30
0.0
 11
68.956315
 21
26.653965
 31
0.0
 70
   160
 71
     5
 42
-1.0
  3
Standard
100
AcDbAlignedDimension
 13
86.456315
 23
67.879059
 33
0.0
 14
51.456315
 24
52.77554
 34
0.0
 50
180.0
100
AcDbRotatedDimension
  0
DIMENSION
  5
103
330
1F
100
AcDbEntity
  8
001
370
     9
100
AcDbDimension
  2
*D5
 10
51.456315
 20
36.111252
 30
0.0
 11
83.699236
 21
39.111252
 31
0.0
 70
   160
 71
     5
 42
-1.0
  3
Standard
100
AcDbAlignedDimension
 13
65.984865
 23
65.239354
 33
0.0
 14
51.456315
 24
57.338129
 34
0.0
 50
180.0
100
AcDbRotatedDimension
  0
DIMENSION
  5
104
330
1F
100
AcDbEntity
  8
001
370
     9
100
AcDbDimension
  2
*D6
 10
51.456315
 20
65.203415
 30
0.0
 11
38.505703
 21
52.252803
 31
0.0
 70
    34
 71
     5
 42
-1.0
  3
Standard
100
AcDb2LineAngularDimension
 13
51.456315
 23
57.338129
 33
0.0
 14
51.456315
 24
65.203415
 34
0.0
 15
43.788219
 25
65.203415
 35
0.0
 16
36.384383
 26
50.131483
 36
0.0
  0
DIMENSION
  5
105
330
1F
100
AcDbEntity
  8
001
370
     9
100
AcDbDimension
  2
*D7
 10
194.253786
 20
-91.30357
 30
0.0
 11
191.253786
 21
-70.30357
 31
0.0
 70
   160
 71
     5
 42
-1.0
  3
Standard
100
AcDbAlignedDimension
 13
163.456315
 23
-49.30357
 33
0.0
 14
163.456315
 24
-91.30357
 34
0.0
 50
270.0
100
AcDbRotatedDimension
  0
TEXT
  5
106
330
1F
100
AcDbEntity
  8
001
370
    30
100
AcDbText
 10
4.250151
 20
169.091898
 30
0.0
 40
10.0
  1
スカットカット　ＮＫ９０８０Ｔ　（３枚刃）
 41
0.833333
100
AcDbText
  0
LINE
  5
107
330
1F
100
AcDbEntity
  8
001
370
    50
100
AcDbLine
 10
70.254402
 20
130.298126
 30
0.0
 11
70.252103
 21
130.318081
 31
0.0
  0
LINE
  5
108
330
1F
100
AcDbEntity
  8
001
370
    50
100
AcDbLine
 10
63.189524
 20
130.264742
 30
0.0
 11
63.112778
 21
130.930624
 31
0.0
  0
LINE
  5
109
330
1F
100
AcDbEntity
  8
001
370
    50
100
AcDbLine
 10
63.875201
 20
131.616857
 30
0.0
 11
63.112778
 21
130.930624
 31
0.0
  0
LINE
  5
10A
330
1F
100
AcDbEntity
  8
001
370
    50
100
AcDbLine
 10
63.875201
 20
131.616857
 30
0.0
 11
70.252103
 21
130.318081
 31
0.0
  0
LINE
  5
10B
330
1F
100
AcDbEntity
  8
001
370
    50
100
AcDbLine
 10
63.112778
 20
130.930624
 30
0.0
 11
62.317498
 21
130.197011
 31
0.0
  0
LINE
  5
10C
330
1F
100
AcDbEntity
  8
001
370
    50
100
AcDbLine
 10
70.252103
 20
130.318081
 30
0.0
 11
70.262889
 21
130.298787
 31
0.0
  0
ARC
  5
10D
330
1F
100
AcDbEntity
  8
001
370
    50
100
AcDbCircle
 10
66.05079
 20
126.219439
 30
0.0
 40
5.3
100
AcDbArc
 50
54.832291
 51
102.143895
  0
POLYLINE
  5
10E
330
1F
100
AcDbEntity
  8
001
370
    50
100
AcDb2dPolyline
 66
     1
 10
0.0
 20
0.0
 30
0.0
  0
VERTEX
  5
110
330
10E
100
AcDbEntity
  8
001
370
    50
100
AcDbVertex
100
AcDb2dVertex
 10
52.73294
 20
125.313962
 30
0.0
  0
VERTEX
  5
111
330
10E
100
AcDbEntity
  8
001
370
    50
100
AcDbVertex
100
AcDb2dVertex
 10
52.708464
 20
125.311782
 30
0.0
  0
VERTEX
  5
112
330
10E
100
AcDbEntity
  8
001
370
    50
100
AcDbVertex
100
AcDb2dVertex
 10
52.673921
 20
125.308269
 30
0.0
  0
VERTEX
  5
113
330
10E
100
AcDbEntity
  8
001
370
    50
100
AcDbVertex
100
AcDb2dVertex
 10
52.601257
 20
125.298565
 30
0.0
  0
VERTEX
  5
114
330
10E
100
AcDbEntity
  8
001
370
    50
100
AcDbVertex
100
AcDb2dVertex
 10
52.537638
 20
125.286521
 30
0.0
  0
VERTEX
  5
115
330
10E
100
AcDbEntity
  8
001
370
    50
100
AcDbVertex
100
AcDb2dVertex
 10
52.412844
 20
125.254507
 30
0.0
  0
VERTEX
  5
116
330
10E
100
AcDbEntity
  8
001
370
    50
100
AcDbVertex
100
AcDb2dVertex
 10
52.285592
 20
125.210237
 30
0.0
  0
VERTEX
  5
117
330
10E
100
AcDbEntity
  8
001
370
    50
100
AcDbVertex
100
AcDb2dVertex
 10
52.138112
 20
125.136899
 30
0.0
  0
VERTEX
  5
118
330
10E
100
AcDbEntity
  8
001
370
    50
100
AcDbVertex
100
AcDb2dVertex
 10
52.013434
 20
125.033319
 30
0.0
  0
VERTEX
  5
119
330
10E
100
AcDbEntity
  8
001
370
    50
100
AcDbVertex
100
AcDb2dVertex
 10
51.986132
 20
124.999777
 30
0.0
  0
VERTEX
  5
11A
330
10E
100
AcDbEntity
  8
001
370
    50
100
AcDbVertex
100
AcDb2dVertex
 10
51.962472
 20
124.964625
 30
0.0
  0
VERTEX
  5
11B
330
10E
100
AcDbEntity
  8
001
370
    50
100
AcDbVertex
100
AcDb2dVertex
 10
51.945709
 20
124.932259
 30
0.0
  0
VERTEX
  5
11C
330
10E
100
AcDbEntity
  8
001
370
    50
100
AcDbVertex
100
AcDb2dVertex
 10
51.934502
 20
124.894447
 30
0.0
  0
VERTEX
  5
11D
330
10E
100
AcDbEntity
  8
001
370
    50
100
AcDbVertex
100
AcDb2dVertex
 10
51.930134
 20
124.854266
 30
0.0
  0
VERTEX
  5
11E
330
10E
100
AcDbEntity
  8
001
370
    50
100
AcDbVertex
100
AcDb2dVertex
 10
51.930373
 20
124.82492
 30
0.0
  0
SEQEND
  5
10F
330
10E
100
AcDbEntity
  8
001
370
    50
  0
POLYLINE
  5
11F
330
1F
100
AcDbEntity
  8
001
370
    50
100
AcDb2dPolyline
 66
     1
 10
0.0
 20
0.0
 30
0.0
  0
VERTEX
  5
121
330
11F
100
AcDbEntity
  8
001
370
    50
100
AcDbVertex
100
AcDb2dVertex
 10
52.260178
 20
129.41586
 30
0.0
  0
VERTEX
  5
122
330
11F
100
AcDbEntity
  8
001
370
    50
100
AcDbVertex
100
AcDb2dVertex
 10
52.235702
 20
129.413681
 30
0.0
  0
VERTEX
  5
123
330
11F
100
AcDbEntity
  8
001
370
    50
100
AcDbVertex
100
AcDb2dVertex
 10
52.201159
 20
129.410168
 30
0.0
  0
VERTEX
  5
124
330
11F
100
AcDbEntity
  8
001
370
    50
100
AcDbVertex
100
AcDb2dVertex
 10
52.128495
 20
129.400463
 30
0.0
  0
VERTEX
  5
125
330
11F
100
AcDbEntity
  8
001
370
    50
100
AcDbVertex
100
AcDb2dVertex
 10
52.064876
 20
129.388419
 30
0.0
  0
VERTEX
  5
126
330
11F
100
AcDbEntity
  8
001
370
    50
100
AcDbVertex
100
AcDb2dVertex
 10
51.940082
 20
129.356406
 30
0.0
  0
VERTEX
  5
127
330
11F
100
AcDbEntity
  8
001
370
    50
100
AcDbVertex
100
AcDb2dVertex
 10
51.81283
 20
129.312136
 30
0.0
  0
VERTEX
  5
128
330
11F
100
AcDbEntity
  8
001
370
    50
100
AcDbVertex
100
AcDb2dVertex
 10
51.66535
 20
129.238798
 30
0.0
  0
VERTEX
  5
129
330
11F
100
AcDbEntity
  8
001
370
    50
100
AcDbVertex
100
AcDb2dVertex
 10
51.540672
 20
129.135218
 30
0.0
  0
VERTEX
  5
12A
330
11F
100
AcDbEntity
  8
001
370
    50
100
AcDbVertex
100
AcDb2dVertex
 10
51.51337
 20
129.101676
 30
0.0
  0
VERTEX
  5
12B
330
11F
100
AcDbEntity
  8
001
370
    50
100
AcDbVertex
100
AcDb2dVertex
 10
51.48971
 20
129.066523
 30
0.0
  0
VERTEX
  5
12C
330
11F
100
AcDbEntity
  8
001
370
    50
100
AcDbVertex
100
AcDb2dVertex
 10
51.472947
 20
129.034158
 30
0.0
  0
VERTEX
  5
12D
330
11F
100
AcDbEntity
  8
001
370
    50
100
AcDbVertex
100
AcDb2dVertex
 10
51.46174
 20
128.996346
 30
0.0
  0
VERTEX
  5
12E
330
11F
100
AcDbEntity
  8
001
370
    50
100
AcDbVertex
100
AcDb2dVertex
 10
51.457372
 20
128.956164
 30
0.0
  0
VERTEX
  5
12F
330
11F
100
AcDbEntity
  8
001
370
    50
100
AcDbVertex
100
AcDb2dVertex
 10
51.457611
 20
128.926818
 30
0.0
  0
SEQEND
  5
120
330
11F
100
AcDbEntity
  8
001
370
    50
  0
LINE
  5
130
330
1F
100
AcDbEntity
  8
001
370
    50
100
AcDbLine
 10
51.457611
 20
128.926818
 30
0.0
 11
51.930373
 21
124.82492
 31
0.0
  0
POLYLINE
  5
131
330
1F
100
AcDbEntity
  8
001
370
    50
100
AcDb2dPolyline
 66
     1
 10
0.0
 20
0.0
 30
0.0
  0
VERTEX
  5
133
330
131
100
AcDbEntity
  8
001
370
    50
100
AcDbVertex
100
AcDb2dVertex
 10
51.930373
 20
124.82492
 30
0.0
  0
VERTEX
  5
134
330
131
100
AcDbEntity
  8
001
370
    50
100
AcDbVertex
100
AcDb2dVertex
 10
51.937077
 20
124.796045
 30
0.0
  0
VERTEX
  5
135
330
131
100
AcDbEntity
  8
001
370
    50
100
AcDbVertex
100
AcDb2dVertex
 10
51.95021
 20
124.758155
 30
0.0
  0
VERTEX
  5
136
330
131
100
AcDbEntity
  8
001
370
    50
100
AcDbVertex
100
AcDb2dVertex
 10
51.968267
 20
124.725252
 30
0.0
  0
VERTEX
  5
137
330
131
100
AcDbEntity
  8
001
370
    50
100
AcDbVertex
100
AcDb2dVertex
 10
51.993412
 20
124.69618
 30
0.0
  0
VERTEX
  5
138
330
131
100
AcDbEntity
  8
001
370
    50
100
AcDbVertex
100
AcDb2dVertex
 10
52.013245
 20
124.676962
 30
0.0
  0
VERTEX
  5
139
330
131
100
AcDbEntity
  8
001
370
    50
100
AcDbVertex
100
AcDb2dVertex
 10
52.028137
 20
124.663629
 30
0.0
  0
SEQEND
  5
132
330
131
100
AcDbEntity
  8
001
370
    50
  0
LINE
  5
13A
330
1F
100
AcDbEntity
  8
001
370
    50
100
AcDbLine
 10
52.73294
 20
125.313962
 30
0.0
 11
66.410171
 21
126.376271
 31
0.0
  0
POLYLINE
  5
13B
330
1F
100
AcDbEntity
  8
001
370
    50
100
AcDb2dPolyline
 66
     1
 10
0.0
 20
0.0
 30
0.0
  0
VERTEX
  5
13D
330
13B
100
AcDbEntity
  8
001
370
    50
100
AcDbVertex
100
AcDb2dVertex
 10
66.934148
 20
126.31547
 30
0.0
  0
VERTEX
  5
13E
330
13B
100
AcDbEntity
  8
001
370
    50
100
AcDbVertex
100
AcDb2dVertex
 10
66.857505
 20
126.338447
 30
0.0
  0
VERTEX
  5
13F
330
13B
100
AcDbEntity
  8
001
370
    50
100
AcDbVertex
100
AcDb2dVertex
 10
66.751601
 20
126.363457
 30
0.0
  0
VERTEX
  5
140
330
13B
100
AcDbEntity
  8
001
370
    50
100
AcDbVertex
100
AcDb2dVertex
 10
66.623275
 20
126.38081
 30
0.0
  0
VERTEX
  5
141
330
13B
100
AcDbEntity
  8
001
370
    50
100
AcDbVertex
100
AcDb2dVertex
 10
66.488809
 20
126.380403
 30
0.0
  0
VERTEX
  5
142
330
13B
100
AcDbEntity
  8
001
370
    50
100
AcDbVertex
100
AcDb2dVertex
 10
66.442776
 20
126.378237
 30
0.0
  0
VERTEX
  5
143
330
13B
100
AcDbEntity
  8
001
370
    50
100
AcDbVertex
100
AcDb2dVertex
 10
66.410171
 20
126.376271
 30
0.0
  0
SEQEND
  5
13C
330
13B
100
AcDbEntity
  8
001
370
    50
  0
LINE
  5
144
330
1F
100
AcDbEntity
  8
001
370
    50
100
AcDbLine
 10
52.656315
 20
124.148482
 30
0.0
 11
52.028137
 21
124.663629
 31
0.0
  0
LINE
  5
145
330
1F
100
AcDbEntity
  8
001
370
    50
100
AcDbLine
 10
52.260178
 20
129.41586
 30
0.0
 11
65.937409
 21
130.47817
 31
0.0
  0
LINE
  5
146
330
1F
100
AcDbEntity
  8
001
370
    50
100
AcDbLine
 10
67.154797
 20
126.332502
 30
0.0
 11
66.712399
 21
130.170948
 31
0.0
  0
POLYLINE
  5
147
330
1F
100
AcDbEntity
  8
001
370
    50
100
AcDb2dPolyline
 66
     1
 10
0.0
 20
0.0
 30
0.0
  0
VERTEX
  5
149
330
147
100
AcDbEntity
  8
001
370
    50
100
AcDbVertex
100
AcDb2dVertex
 10
66.712399
 20
130.170948
 30
0.0
  0
VERTEX
  5
14A
330
147
100
AcDbEntity
  8
001
370
    50
100
AcDbVertex
100
AcDb2dVertex
 10
66.70596
 20
130.199579
 30
0.0
  0
VERTEX
  5
14B
330
147
100
AcDbEntity
  8
001
370
    50
100
AcDbVertex
100
AcDb2dVertex
 10
66.692562
 20
130.237714
 30
0.0
  0
VERTEX
  5
14C
330
147
100
AcDbEntity
  8
001
370
    50
100
AcDbVertex
100
AcDb2dVertex
 10
66.673021
 20
130.271982
 30
0.0
  0
VERTEX
  5
14D
330
147
100
AcDbEntity
  8
001
370
    50
100
AcDbVertex
100
AcDb2dVertex
 10
66.64936
 20
130.299688
 30
0.0
  0
VERTEX
  5
14E
330
147
100
AcDbEntity
  8
001
370
    50
100
AcDbVertex
100
AcDb2dVertex
 10
66.618439
 20
130.328548
 30
0.0
  0
VERTEX
  5
14F
330
147
100
AcDbEntity
  8
001
370
    50
100
AcDbVertex
100
AcDb2dVertex
 10
66.584108
 20
130.354988
 30
0.0
  0
VERTEX
  5
150
330
147
100
AcDbEntity
  8
001
370
    50
100
AcDbVertex
100
AcDb2dVertex
 10
66.435781
 20
130.427165
 30
0.0
  0
VERTEX
  5
151
330
147
100
AcDbEntity
  8
001
370
    50
100
AcDbVertex
100
AcDb2dVertex
 10
66.278839
 20
130.465356
 30
0.0
  0
VERTEX
  5
152
330
147
100
AcDbEntity
  8
001
370
    50
100
AcDbVertex
100
AcDb2dVertex
 10
66.155896
 20
130.480587
 30
0.0
  0
VERTEX
  5
153
330
147
100
AcDbEntity
  8
001
370
    50
100
AcDbVertex
100
AcDb2dVertex
 10
66.016047
 20
130.482302
 30
0.0
  0
VERTEX
  5
154
330
147
100
AcDbEntity
  8
001
370
    50
100
AcDbVertex
100
AcDb2dVertex
 10
65.969847
 20
130.480201
 30
0.0
  0
VERTEX
  5
155
330
147
100
AcDbEntity
  8
001
370
    50
100
AcDbVertex
100
AcDb2dVertex
 10
65.937409
 20
130.47817
 30
0.0
  0
SEQEND
  5
148
330
147
100
AcDbEntity
  8
001
370
    50
  0
LINE
  5
156
330
1F
100
AcDbEntity
  8
001
370
    50
100
AcDbLine
 10
71.278493
 20
74.837806
 30
0.0
 11
70.980534
 21
74.837806
 31
0.0
  0
LINE
  5
157
330
1F
100
AcDbEntity
  8
001
370
    50
100
AcDbLine
 10
70.550062
 20
72.105755
 30
0.0
 11
71.278493
 21
74.837806
 31
0.0
  0
LINE
  5
158
330
1F
100
AcDbEntity
  8
001
370
    50
100
AcDbLine
 10
70.550062
 20
72.105755
 30
0.0
 11
70.500402
 21
72.105755
 31
0.0
  0
LINE
  5
159
330
1F
100
AcDbEntity
  8
001
370
    50
100
AcDbLine
 10
70.500402
 20
72.105755
 30
0.0
 11
70.252103
 21
72.105755
 31
0.0
  0
LINE
  5
15A
330
1F
100
AcDbEntity
  8
001
370
    50
100
AcDbLine
 10
70.252103
 20
72.105755
 30
0.0
 11
70.980534
 21
74.837806
 31
0.0
  0
LINE
  5
15B
330
1F
100
AcDbEntity
  8
001
370
    50
100
AcDbLine
 10
68.492895
 20
79.167933
 30
0.0
 11
65.774352
 21
79.899984
 31
0.0
  0
LINE
  5
15C
330
1F
100
AcDbEntity
  8
001
370
    50
100
AcDbLine
 10
70.980534
 20
74.837806
 30
0.0
 11
68.492895
 21
79.167933
 31
0.0
  0
LINE
  5
15D
330
1F
100
AcDbEntity
  8
001
370
    50
100
AcDbLine
 10
63.875201
 20
68.405755
 30
0.0
 11
68.01157
 21
70.805755
 31
0.0
  0
LINE
  5
15E
330
1F
100
AcDbEntity
  8
001
370
    50
100
AcDbLine
 10
68.01157
 20
70.805755
 30
0.0
 11
70.252103
 21
72.105755
 31
0.0
  0
LINE
  5
15F
330
1F
100
AcDbEntity
  8
001
370
    50
100
AcDbLine
 10
59.397451
 20
76.199984
 30
0.0
 11
63.875201
 21
68.405755
 31
0.0
  0
LINE
  5
160
330
1F
100
AcDbEntity
  8
001
370
    50
100
AcDbLine
 10
65.774352
 20
79.899984
 30
0.0
 11
63.53382
 21
78.599984
 31
0.0
  0
LINE
  5
161
330
1F
100
AcDbEntity
  8
001
370
    50
100
AcDbLine
 10
63.53382
 20
78.599984
 30
0.0
 11
59.397451
 21
76.199984
 31
0.0
  0
LINE
  5
162
330
1F
100
AcDbEntity
  8
001
370
    50
100
AcDbLine
 10
68.790854
 20
79.167933
 30
0.0
 11
68.492895
 21
79.167933
 31
0.0
  0
LINE
  5
163
330
1F
100
AcDbEntity
  8
001
370
    50
100
AcDbLine
 10
71.278493
 20
74.837806
 30
0.0
 11
68.790854
 21
79.167933
 31
0.0
  0
LINE
  5
164
330
1F
100
AcDbEntity
  8
001
370
    50
100
AcDbLine
 10
64.382024
 20
68.555755
 30
0.0
 11
70.500402
 21
72.105755
 31
0.0
  0
LINE
  5
165
330
1F
100
AcDbEntity
  8
001
370
    50
100
AcDbLine
 10
64.431684
 20
68.555755
 30
0.0
 11
64.382024
 21
68.555755
 31
0.0
  0
LINE
  5
166
330
1F
100
AcDbEntity
  8
001
370
    50
100
AcDbLine
 10
63.311417
 20
67.905755
 30
0.0
 11
64.431684
 21
68.555755
 31
0.0
  0
LINE
  5
167
330
1F
100
AcDbEntity
  8
001
370
    50
100
AcDbLine
 10
63.311417
 20
67.905755
 30
0.0
 11
63.112778
 21
67.905755
 31
0.0
  0
LINE
  5
168
330
1F
100
AcDbEntity
  8
001
370
    50
100
AcDbLine
 10
63.875201
 20
68.405755
 30
0.0
 11
63.112778
 21
67.905755
 31
0.0
  0
LINE
  5
169
330
1F
100
AcDbEntity
  8
001
370
    50
100
AcDbLine
 10
66.022652
 20
79.899984
 30
0.0
 11
65.774352
 21
79.899984
 31
0.0
  0
LINE
  5
16A
330
1F
100
AcDbEntity
  8
001
370
    50
100
AcDbLine
 10
66.072312
 20
79.899984
 30
0.0
 11
66.022652
 21
79.899984
 31
0.0
  0
LINE
  5
16B
330
1F
100
AcDbEntity
  8
001
370
    50
100
AcDbLine
 10
68.790854
 20
79.167933
 30
0.0
 11
66.072312
 21
79.899984
 31
0.0
  0
LINE
  5
16C
330
1F
100
AcDbEntity
  8
001
370
    50
100
AcDbLine
 10
63.112778
 20
67.905755
 30
0.0
 11
61.852826
 21
68.271781
 31
0.0
  0
LINE
  5
16D
330
1F
100
AcDbEntity
  8
001
370
    50
100
AcDbLine
 10
61.852826
 20
68.271781
 30
0.0
 11
58.370132
 21
74.333959
 31
0.0
  0
LINE
  5
16E
330
1F
100
AcDbEntity
  8
001
370
    50
100
AcDbLine
 10
58.370132
 20
74.333959
 30
0.0
 11
58.635028
 21
75.699984
 31
0.0
  0
LINE
  5
16F
330
1F
100
AcDbEntity
  8
001
370
    50
100
AcDbLine
 10
58.635028
 20
75.699984
 30
0.0
 11
59.397451
 21
76.199984
 31
0.0
  0
LINE
  5
170
330
1F
100
AcDbEntity
  8
001
370
    50
100
AcDbLine
 10
64.431684
 20
68.555755
 30
0.0
 11
64.419269
 21
68.577366
 31
0.0
  0
POLYLINE
  5
171
330
1F
100
AcDbEntity
  8
001
370
    50
100
AcDb2dPolyline
 66
     1
 10
0.0
 20
0.0
 30
0.0
  0
VERTEX
  5
173
330
171
100
AcDbEntity
  8
001
370
    50
100
AcDbVertex
100
AcDb2dVertex
 10
63.53382
 20
78.599984
 30
0.0
  0
VERTEX
  5
174
330
171
100
AcDbEntity
  8
001
370
    50
100
AcDbVertex
100
AcDb2dVertex
 10
62.762186
 20
77.973156
 30
0.0
  0
VERTEX
  5
175
330
171
100
AcDbEntity
  8
001
370
    50
100
AcDbVertex
100
AcDb2dVertex
 10
61.894849
 20
76.95287
 30
0.0
  0
VERTEX
  5
176
330
171
100
AcDbEntity
  8
001
370
    50
100
AcDbVertex
100
AcDb2dVertex
 10
61.542752
 20
76.228111
 30
0.0
  0
VERTEX
  5
177
330
171
100
AcDbEntity
  8
001
370
    50
100
AcDbVertex
100
AcDb2dVertex
 10
61.362972
 20
75.484287
 30
0.0
  0
VERTEX
  5
178
330
171
100
AcDbEntity
  8
001
370
    50
100
AcDbVertex
100
AcDb2dVertex
 10
61.314142
 20
75.096175
 30
0.0
  0
VERTEX
  5
179
330
171
100
AcDbEntity
  8
001
370
    50
100
AcDbVertex
100
AcDb2dVertex
 10
61.294945
 20
74.70287
 30
0.0
  0
VERTEX
  5
17A
330
171
100
AcDbEntity
  8
001
370
    50
100
AcDbVertex
100
AcDb2dVertex
 10
61.311308
 20
74.310447
 30
0.0
  0
VERTEX
  5
17B
330
171
100
AcDbEntity
  8
001
370
    50
100
AcDbVertex
100
AcDb2dVertex
 10
61.362972
 20
73.921453
 30
0.0
  0
VERTEX
  5
17C
330
171
100
AcDbEntity
  8
001
370
    50
100
AcDbVertex
100
AcDb2dVertex
 10
61.565275
 20
73.165356
 30
0.0
  0
VERTEX
  5
17D
330
171
100
AcDbEntity
  8
001
370
    50
100
AcDbVertex
100
AcDb2dVertex
 10
61.894849
 20
72.45287
 30
0.0
  0
VERTEX
  5
17E
330
171
100
AcDbEntity
  8
001
370
    50
100
AcDbVertex
100
AcDb2dVertex
 10
62.603743
 20
71.52216
 30
0.0
  0
VERTEX
  5
17F
330
171
100
AcDbEntity
  8
001
370
    50
100
AcDbVertex
100
AcDb2dVertex
 10
63.53382
 20
70.805755
 30
0.0
  0
VERTEX
  5
180
330
171
100
AcDbEntity
  8
001
370
    50
100
AcDbVertex
100
AcDb2dVertex
 10
63.885486
 20
70.624153
 30
0.0
  0
VERTEX
  5
181
330
171
100
AcDbEntity
  8
001
370
    50
100
AcDbVertex
100
AcDb2dVertex
 10
64.241214
 20
70.474253
 30
0.0
  0
VERTEX
  5
182
330
171
100
AcDbEntity
  8
001
370
    50
100
AcDbVertex
100
AcDb2dVertex
 10
64.596903
 20
70.356322
 30
0.0
  0
VERTEX
  5
183
330
171
100
AcDbEntity
  8
001
370
    50
100
AcDbVertex
100
AcDb2dVertex
 10
64.995142
 20
70.271235
 30
0.0
  0
VERTEX
  5
184
330
171
100
AcDbEntity
  8
001
370
    50
100
AcDbVertex
100
AcDb2dVertex
 10
65.444476
 20
70.219987
 30
0.0
  0
VERTEX
  5
185
330
171
100
AcDbEntity
  8
001
370
    50
100
AcDbVertex
100
AcDb2dVertex
 10
65.772695
 20
70.20287
 30
0.0
  0
SEQEND
  5
172
330
171
100
AcDbEntity
  8
001
370
    50
  0
POLYLINE
  5
186
330
1F
100
AcDbEntity
  8
001
370
    50
100
AcDb2dPolyline
 66
     1
 10
0.0
 20
0.0
 30
0.0
  0
VERTEX
  5
188
330
186
100
AcDbEntity
  8
001
370
    50
100
AcDbVertex
100
AcDb2dVertex
 10
65.772695
 20
70.20287
 30
0.0
  0
VERTEX
  5
189
330
186
100
AcDbEntity
  8
001
370
    50
100
AcDbVertex
100
AcDb2dVertex
 10
66.100914
 20
70.219987
 30
0.0
  0
VERTEX
  5
18A
330
186
100
AcDbEntity
  8
001
370
    50
100
AcDbVertex
100
AcDb2dVertex
 10
66.550248
 20
70.271235
 30
0.0
  0
VERTEX
  5
18B
330
186
100
AcDbEntity
  8
001
370
    50
100
AcDbVertex
100
AcDb2dVertex
 10
66.948484
 20
70.356324
 30
0.0
  0
VERTEX
  5
18C
330
186
100
AcDbEntity
  8
001
370
    50
100
AcDbVertex
100
AcDb2dVertex
 10
67.304175
 20
70.474253
 30
0.0
  0
VERTEX
  5
18D
330
186
100
AcDbEntity
  8
001
370
    50
100
AcDbVertex
100
AcDb2dVertex
 10
67.659912
 20
70.624148
 30
0.0
  0
VERTEX
  5
18E
330
186
100
AcDbEntity
  8
001
370
    50
100
AcDbVertex
100
AcDb2dVertex
 10
68.01157
 20
70.805755
 30
0.0
  0
VERTEX
  5
18F
330
186
100
AcDbEntity
  8
001
370
    50
100
AcDbVertex
100
AcDb2dVertex
 10
68.94148
 20
71.522258
 30
0.0
  0
VERTEX
  5
190
330
186
100
AcDbEntity
  8
001
370
    50
100
AcDbVertex
100
AcDb2dVertex
 10
69.65054
 20
72.45287
 30
0.0
  0
VERTEX
  5
191
330
186
100
AcDbEntity
  8
001
370
    50
100
AcDbVertex
100
AcDb2dVertex
 10
69.980532
 20
73.165111
 30
0.0
  0
VERTEX
  5
192
330
186
100
AcDbEntity
  8
001
370
    50
100
AcDbVertex
100
AcDb2dVertex
 10
70.182418
 20
73.921453
 30
0.0
  0
VERTEX
  5
193
330
186
100
AcDbEntity
  8
001
370
    50
100
AcDbVertex
100
AcDb2dVertex
 10
70.233464
 20
74.310809
 30
0.0
  0
VERTEX
  5
194
330
186
100
AcDbEntity
  8
001
370
    50
100
AcDbVertex
100
AcDb2dVertex
 10
70.250445
 20
74.70287
 30
0.0
  0
VERTEX
  5
195
330
186
100
AcDbEntity
  8
001
370
    50
100
AcDbVertex
100
AcDb2dVertex
 10
70.233372
 20
75.09493
 30
0.0
  0
VERTEX
  5
196
330
186
100
AcDbEntity
  8
001
370
    50
100
AcDbVertex
100
AcDb2dVertex
 10
70.182418
 20
75.484287
 30
0.0
  0
VERTEX
  5
197
330
186
100
AcDbEntity
  8
001
370
    50
100
AcDbVertex
100
AcDb2dVertex
 10
69.981262
 20
76.240635
 30
0.0
  0
VERTEX
  5
198
330
186
100
AcDbEntity
  8
001
370
    50
100
AcDbVertex
100
AcDb2dVertex
 10
69.65054
 20
76.95287
 30
0.0
  0
VERTEX
  5
199
330
186
100
AcDbEntity
  8
001
370
    50
100
AcDbVertex
100
AcDb2dVertex
 10
68.936346
 20
77.883432
 30
0.0
  0
VERTEX
  5
19A
330
186
100
AcDbEntity
  8
001
370
    50
100
AcDbVertex
100
AcDb2dVertex
 10
68.01157
 20
78.599984
 30
0.0
  0
VERTEX
  5
19B
330
186
100
AcDbEntity
  8
001
370
    50
100
AcDbVertex
100
AcDb2dVertex
 10
67.665032
 20
78.78164
 30
0.0
  0
VERTEX
  5
19C
330
186
100
AcDbEntity
  8
001
370
    50
100
AcDbVertex
100
AcDb2dVertex
 10
67.304175
 20
78.931487
 30
0.0
  0
VERTEX
  5
19D
330
186
100
AcDbEntity
  8
001
370
    50
100
AcDbVertex
100
AcDb2dVertex
 10
66.931428
 20
79.049252
 30
0.0
  0
VERTEX
  5
19E
330
186
100
AcDbEntity
  8
001
370
    50
100
AcDbVertex
100
AcDb2dVertex
 10
66.550248
 20
79.134505
 30
0.0
  0
VERTEX
  5
19F
330
186
100
AcDbEntity
  8
001
370
    50
100
AcDbVertex
100
AcDb2dVertex
 10
66.163989
 20
79.186359
 30
0.0
  0
VERTEX
  5
1A0
330
186
100
AcDbEntity
  8
001
370
    50
100
AcDbVertex
100
AcDb2dVertex
 10
65.772695
 20
79.20287
 30
0.0
  0
VERTEX
  5
1A1
330
186
100
AcDbEntity
  8
001
370
    50
100
AcDbVertex
100
AcDb2dVertex
 10
65.378573
 20
79.183492
 30
0.0
  0
VERTEX
  5
1A2
330
186
100
AcDbEntity
  8
001
370
    50
100
AcDbVertex
100
AcDb2dVertex
 10
64.995142
 20
79.134505
 30
0.0
  0
VERTEX
  5
1A3
330
186
100
AcDbEntity
  8
001
370
    50
100
AcDbVertex
100
AcDb2dVertex
 10
64.628101
 20
79.057855
 30
0.0
  0
VERTEX
  5
1A4
330
186
100
AcDbEntity
  8
001
370
    50
100
AcDbVertex
100
AcDb2dVertex
 10
64.241214
 20
78.931487
 30
0.0
  0
VERTEX
  5
1A5
330
186
100
AcDbEntity
  8
001
370
    50
100
AcDbVertex
100
AcDb2dVertex
 10
63.826581
 20
78.75007
 30
0.0
  0
VERTEX
  5
1A6
330
186
100
AcDbEntity
  8
001
370
    50
100
AcDbVertex
100
AcDb2dVertex
 10
63.53382
 20
78.599984
 30
0.0
  0
SEQEND
  5
187
330
186
100
AcDbEntity
  8
001
370
    50
  0
POLYLINE
  5
1A7
330
1F
100
AcDbEntity
  8
001
370
    50
100
AcDb2dPolyline
 66
     1
 10
0.0
 20
0.0
 30
0.0
  0
VERTEX
  5
1A9
330
1A7
100
AcDbEntity
  8
001
370
    50
100
AcDbVertex
100
AcDb2dVertex
 10
51.930373
 20
124.413694
 30
0.0
  0
VERTEX
  5
1AA
330
1A7
100
AcDbEntity
  8
001
370
    50
100
AcDbVertex
100
AcDb2dVertex
 10
51.930055
 20
124.384416
 30
0.0
  0
VERTEX
  5
1AB
330
1A7
100
AcDbEntity
  8
001
370
    50
100
AcDbVertex
100
AcDb2dVertex
 10
51.934502
 20
124.344167
 30
0.0
  0
VERTEX
  5
1AC
330
1A7
100
AcDbEntity
  8
001
370
    50
100
AcDbVertex
100
AcDb2dVertex
 10
51.946155
 20
124.305977
 30
0.0
  0
VERTEX
  5
1AD
330
1A7
100
AcDbEntity
  8
001
370
    50
100
AcDbVertex
100
AcDb2dVertex
 10
51.962472
 20
124.273989
 30
0.0
  0
VERTEX
  5
1AE
330
1A7
100
AcDbEntity
  8
001
370
    50
100
AcDbVertex
100
AcDb2dVertex
 10
51.984101
 20
124.240559
 30
0.0
  0
VERTEX
  5
1AF
330
1A7
100
AcDbEntity
  8
001
370
    50
100
AcDbVertex
100
AcDb2dVertex
 10
52.013434
 20
124.205295
 30
0.0
  0
VERTEX
  5
1B0
330
1A7
100
AcDbEntity
  8
001
370
    50
100
AcDbVertex
100
AcDb2dVertex
 10
52.022027
 20
124.196262
 30
0.0
  0
VERTEX
  5
1B1
330
1A7
100
AcDbEntity
  8
001
370
    50
100
AcDbVertex
100
AcDb2dVertex
 10
52.028137
 20
124.190046
 30
0.0
  0
SEQEND
  5
1A8
330
1A7
100
AcDbEntity
  8
001
370
    50
  0
LINE
  5
1B2
330
1F
100
AcDbEntity
  8
001
370
    50
100
AcDbLine
 10
52.656315
 20
123.566299
 30
0.0
 11
52.028137
 21
124.190046
 31
0.0
  0
LINE
  5
1B3
330
1F
100
AcDbEntity
  8
001
370
    50
100
AcDbLine
 10
52.656315
 20
118.994973
 30
0.0
 11
51.555375
 21
120.088148
 31
0.0
  0
POLYLINE
  5
1B4
330
1F
100
AcDbEntity
  8
001
370
    50
100
AcDb2dPolyline
 66
     1
 10
0.0
 20
0.0
 30
0.0
  0
VERTEX
  5
1B6
330
1B4
100
AcDbEntity
  8
001
370
    50
100
AcDbVertex
100
AcDb2dVertex
 10
52.086851
 20
124.615479
 30
0.0
  0
VERTEX
  5
1B7
330
1B4
100
AcDbEntity
  8
001
370
    50
100
AcDbVertex
100
AcDb2dVertex
 10
52.075082
 20
124.608311
 30
0.0
  0
VERTEX
  5
1B8
330
1B4
100
AcDbEntity
  8
001
370
    50
100
AcDbVertex
100
AcDb2dVertex
 10
52.058664
 20
124.597734
 30
0.0
  0
VERTEX
  5
1B9
330
1B4
100
AcDbEntity
  8
001
370
    50
100
AcDbVertex
100
AcDb2dVertex
 10
52.022258
 20
124.570228
 30
0.0
  0
VERTEX
  5
1BA
330
1B4
100
AcDbEntity
  8
001
370
    50
100
AcDbVertex
100
AcDb2dVertex
 10
51.993412
 20
124.542434
 30
0.0
  0
VERTEX
  5
1BB
330
1B4
100
AcDbEntity
  8
001
370
    50
100
AcDbVertex
100
AcDb2dVertex
 10
51.970206
 20
124.514962
 30
0.0
  0
VERTEX
  5
1BC
330
1B4
100
AcDbEntity
  8
001
370
    50
100
AcDbVertex
100
AcDb2dVertex
 10
51.95021
 20
124.480459
 30
0.0
  0
VERTEX
  5
1BD
330
1B4
100
AcDbEntity
  8
001
370
    50
100
AcDbVertex
100
AcDb2dVertex
 10
51.936731
 20
124.442283
 30
0.0
  0
VERTEX
  5
1BE
330
1B4
100
AcDbEntity
  8
001
370
    50
100
AcDbVertex
100
AcDb2dVertex
 10
51.930373
 20
124.413694
 30
0.0
  0
SEQEND
  5
1B5
330
1B4
100
AcDbEntity
  8
001
370
    50
  0
LINE
  5
1BF
330
1F
100
AcDbEntity
  8
001
370
    50
100
AcDbLine
 10
51.930373
 20
124.413694
 30
0.0
 11
51.457611
 21
120.311796
 31
0.0
  0
POLYLINE
  5
1C0
330
1F
100
AcDbEntity
  8
001
370
    50
100
AcDb2dPolyline
 66
     1
 10
0.0
 20
0.0
 30
0.0
  0
VERTEX
  5
1C2
330
1C0
100
AcDbEntity
  8
001
370
    50
100
AcDbVertex
100
AcDb2dVertex
 10
51.457611
 20
120.311796
 30
0.0
  0
VERTEX
  5
1C3
330
1C0
100
AcDbEntity
  8
001
370
    50
100
AcDbVertex
100
AcDb2dVertex
 10
51.457293
 20
120.282517
 30
0.0
  0
VERTEX
  5
1C4
330
1C0
100
AcDbEntity
  8
001
370
    50
100
AcDbVertex
100
AcDb2dVertex
 10
51.46174
 20
120.242268
 30
0.0
  0
VERTEX
  5
1C5
330
1C0
100
AcDbEntity
  8
001
370
    50
100
AcDbVertex
100
AcDb2dVertex
 10
51.473393
 20
120.204079
 30
0.0
  0
VERTEX
  5
1C6
330
1C0
100
AcDbEntity
  8
001
370
    50
100
AcDbVertex
100
AcDb2dVertex
 10
51.48971
 20
120.172091
 30
0.0
  0
VERTEX
  5
1C7
330
1C0
100
AcDbEntity
  8
001
370
    50
100
AcDbVertex
100
AcDb2dVertex
 10
51.511339
 20
120.138661
 30
0.0
  0
VERTEX
  5
1C8
330
1C0
100
AcDbEntity
  8
001
370
    50
100
AcDbVertex
100
AcDb2dVertex
 10
51.540672
 20
120.103396
 30
0.0
  0
VERTEX
  5
1C9
330
1C0
100
AcDbEntity
  8
001
370
    50
100
AcDbVertex
100
AcDb2dVertex
 10
51.549265
 20
120.094364
 30
0.0
  0
VERTEX
  5
1CA
330
1C0
100
AcDbEntity
  8
001
370
    50
100
AcDbVertex
100
AcDb2dVertex
 10
51.555375
 20
120.088148
 30
0.0
  0
SEQEND
  5
1C1
330
1C0
100
AcDbEntity
  8
001
370
    50
  0
LINE
  5
1CB
330
1F
100
AcDbEntity
  8
001
370
    50
100
AcDbLine
 10
79.456315
 20
144.403415
 30
0.0
 11
73.691126
 21
144.403415
 31
0.0
  0
LINE
  5
1CC
330
1F
100
AcDbEntity
  8
001
370
    50
100
AcDbLine
 10
67.873974
 20
66.003415
 30
0.0
 11
79.456315
 21
66.003415
 31
0.0
  0
POLYLINE
  5
1CD
330
1F
100
AcDbEntity
  8
001
370
    50
100
AcDb2dPolyline
 66
     1
 10
0.0
 20
0.0
 30
0.0
  0
VERTEX
  5
1CF
330
1CD
100
AcDbEntity
  8
001
370
    50
100
AcDbVertex
100
AcDb2dVertex
 10
74.495927
 20
134.48284
 30
0.0
  0
VERTEX
  5
1D0
330
1CD
100
AcDbEntity
  8
001
370
    50
100
AcDbVertex
100
AcDb2dVertex
 10
73.152745
 20
134.388783
 30
0.0
  0
VERTEX
  5
1D1
330
1CD
100
AcDbEntity
  8
001
370
    50
100
AcDbVertex
100
AcDb2dVertex
 10
71.189662
 20
134.250883
 30
0.0
  0
VERTEX
  5
1D2
330
1CD
100
AcDbEntity
  8
001
370
    50
100
AcDbVertex
100
AcDb2dVertex
 10
69.22096
 20
134.111982
 30
0.0
  0
VERTEX
  5
1D3
330
1CD
100
AcDbEntity
  8
001
370
    50
100
AcDbVertex
100
AcDb2dVertex
 10
67.873974
 20
134.016648
 30
0.0
  0
SEQEND
  5
1CE
330
1CD
100
AcDbEntity
  8
001
370
    50
  0
LINE
  5
1D4
330
1F
100
AcDbEntity
  8
001
370
    50
100
AcDbLine
 10
67.873974
 20
66.535652
 30
0.0
 11
67.873974
 21
66.003415
 31
0.0
  0
POLYLINE
  5
1D5
330
1F
100
AcDbEntity
  8
001
370
    50
100
AcDb2dPolyline
 66
     1
 10
0.0
 20
0.0
 30
0.0
  0
VERTEX
  5
1D7
330
1D5
100
AcDbEntity
  8
001
370
    50
100
AcDbVertex
100
AcDb2dVertex
 10
67.873974
 20
66.535652
 30
0.0
  0
VERTEX
  5
1D8
330
1D5
100
AcDbEntity
  8
001
370
    50
100
AcDbVertex
100
AcDb2dVertex
 10
69.377078
 20
66.560969
 30
0.0
  0
VERTEX
  5
1D9
330
1D5
100
AcDbEntity
  8
001
370
    50
100
AcDbVertex
100
AcDb2dVertex
 10
71.573905
 20
66.598951
 30
0.0
  0
VERTEX
  5
1DA
330
1D5
100
AcDbEntity
  8
001
370
    50
100
AcDbVertex
100
AcDb2dVertex
 10
74.411248
 20
66.65003
 30
0.0
  0
VERTEX
  5
1DB
330
1D5
100
AcDbEntity
  8
001
370
    50
100
AcDbVertex
100
AcDb2dVertex
 10
76.352568
 20
66.6861
 30
0.0
  0
SEQEND
  5
1D6
330
1D5
100
AcDbEntity
  8
001
370
    50
  0
POLYLINE
  5
1DC
330
1F
100
AcDbEntity
  8
001
370
    50
100
AcDb2dPolyline
 66
     1
 10
0.0
 20
0.0
 30
0.0
  0
VERTEX
  5
1DE
330
1DC
100
AcDbEntity
  8
001
370
    50
100
AcDbVertex
100
AcDb2dVertex
 10
73.691126
 20
85.603415
 30
0.0
  0
VERTEX
  5
1DF
330
1DC
100
AcDbEntity
  8
001
370
    50
100
AcDbVertex
100
AcDb2dVertex
 10
73.827061
 20
83.636376
 30
0.0
  0
VERTEX
  5
1E0
330
1DC
100
AcDbEntity
  8
001
370
    50
100
AcDbVertex
100
AcDb2dVertex
 10
74.056668
 20
80.855844
 30
0.0
  0
VERTEX
  5
1E1
330
1DC
100
AcDbEntity
  8
001
370
    50
100
AcDbVertex
100
AcDb2dVertex
 10
74.361521
 20
77.624011
 30
0.0
  0
VERTEX
  5
1E2
330
1DC
100
AcDbEntity
  8
001
370
    50
100
AcDbVertex
100
AcDb2dVertex
 10
74.723196
 20
74.303072
 30
0.0
  0
VERTEX
  5
1E3
330
1DC
100
AcDbEntity
  8
001
370
    50
100
AcDbVertex
100
AcDb2dVertex
 10
75.123266
 20
71.255219
 30
0.0
  0
VERTEX
  5
1E4
330
1DC
100
AcDbEntity
  8
001
370
    50
100
AcDbVertex
100
AcDb2dVertex
 10
75.360485
 20
69.864283
 30
0.0
  0
VERTEX
  5
1E5
330
1DC
100
AcDbEntity
  8
001
370
    50
100
AcDbVertex
100
AcDb2dVertex
 10
75.741391
 20
68.367464
 30
0.0
  0
VERTEX
  5
1E6
330
1DC
100
AcDbEntity
  8
001
370
    50
100
AcDbVertex
100
AcDb2dVertex
 10
76.070345
 20
67.377206
 30
0.0
  0
VERTEX
  5
1E7
330
1DC
100
AcDbEntity
  8
001
370
    50
100
AcDbVertex
100
AcDb2dVertex
 10
76.352568
 20
66.6861
 30
0.0
  0
SEQEND
  5
1DD
330
1DC
100
AcDbEntity
  8
001
370
    50
  0
POLYLINE
  5
1E8
330
1F
100
AcDbEntity
  8
001
370
    50
100
AcDb2dPolyline
 66
     1
 10
0.0
 20
0.0
 30
0.0
  0
VERTEX
  5
1EA
330
1E8
100
AcDbEntity
  8
001
370
    50
100
AcDbVertex
100
AcDb2dVertex
 10
75.836106
 20
112.998042
 30
0.0
  0
VERTEX
  5
1EB
330
1E8
100
AcDbEntity
  8
001
370
    50
100
AcDbVertex
100
AcDb2dVertex
 10
74.22161
 20
113.164387
 30
0.0
  0
VERTEX
  5
1EC
330
1E8
100
AcDbEntity
  8
001
370
    50
100
AcDbVertex
100
AcDb2dVertex
 10
71.861898
 20
113.406884
 30
0.0
  0
VERTEX
  5
1ED
330
1E8
100
AcDbEntity
  8
001
370
    50
100
AcDbVertex
100
AcDb2dVertex
 10
69.494094
 20
113.649335
 30
0.0
  0
VERTEX
  5
1EE
330
1E8
100
AcDbEntity
  8
001
370
    50
100
AcDbVertex
100
AcDb2dVertex
 10
67.873974
 20
113.814796
 30
0.0
  0
SEQEND
  5
1E9
330
1E8
100
AcDbEntity
  8
001
370
    50
  0
LINE
  5
1EF
330
1F
100
AcDbEntity
  8
001
370
    50
100
AcDbLine
 10
67.873974
 20
130.112514
 30
0.0
 11
67.873974
 21
113.814796
 31
0.0
  0
POLYLINE
  5
1F0
330
1F
100
AcDbEntity
  8
001
370
    50
100
AcDb2dPolyline
 66
     1
 10
0.0
 20
0.0
 30
0.0
  0
VERTEX
  5
1F2
330
1F0
100
AcDbEntity
  8
001
370
    50
100
AcDbVertex
100
AcDb2dVertex
 10
76.352568
 20
130.770187
 30
0.0
  0
VERTEX
  5
1F3
330
1F0
100
AcDbEntity
  8
001
370
    50
100
AcDbVertex
100
AcDb2dVertex
 10
74.802288
 20
130.650605
 30
0.0
  0
VERTEX
  5
1F4
330
1F0
100
AcDbEntity
  8
001
370
    50
100
AcDbVertex
100
AcDb2dVertex
 10
72.536535
 20
130.475313
 30
0.0
  0
VERTEX
  5
1F5
330
1F0
100
AcDbEntity
  8
001
370
    50
100
AcDbVertex
100
AcDb2dVertex
 10
69.913091
 20
130.271559
 30
0.0
  0
VERTEX
  5
1F6
330
1F0
100
AcDbEntity
  8
001
370
    50
100
AcDbVertex
100
AcDb2dVertex
 10
68.702361
 20
130.177186
 30
0.0
  0
VERTEX
  5
1F7
330
1F0
100
AcDbEntity
  8
001
370
    50
100
AcDbVertex
100
AcDb2dVertex
 10
67.873974
 20
130.112514
 30
0.0
  0
SEQEND
  5
1F1
330
1F0
100
AcDbEntity
  8
001
370
    50
  0
POLYLINE
  5
1F8
330
1F
100
AcDbEntity
  8
001
370
    50
100
AcDb2dPolyline
 66
     1
 10
0.0
 20
0.0
 30
0.0
  0
VERTEX
  5
1FA
330
1F8
100
AcDbEntity
  8
001
370
    50
100
AcDbVertex
100
AcDb2dVertex
 10
76.352568
 20
130.770187
 30
0.0
  0
VERTEX
  5
1FB
330
1F8
100
AcDbEntity
  8
001
370
    50
100
AcDbVertex
100
AcDb2dVertex
 10
76.161936
 20
132.255453
 30
0.0
  0
VERTEX
  5
1FC
330
1F8
100
AcDbEntity
  8
001
370
    50
100
AcDbVertex
100
AcDb2dVertex
 10
75.877793
 20
134.375658
 30
0.0
  0
VERTEX
  5
1FD
330
1F8
100
AcDbEntity
  8
001
370
    50
100
AcDbVertex
100
AcDb2dVertex
 10
75.520081
 20
136.809438
 30
0.0
  0
VERTEX
  5
1FE
330
1F8
100
AcDbEntity
  8
001
370
    50
100
AcDbVertex
100
AcDb2dVertex
 10
75.10874
 20
139.235431
 30
0.0
  0
VERTEX
  5
1FF
330
1F8
100
AcDbEntity
  8
001
370
    50
100
AcDbVertex
100
AcDb2dVertex
 10
74.814698
 20
140.737855
 30
0.0
  0
VERTEX
  5
200
330
1F8
100
AcDbEntity
  8
001
370
    50
100
AcDbVertex
100
AcDb2dVertex
 10
74.551742
 20
142.096576
 30
0.0
  0
VERTEX
  5
201
330
1F8
100
AcDbEntity
  8
001
370
    50
100
AcDbVertex
100
AcDb2dVertex
 10
74.391493
 20
142.900329
 30
0.0
  0
VERTEX
  5
202
330
1F8
100
AcDbEntity
  8
001
370
    50
100
AcDbVertex
100
AcDb2dVertex
 10
74.071552
 20
143.836742
 30
0.0
  0
VERTEX
  5
203
330
1F8
100
AcDbEntity
  8
001
370
    50
100
AcDbVertex
100
AcDb2dVertex
 10
73.880236
 20
144.220666
 30
0.0
  0
VERTEX
  5
204
330
1F8
100
AcDbEntity
  8
001
370
    50
100
AcDbVertex
100
AcDb2dVertex
 10
73.691126
 20
144.403415
 30
0.0
  0
SEQEND
  5
1F9
330
1F8
100
AcDbEntity
  8
001
370
    50
  0
LINE
  5
205
330
1F
100
AcDbEntity
  8
001
370
    50
100
AcDbLine
 10
79.456315
 20
144.403415
 30
0.0
 11
79.456315
 21
66.003415
 31
0.0
  0
POLYLINE
  5
206
330
1F
100
AcDbEntity
  8
001
370
    50
100
AcDb2dPolyline
 66
     1
 10
0.0
 20
0.0
 30
0.0
  0
VERTEX
  5
208
330
206
100
AcDbEntity
  8
001
370
    50
100
AcDbVertex
100
AcDb2dVertex
 10
75.836106
 20
112.998042
 30
0.0
  0
VERTEX
  5
209
330
206
100
AcDbEntity
  8
001
370
    50
100
AcDbVertex
100
AcDb2dVertex
 10
75.803736
 20
112.661628
 30
0.0
  0
VERTEX
  5
20A
330
206
100
AcDbEntity
  8
001
370
    50
100
AcDbVertex
100
AcDb2dVertex
 10
75.757186
 20
112.176069
 30
0.0
  0
VERTEX
  5
20B
330
206
100
AcDbEntity
  8
001
370
    50
100
AcDbVertex
100
AcDb2dVertex
 10
75.519462
 20
109.656075
 30
0.0
  0
VERTEX
  5
20C
330
206
100
AcDbEntity
  8
001
370
    50
100
AcDbVertex
100
AcDb2dVertex
 10
75.321376
 20
107.4766
 30
0.0
  0
VERTEX
  5
20D
330
206
100
AcDbEntity
  8
001
370
    50
100
AcDbVertex
100
AcDb2dVertex
 10
75.137829
 20
105.37168
 30
0.0
  0
VERTEX
  5
20E
330
206
100
AcDbEntity
  8
001
370
    50
100
AcDbVertex
100
AcDb2dVertex
 10
74.949428
 20
103.138964
 30
0.0
  0
VERTEX
  5
20F
330
206
100
AcDbEntity
  8
001
370
    50
100
AcDbVertex
100
AcDb2dVertex
 10
74.759599
 20
100.830557
 30
0.0
  0
VERTEX
  5
210
330
206
100
AcDbEntity
  8
001
370
    50
100
AcDbVertex
100
AcDb2dVertex
 10
74.577473
 20
98.562178
 30
0.0
  0
VERTEX
  5
211
330
206
100
AcDbEntity
  8
001
370
    50
100
AcDbVertex
100
AcDb2dVertex
 10
74.389295
 20
96.14639
 30
0.0
  0
VERTEX
  5
212
330
206
100
AcDbEntity
  8
001
370
    50
100
AcDbVertex
100
AcDb2dVertex
 10
74.214971
 20
93.792956
 30
0.0
  0
VERTEX
  5
213
330
206
100
AcDbEntity
  8
001
370
    50
100
AcDbVertex
100
AcDb2dVertex
 10
74.046945
 20
91.36613
 30
0.0
  0
VERTEX
  5
214
330
206
100
AcDbEntity
  8
001
370
    50
100
AcDbVertex
100
AcDb2dVertex
 10
73.877659
 20
88.730166
 30
0.0
  0
VERTEX
  5
215
330
206
100
AcDbEntity
  8
001
370
    50
100
AcDbVertex
100
AcDb2dVertex
 10
73.699555
 20
85.749317
 30
0.0
  0
VERTEX
  5
216
330
206
100
AcDbEntity
  8
001
370
    50
100
AcDbVertex
100
AcDb2dVertex
 10
73.69455
 20
85.662737
 30
0.0
  0
VERTEX
  5
217
330
206
100
AcDbEntity
  8
001
370
    50
100
AcDbVertex
100
AcDb2dVertex
 10
73.691126
 20
85.603415
 30
0.0
  0
SEQEND
  5
207
330
206
100
AcDbEntity
  8
001
370
    50
  0
LINE
  5
218
330
1F
100
AcDbEntity
  8
001
370
    50
100
AcDbLine
 10
79.456315
 20
66.003415
 30
0.0
 11
86.456315
 21
67.879059
 31
0.0
  0
LINE
  5
219
330
1F
100
AcDbEntity
  8
001
370
    50
100
AcDbLine
 10
86.456315
 20
142.527771
 30
0.0
 11
79.456315
 21
144.403415
 31
0.0
  0
LINE
  5
21A
330
1F
100
AcDbEntity
  8
001
370
    50
100
AcDbLine
 10
86.456315
 20
142.527771
 30
0.0
 11
86.456315
 21
67.879059
 31
0.0
  0
POLYLINE
  5
21B
330
1F
100
AcDbEntity
  8
001
370
    50
100
AcDb2dPolyline
 66
     1
 10
0.0
 20
0.0
 30
0.0
  0
VERTEX
  5
21D
330
21B
100
AcDbEntity
  8
001
370
    50
100
AcDbVertex
100
AcDb2dVertex
 10
63.22071
 20
112.876684
 30
0.0
  0
VERTEX
  5
21E
330
21B
100
AcDbEntity
  8
001
370
    50
100
AcDbVertex
100
AcDb2dVertex
 10
63.220513
 20
112.891271
 30
0.0
  0
VERTEX
  5
21F
330
21B
100
AcDbEntity
  8
001
370
    50
100
AcDbVertex
100
AcDb2dVertex
 10
63.219669
 20
112.912569
 30
0.0
  0
VERTEX
  5
220
330
21B
100
AcDbEntity
  8
001
370
    50
100
AcDbVertex
100
AcDb2dVertex
 10
63.218041
 20
112.933982
 30
0.0
  0
VERTEX
  5
221
330
21B
100
AcDbEntity
  8
001
370
    50
100
AcDbVertex
100
AcDb2dVertex
 10
63.216548
 20
112.948604
 30
0.0
  0
SEQEND
  5
21C
330
21B
100
AcDbEntity
  8
001
370
    50
  0
POLYLINE
  5
222
330
1F
100
AcDbEntity
  8
001
370
    50
100
AcDb2dPolyline
 66
     1
 10
0.0
 20
0.0
 30
0.0
  0
VERTEX
  5
224
330
222
100
AcDbEntity
  8
001
370
    50
100
AcDbVertex
100
AcDb2dVertex
 10
71.47849
 20
96.655474
 30
0.0
  0
VERTEX
  5
225
330
222
100
AcDbEntity
  8
001
370
    50
100
AcDbVertex
100
AcDb2dVertex
 10
72.639974
 20
97.017528
 30
0.0
  0
VERTEX
  5
226
330
222
100
AcDbEntity
  8
001
370
    50
100
AcDbVertex
100
AcDb2dVertex
 10
74.204025
 20
97.811522
 30
0.0
  0
VERTEX
  5
227
330
222
100
AcDbEntity
  8
001
370
    50
100
AcDbVertex
100
AcDb2dVertex
 10
74.404265
 20
97.954984
 30
0.0
  0
VERTEX
  5
228
330
222
100
AcDbEntity
  8
001
370
    50
100
AcDbVertex
100
AcDb2dVertex
 10
74.538344
 20
98.057445
 30
0.0
  0
SEQEND
  5
223
330
222
100
AcDbEntity
  8
001
370
    50
  0
POLYLINE
  5
229
330
1F
100
AcDbEntity
  8
001
370
    50
100
AcDb2dPolyline
 66
     1
 10
0.0
 20
0.0
 30
0.0
  0
VERTEX
  5
22B
330
229
100
AcDbEntity
  8
001
370
    50
100
AcDbVertex
100
AcDb2dVertex
 10
71.47849
 20
96.655474
 30
0.0
  0
VERTEX
  5
22C
330
229
100
AcDbEntity
  8
001
370
    50
100
AcDbVertex
100
AcDb2dVertex
 10
70.655424
 20
97.086823
 30
0.0
  0
VERTEX
  5
22D
330
229
100
AcDbEntity
  8
001
370
    50
100
AcDbVertex
100
AcDb2dVertex
 10
69.407265
 20
97.60557
 30
0.0
  0
VERTEX
  5
22E
330
229
100
AcDbEntity
  8
001
370
    50
100
AcDbVertex
100
AcDb2dVertex
 10
67.380911
 20
98.081617
 30
0.0
  0
VERTEX
  5
22F
330
229
100
AcDbEntity
  8
001
370
    50
100
AcDbVertex
100
AcDb2dVertex
 10
65.950069
 20
98.203415
 30
0.0
  0
SEQEND
  5
22A
330
229
100
AcDbEntity
  8
001
370
    50
  0
LINE
  5
230
330
1F
100
AcDbEntity
  8
001
370
    50
100
AcDbLine
 10
65.950069
 20
98.203415
 30
0.0
 11
60.161869
 21
98.203415
 31
0.0
  0
LINE
  5
231
330
1F
100
AcDbEntity
  8
001
370
    50
100
AcDbLine
 10
60.161869
 20
98.28536
 30
0.0
 11
60.161869
 21
98.203415
 31
0.0
  0
POLYLINE
  5
232
330
1F
100
AcDbEntity
  8
001
370
    50
100
AcDb2dPolyline
 66
     1
 10
0.0
 20
0.0
 30
0.0
  0
VERTEX
  5
234
330
232
100
AcDbEntity
  8
001
370
    50
100
AcDbVertex
100
AcDb2dVertex
 10
52.656315
 20
107.842524
 30
0.0
  0
VERTEX
  5
235
330
232
100
AcDbEntity
  8
001
370
    50
100
AcDbVertex
100
AcDb2dVertex
 10
53.74532
 20
106.677819
 30
0.0
  0
VERTEX
  5
236
330
232
100
AcDbEntity
  8
001
370
    50
100
AcDbVertex
100
AcDb2dVertex
 10
54.824407
 20
105.503971
 30
0.0
  0
VERTEX
  5
237
330
232
100
AcDbEntity
  8
001
370
    50
100
AcDbVertex
100
AcDb2dVertex
 10
55.863922
 20
104.335809
 30
0.0
  0
VERTEX
  5
238
330
232
100
AcDbEntity
  8
001
370
    50
100
AcDbVertex
100
AcDb2dVertex
 10
56.878049
 20
103.145512
 30
0.0
  0
VERTEX
  5
239
330
232
100
AcDbEntity
  8
001
370
    50
100
AcDbVertex
100
AcDb2dVertex
 10
57.363956
 20
102.551941
 30
0.0
  0
VERTEX
  5
23A
330
232
100
AcDbEntity
  8
001
370
    50
100
AcDbVertex
100
AcDb2dVertex
 10
57.839354
 20
101.950066
 30
0.0
  0
VERTEX
  5
23B
330
232
100
AcDbEntity
  8
001
370
    50
100
AcDbVertex
100
AcDb2dVertex
 10
58.291
 20
101.35261
 30
0.0
  0
VERTEX
  5
23C
330
232
100
AcDbEntity
  8
001
370
    50
100
AcDbVertex
100
AcDb2dVertex
 10
58.728846
 20
100.744595
 30
0.0
  0
VERTEX
  5
23D
330
232
100
AcDbEntity
  8
001
370
    50
100
AcDbVertex
100
AcDb2dVertex
 10
59.137814
 20
100.142107
 30
0.0
  0
VERTEX
  5
23E
330
232
100
AcDbEntity
  8
001
370
    50
100
AcDbVertex
100
AcDb2dVertex
 10
59.518827
 20
99.52239
 30
0.0
  0
VERTEX
  5
23F
330
232
100
AcDbEntity
  8
001
370
    50
100
AcDbVertex
100
AcDb2dVertex
 10
59.849965
 20
98.909313
 30
0.0
  0
VERTEX
  5
240
330
232
100
AcDbEntity
  8
001
370
    50
100
AcDbVertex
100
AcDb2dVertex
 10
60.161869
 20
98.28536
 30
0.0
  0
SEQEND
  5
233
330
232
100
AcDbEntity
  8
001
370
    50
  0
LINE
  5
241
330
1F
100
AcDbEntity
  8
001
370
    50
100
AcDbLine
 10
52.656315
 20
107.842524
 30
0.0
 11
52.656315
 21
115.194874
 31
0.0
  0
LINE
  5
242
330
1F
100
AcDbEntity
  8
001
370
    50
100
AcDbLine
 10
52.656315
 20
115.194874
 30
0.0
 11
53.55096
 21
115.364428
 31
0.0
  0
POLYLINE
  5
243
330
1F
100
AcDbEntity
  8
001
370
    50
100
AcDb2dPolyline
 66
     1
 10
0.0
 20
0.0
 30
0.0
  0
VERTEX
  5
245
330
243
100
AcDbEntity
  8
001
370
    50
100
AcDbVertex
100
AcDb2dVertex
 10
67.873974
 20
113.814796
 30
0.0
  0
VERTEX
  5
246
330
243
100
AcDbEntity
  8
001
370
    50
100
AcDbVertex
100
AcDb2dVertex
 10
66.157094
 20
114.002162
 30
0.0
  0
VERTEX
  5
247
330
243
100
AcDbEntity
  8
001
370
    50
100
AcDbVertex
100
AcDb2dVertex
 10
63.647729
 20
114.275266
 30
0.0
  0
VERTEX
  5
248
330
243
100
AcDbEntity
  8
001
370
    50
100
AcDbVertex
100
AcDb2dVertex
 10
60.742026
 20
114.590375
 30
0.0
  0
VERTEX
  5
249
330
243
100
AcDbEntity
  8
001
370
    50
100
AcDbVertex
100
AcDb2dVertex
 10
57.812427
 20
114.906603
 30
0.0
  0
VERTEX
  5
24A
330
243
100
AcDbEntity
  8
001
370
    50
100
AcDbVertex
100
AcDb2dVertex
 10
55.282213
 20
115.178734
 30
0.0
  0
VERTEX
  5
24B
330
243
100
AcDbEntity
  8
001
370
    50
100
AcDbVertex
100
AcDb2dVertex
 10
53.55096
 20
115.364428
 30
0.0
  0
SEQEND
  5
244
330
243
100
AcDbEntity
  8
001
370
    50
  0
POLYLINE
  5
24C
330
1F
100
AcDbEntity
  8
001
370
    50
100
AcDb2dPolyline
 66
     1
 10
0.0
 20
0.0
 30
0.0
  0
VERTEX
  5
24E
330
24C
100
AcDbEntity
  8
001
370
    50
100
AcDbVertex
100
AcDb2dVertex
 10
67.657866
 20
126.371313
 30
0.0
  0
VERTEX
  5
24F
330
24C
100
AcDbEntity
  8
001
370
    50
100
AcDbVertex
100
AcDb2dVertex
 10
66.10555
 20
126.251407
 30
0.0
  0
VERTEX
  5
250
330
24C
100
AcDbEntity
  8
001
370
    50
100
AcDbVertex
100
AcDb2dVertex
 10
63.836819
 20
126.07566
 30
0.0
  0
VERTEX
  5
251
330
24C
100
AcDbEntity
  8
001
370
    50
100
AcDbVertex
100
AcDb2dVertex
 10
61.209926
 20
125.871404
 30
0.0
  0
VERTEX
  5
252
330
24C
100
AcDbEntity
  8
001
370
    50
100
AcDbVertex
100
AcDb2dVertex
 10
58.089542
 20
125.627497
 30
0.0
  0
VERTEX
  5
253
330
24C
100
AcDbEntity
  8
001
370
    50
100
AcDbVertex
100
AcDb2dVertex
 10
55.394737
 20
125.415928
 30
0.0
  0
VERTEX
  5
254
330
24C
100
AcDbEntity
  8
001
370
    50
100
AcDbVertex
100
AcDb2dVertex
 10
53.55096
 20
125.270692
 30
0.0
  0
SEQEND
  5
24D
330
24C
100
AcDbEntity
  8
001
370
    50
  0
POLYLINE
  5
255
330
1F
100
AcDbEntity
  8
001
370
    50
100
AcDb2dPolyline
 66
     1
 10
0.0
 20
0.0
 30
0.0
  0
VERTEX
  5
257
330
255
100
AcDbEntity
  8
001
370
    50
100
AcDbVertex
100
AcDb2dVertex
 10
67.657866
 20
126.371313
 30
0.0
  0
VERTEX
  5
258
330
255
100
AcDbEntity
  8
001
370
    50
100
AcDbVertex
100
AcDb2dVertex
 10
67.534953
 20
127.134848
 30
0.0
  0
VERTEX
  5
259
330
255
100
AcDbEntity
  8
001
370
    50
100
AcDbVertex
100
AcDb2dVertex
 10
67.331303
 20
128.24638
 30
0.0
  0
VERTEX
  5
25A
330
255
100
AcDbEntity
  8
001
370
    50
100
AcDbVertex
100
AcDb2dVertex
 10
67.101402
 20
129.316521
 30
0.0
  0
VERTEX
  5
25B
330
255
100
AcDbEntity
  8
001
370
    50
100
AcDbVertex
100
AcDb2dVertex
 10
66.927925
 20
130.045232
 30
0.0
  0
SEQEND
  5
256
330
255
100
AcDbEntity
  8
001
370
    50
  0
POLYLINE
  5
25C
330
1F
100
AcDbEntity
  8
001
370
    50
100
AcDb2dPolyline
 66
     1
 10
0.0
 20
0.0
 30
0.0
  0
VERTEX
  5
25E
330
25C
100
AcDbEntity
  8
001
370
    50
100
AcDbVertex
100
AcDb2dVertex
 10
67.873974
 20
130.112514
 30
0.0
  0
VERTEX
  5
25F
330
25C
100
AcDbEntity
  8
001
370
    50
100
AcDbVertex
100
AcDb2dVertex
 10
67.681844
 20
130.09886
 30
0.0
  0
VERTEX
  5
260
330
25C
100
AcDbEntity
  8
001
370
    50
100
AcDbVertex
100
AcDb2dVertex
 10
67.401038
 20
130.078895
 30
0.0
  0
VERTEX
  5
261
330
25C
100
AcDbEntity
  8
001
370
    50
100
AcDbVertex
100
AcDb2dVertex
 10
67.120127
 20
130.058911
 30
0.0
  0
VERTEX
  5
262
330
25C
100
AcDbEntity
  8
001
370
    50
100
AcDbVertex
100
AcDb2dVertex
 10
66.927925
 20
130.045232
 30
0.0
  0
SEQEND
  5
25D
330
25C
100
AcDbEntity
  8
001
370
    50
  0
LINE
  5
263
330
1F
100
AcDbEntity
  8
001
370
    50
100
AcDbLine
 10
53.55096
 20
125.270692
 30
0.0
 11
53.55096
 21
115.364428
 31
0.0
  0
LINE
  5
264
330
1F
100
AcDbEntity
  8
001
370
    50
100
AcDbLine
 10
53.55096
 20
125.270692
 30
0.0
 11
52.656315
 21
124.94378
 31
0.0
  0
LINE
  5
265
330
1F
100
AcDbEntity
  8
001
370
    50
100
AcDbLine
 10
52.656315
 20
124.94378
 30
0.0
 11
52.656315
 21
115.194874
 31
0.0
  0
POLYLINE
  5
266
330
1F
100
AcDbEntity
  8
001
370
    50
100
AcDb2dPolyline
 66
     1
 10
0.0
 20
0.0
 30
0.0
  0
VERTEX
  5
268
330
266
100
AcDbEntity
  8
001
370
    50
100
AcDbVertex
100
AcDb2dVertex
 10
58.149462
 20
113.243487
 30
0.0
  0
VERTEX
  5
269
330
266
100
AcDbEntity
  8
001
370
    50
100
AcDbVertex
100
AcDb2dVertex
 10
58.154415
 20
113.211066
 30
0.0
  0
VERTEX
  5
26A
330
266
100
AcDbEntity
  8
001
370
    50
100
AcDbVertex
100
AcDb2dVertex
 10
58.163275
 20
113.165339
 30
0.0
  0
VERTEX
  5
26B
330
266
100
AcDbEntity
  8
001
370
    50
100
AcDbVertex
100
AcDb2dVertex
 10
58.20128
 20
113.044126
 30
0.0
  0
VERTEX
  5
26C
330
266
100
AcDbEntity
  8
001
370
    50
100
AcDbVertex
100
AcDb2dVertex
 10
58.253911
 20
112.944238
 30
0.0
  0
VERTEX
  5
26D
330
266
100
AcDbEntity
  8
001
370
    50
100
AcDbVertex
100
AcDb2dVertex
 10
58.329754
 20
112.834075
 30
0.0
  0
VERTEX
  5
26E
330
266
100
AcDbEntity
  8
001
370
    50
100
AcDbVertex
100
AcDb2dVertex
 10
58.418354
 20
112.727749
 30
0.0
  0
VERTEX
  5
26F
330
266
100
AcDbEntity
  8
001
370
    50
100
AcDbVertex
100
AcDb2dVertex
 10
58.823935
 20
112.399383
 30
0.0
  0
VERTEX
  5
270
330
266
100
AcDbEntity
  8
001
370
    50
100
AcDbVertex
100
AcDb2dVertex
 10
59.294321
 20
112.169848
 30
0.0
  0
VERTEX
  5
271
330
266
100
AcDbEntity
  8
001
370
    50
100
AcDbVertex
100
AcDb2dVertex
 10
59.694871
 20
112.030951
 30
0.0
  0
VERTEX
  5
272
330
266
100
AcDbEntity
  8
001
370
    50
100
AcDbVertex
100
AcDb2dVertex
 10
60.10453
 20
111.928959
 30
0.0
  0
VERTEX
  5
273
330
266
100
AcDbEntity
  8
001
370
    50
100
AcDbVertex
100
AcDb2dVertex
 10
60.322622
 20
111.889782
 30
0.0
  0
VERTEX
  5
274
330
266
100
AcDbEntity
  8
001
370
    50
100
AcDbVertex
100
AcDb2dVertex
 10
60.542385
 20
111.860121
 30
0.0
  0
VERTEX
  5
275
330
266
100
AcDbEntity
  8
001
370
    50
100
AcDbVertex
100
AcDb2dVertex
 10
60.763217
 20
111.83977
 30
0.0
  0
VERTEX
  5
276
330
266
100
AcDbEntity
  8
001
370
    50
100
AcDbVertex
100
AcDb2dVertex
 10
60.984512
 20
111.828837
 30
0.0
  0
VERTEX
  5
277
330
266
100
AcDbEntity
  8
001
370
    50
100
AcDbVertex
100
AcDb2dVertex
 10
61.406381
 20
111.835344
 30
0.0
  0
VERTEX
  5
278
330
266
100
AcDbEntity
  8
001
370
    50
100
AcDbVertex
100
AcDb2dVertex
 10
61.828127
 20
111.881559
 30
0.0
  0
VERTEX
  5
279
330
266
100
AcDbEntity
  8
001
370
    50
100
AcDbVertex
100
AcDb2dVertex
 10
62.339308
 20
112.004056
 30
0.0
  0
VERTEX
  5
27A
330
266
100
AcDbEntity
  8
001
370
    50
100
AcDbVertex
100
AcDb2dVertex
 10
62.807035
 20
112.228417
 30
0.0
  0
VERTEX
  5
27B
330
266
100
AcDbEntity
  8
001
370
    50
100
AcDbVertex
100
AcDb2dVertex
 10
62.916338
 20
112.308827
 30
0.0
  0
VERTEX
  5
27C
330
266
100
AcDbEntity
  8
001
370
    50
100
AcDbVertex
100
AcDb2dVertex
 10
63.015908
 20
112.402431
 30
0.0
  0
VERTEX
  5
27D
330
266
100
AcDbEntity
  8
001
370
    50
100
AcDbVertex
100
AcDb2dVertex
 10
63.092162
 20
112.497003
 30
0.0
  0
VERTEX
  5
27E
330
266
100
AcDbEntity
  8
001
370
    50
100
AcDbVertex
100
AcDb2dVertex
 10
63.153898
 20
112.597519
 30
0.0
  0
VERTEX
  5
27F
330
266
100
AcDbEntity
  8
001
370
    50
100
AcDbVertex
100
AcDb2dVertex
 10
63.194416
 20
112.693156
 30
0.0
  0
VERTEX
  5
280
330
266
100
AcDbEntity
  8
001
370
    50
100
AcDbVertex
100
AcDb2dVertex
 10
63.216811
 20
112.807756
 30
0.0
  0
VERTEX
  5
281
330
266
100
AcDbEntity
  8
001
370
    50
100
AcDbVertex
100
AcDb2dVertex
 10
63.219745
 20
112.848189
 30
0.0
  0
VERTEX
  5
282
330
266
100
AcDbEntity
  8
001
370
    50
100
AcDbVertex
100
AcDb2dVertex
 10
63.22071
 20
112.876684
 30
0.0
  0
SEQEND
  5
267
330
266
100
AcDbEntity
  8
001
370
    50
  0
POLYLINE
  5
283
330
1F
100
AcDbEntity
  8
001
370
    50
100
AcDb2dPolyline
 66
     1
 10
0.0
 20
0.0
 30
0.0
  0
VERTEX
  5
285
330
283
100
AcDbEntity
  8
001
370
    50
100
AcDbVertex
100
AcDb2dVertex
 10
63.216548
 20
112.948604
 30
0.0
  0
VERTEX
  5
286
330
283
100
AcDbEntity
  8
001
370
    50
100
AcDbVertex
100
AcDb2dVertex
 10
63.211595
 20
112.981025
 30
0.0
  0
VERTEX
  5
287
330
283
100
AcDbEntity
  8
001
370
    50
100
AcDbVertex
100
AcDb2dVertex
 10
63.202735
 20
113.026751
 30
0.0
  0
VERTEX
  5
288
330
283
100
AcDbEntity
  8
001
370
    50
100
AcDbVertex
100
AcDb2dVertex
 10
63.16473
 20
113.147965
 30
0.0
  0
VERTEX
  5
289
330
283
100
AcDbEntity
  8
001
370
    50
100
AcDbVertex
100
AcDb2dVertex
 10
63.112098
 20
113.247853
 30
0.0
  0
VERTEX
  5
28A
330
283
100
AcDbEntity
  8
001
370
    50
100
AcDbVertex
100
AcDb2dVertex
 10
63.036256
 20
113.358015
 30
0.0
  0
VERTEX
  5
28B
330
283
100
AcDbEntity
  8
001
370
    50
100
AcDbVertex
100
AcDb2dVertex
 10
62.947655
 20
113.464341
 30
0.0
  0
VERTEX
  5
28C
330
283
100
AcDbEntity
  8
001
370
    50
100
AcDbVertex
100
AcDb2dVertex
 10
62.542075
 20
113.792707
 30
0.0
  0
VERTEX
  5
28D
330
283
100
AcDbEntity
  8
001
370
    50
100
AcDbVertex
100
AcDb2dVertex
 10
62.071688
 20
114.022242
 30
0.0
  0
VERTEX
  5
28E
330
283
100
AcDbEntity
  8
001
370
    50
100
AcDbVertex
100
AcDb2dVertex
 10
61.671139
 20
114.16114
 30
0.0
  0
VERTEX
  5
28F
330
283
100
AcDbEntity
  8
001
370
    50
100
AcDbVertex
100
AcDb2dVertex
 10
61.261479
 20
114.263132
 30
0.0
  0
VERTEX
  5
290
330
283
100
AcDbEntity
  8
001
370
    50
100
AcDbVertex
100
AcDb2dVertex
 10
61.043387
 20
114.302307
 30
0.0
  0
VERTEX
  5
291
330
283
100
AcDbEntity
  8
001
370
    50
100
AcDbVertex
100
AcDb2dVertex
 10
60.823625
 20
114.331969
 30
0.0
  0
VERTEX
  5
292
330
283
100
AcDbEntity
  8
001
370
    50
100
AcDbVertex
100
AcDb2dVertex
 10
60.602794
 20
114.352324
 30
0.0
  0
VERTEX
  5
293
330
283
100
AcDbEntity
  8
001
370
    50
100
AcDbVertex
100
AcDb2dVertex
 10
60.381498
 20
114.363254
 30
0.0
  0
VERTEX
  5
294
330
283
100
AcDbEntity
  8
001
370
    50
100
AcDbVertex
100
AcDb2dVertex
 10
59.95961
 20
114.356712
 30
0.0
  0
VERTEX
  5
295
330
283
100
AcDbEntity
  8
001
370
    50
100
AcDbVertex
100
AcDb2dVertex
 10
59.537882
 20
114.310532
 30
0.0
  0
VERTEX
  5
296
330
283
100
AcDbEntity
  8
001
370
    50
100
AcDbVertex
100
AcDb2dVertex
 10
59.026799
 20
114.188222
 30
0.0
  0
VERTEX
  5
297
330
283
100
AcDbEntity
  8
001
370
    50
100
AcDbVertex
100
AcDb2dVertex
 10
58.558975
 20
113.963674
 30
0.0
  0
VERTEX
  5
298
330
283
100
AcDbEntity
  8
001
370
    50
100
AcDbVertex
100
AcDb2dVertex
 10
58.4496
 20
113.883126
 30
0.0
  0
VERTEX
  5
299
330
283
100
AcDbEntity
  8
001
370
    50
100
AcDbVertex
100
AcDb2dVertex
 10
58.350101
 20
113.78966
 30
0.0
  0
VERTEX
  5
29A
330
283
100
AcDbEntity
  8
001
370
    50
100
AcDbVertex
100
AcDb2dVertex
 10
58.274045
 20
113.695466
 30
0.0
  0
VERTEX
  5
29B
330
283
100
AcDbEntity
  8
001
370
    50
100
AcDbVertex
100
AcDb2dVertex
 10
58.212112
 20
113.594571
 30
0.0
  0
VERTEX
  5
29C
330
283
100
AcDbEntity
  8
001
370
    50
100
AcDbVertex
100
AcDb2dVertex
 10
58.170954
 20
113.49771
 30
0.0
  0
VERTEX
  5
29D
330
283
100
AcDbEntity
  8
001
370
    50
100
AcDbVertex
100
AcDb2dVertex
 10
58.149199
 20
113.384335
 30
0.0
  0
VERTEX
  5
29E
330
283
100
AcDbEntity
  8
001
370
    50
100
AcDbVertex
100
AcDb2dVertex
 10
58.146633
 20
113.302289
 30
0.0
  0
VERTEX
  5
29F
330
283
100
AcDbEntity
  8
001
370
    50
100
AcDbVertex
100
AcDb2dVertex
 10
58.149462
 20
113.243487
 30
0.0
  0
SEQEND
  5
284
330
283
100
AcDbEntity
  8
001
370
    50
  0
LINE
  5
2A0
330
1F
100
AcDbEntity
  8
001
370
    50
100
AcDbLine
 10
66.746213
 20
129.877563
 30
0.0
 11
66.927925
 21
130.045232
 31
0.0
  0
LINE
  5
2A1
330
1F
100
AcDbEntity
  8
001
370
    50
100
AcDbLine
 10
73.691126
 20
144.403415
 30
0.0
 11
74.140618
 21
139.203415
 31
0.0
  0
POLYLINE
  5
2A2
330
1F
100
AcDbEntity
  8
001
370
    50
100
AcDb2dPolyline
 66
     1
 10
0.0
 20
0.0
 30
0.0
  0
VERTEX
  5
2A4
330
2A2
100
AcDbEntity
  8
001
370
    50
100
AcDbVertex
100
AcDb2dVertex
 10
74.191724
 20
93.172687
 30
0.0
  0
VERTEX
  5
2A5
330
2A2
100
AcDbEntity
  8
001
370
    50
100
AcDbVertex
100
AcDb2dVertex
 10
74.093428
 20
93.413234
 30
0.0
  0
VERTEX
  5
2A6
330
2A2
100
AcDbEntity
  8
001
370
    50
100
AcDbVertex
100
AcDb2dVertex
 10
73.990013
 20
93.651504
 30
0.0
  0
VERTEX
  5
2A7
330
2A2
100
AcDbEntity
  8
001
370
    50
100
AcDbVertex
100
AcDb2dVertex
 10
73.764662
 20
94.098273
 30
0.0
  0
VERTEX
  5
2A8
330
2A2
100
AcDbEntity
  8
001
370
    50
100
AcDbVertex
100
AcDb2dVertex
 10
73.507419
 20
94.528075
 30
0.0
  0
VERTEX
  5
2A9
330
2A2
100
AcDbEntity
  8
001
370
    50
100
AcDbVertex
100
AcDb2dVertex
 10
73.203393
 20
94.967601
 30
0.0
  0
VERTEX
  5
2AA
330
2A2
100
AcDbEntity
  8
001
370
    50
100
AcDbVertex
100
AcDb2dVertex
 10
72.870444
 20
95.385276
 30
0.0
  0
VERTEX
  5
2AB
330
2A2
100
AcDbEntity
  8
001
370
    50
100
AcDbVertex
100
AcDb2dVertex
 10
72.575914
 20
95.710214
 30
0.0
  0
VERTEX
  5
2AC
330
2A2
100
AcDbEntity
  8
001
370
    50
100
AcDbVertex
100
AcDb2dVertex
 10
72.263189
 20
96.017795
 30
0.0
  0
VERTEX
  5
2AD
330
2A2
100
AcDbEntity
  8
001
370
    50
100
AcDbVertex
100
AcDb2dVertex
 10
71.905892
 20
96.329578
 30
0.0
  0
VERTEX
  5
2AE
330
2A2
100
AcDbEntity
  8
001
370
    50
100
AcDbVertex
100
AcDb2dVertex
 10
71.530096
 20
96.61851
 30
0.0
  0
VERTEX
  5
2AF
330
2A2
100
AcDbEntity
  8
001
370
    50
100
AcDbVertex
100
AcDb2dVertex
 10
71.504312
 20
96.637019
 30
0.0
  0
VERTEX
  5
2B0
330
2A2
100
AcDbEntity
  8
001
370
    50
100
AcDbVertex
100
AcDb2dVertex
 10
71.47849
 20
96.655474
 30
0.0
  0
SEQEND
  5
2A3
330
2A2
100
AcDbEntity
  8
001
370
    50
  0
LINE
  5
2B1
330
1F
100
AcDbEntity
  8
001
370
    50
100
AcDbLine
 10
88.456315
 20
121.203415
 30
0.0
 11
163.456315
 21
121.203415
 31
0.0
  0
LINE
  5
2B2
330
1F
100
AcDbEntity
  8
001
370
    50
100
AcDbLine
 10
88.456315
 20
89.203415
 30
0.0
 11
163.456315
 21
89.203415
 31
0.0
  0
ARC
  5
2B3
330
1F
100
AcDbEntity
  8
001
370
    50
100
AcDbCircle
 10
163.456315
 20
113.203415
 30
0.0
 40
8.0
100
AcDbArc
 50
0.0
 51
90.0
  0
ARC
  5
2B4
330
1F
100
AcDbEntity
  8
001
370
    50
100
AcDbCircle
 10
163.456315
 20
97.203415
 30
0.0
 40
8.0
100
AcDbArc
 50
270.0
 51
0.0
  0
LINE
  5
2B5
330
1F
100
AcDbEntity
  8
001
370
    50
100
AcDbLine
 10
171.456315
 20
113.203415
 30
0.0
 11
171.456315
 21
97.203415
 31
0.0
  0
POLYLINE
  5
2B6
330
1F
100
AcDbEntity
  8
001
370
    50
100
AcDb2dPolyline
 66
     1
 10
0.0
 20
0.0
 30
0.0
  0
VERTEX
  5
2B8
330
2B6
100
AcDbEntity
  8
001
370
    50
100
AcDbVertex
100
AcDb2dVertex
 10
74.64571
 20
132.321011
 30
0.0
  0
VERTEX
  5
2B9
330
2B6
100
AcDbEntity
  8
001
370
    50
100
AcDbVertex
100
AcDb2dVertex
 10
74.651397
 20
132.233282
 30
0.0
  0
VERTEX
  5
2BA
330
2B6
100
AcDbEntity
  8
001
370
    50
100
AcDbVertex
100
AcDb2dVertex
 10
74.656905
 20
132.14554
 30
0.0
  0
VERTEX
  5
2BB
330
2B6
100
AcDbEntity
  8
001
370
    50
100
AcDbVertex
100
AcDb2dVertex
 10
74.684207
 20
131.579368
 30
0.0
  0
VERTEX
  5
2BC
330
2B6
100
AcDbEntity
  8
001
370
    50
100
AcDbVertex
100
AcDb2dVertex
 10
74.697926
 20
131.012684
 30
0.0
  0
VERTEX
  5
2BD
330
2B6
100
AcDbEntity
  8
001
370
    50
100
AcDbVertex
100
AcDb2dVertex
 10
74.699791
 20
130.827704
 30
0.0
  0
VERTEX
  5
2BE
330
2B6
100
AcDbEntity
  8
001
370
    50
100
AcDbVertex
100
AcDb2dVertex
 10
74.701005
 20
130.642723
 30
0.0
  0
SEQEND
  5
2B7
330
2B6
100
AcDbEntity
  8
001
370
    50
  0
POLYLINE
  5
2BF
330
1F
100
AcDbEntity
  8
001
370
    50
100
AcDb2dPolyline
 66
     1
 10
0.0
 20
0.0
 30
0.0
  0
VERTEX
  5
2C1
330
2BF
100
AcDbEntity
  8
001
370
    50
100
AcDbVertex
100
AcDb2dVertex
 10
74.64571
 20
132.321011
 30
0.0
  0
VERTEX
  5
2C2
330
2BF
100
AcDbEntity
  8
001
370
    50
100
AcDbVertex
100
AcDb2dVertex
 10
74.496338
 20
134.500792
 30
0.0
  0
VERTEX
  5
2C3
330
2BF
100
AcDbEntity
  8
001
370
    50
100
AcDbVertex
100
AcDb2dVertex
 10
74.262739
 20
137.685495
 30
0.0
  0
VERTEX
  5
2C4
330
2BF
100
AcDbEntity
  8
001
370
    50
100
AcDbVertex
100
AcDb2dVertex
 10
74.191454
 20
138.586859
 30
0.0
  0
VERTEX
  5
2C5
330
2BF
100
AcDbEntity
  8
001
370
    50
100
AcDbVertex
100
AcDb2dVertex
 10
74.140618
 20
139.203415
 30
0.0
  0
SEQEND
  5
2C0
330
2BF
100
AcDbEntity
  8
001
370
    50
  0
POLYLINE
  5
2C6
330
1F
100
AcDbEntity
  8
001
370
    50
100
AcDb2dPolyline
 66
     1
 10
0.0
 20
0.0
 30
0.0
  0
VERTEX
  5
2C8
330
2C6
100
AcDbEntity
  8
001
370
    50
100
AcDbVertex
100
AcDb2dVertex
 10
66.927925
 20
66.506662
 30
0.0
  0
VERTEX
  5
2C9
330
2C6
100
AcDbEntity
  8
001
370
    50
100
AcDbVertex
100
AcDb2dVertex
 10
67.120128
 20
66.512532
 30
0.0
  0
VERTEX
  5
2CA
330
2C6
100
AcDbEntity
  8
001
370
    50
100
AcDbVertex
100
AcDb2dVertex
 10
67.401038
 20
66.521129
 30
0.0
  0
VERTEX
  5
2CB
330
2C6
100
AcDbEntity
  8
001
370
    50
100
AcDbVertex
100
AcDb2dVertex
 10
67.681844
 20
66.529745
 30
0.0
  0
VERTEX
  5
2CC
330
2C6
100
AcDbEntity
  8
001
370
    50
100
AcDbVertex
100
AcDb2dVertex
 10
67.873974
 20
66.535652
 30
0.0
  0
SEQEND
  5
2C7
330
2C6
100
AcDbEntity
  8
001
370
    50
  0
LINE
  5
2CD
330
1F
100
AcDbEntity
  8
001
370
    50
100
AcDbLine
 10
65.362618
 20
69.124715
 30
0.0
 11
66.927925
 21
66.506662
 31
0.0
  0
POLYLINE
  5
2CE
330
1F
100
AcDbEntity
  8
001
370
    50
100
AcDb2dPolyline
 66
     1
 10
0.0
 20
0.0
 30
0.0
  0
VERTEX
  5
2D0
330
2CE
100
AcDbEntity
  8
001
370
    50
100
AcDbVertex
100
AcDb2dVertex
 10
61.890192
 20
77.64632
 30
0.0
  0
VERTEX
  5
2D1
330
2CE
100
AcDbEntity
  8
001
370
    50
100
AcDbVertex
100
AcDb2dVertex
 10
61.877806
 20
77.757803
 30
0.0
  0
VERTEX
  5
2D2
330
2CE
100
AcDbEntity
  8
001
370
    50
100
AcDbVertex
100
AcDb2dVertex
 10
61.855298
 20
77.916376
 30
0.0
  0
VERTEX
  5
2D3
330
2CE
100
AcDbEntity
  8
001
370
    50
100
AcDbVertex
100
AcDb2dVertex
 10
61.717858
 20
78.455149
 30
0.0
  0
VERTEX
  5
2D4
330
2CE
100
AcDbEntity
  8
001
370
    50
100
AcDbVertex
100
AcDb2dVertex
 10
61.500713
 20
78.895432
 30
0.0
  0
VERTEX
  5
2D5
330
2CE
100
AcDbEntity
  8
001
370
    50
100
AcDbVertex
100
AcDb2dVertex
 10
61.029143
 20
79.502059
 30
0.0
  0
VERTEX
  5
2D6
330
2CE
100
AcDbEntity
  8
001
370
    50
100
AcDbVertex
100
AcDb2dVertex
 10
60.408066
 20
79.993508
 30
0.0
  0
VERTEX
  5
2D7
330
2CE
100
AcDbEntity
  8
001
370
    50
100
AcDbVertex
100
AcDb2dVertex
 10
60.173569
 20
80.115299
 30
0.0
  0
VERTEX
  5
2D8
330
2CE
100
AcDbEntity
  8
001
370
    50
100
AcDbVertex
100
AcDb2dVertex
 10
59.93647
 20
80.21451
 30
0.0
  0
VERTEX
  5
2D9
330
2CE
100
AcDbEntity
  8
001
370
    50
100
AcDbVertex
100
AcDb2dVertex
 10
59.699358
 20
80.29294
 30
0.0
  0
VERTEX
  5
2DA
330
2CE
100
AcDbEntity
  8
001
370
    50
100
AcDbVertex
100
AcDb2dVertex
 10
59.433852
 20
80.349855
 30
0.0
  0
VERTEX
  5
2DB
330
2CE
100
AcDbEntity
  8
001
370
    50
100
AcDbVertex
100
AcDb2dVertex
 10
59.134292
 20
80.384058
 30
0.0
  0
VERTEX
  5
2DC
330
2CE
100
AcDbEntity
  8
001
370
    50
100
AcDbVertex
100
AcDb2dVertex
 10
58.915483
 20
80.395432
 30
0.0
  0
SEQEND
  5
2CF
330
2CE
100
AcDbEntity
  8
001
370
    50
  0
POLYLINE
  5
2DD
330
1F
100
AcDbEntity
  8
001
370
    50
100
AcDb2dPolyline
 66
     1
 10
0.0
 20
0.0
 30
0.0
  0
VERTEX
  5
2DF
330
2DD
100
AcDbEntity
  8
001
370
    50
100
AcDbVertex
100
AcDb2dVertex
 10
60.161869
 20
94.626341
 30
0.0
  0
VERTEX
  5
2E0
330
2DD
100
AcDbEntity
  8
001
370
    50
100
AcDbVertex
100
AcDb2dVertex
 10
59.436423
 20
93.19316
 30
0.0
  0
VERTEX
  5
2E1
330
2DD
100
AcDbEntity
  8
001
370
    50
100
AcDbVertex
100
AcDb2dVertex
 10
58.702513
 20
91.764369
 30
0.0
  0
VERTEX
  5
2E2
330
2DD
100
AcDbEntity
  8
001
370
    50
100
AcDbVertex
100
AcDb2dVertex
 10
57.954091
 20
90.343147
 30
0.0
  0
VERTEX
  5
2E3
330
2DD
100
AcDbEntity
  8
001
370
    50
100
AcDbVertex
100
AcDb2dVertex
 10
57.194699
 20
88.927688
 30
0.0
  0
VERTEX
  5
2E4
330
2DD
100
AcDbEntity
  8
001
370
    50
100
AcDbVertex
100
AcDb2dVertex
 10
56.172639
 20
87.044259
 30
0.0
  0
VERTEX
  5
2E5
330
2DD
100
AcDbEntity
  8
001
370
    50
100
AcDbVertex
100
AcDb2dVertex
 10
55.142508
 20
85.165268
 30
0.0
  0
VERTEX
  5
2E6
330
2DD
100
AcDbEntity
  8
001
370
    50
100
AcDbVertex
100
AcDb2dVertex
 10
54.105155
 20
83.290264
 30
0.0
  0
VERTEX
  5
2E7
330
2DD
100
AcDbEntity
  8
001
370
    50
100
AcDbVertex
100
AcDb2dVertex
 10
53.381503
 20
81.990746
 30
0.0
  0
VERTEX
  5
2E8
330
2DD
100
AcDbEntity
  8
001
370
    50
100
AcDbVertex
100
AcDb2dVertex
 10
52.656315
 20
80.692079
 30
0.0
  0
SEQEND
  5
2DE
330
2DD
100
AcDbEntity
  8
001
370
    50
  0
LINE
  5
2E9
330
1F
100
AcDbEntity
  8
001
370
    50
100
AcDbLine
 10
60.161869
 20
98.203415
 30
0.0
 11
60.161869
 21
94.626341
 31
0.0
  0
POLYLINE
  5
2EA
330
1F
100
AcDbEntity
  8
001
370
    50
100
AcDb2dPolyline
 66
     1
 10
0.0
 20
0.0
 30
0.0
  0
VERTEX
  5
2EC
330
2EA
100
AcDbEntity
  8
001
370
    50
100
AcDbVertex
100
AcDb2dVertex
 10
66.927925
 20
66.506662
 30
0.0
  0
VERTEX
  5
2ED
330
2EA
100
AcDbEntity
  8
001
370
    50
100
AcDbVertex
100
AcDb2dVertex
 10
67.015117
 20
66.436425
 30
0.0
  0
VERTEX
  5
2EE
330
2EA
100
AcDbEntity
  8
001
370
    50
100
AcDbVertex
100
AcDb2dVertex
 10
67.14553
 20
66.337657
 30
0.0
  0
VERTEX
  5
2EF
330
2EA
100
AcDbEntity
  8
001
370
    50
100
AcDbVertex
100
AcDb2dVertex
 10
67.441831
 20
66.148855
 30
0.0
  0
VERTEX
  5
2F0
330
2EA
100
AcDbEntity
  8
001
370
    50
100
AcDbVertex
100
AcDb2dVertex
 10
67.657866
 20
66.043296
 30
0.0
  0
SEQEND
  5
2EB
330
2EA
100
AcDbEntity
  8
001
370
    50
  0
POLYLINE
  5
2F1
330
1F
100
AcDbEntity
  8
001
370
    50
100
AcDb2dPolyline
 66
     1
 10
0.0
 20
0.0
 30
0.0
  0
VERTEX
  5
2F3
330
2F1
100
AcDbEntity
  8
001
370
    50
100
AcDbVertex
100
AcDb2dVertex
 10
52.656315
 20
82.354199
 30
0.0
  0
VERTEX
  5
2F4
330
2F1
100
AcDbEntity
  8
001
370
    50
100
AcDbVertex
100
AcDb2dVertex
 10
53.748241
 20
84.501388
 30
0.0
  0
VERTEX
  5
2F5
330
2F1
100
AcDbEntity
  8
001
370
    50
100
AcDbVertex
100
AcDb2dVertex
 10
54.824407
 20
86.65648
 30
0.0
  0
VERTEX
  5
2F6
330
2F1
100
AcDbEntity
  8
001
370
    50
100
AcDbVertex
100
AcDb2dVertex
 10
55.871067
 20
88.828091
 30
0.0
  0
VERTEX
  5
2F7
330
2F1
100
AcDbEntity
  8
001
370
    50
100
AcDbVertex
100
AcDb2dVertex
 10
56.878049
 20
91.018362
 30
0.0
  0
VERTEX
  5
2F8
330
2F1
100
AcDbEntity
  8
001
370
    50
100
AcDbVertex
100
AcDb2dVertex
 10
57.366339
 20
92.12744
 30
0.0
  0
VERTEX
  5
2F9
330
2F1
100
AcDbEntity
  8
001
370
    50
100
AcDbVertex
100
AcDb2dVertex
 10
57.839354
 20
93.243062
 30
0.0
  0
VERTEX
  5
2FA
330
2F1
100
AcDbEntity
  8
001
370
    50
100
AcDbVertex
100
AcDb2dVertex
 10
58.294517
 20
94.367475
 30
0.0
  0
VERTEX
  5
2FB
330
2F1
100
AcDbEntity
  8
001
370
    50
100
AcDbVertex
100
AcDb2dVertex
 10
58.728846
 20
95.500226
 30
0.0
  0
VERTEX
  5
2FC
330
2F1
100
AcDbEntity
  8
001
370
    50
100
AcDbVertex
100
AcDb2dVertex
 10
59.140823
 20
96.648474
 30
0.0
  0
VERTEX
  5
2FD
330
2F1
100
AcDbEntity
  8
001
370
    50
100
AcDbVertex
100
AcDb2dVertex
 10
59.518827
 20
97.808064
 30
0.0
  0
VERTEX
  5
2FE
330
2F1
100
AcDbEntity
  8
001
370
    50
100
AcDbVertex
100
AcDb2dVertex
 10
59.685508
 20
98.366843
 30
0.0
  0
VERTEX
  5
2FF
330
2F1
100
AcDbEntity
  8
001
370
    50
100
AcDbVertex
100
AcDb2dVertex
 10
59.847099
 20
98.927175
 30
0.0
  0
SEQEND
  5
2F2
330
2F1
100
AcDbEntity
  8
001
370
    50
  0
POLYLINE
  5
300
330
1F
100
AcDbEntity
  8
001
370
    50
100
AcDb2dPolyline
 66
     1
 10
0.0
 20
0.0
 30
0.0
  0
VERTEX
  5
302
330
300
100
AcDbEntity
  8
001
370
    50
100
AcDbVertex
100
AcDb2dVertex
 10
63.22071
 20
132.274073
 30
0.0
  0
VERTEX
  5
303
330
300
100
AcDbEntity
  8
001
370
    50
100
AcDbVertex
100
AcDb2dVertex
 10
63.219745
 20
132.302568
 30
0.0
  0
VERTEX
  5
304
330
300
100
AcDbEntity
  8
001
370
    50
100
AcDbVertex
100
AcDb2dVertex
 10
63.216811
 20
132.343001
 30
0.0
  0
VERTEX
  5
305
330
300
100
AcDbEntity
  8
001
370
    50
100
AcDbVertex
100
AcDb2dVertex
 10
63.194416
 20
132.457601
 30
0.0
  0
VERTEX
  5
306
330
300
100
AcDbEntity
  8
001
370
    50
100
AcDbVertex
100
AcDb2dVertex
 10
63.153898
 20
132.553237
 30
0.0
  0
VERTEX
  5
307
330
300
100
AcDbEntity
  8
001
370
    50
100
AcDbVertex
100
AcDb2dVertex
 10
63.092162
 20
132.653754
 30
0.0
  0
VERTEX
  5
308
330
300
100
AcDbEntity
  8
001
370
    50
100
AcDbVertex
100
AcDb2dVertex
 10
63.015908
 20
132.748326
 30
0.0
  0
VERTEX
  5
309
330
300
100
AcDbEntity
  8
001
370
    50
100
AcDbVertex
100
AcDb2dVertex
 10
62.916338
 20
132.84193
 30
0.0
  0
VERTEX
  5
30A
330
300
100
AcDbEntity
  8
001
370
    50
100
AcDbVertex
100
AcDb2dVertex
 10
62.807035
 20
132.92234
 30
0.0
  0
VERTEX
  5
30B
330
300
100
AcDbEntity
  8
001
370
    50
100
AcDbVertex
100
AcDb2dVertex
 10
62.339308
 20
133.1467
 30
0.0
  0
VERTEX
  5
30C
330
300
100
AcDbEntity
  8
001
370
    50
100
AcDbVertex
100
AcDb2dVertex
 10
61.828127
 20
133.269198
 30
0.0
  0
VERTEX
  5
30D
330
300
100
AcDbEntity
  8
001
370
    50
100
AcDbVertex
100
AcDb2dVertex
 10
61.406381
 20
133.315413
 30
0.0
  0
VERTEX
  5
30E
330
300
100
AcDbEntity
  8
001
370
    50
100
AcDbVertex
100
AcDb2dVertex
 10
60.984512
 20
133.32192
 30
0.0
  0
VERTEX
  5
30F
330
300
100
AcDbEntity
  8
001
370
    50
100
AcDbVertex
100
AcDb2dVertex
 10
60.763217
 20
133.310987
 30
0.0
  0
VERTEX
  5
310
330
300
100
AcDbEntity
  8
001
370
    50
100
AcDbVertex
100
AcDb2dVertex
 10
60.542385
 20
133.290636
 30
0.0
  0
VERTEX
  5
311
330
300
100
AcDbEntity
  8
001
370
    50
100
AcDbVertex
100
AcDb2dVertex
 10
60.322622
 20
133.260974
 30
0.0
  0
VERTEX
  5
312
330
300
100
AcDbEntity
  8
001
370
    50
100
AcDbVertex
100
AcDb2dVertex
 10
60.10453
 20
133.221798
 30
0.0
  0
VERTEX
  5
313
330
300
100
AcDbEntity
  8
001
370
    50
100
AcDbVertex
100
AcDb2dVertex
 10
59.694871
 20
133.119806
 30
0.0
  0
VERTEX
  5
314
330
300
100
AcDbEntity
  8
001
370
    50
100
AcDbVertex
100
AcDb2dVertex
 10
59.294321
 20
132.980908
 30
0.0
  0
VERTEX
  5
315
330
300
100
AcDbEntity
  8
001
370
    50
100
AcDbVertex
100
AcDb2dVertex
 10
58.823935
 20
132.751374
 30
0.0
  0
VERTEX
  5
316
330
300
100
AcDbEntity
  8
001
370
    50
100
AcDbVertex
100
AcDb2dVertex
 10
58.418354
 20
132.423007
 30
0.0
  0
VERTEX
  5
317
330
300
100
AcDbEntity
  8
001
370
    50
100
AcDbVertex
100
AcDb2dVertex
 10
58.329754
 20
132.316681
 30
0.0
  0
VERTEX
  5
318
330
300
100
AcDbEntity
  8
001
370
    50
100
AcDbVertex
100
AcDb2dVertex
 10
58.253911
 20
132.206519
 30
0.0
  0
VERTEX
  5
319
330
300
100
AcDbEntity
  8
001
370
    50
100
AcDbVertex
100
AcDb2dVertex
 10
58.20128
 20
132.106631
 30
0.0
  0
VERTEX
  5
31A
330
300
100
AcDbEntity
  8
001
370
    50
100
AcDbVertex
100
AcDb2dVertex
 10
58.163275
 20
131.985418
 30
0.0
  0
VERTEX
  5
31B
330
300
100
AcDbEntity
  8
001
370
    50
100
AcDbVertex
100
AcDb2dVertex
 10
58.154415
 20
131.939691
 30
0.0
  0
VERTEX
  5
31C
330
300
100
AcDbEntity
  8
001
370
    50
100
AcDbVertex
100
AcDb2dVertex
 10
58.149462
 20
131.90727
 30
0.0
  0
SEQEND
  5
301
330
300
100
AcDbEntity
  8
001
370
    50
  0
LINE
  5
31D
330
1F
100
AcDbEntity
  8
001
370
    50
100
AcDbLine
 10
52.656315
 20
129.446628
 30
0.0
 11
52.656315
 21
132.765873
 31
0.0
  0
LINE
  5
31E
330
1F
100
AcDbEntity
  8
001
370
    50
100
AcDbLine
 10
52.656315
 20
132.765873
 30
0.0
 11
53.55096
 21
133.090095
 31
0.0
  0
POLYLINE
  5
31F
330
1F
100
AcDbEntity
  8
001
370
    50
100
AcDb2dPolyline
 66
     1
 10
0.0
 20
0.0
 30
0.0
  0
VERTEX
  5
321
330
31F
100
AcDbEntity
  8
001
370
    50
100
AcDbVertex
100
AcDb2dVertex
 10
67.873974
 20
134.016648
 30
0.0
  0
VERTEX
  5
322
330
31F
100
AcDbEntity
  8
001
370
    50
100
AcDbVertex
100
AcDb2dVertex
 10
66.156981
 20
133.907191
 30
0.0
  0
VERTEX
  5
323
330
31F
100
AcDbEntity
  8
001
370
    50
100
AcDbVertex
100
AcDb2dVertex
 10
63.647578
 20
133.746469
 30
0.0
  0
VERTEX
  5
324
330
31F
100
AcDbEntity
  8
001
370
    50
100
AcDbVertex
100
AcDb2dVertex
 10
60.742026
 20
133.559245
 30
0.0
  0
VERTEX
  5
325
330
31F
100
AcDbEntity
  8
001
370
    50
100
AcDbVertex
100
AcDb2dVertex
 10
57.812275
 20
133.368989
 30
0.0
  0
VERTEX
  5
326
330
31F
100
AcDbEntity
  8
001
370
    50
100
AcDbVertex
100
AcDb2dVertex
 10
55.2821
 20
133.203695
 30
0.0
  0
VERTEX
  5
327
330
31F
100
AcDbEntity
  8
001
370
    50
100
AcDbVertex
100
AcDb2dVertex
 10
53.55096
 20
133.090095
 30
0.0
  0
SEQEND
  5
320
330
31F
100
AcDbEntity
  8
001
370
    50
  0
POLYLINE
  5
328
330
1F
100
AcDbEntity
  8
001
370
    50
100
AcDb2dPolyline
 66
     1
 10
0.0
 20
0.0
 30
0.0
  0
VERTEX
  5
32A
330
328
100
AcDbEntity
  8
001
370
    50
100
AcDbVertex
100
AcDb2dVertex
 10
63.216548
 20
132.202153
 30
0.0
  0
VERTEX
  5
32B
330
328
100
AcDbEntity
  8
001
370
    50
100
AcDbVertex
100
AcDb2dVertex
 10
63.218041
 20
132.216775
 30
0.0
  0
VERTEX
  5
32C
330
328
100
AcDbEntity
  8
001
370
    50
100
AcDbVertex
100
AcDb2dVertex
 10
63.219669
 20
132.238188
 30
0.0
  0
VERTEX
  5
32D
330
328
100
AcDbEntity
  8
001
370
    50
100
AcDbVertex
100
AcDb2dVertex
 10
63.220513
 20
132.259486
 30
0.0
  0
VERTEX
  5
32E
330
328
100
AcDbEntity
  8
001
370
    50
100
AcDbVertex
100
AcDb2dVertex
 10
63.22071
 20
132.274073
 30
0.0
  0
SEQEND
  5
329
330
328
100
AcDbEntity
  8
001
370
    50
  0
POLYLINE
  5
32F
330
1F
100
AcDbEntity
  8
001
370
    50
100
AcDb2dPolyline
 66
     1
 10
0.0
 20
0.0
 30
0.0
  0
VERTEX
  5
331
330
32F
100
AcDbEntity
  8
001
370
    50
100
AcDbVertex
100
AcDb2dVertex
 10
58.149462
 20
131.90727
 30
0.0
  0
VERTEX
  5
332
330
32F
100
AcDbEntity
  8
001
370
    50
100
AcDbVertex
100
AcDb2dVertex
 10
58.146633
 20
131.848468
 30
0.0
  0
VERTEX
  5
333
330
32F
100
AcDbEntity
  8
001
370
    50
100
AcDbVertex
100
AcDb2dVertex
 10
58.149199
 20
131.766422
 30
0.0
  0
VERTEX
  5
334
330
32F
100
AcDbEntity
  8
001
370
    50
100
AcDbVertex
100
AcDb2dVertex
 10
58.170954
 20
131.653047
 30
0.0
  0
VERTEX
  5
335
330
32F
100
AcDbEntity
  8
001
370
    50
100
AcDbVertex
100
AcDb2dVertex
 10
58.212112
 20
131.556186
 30
0.0
  0
VERTEX
  5
336
330
32F
100
AcDbEntity
  8
001
370
    50
100
AcDbVertex
100
AcDb2dVertex
 10
58.274045
 20
131.455291
 30
0.0
  0
VERTEX
  5
337
330
32F
100
AcDbEntity
  8
001
370
    50
100
AcDbVertex
100
AcDb2dVertex
 10
58.350101
 20
131.361097
 30
0.0
  0
VERTEX
  5
338
330
32F
100
AcDbEntity
  8
001
370
    50
100
AcDbVertex
100
AcDb2dVertex
 10
58.4496
 20
131.267631
 30
0.0
  0
VERTEX
  5
339
330
32F
100
AcDbEntity
  8
001
370
    50
100
AcDbVertex
100
AcDb2dVertex
 10
58.558975
 20
131.187083
 30
0.0
  0
VERTEX
  5
33A
330
32F
100
AcDbEntity
  8
001
370
    50
100
AcDbVertex
100
AcDb2dVertex
 10
59.026799
 20
130.962535
 30
0.0
  0
VERTEX
  5
33B
330
32F
100
AcDbEntity
  8
001
370
    50
100
AcDbVertex
100
AcDb2dVertex
 10
59.537882
 20
130.840225
 30
0.0
  0
VERTEX
  5
33C
330
32F
100
AcDbEntity
  8
001
370
    50
100
AcDbVertex
100
AcDb2dVertex
 10
59.95961
 20
130.794045
 30
0.0
  0
VERTEX
  5
33D
330
32F
100
AcDbEntity
  8
001
370
    50
100
AcDbVertex
100
AcDb2dVertex
 10
60.381498
 20
130.787503
 30
0.0
  0
VERTEX
  5
33E
330
32F
100
AcDbEntity
  8
001
370
    50
100
AcDbVertex
100
AcDb2dVertex
 10
60.602794
 20
130.798433
 30
0.0
  0
VERTEX
  5
33F
330
32F
100
AcDbEntity
  8
001
370
    50
100
AcDbVertex
100
AcDb2dVertex
 10
60.823625
 20
130.818787
 30
0.0
  0
VERTEX
  5
340
330
32F
100
AcDbEntity
  8
001
370
    50
100
AcDbVertex
100
AcDb2dVertex
 10
61.043387
 20
130.84845
 30
0.0
  0
VERTEX
  5
341
330
32F
100
AcDbEntity
  8
001
370
    50
100
AcDbVertex
100
AcDb2dVertex
 10
61.261479
 20
130.887625
 30
0.0
  0
VERTEX
  5
342
330
32F
100
AcDbEntity
  8
001
370
    50
100
AcDbVertex
100
AcDb2dVertex
 10
61.671139
 20
130.989616
 30
0.0
  0
VERTEX
  5
343
330
32F
100
AcDbEntity
  8
001
370
    50
100
AcDbVertex
100
AcDb2dVertex
 10
62.071688
 20
131.128515
 30
0.0
  0
VERTEX
  5
344
330
32F
100
AcDbEntity
  8
001
370
    50
100
AcDbVertex
100
AcDb2dVertex
 10
62.542075
 20
131.358049
 30
0.0
  0
VERTEX
  5
345
330
32F
100
AcDbEntity
  8
001
370
    50
100
AcDbVertex
100
AcDb2dVertex
 10
62.947655
 20
131.686416
 30
0.0
  0
VERTEX
  5
346
330
32F
100
AcDbEntity
  8
001
370
    50
100
AcDbVertex
100
AcDb2dVertex
 10
63.036256
 20
131.792742
 30
0.0
  0
VERTEX
  5
347
330
32F
100
AcDbEntity
  8
001
370
    50
100
AcDbVertex
100
AcDb2dVertex
 10
63.112098
 20
131.902904
 30
0.0
  0
VERTEX
  5
348
330
32F
100
AcDbEntity
  8
001
370
    50
100
AcDbVertex
100
AcDb2dVertex
 10
63.16473
 20
132.002792
 30
0.0
  0
VERTEX
  5
349
330
32F
100
AcDbEntity
  8
001
370
    50
100
AcDbVertex
100
AcDb2dVertex
 10
63.202735
 20
132.124005
 30
0.0
  0
VERTEX
  5
34A
330
32F
100
AcDbEntity
  8
001
370
    50
100
AcDbVertex
100
AcDb2dVertex
 10
63.211595
 20
132.169732
 30
0.0
  0
VERTEX
  5
34B
330
32F
100
AcDbEntity
  8
001
370
    50
100
AcDbVertex
100
AcDb2dVertex
 10
63.216548
 20
132.202153
 30
0.0
  0
SEQEND
  5
330
330
32F
100
AcDbEntity
  8
001
370
    50
  0
LINE
  5
34C
330
1F
100
AcDbEntity
  8
001
370
    50
100
AcDbLine
 10
67.272695
 20
75.568895
 30
0.0
 11
67.272695
 21
73.836844
 31
0.0
  0
LINE
  5
34D
330
1F
100
AcDbEntity
  8
001
370
    50
100
AcDbLine
 10
64.272695
 20
73.836844
 30
0.0
 11
64.272695
 21
75.568895
 31
0.0
  0
LINE
  5
34E
330
1F
100
AcDbEntity
  8
001
370
    50
100
AcDbLine
 10
64.272695
 20
75.568895
 30
0.0
 11
65.772695
 21
76.434921
 31
0.0
  0
LINE
  5
34F
330
1F
100
AcDbEntity
  8
001
370
    50
100
AcDbLine
 10
67.272695
 20
73.836844
 30
0.0
 11
65.772695
 21
72.970819
 31
0.0
  0
LINE
  5
350
330
1F
100
AcDbEntity
  8
001
370
    50
100
AcDbLine
 10
65.772695
 20
72.970819
 30
0.0
 11
64.272695
 21
73.836844
 31
0.0
  0
LINE
  5
351
330
1F
100
AcDbEntity
  8
001
370
    50
100
AcDbLine
 10
67.272695
 20
75.568895
 30
0.0
 11
65.772695
 21
76.434921
 31
0.0
  0
LINE
  5
352
330
1F
100
AcDbEntity
  8
001
  6
CENTER
370
     9
100
AcDbLine
 10
49.950811
 20
105.203415
 30
0.0
 11
173.927309
 21
105.203415
 31
0.0
  0
LINE
  5
353
330
1F
100
AcDbEntity
  8
001
370
    50
100
AcDbLine
 10
171.456315
 20
105.203415
 30
0.0
 11
174.054391
 21
106.703415
 31
0.0
  0
LINE
  5
354
330
1F
100
AcDbEntity
  8
001
370
    50
100
AcDbLine
 10
171.456315
 20
105.203415
 30
0.0
 11
174.054391
 21
103.703415
 31
0.0
  0
LINE
  5
355
330
1F
100
AcDbEntity
  8
001
370
    50
100
AcDbLine
 10
88.456315
 20
89.203415
 30
0.0
 11
88.456315
 21
121.203415
 31
0.0
  0
LINE
  5
356
330
1F
100
AcDbEntity
  8
001
370
    50
100
AcDbLine
 10
88.456315
 20
120.703415
 30
0.0
 11
86.456315
 21
120.703415
 31
0.0
  0
LINE
  5
357
330
1F
100
AcDbEntity
  8
001
370
    50
100
AcDbLine
 10
86.456315
 20
89.703415
 30
0.0
 11
88.456315
 21
89.703415
 31
0.0
  0
LINE
  5
358
330
1F
100
AcDbEntity
  8
001
370
    50
100
AcDbLine
 10
58.394557
 20
78.307027
 30
0.0
 11
51.56245
 21
66.4016
 31
0.0
  0
LINE
  5
359
330
1F
100
AcDbEntity
  8
001
370
    50
100
AcDbLine
 10
65.984865
 20
65.239354
 30
0.0
 11
52.25841
 21
65.203418
 31
0.0
  0
ARC
  5
35A
330
1F
100
AcDbEntity
  8
001
370
    50
100
AcDbCircle
 10
52.256315
 20
66.003415
 30
0.0
 40
0.8
100
AcDbArc
 50
150.15
 51
270.15
  0
ARC
  5
35B
330
1F
100
AcDbEntity
  8
001
370
    50
100
AcDbCircle
 10
65.982771
 20
66.039351
 30
0.0
 40
0.8
100
AcDbArc
 50
270.15
 51
30.15
  0
ARC
  5
35C
330
1F
100
AcDbEntity
  8
001
370
    50
100
AcDbCircle
 10
59.088422
 20
77.908842
 30
0.0
 40
0.8
100
AcDbArc
 50
30.15
 51
150.15
  0
LINE
  5
35D
330
1F
100
AcDbEntity
  8
001
370
    50
100
AcDbLine
 10
59.780192
 20
78.310655
 30
0.0
 11
60.566126
 21
76.957571
 31
0.0
  0
LINE
  5
35E
330
1F
100
AcDbEntity
  8
001
370
    50
100
AcDbLine
 10
52.656315
 20
68.307737
 30
0.0
 11
52.656315
 21
82.354199
 31
0.0
  0
LINE
  5
35F
330
1F
100
AcDbEntity
  8
001
370
     9
100
AcDbLine
 10
51.456315
 20
66.003415
 30
0.0
 11
51.456315
 21
52.77554
 31
0.0
  0
LINE
  5
360
330
1F
100
AcDbEntity
  8
001
370
     9
100
AcDbLine
 10
40.321863
 20
65.203415
 30
0.0
 11
52.256315
 21
65.203415
 31
0.0
  0
POLYLINE
  5
361
330
1F
100
AcDbEntity
  8
001
370
    50
100
AcDb2dPolyline
 66
     1
 10
0.0
 20
0.0
 30
0.0
  0
VERTEX
  5
363
330
361
100
AcDbEntity
  8
001
370
    50
100
AcDbVertex
100
AcDb2dVertex
 10
66.782677
 20
66.02707
 30
0.0
  0
VERTEX
  5
364
330
361
100
AcDbEntity
  8
001
370
    50
100
AcDbVertex
100
AcDb2dVertex
 10
66.960468
 20
66.030351
 30
0.0
  0
VERTEX
  5
365
330
361
100
AcDbEntity
  8
001
370
    50
100
AcDbVertex
100
AcDb2dVertex
 10
67.220316
 20
66.035159
 30
0.0
  0
VERTEX
  5
366
330
361
100
AcDbEntity
  8
001
370
    50
100
AcDbVertex
100
AcDb2dVertex
 10
67.480111
 20
66.039985
 30
0.0
  0
VERTEX
  5
367
330
361
100
AcDbEntity
  8
001
370
    50
100
AcDbVertex
100
AcDb2dVertex
 10
67.657866
 20
66.043296
 30
0.0
  0
SEQEND
  5
362
330
361
100
AcDbEntity
  8
001
370
    50
  0
LINE
  5
368
330
1F
100
AcDbEntity
  8
001
370
    50
100
AcDbLine
 10
66.781131
 20
65.988155
 30
0.0
 11
67.873974
 21
66.003415
 31
0.0
  0
LINE
  5
369
330
1F
100
AcDbEntity
  8
001
370
    50
100
AcDbLine
 10
65.178023
 20
69.017609
 30
0.0
 11
66.674542
 21
66.441163
 31
0.0
  0
ARC
  5
36A
330
1F
100
AcDbEntity
  8
001
370
    50
100
AcDbCircle
 10
59.109169
 20
69.983869
 30
0.0
 40
1.9
100
AcDbArc
 50
66.436957
 51
353.317399
  0
POLYLINE
  5
36B
330
1F
100
AcDbEntity
  8
001
370
    50
100
AcDb2dPolyline
 66
     1
 10
0.0
 20
0.0
 30
0.0
  0
VERTEX
  5
36D
330
36B
100
AcDbEntity
  8
001
370
    50
100
AcDbVertex
100
AcDb2dVertex
 10
59.141932
 20
80.386788
 30
0.0
  0
VERTEX
  5
36E
330
36B
100
AcDbEntity
  8
001
370
    50
100
AcDbVertex
100
AcDb2dVertex
 10
59.020049
 20
80.37382
 30
0.0
  0
VERTEX
  5
36F
330
36B
100
AcDbEntity
  8
001
370
    50
100
AcDbVertex
100
AcDb2dVertex
 10
58.850012
 20
80.349855
 30
0.0
  0
VERTEX
  5
370
330
36B
100
AcDbEntity
  8
001
370
    50
100
AcDbVertex
100
AcDb2dVertex
 10
58.58182
 20
80.292075
 30
0.0
  0
VERTEX
  5
371
330
36B
100
AcDbEntity
  8
001
370
    50
100
AcDbVertex
100
AcDb2dVertex
 10
58.347394
 20
80.21451
 30
0.0
  0
VERTEX
  5
372
330
36B
100
AcDbEntity
  8
001
370
    50
100
AcDbVertex
100
AcDb2dVertex
 10
58.111053
 20
80.114886
 30
0.0
  0
VERTEX
  5
373
330
36B
100
AcDbEntity
  8
001
370
    50
100
AcDbVertex
100
AcDb2dVertex
 10
57.875797
 20
79.993508
 30
0.0
  0
VERTEX
  5
374
330
36B
100
AcDbEntity
  8
001
370
    50
100
AcDbVertex
100
AcDb2dVertex
 10
57.254912
 20
79.515723
 30
0.0
  0
VERTEX
  5
375
330
36B
100
AcDbEntity
  8
001
370
    50
100
AcDbVertex
100
AcDb2dVertex
 10
56.783151
 20
78.895432
 30
0.0
  0
VERTEX
  5
376
330
36B
100
AcDbEntity
  8
001
370
    50
100
AcDbVertex
100
AcDb2dVertex
 10
56.563604
 20
78.420144
 30
0.0
  0
VERTEX
  5
377
330
36B
100
AcDbEntity
  8
001
370
    50
100
AcDbVertex
100
AcDb2dVertex
 10
56.428566
 20
77.916376
 30
0.0
  0
VERTEX
  5
378
330
36B
100
AcDbEntity
  8
001
370
    50
100
AcDbVertex
100
AcDb2dVertex
 10
56.394029
 20
77.657546
 30
0.0
  0
VERTEX
  5
379
330
36B
100
AcDbEntity
  8
001
370
    50
100
AcDbVertex
100
AcDb2dVertex
 10
56.383214
 20
77.395432
 30
0.0
  0
VERTEX
  5
37A
330
36B
100
AcDbEntity
  8
001
370
    50
100
AcDbVertex
100
AcDb2dVertex
 10
56.396301
 20
77.131495
 30
0.0
  0
VERTEX
  5
37B
330
36B
100
AcDbEntity
  8
001
370
    50
100
AcDbVertex
100
AcDb2dVertex
 10
56.428566
 20
76.874487
 30
0.0
  0
VERTEX
  5
37C
330
36B
100
AcDbEntity
  8
001
370
    50
100
AcDbVertex
100
AcDb2dVertex
 10
56.545546
 20
76.396059
 30
0.0
  0
VERTEX
  5
37D
330
36B
100
AcDbEntity
  8
001
370
    50
100
AcDbVertex
100
AcDb2dVertex
 10
56.783151
 20
75.895432
 30
0.0
  0
VERTEX
  5
37E
330
36B
100
AcDbEntity
  8
001
370
    50
100
AcDbVertex
100
AcDb2dVertex
 10
56.851827
 20
75.783018
 30
0.0
  0
VERTEX
  5
37F
330
36B
100
AcDbEntity
  8
001
370
    50
100
AcDbVertex
100
AcDb2dVertex
 10
56.901755
 20
75.705715
 30
0.0
  0
SEQEND
  5
36C
330
36B
100
AcDbEntity
  8
001
370
    50
  0
POLYLINE
  5
380
330
1F
100
AcDbEntity
  8
001
370
    50
100
AcDb2dPolyline
 66
     1
 10
0.0
 20
0.0
 30
0.0
  0
VERTEX
  5
382
330
380
100
AcDbEntity
  8
001
370
    50
100
AcDbVertex
100
AcDb2dVertex
 10
58.915483
 20
80.395432
 30
0.0
  0
VERTEX
  5
383
330
380
100
AcDbEntity
  8
001
370
    50
100
AcDbVertex
100
AcDb2dVertex
 10
58.69667
 20
80.38402
 30
0.0
  0
VERTEX
  5
384
330
380
100
AcDbEntity
  8
001
370
    50
100
AcDbVertex
100
AcDb2dVertex
 10
58.397114
 20
80.349855
 30
0.0
  0
VERTEX
  5
385
330
380
100
AcDbEntity
  8
001
370
    50
100
AcDbVertex
100
AcDb2dVertex
 10
58.131622
 20
80.293131
 30
0.0
  0
VERTEX
  5
386
330
380
100
AcDbEntity
  8
001
370
    50
100
AcDbVertex
100
AcDb2dVertex
 10
57.894496
 20
80.21451
 30
0.0
  0
VERTEX
  5
387
330
380
100
AcDbEntity
  8
001
370
    50
100
AcDbVertex
100
AcDb2dVertex
 10
57.657344
 20
80.114572
 30
0.0
  0
VERTEX
  5
388
330
380
100
AcDbEntity
  8
001
370
    50
100
AcDbVertex
100
AcDb2dVertex
 10
57.422899
 20
79.993508
 30
0.0
  0
VERTEX
  5
389
330
380
100
AcDbEntity
  8
001
370
    50
100
AcDbVertex
100
AcDb2dVertex
 10
56.802836
 20
79.515978
 30
0.0
  0
VERTEX
  5
38A
330
380
100
AcDbEntity
  8
001
370
    50
100
AcDbVertex
100
AcDb2dVertex
 10
56.330253
 20
78.895432
 30
0.0
  0
VERTEX
  5
38B
330
380
100
AcDbEntity
  8
001
370
    50
100
AcDbVertex
100
AcDb2dVertex
 10
56.110566
 20
78.420258
 30
0.0
  0
VERTEX
  5
38C
330
380
100
AcDbEntity
  8
001
370
    50
100
AcDbVertex
100
AcDb2dVertex
 10
55.975667
 20
77.916376
 30
0.0
  0
VERTEX
  5
38D
330
380
100
AcDbEntity
  8
001
370
    50
100
AcDbVertex
100
AcDb2dVertex
 10
55.941181
 20
77.657318
 30
0.0
  0
VERTEX
  5
38E
330
380
100
AcDbEntity
  8
001
370
    50
100
AcDbVertex
100
AcDb2dVertex
 10
55.930316
 20
77.395432
 30
0.0
  0
VERTEX
  5
38F
330
380
100
AcDbEntity
  8
001
370
    50
100
AcDbVertex
100
AcDb2dVertex
 10
55.943267
 20
77.132295
 30
0.0
  0
VERTEX
  5
390
330
380
100
AcDbEntity
  8
001
370
    50
100
AcDbVertex
100
AcDb2dVertex
 10
55.975667
 20
76.874487
 30
0.0
  0
VERTEX
  5
391
330
380
100
AcDbEntity
  8
001
370
    50
100
AcDbVertex
100
AcDb2dVertex
 10
56.093985
 20
76.387996
 30
0.0
  0
VERTEX
  5
392
330
380
100
AcDbEntity
  8
001
370
    50
100
AcDbVertex
100
AcDb2dVertex
 10
56.330253
 20
75.895432
 30
0.0
  0
VERTEX
  5
393
330
380
100
AcDbEntity
  8
001
370
    50
100
AcDbVertex
100
AcDb2dVertex
 10
56.542399
 20
75.584132
 30
0.0
  0
VERTEX
  5
394
330
380
100
AcDbEntity
  8
001
370
    50
100
AcDbVertex
100
AcDb2dVertex
 10
56.710751
 20
75.372877
 30
0.0
  0
SEQEND
  5
381
330
380
100
AcDbEntity
  8
001
370
    50
  0
LINE
  5
395
330
1F
100
AcDbEntity
  8
001
370
    50
100
AcDbLine
 10
70.254402
 20
-45.208859
 30
0.0
 11
70.252103
 21
-45.188904
 31
0.0
  0
LINE
  5
396
330
1F
100
AcDbEntity
  8
001
370
    50
100
AcDbLine
 10
63.189524
 20
-45.242244
 30
0.0
 11
63.112778
 21
-44.576362
 31
0.0
  0
LINE
  5
397
330
1F
100
AcDbEntity
  8
001
370
    50
100
AcDbLine
 10
63.875201
 20
-43.890129
 30
0.0
 11
63.112778
 21
-44.576362
 31
0.0
  0
LINE
  5
398
330
1F
100
AcDbEntity
  8
001
370
    50
100
AcDbLine
 10
63.875201
 20
-43.890129
 30
0.0
 11
70.252103
 21
-45.188904
 31
0.0
  0
LINE
  5
399
330
1F
100
AcDbEntity
  8
001
370
    50
100
AcDbLine
 10
63.112778
 20
-44.576362
 30
0.0
 11
62.317498
 21
-45.309974
 31
0.0
  0
LINE
  5
39A
330
1F
100
AcDbEntity
  8
001
370
    50
100
AcDbLine
 10
70.252103
 20
-45.188904
 30
0.0
 11
70.262889
 21
-45.208199
 31
0.0
  0
ARC
  5
39B
330
1F
100
AcDbEntity
  8
001
370
    50
100
AcDbCircle
 10
66.05079
 20
-49.287546
 30
0.0
 40
5.3
100
AcDbArc
 50
54.832291
 51
102.143895
  0
POLYLINE
  5
39C
330
1F
100
AcDbEntity
  8
001
370
    50
100
AcDb2dPolyline
 66
     1
 10
0.0
 20
0.0
 30
0.0
  0
VERTEX
  5
39E
330
39C
100
AcDbEntity
  8
001
370
    50
100
AcDbVertex
100
AcDb2dVertex
 10
52.73294
 20
-50.193024
 30
0.0
  0
VERTEX
  5
39F
330
39C
100
AcDbEntity
  8
001
370
    50
100
AcDbVertex
100
AcDb2dVertex
 10
52.708464
 20
-50.195203
 30
0.0
  0
VERTEX
  5
3A0
330
39C
100
AcDbEntity
  8
001
370
    50
100
AcDbVertex
100
AcDb2dVertex
 10
52.673921
 20
-50.198716
 30
0.0
  0
VERTEX
  5
3A1
330
39C
100
AcDbEntity
  8
001
370
    50
100
AcDbVertex
100
AcDb2dVertex
 10
52.601257
 20
-50.208421
 30
0.0
  0
VERTEX
  5
3A2
330
39C
100
AcDbEntity
  8
001
370
    50
100
AcDbVertex
100
AcDb2dVertex
 10
52.537638
 20
-50.220464
 30
0.0
  0
VERTEX
  5
3A3
330
39C
100
AcDbEntity
  8
001
370
    50
100
AcDbVertex
100
AcDb2dVertex
 10
52.412844
 20
-50.252478
 30
0.0
  0
VERTEX
  5
3A4
330
39C
100
AcDbEntity
  8
001
370
    50
100
AcDbVertex
100
AcDb2dVertex
 10
52.285592
 20
-50.296748
 30
0.0
  0
VERTEX
  5
3A5
330
39C
100
AcDbEntity
  8
001
370
    50
100
AcDbVertex
100
AcDb2dVertex
 10
52.138112
 20
-50.370086
 30
0.0
  0
VERTEX
  5
3A6
330
39C
100
AcDbEntity
  8
001
370
    50
100
AcDbVertex
100
AcDb2dVertex
 10
52.013434
 20
-50.473666
 30
0.0
  0
VERTEX
  5
3A7
330
39C
100
AcDbEntity
  8
001
370
    50
100
AcDbVertex
100
AcDb2dVertex
 10
51.986132
 20
-50.507208
 30
0.0
  0
VERTEX
  5
3A8
330
39C
100
AcDbEntity
  8
001
370
    50
100
AcDbVertex
100
AcDb2dVertex
 10
51.962472
 20
-50.542361
 30
0.0
  0
VERTEX
  5
3A9
330
39C
100
AcDbEntity
  8
001
370
    50
100
AcDbVertex
100
AcDb2dVertex
 10
51.945709
 20
-50.574726
 30
0.0
  0
VERTEX
  5
3AA
330
39C
100
AcDbEntity
  8
001
370
    50
100
AcDbVertex
100
AcDb2dVertex
 10
51.934502
 20
-50.612538
 30
0.0
  0
VERTEX
  5
3AB
330
39C
100
AcDbEntity
  8
001
370
    50
100
AcDbVertex
100
AcDb2dVertex
 10
51.930134
 20
-50.65272
 30
0.0
  0
VERTEX
  5
3AC
330
39C
100
AcDbEntity
  8
001
370
    50
100
AcDbVertex
100
AcDb2dVertex
 10
51.930373
 20
-50.682065
 30
0.0
  0
SEQEND
  5
39D
330
39C
100
AcDbEntity
  8
001
370
    50
  0
POLYLINE
  5
3AD
330
1F
100
AcDbEntity
  8
001
370
    50
100
AcDb2dPolyline
 66
     1
 10
0.0
 20
0.0
 30
0.0
  0
VERTEX
  5
3AF
330
3AD
100
AcDbEntity
  8
001
370
    50
100
AcDbVertex
100
AcDb2dVertex
 10
52.260178
 20
-46.091125
 30
0.0
  0
VERTEX
  5
3B0
330
3AD
100
AcDbEntity
  8
001
370
    50
100
AcDbVertex
100
AcDb2dVertex
 10
52.235702
 20
-46.093304
 30
0.0
  0
VERTEX
  5
3B1
330
3AD
100
AcDbEntity
  8
001
370
    50
100
AcDbVertex
100
AcDb2dVertex
 10
52.201159
 20
-46.096817
 30
0.0
  0
VERTEX
  5
3B2
330
3AD
100
AcDbEntity
  8
001
370
    50
100
AcDbVertex
100
AcDb2dVertex
 10
52.128495
 20
-46.106522
 30
0.0
  0
VERTEX
  5
3B3
330
3AD
100
AcDbEntity
  8
001
370
    50
100
AcDbVertex
100
AcDb2dVertex
 10
52.064876
 20
-46.118566
 30
0.0
  0
VERTEX
  5
3B4
330
3AD
100
AcDbEntity
  8
001
370
    50
100
AcDbVertex
100
AcDb2dVertex
 10
51.940082
 20
-46.150579
 30
0.0
  0
VERTEX
  5
3B5
330
3AD
100
AcDbEntity
  8
001
370
    50
100
AcDbVertex
100
AcDb2dVertex
 10
51.81283
 20
-46.194849
 30
0.0
  0
VERTEX
  5
3B6
330
3AD
100
AcDbEntity
  8
001
370
    50
100
AcDbVertex
100
AcDb2dVertex
 10
51.66535
 20
-46.268187
 30
0.0
  0
VERTEX
  5
3B7
330
3AD
100
AcDbEntity
  8
001
370
    50
100
AcDbVertex
100
AcDb2dVertex
 10
51.540672
 20
-46.371768
 30
0.0
  0
VERTEX
  5
3B8
330
3AD
100
AcDbEntity
  8
001
370
    50
100
AcDbVertex
100
AcDb2dVertex
 10
51.51337
 20
-46.405309
 30
0.0
  0
VERTEX
  5
3B9
330
3AD
100
AcDbEntity
  8
001
370
    50
100
AcDbVertex
100
AcDb2dVertex
 10
51.48971
 20
-46.440462
 30
0.0
  0
VERTEX
  5
3BA
330
3AD
100
AcDbEntity
  8
001
370
    50
100
AcDbVertex
100
AcDb2dVertex
 10
51.472947
 20
-46.472828
 30
0.0
  0
VERTEX
  5
3BB
330
3AD
100
AcDbEntity
  8
001
370
    50
100
AcDbVertex
100
AcDb2dVertex
 10
51.46174
 20
-46.510639
 30
0.0
  0
VERTEX
  5
3BC
330
3AD
100
AcDbEntity
  8
001
370
    50
100
AcDbVertex
100
AcDb2dVertex
 10
51.457372
 20
-46.550821
 30
0.0
  0
VERTEX
  5
3BD
330
3AD
100
AcDbEntity
  8
001
370
    50
100
AcDbVertex
100
AcDb2dVertex
 10
51.457611
 20
-46.580167
 30
0.0
  0
SEQEND
  5
3AE
330
3AD
100
AcDbEntity
  8
001
370
    50
  0
LINE
  5
3BE
330
1F
100
AcDbEntity
  8
001
370
    50
100
AcDbLine
 10
51.457611
 20
-46.580167
 30
0.0
 11
51.930373
 21
-50.682065
 31
0.0
  0
POLYLINE
  5
3BF
330
1F
100
AcDbEntity
  8
001
370
    50
100
AcDb2dPolyline
 66
     1
 10
0.0
 20
0.0
 30
0.0
  0
VERTEX
  5
3C1
330
3BF
100
AcDbEntity
  8
001
370
    50
100
AcDbVertex
100
AcDb2dVertex
 10
51.930373
 20
-50.682065
 30
0.0
  0
VERTEX
  5
3C2
330
3BF
100
AcDbEntity
  8
001
370
    50
100
AcDbVertex
100
AcDb2dVertex
 10
51.937077
 20
-50.71094
 30
0.0
  0
VERTEX
  5
3C3
330
3BF
100
AcDbEntity
  8
001
370
    50
100
AcDbVertex
100
AcDb2dVertex
 10
51.95021
 20
-50.748831
 30
0.0
  0
VERTEX
  5
3C4
330
3BF
100
AcDbEntity
  8
001
370
    50
100
AcDbVertex
100
AcDb2dVertex
 10
51.968267
 20
-50.781734
 30
0.0
  0
VERTEX
  5
3C5
330
3BF
100
AcDbEntity
  8
001
370
    50
100
AcDbVertex
100
AcDb2dVertex
 10
51.993412
 20
-50.810805
 30
0.0
  0
VERTEX
  5
3C6
330
3BF
100
AcDbEntity
  8
001
370
    50
100
AcDbVertex
100
AcDb2dVertex
 10
52.013245
 20
-50.830023
 30
0.0
  0
VERTEX
  5
3C7
330
3BF
100
AcDbEntity
  8
001
370
    50
100
AcDbVertex
100
AcDb2dVertex
 10
52.028137
 20
-50.843357
 30
0.0
  0
SEQEND
  5
3C0
330
3BF
100
AcDbEntity
  8
001
370
    50
  0
LINE
  5
3C8
330
1F
100
AcDbEntity
  8
001
370
    50
100
AcDbLine
 10
52.73294
 20
-50.193024
 30
0.0
 11
66.410171
 21
-49.130714
 31
0.0
  0
POLYLINE
  5
3C9
330
1F
100
AcDbEntity
  8
001
370
    50
100
AcDb2dPolyline
 66
     1
 10
0.0
 20
0.0
 30
0.0
  0
VERTEX
  5
3CB
330
3C9
100
AcDbEntity
  8
001
370
    50
100
AcDbVertex
100
AcDb2dVertex
 10
66.934148
 20
-49.191516
 30
0.0
  0
VERTEX
  5
3CC
330
3C9
100
AcDbEntity
  8
001
370
    50
100
AcDbVertex
100
AcDb2dVertex
 10
66.857505
 20
-49.168539
 30
0.0
  0
VERTEX
  5
3CD
330
3C9
100
AcDbEntity
  8
001
370
    50
100
AcDbVertex
100
AcDb2dVertex
 10
66.751601
 20
-49.143528
 30
0.0
  0
VERTEX
  5
3CE
330
3C9
100
AcDbEntity
  8
001
370
    50
100
AcDbVertex
100
AcDb2dVertex
 10
66.623275
 20
-49.126175
 30
0.0
  0
VERTEX
  5
3CF
330
3C9
100
AcDbEntity
  8
001
370
    50
100
AcDbVertex
100
AcDb2dVertex
 10
66.488809
 20
-49.126582
 30
0.0
  0
VERTEX
  5
3D0
330
3C9
100
AcDbEntity
  8
001
370
    50
100
AcDbVertex
100
AcDb2dVertex
 10
66.442776
 20
-49.128748
 30
0.0
  0
VERTEX
  5
3D1
330
3C9
100
AcDbEntity
  8
001
370
    50
100
AcDbVertex
100
AcDb2dVertex
 10
66.410171
 20
-49.130714
 30
0.0
  0
SEQEND
  5
3CA
330
3C9
100
AcDbEntity
  8
001
370
    50
  0
LINE
  5
3D2
330
1F
100
AcDbEntity
  8
001
370
    50
100
AcDbLine
 10
52.656315
 20
-51.358504
 30
0.0
 11
52.028137
 21
-50.843357
 31
0.0
  0
LINE
  5
3D3
330
1F
100
AcDbEntity
  8
001
370
    50
100
AcDbLine
 10
52.260178
 20
-46.091125
 30
0.0
 11
65.937409
 21
-45.028816
 31
0.0
  0
LINE
  5
3D4
330
1F
100
AcDbEntity
  8
001
370
    50
100
AcDbLine
 10
67.154797
 20
-49.174483
 30
0.0
 11
66.712399
 21
-45.336037
 31
0.0
  0
POLYLINE
  5
3D5
330
1F
100
AcDbEntity
  8
001
370
    50
100
AcDb2dPolyline
 66
     1
 10
0.0
 20
0.0
 30
0.0
  0
VERTEX
  5
3D7
330
3D5
100
AcDbEntity
  8
001
370
    50
100
AcDbVertex
100
AcDb2dVertex
 10
66.712399
 20
-45.336037
 30
0.0
  0
VERTEX
  5
3D8
330
3D5
100
AcDbEntity
  8
001
370
    50
100
AcDbVertex
100
AcDb2dVertex
 10
66.70596
 20
-45.307406
 30
0.0
  0
VERTEX
  5
3D9
330
3D5
100
AcDbEntity
  8
001
370
    50
100
AcDbVertex
100
AcDb2dVertex
 10
66.692562
 20
-45.269272
 30
0.0
  0
VERTEX
  5
3DA
330
3D5
100
AcDbEntity
  8
001
370
    50
100
AcDbVertex
100
AcDb2dVertex
 10
66.673021
 20
-45.235003
 30
0.0
  0
VERTEX
  5
3DB
330
3D5
100
AcDbEntity
  8
001
370
    50
100
AcDbVertex
100
AcDb2dVertex
 10
66.64936
 20
-45.207297
 30
0.0
  0
VERTEX
  5
3DC
330
3D5
100
AcDbEntity
  8
001
370
    50
100
AcDbVertex
100
AcDb2dVertex
 10
66.618439
 20
-45.178437
 30
0.0
  0
VERTEX
  5
3DD
330
3D5
100
AcDbEntity
  8
001
370
    50
100
AcDbVertex
100
AcDb2dVertex
 10
66.584108
 20
-45.151997
 30
0.0
  0
VERTEX
  5
3DE
330
3D5
100
AcDbEntity
  8
001
370
    50
100
AcDbVertex
100
AcDb2dVertex
 10
66.435781
 20
-45.07982
 30
0.0
  0
VERTEX
  5
3DF
330
3D5
100
AcDbEntity
  8
001
370
    50
100
AcDbVertex
100
AcDb2dVertex
 10
66.278839
 20
-45.04163
 30
0.0
  0
VERTEX
  5
3E0
330
3D5
100
AcDbEntity
  8
001
370
    50
100
AcDbVertex
100
AcDb2dVertex
 10
66.155896
 20
-45.026398
 30
0.0
  0
VERTEX
  5
3E1
330
3D5
100
AcDbEntity
  8
001
370
    50
100
AcDbVertex
100
AcDb2dVertex
 10
66.016047
 20
-45.024684
 30
0.0
  0
VERTEX
  5
3E2
330
3D5
100
AcDbEntity
  8
001
370
    50
100
AcDbVertex
100
AcDb2dVertex
 10
65.969847
 20
-45.026784
 30
0.0
  0
VERTEX
  5
3E3
330
3D5
100
AcDbEntity
  8
001
370
    50
100
AcDbVertex
100
AcDb2dVertex
 10
65.937409
 20
-45.028816
 30
0.0
  0
SEQEND
  5
3D6
330
3D5
100
AcDbEntity
  8
001
370
    50
  0
LINE
  5
3E4
330
1F
100
AcDbEntity
  8
001
370
    50
100
AcDbLine
 10
71.278493
 20
-100.669179
 30
0.0
 11
70.980534
 21
-100.669179
 31
0.0
  0
LINE
  5
3E5
330
1F
100
AcDbEntity
  8
001
370
    50
100
AcDbLine
 10
70.550062
 20
-103.40123
 30
0.0
 11
71.278493
 21
-100.669179
 31
0.0
  0
LINE
  5
3E6
330
1F
100
AcDbEntity
  8
001
370
    50
100
AcDbLine
 10
70.550062
 20
-103.40123
 30
0.0
 11
70.500402
 21
-103.40123
 31
0.0
  0
LINE
  5
3E7
330
1F
100
AcDbEntity
  8
001
370
    50
100
AcDbLine
 10
70.500402
 20
-103.40123
 30
0.0
 11
70.252103
 21
-103.40123
 31
0.0
  0
LINE
  5
3E8
330
1F
100
AcDbEntity
  8
001
370
    50
100
AcDbLine
 10
70.252103
 20
-103.40123
 30
0.0
 11
70.980534
 21
-100.669179
 31
0.0
  0
LINE
  5
3E9
330
1F
100
AcDbEntity
  8
001
370
    50
100
AcDbLine
 10
68.492895
 20
-96.339052
 30
0.0
 11
65.774352
 21
-95.607001
 31
0.0
  0
LINE
  5
3EA
330
1F
100
AcDbEntity
  8
001
370
    50
100
AcDbLine
 10
70.980534
 20
-100.669179
 30
0.0
 11
68.492895
 21
-96.339052
 31
0.0
  0
LINE
  5
3EB
330
1F
100
AcDbEntity
  8
001
370
    50
100
AcDbLine
 10
63.875201
 20
-107.10123
 30
0.0
 11
68.01157
 21
-104.70123
 31
0.0
  0
LINE
  5
3EC
330
1F
100
AcDbEntity
  8
001
370
    50
100
AcDbLine
 10
68.01157
 20
-104.70123
 30
0.0
 11
70.252103
 21
-103.40123
 31
0.0
  0
LINE
  5
3ED
330
1F
100
AcDbEntity
  8
001
370
    50
100
AcDbLine
 10
59.397451
 20
-99.307001
 30
0.0
 11
63.875201
 21
-107.10123
 31
0.0
  0
LINE
  5
3EE
330
1F
100
AcDbEntity
  8
001
370
    50
100
AcDbLine
 10
65.774352
 20
-95.607001
 30
0.0
 11
63.53382
 21
-96.907001
 31
0.0
  0
LINE
  5
3EF
330
1F
100
AcDbEntity
  8
001
370
    50
100
AcDbLine
 10
63.53382
 20
-96.907001
 30
0.0
 11
59.397451
 21
-99.307001
 31
0.0
  0
LINE
  5
3F0
330
1F
100
AcDbEntity
  8
001
370
    50
100
AcDbLine
 10
68.790854
 20
-96.339052
 30
0.0
 11
68.492895
 21
-96.339052
 31
0.0
  0
LINE
  5
3F1
330
1F
100
AcDbEntity
  8
001
370
    50
100
AcDbLine
 10
71.278493
 20
-100.669179
 30
0.0
 11
68.790854
 21
-96.339052
 31
0.0
  0
LINE
  5
3F2
330
1F
100
AcDbEntity
  8
001
370
    50
100
AcDbLine
 10
64.382024
 20
-106.95123
 30
0.0
 11
70.500402
 21
-103.40123
 31
0.0
  0
LINE
  5
3F3
330
1F
100
AcDbEntity
  8
001
370
    50
100
AcDbLine
 10
64.431684
 20
-106.95123
 30
0.0
 11
64.382024
 21
-106.95123
 31
0.0
  0
LINE
  5
3F4
330
1F
100
AcDbEntity
  8
001
370
    50
100
AcDbLine
 10
63.311417
 20
-107.60123
 30
0.0
 11
64.431684
 21
-106.95123
 31
0.0
  0
LINE
  5
3F5
330
1F
100
AcDbEntity
  8
001
370
    50
100
AcDbLine
 10
63.311417
 20
-107.60123
 30
0.0
 11
63.112778
 21
-107.60123
 31
0.0
  0
LINE
  5
3F6
330
1F
100
AcDbEntity
  8
001
370
    50
100
AcDbLine
 10
63.875201
 20
-107.10123
 30
0.0
 11
63.112778
 21
-107.60123
 31
0.0
  0
LINE
  5
3F7
330
1F
100
AcDbEntity
  8
001
370
    50
100
AcDbLine
 10
66.022652
 20
-95.607001
 30
0.0
 11
65.774352
 21
-95.607001
 31
0.0
  0
LINE
  5
3F8
330
1F
100
AcDbEntity
  8
001
370
    50
100
AcDbLine
 10
66.072312
 20
-95.607001
 30
0.0
 11
66.022652
 21
-95.607001
 31
0.0
  0
LINE
  5
3F9
330
1F
100
AcDbEntity
  8
001
370
    50
100
AcDbLine
 10
68.790854
 20
-96.339052
 30
0.0
 11
66.072312
 21
-95.607001
 31
0.0
  0
LINE
  5
3FA
330
1F
100
AcDbEntity
  8
001
370
    50
100
AcDbLine
 10
63.112778
 20
-107.60123
 30
0.0
 11
61.852826
 21
-107.235205
 31
0.0
  0
LINE
  5
3FB
330
1F
100
AcDbEntity
  8
001
370
    50
100
AcDbLine
 10
61.852826
 20
-107.235205
 30
0.0
 11
58.370132
 21
-101.173027
 31
0.0
  0
LINE
  5
3FC
330
1F
100
AcDbEntity
  8
001
370
    50
100
AcDbLine
 10
58.370132
 20
-101.173027
 30
0.0
 11
58.635028
 21
-99.807001
 31
0.0
  0
LINE
  5
3FD
330
1F
100
AcDbEntity
  8
001
370
    50
100
AcDbLine
 10
58.635028
 20
-99.807001
 30
0.0
 11
59.397451
 21
-99.307001
 31
0.0
  0
LINE
  5
3FE
330
1F
100
AcDbEntity
  8
001
370
    50
100
AcDbLine
 10
64.431684
 20
-106.95123
 30
0.0
 11
64.419269
 21
-106.92962
 31
0.0
  0
POLYLINE
  5
3FF
330
1F
100
AcDbEntity
  8
001
370
    50
100
AcDb2dPolyline
 66
     1
 10
0.0
 20
0.0
 30
0.0
  0
VERTEX
  5
401
330
3FF
100
AcDbEntity
  8
001
370
    50
100
AcDbVertex
100
AcDb2dVertex
 10
63.53382
 20
-96.907001
 30
0.0
  0
VERTEX
  5
402
330
3FF
100
AcDbEntity
  8
001
370
    50
100
AcDbVertex
100
AcDb2dVertex
 10
62.762186
 20
-97.53383
 30
0.0
  0
VERTEX
  5
403
330
3FF
100
AcDbEntity
  8
001
370
    50
100
AcDbVertex
100
AcDb2dVertex
 10
61.894849
 20
-98.554116
 30
0.0
  0
VERTEX
  5
404
330
3FF
100
AcDbEntity
  8
001
370
    50
100
AcDbVertex
100
AcDb2dVertex
 10
61.542752
 20
-99.278874
 30
0.0
  0
VERTEX
  5
405
330
3FF
100
AcDbEntity
  8
001
370
    50
100
AcDbVertex
100
AcDb2dVertex
 10
61.362972
 20
-100.022699
 30
0.0
  0
VERTEX
  5
406
330
3FF
100
AcDbEntity
  8
001
370
    50
100
AcDbVertex
100
AcDb2dVertex
 10
61.314142
 20
-100.410811
 30
0.0
  0
VERTEX
  5
407
330
3FF
100
AcDbEntity
  8
001
370
    50
100
AcDbVertex
100
AcDb2dVertex
 10
61.294945
 20
-100.804116
 30
0.0
  0
VERTEX
  5
408
330
3FF
100
AcDbEntity
  8
001
370
    50
100
AcDbVertex
100
AcDb2dVertex
 10
61.311308
 20
-101.196538
 30
0.0
  0
VERTEX
  5
409
330
3FF
100
AcDbEntity
  8
001
370
    50
100
AcDbVertex
100
AcDb2dVertex
 10
61.362972
 20
-101.585532
 30
0.0
  0
VERTEX
  5
40A
330
3FF
100
AcDbEntity
  8
001
370
    50
100
AcDbVertex
100
AcDb2dVertex
 10
61.565275
 20
-102.341629
 30
0.0
  0
VERTEX
  5
40B
330
3FF
100
AcDbEntity
  8
001
370
    50
100
AcDbVertex
100
AcDb2dVertex
 10
61.894849
 20
-103.054116
 30
0.0
  0
VERTEX
  5
40C
330
3FF
100
AcDbEntity
  8
001
370
    50
100
AcDbVertex
100
AcDb2dVertex
 10
62.603743
 20
-103.984825
 30
0.0
  0
VERTEX
  5
40D
330
3FF
100
AcDbEntity
  8
001
370
    50
100
AcDbVertex
100
AcDb2dVertex
 10
63.53382
 20
-104.70123
 30
0.0
  0
VERTEX
  5
40E
330
3FF
100
AcDbEntity
  8
001
370
    50
100
AcDbVertex
100
AcDb2dVertex
 10
63.885486
 20
-104.882832
 30
0.0
  0
VERTEX
  5
40F
330
3FF
100
AcDbEntity
  8
001
370
    50
100
AcDbVertex
100
AcDb2dVertex
 10
64.241214
 20
-105.032732
 30
0.0
  0
VERTEX
  5
410
330
3FF
100
AcDbEntity
  8
001
370
    50
100
AcDbVertex
100
AcDb2dVertex
 10
64.596903
 20
-105.150663
 30
0.0
  0
VERTEX
  5
411
330
3FF
100
AcDbEntity
  8
001
370
    50
100
AcDbVertex
100
AcDb2dVertex
 10
64.995142
 20
-105.23575
 30
0.0
  0
VERTEX
  5
412
330
3FF
100
AcDbEntity
  8
001
370
    50
100
AcDbVertex
100
AcDb2dVertex
 10
65.444476
 20
-105.286998
 30
0.0
  0
VERTEX
  5
413
330
3FF
100
AcDbEntity
  8
001
370
    50
100
AcDbVertex
100
AcDb2dVertex
 10
65.772695
 20
-105.304116
 30
0.0
  0
SEQEND
  5
400
330
3FF
100
AcDbEntity
  8
001
370
    50
  0
POLYLINE
  5
414
330
1F
100
AcDbEntity
  8
001
370
    50
100
AcDb2dPolyline
 66
     1
 10
0.0
 20
0.0
 30
0.0
  0
VERTEX
  5
416
330
414
100
AcDbEntity
  8
001
370
    50
100
AcDbVertex
100
AcDb2dVertex
 10
65.772695
 20
-105.304116
 30
0.0
  0
VERTEX
  5
417
330
414
100
AcDbEntity
  8
001
370
    50
100
AcDbVertex
100
AcDb2dVertex
 10
66.100914
 20
-105.286999
 30
0.0
  0
VERTEX
  5
418
330
414
100
AcDbEntity
  8
001
370
    50
100
AcDbVertex
100
AcDb2dVertex
 10
66.550248
 20
-105.23575
 30
0.0
  0
VERTEX
  5
419
330
414
100
AcDbEntity
  8
001
370
    50
100
AcDbVertex
100
AcDb2dVertex
 10
66.948484
 20
-105.150662
 30
0.0
  0
VERTEX
  5
41A
330
414
100
AcDbEntity
  8
001
370
    50
100
AcDbVertex
100
AcDb2dVertex
 10
67.304175
 20
-105.032732
 30
0.0
  0
VERTEX
  5
41B
330
414
100
AcDbEntity
  8
001
370
    50
100
AcDbVertex
100
AcDb2dVertex
 10
67.659912
 20
-104.882837
 30
0.0
  0
VERTEX
  5
41C
330
414
100
AcDbEntity
  8
001
370
    50
100
AcDbVertex
100
AcDb2dVertex
 10
68.01157
 20
-104.70123
 30
0.0
  0
VERTEX
  5
41D
330
414
100
AcDbEntity
  8
001
370
    50
100
AcDbVertex
100
AcDb2dVertex
 10
68.94148
 20
-103.984727
 30
0.0
  0
VERTEX
  5
41E
330
414
100
AcDbEntity
  8
001
370
    50
100
AcDbVertex
100
AcDb2dVertex
 10
69.65054
 20
-103.054116
 30
0.0
  0
VERTEX
  5
41F
330
414
100
AcDbEntity
  8
001
370
    50
100
AcDbVertex
100
AcDb2dVertex
 10
69.980532
 20
-102.341874
 30
0.0
  0
VERTEX
  5
420
330
414
100
AcDbEntity
  8
001
370
    50
100
AcDbVertex
100
AcDb2dVertex
 10
70.182418
 20
-101.585532
 30
0.0
  0
VERTEX
  5
421
330
414
100
AcDbEntity
  8
001
370
    50
100
AcDbVertex
100
AcDb2dVertex
 10
70.233464
 20
-101.196176
 30
0.0
  0
VERTEX
  5
422
330
414
100
AcDbEntity
  8
001
370
    50
100
AcDbVertex
100
AcDb2dVertex
 10
70.250445
 20
-100.804116
 30
0.0
  0
VERTEX
  5
423
330
414
100
AcDbEntity
  8
001
370
    50
100
AcDbVertex
100
AcDb2dVertex
 10
70.233372
 20
-100.412055
 30
0.0
  0
VERTEX
  5
424
330
414
100
AcDbEntity
  8
001
370
    50
100
AcDbVertex
100
AcDb2dVertex
 10
70.182418
 20
-100.022699
 30
0.0
  0
VERTEX
  5
425
330
414
100
AcDbEntity
  8
001
370
    50
100
AcDbVertex
100
AcDb2dVertex
 10
69.981262
 20
-99.26635
 30
0.0
  0
VERTEX
  5
426
330
414
100
AcDbEntity
  8
001
370
    50
100
AcDbVertex
100
AcDb2dVertex
 10
69.65054
 20
-98.554116
 30
0.0
  0
VERTEX
  5
427
330
414
100
AcDbEntity
  8
001
370
    50
100
AcDbVertex
100
AcDb2dVertex
 10
68.936346
 20
-97.623553
 30
0.0
  0
VERTEX
  5
428
330
414
100
AcDbEntity
  8
001
370
    50
100
AcDbVertex
100
AcDb2dVertex
 10
68.01157
 20
-96.907001
 30
0.0
  0
VERTEX
  5
429
330
414
100
AcDbEntity
  8
001
370
    50
100
AcDbVertex
100
AcDb2dVertex
 10
67.665032
 20
-96.725345
 30
0.0
  0
VERTEX
  5
42A
330
414
100
AcDbEntity
  8
001
370
    50
100
AcDbVertex
100
AcDb2dVertex
 10
67.304175
 20
-96.575499
 30
0.0
  0
VERTEX
  5
42B
330
414
100
AcDbEntity
  8
001
370
    50
100
AcDbVertex
100
AcDb2dVertex
 10
66.931428
 20
-96.457734
 30
0.0
  0
VERTEX
  5
42C
330
414
100
AcDbEntity
  8
001
370
    50
100
AcDbVertex
100
AcDb2dVertex
 10
66.550248
 20
-96.372481
 30
0.0
  0
VERTEX
  5
42D
330
414
100
AcDbEntity
  8
001
370
    50
100
AcDbVertex
100
AcDb2dVertex
 10
66.163989
 20
-96.320626
 30
0.0
  0
VERTEX
  5
42E
330
414
100
AcDbEntity
  8
001
370
    50
100
AcDbVertex
100
AcDb2dVertex
 10
65.772695
 20
-96.304116
 30
0.0
  0
VERTEX
  5
42F
330
414
100
AcDbEntity
  8
001
370
    50
100
AcDbVertex
100
AcDb2dVertex
 10
65.378573
 20
-96.323493
 30
0.0
  0
VERTEX
  5
430
330
414
100
AcDbEntity
  8
001
370
    50
100
AcDbVertex
100
AcDb2dVertex
 10
64.995142
 20
-96.372481
 30
0.0
  0
VERTEX
  5
431
330
414
100
AcDbEntity
  8
001
370
    50
100
AcDbVertex
100
AcDb2dVertex
 10
64.628101
 20
-96.44913
 30
0.0
  0
VERTEX
  5
432
330
414
100
AcDbEntity
  8
001
370
    50
100
AcDbVertex
100
AcDb2dVertex
 10
64.241214
 20
-96.575499
 30
0.0
  0
VERTEX
  5
433
330
414
100
AcDbEntity
  8
001
370
    50
100
AcDbVertex
100
AcDb2dVertex
 10
63.826581
 20
-96.756915
 30
0.0
  0
VERTEX
  5
434
330
414
100
AcDbEntity
  8
001
370
    50
100
AcDbVertex
100
AcDb2dVertex
 10
63.53382
 20
-96.907001
 30
0.0
  0
SEQEND
  5
415
330
414
100
AcDbEntity
  8
001
370
    50
  0
POLYLINE
  5
435
330
1F
100
AcDbEntity
  8
001
370
    50
100
AcDb2dPolyline
 66
     1
 10
0.0
 20
0.0
 30
0.0
  0
VERTEX
  5
437
330
435
100
AcDbEntity
  8
001
370
    50
100
AcDbVertex
100
AcDb2dVertex
 10
51.930373
 20
-51.093291
 30
0.0
  0
VERTEX
  5
438
330
435
100
AcDbEntity
  8
001
370
    50
100
AcDbVertex
100
AcDb2dVertex
 10
51.930055
 20
-51.122569
 30
0.0
  0
VERTEX
  5
439
330
435
100
AcDbEntity
  8
001
370
    50
100
AcDbVertex
100
AcDb2dVertex
 10
51.934502
 20
-51.162819
 30
0.0
  0
VERTEX
  5
43A
330
435
100
AcDbEntity
  8
001
370
    50
100
AcDbVertex
100
AcDb2dVertex
 10
51.946155
 20
-51.201008
 30
0.0
  0
VERTEX
  5
43B
330
435
100
AcDbEntity
  8
001
370
    50
100
AcDbVertex
100
AcDb2dVertex
 10
51.962472
 20
-51.232996
 30
0.0
  0
VERTEX
  5
43C
330
435
100
AcDbEntity
  8
001
370
    50
100
AcDbVertex
100
AcDb2dVertex
 10
51.984101
 20
-51.266426
 30
0.0
  0
VERTEX
  5
43D
330
435
100
AcDbEntity
  8
001
370
    50
100
AcDbVertex
100
AcDb2dVertex
 10
52.013434
 20
-51.30169
 30
0.0
  0
VERTEX
  5
43E
330
435
100
AcDbEntity
  8
001
370
    50
100
AcDbVertex
100
AcDb2dVertex
 10
52.022027
 20
-51.310723
 30
0.0
  0
VERTEX
  5
43F
330
435
100
AcDbEntity
  8
001
370
    50
100
AcDbVertex
100
AcDb2dVertex
 10
52.028137
 20
-51.316939
 30
0.0
  0
SEQEND
  5
436
330
435
100
AcDbEntity
  8
001
370
    50
  0
LINE
  5
440
330
1F
100
AcDbEntity
  8
001
370
    50
100
AcDbLine
 10
52.656315
 20
-51.940687
 30
0.0
 11
52.028137
 21
-51.316939
 31
0.0
  0
LINE
  5
441
330
1F
100
AcDbEntity
  8
001
370
    50
100
AcDbLine
 10
52.656315
 20
-56.512013
 30
0.0
 11
51.555375
 21
-55.418838
 31
0.0
  0
POLYLINE
  5
442
330
1F
100
AcDbEntity
  8
001
370
    50
100
AcDb2dPolyline
 66
     1
 10
0.0
 20
0.0
 30
0.0
  0
VERTEX
  5
444
330
442
100
AcDbEntity
  8
001
370
    50
100
AcDbVertex
100
AcDb2dVertex
 10
52.086851
 20
-50.891506
 30
0.0
  0
VERTEX
  5
445
330
442
100
AcDbEntity
  8
001
370
    50
100
AcDbVertex
100
AcDb2dVertex
 10
52.075082
 20
-50.898674
 30
0.0
  0
VERTEX
  5
446
330
442
100
AcDbEntity
  8
001
370
    50
100
AcDbVertex
100
AcDb2dVertex
 10
52.058664
 20
-50.909251
 30
0.0
  0
VERTEX
  5
447
330
442
100
AcDbEntity
  8
001
370
    50
100
AcDbVertex
100
AcDb2dVertex
 10
52.022258
 20
-50.936758
 30
0.0
  0
VERTEX
  5
448
330
442
100
AcDbEntity
  8
001
370
    50
100
AcDbVertex
100
AcDb2dVertex
 10
51.993412
 20
-50.964552
 30
0.0
  0
VERTEX
  5
449
330
442
100
AcDbEntity
  8
001
370
    50
100
AcDbVertex
100
AcDb2dVertex
 10
51.970206
 20
-50.992024
 30
0.0
  0
VERTEX
  5
44A
330
442
100
AcDbEntity
  8
001
370
    50
100
AcDbVertex
100
AcDb2dVertex
 10
51.95021
 20
-51.026526
 30
0.0
  0
VERTEX
  5
44B
330
442
100
AcDbEntity
  8
001
370
    50
100
AcDbVertex
100
AcDb2dVertex
 10
51.936731
 20
-51.064702
 30
0.0
  0
VERTEX
  5
44C
330
442
100
AcDbEntity
  8
001
370
    50
100
AcDbVertex
100
AcDb2dVertex
 10
51.930373
 20
-51.093291
 30
0.0
  0
SEQEND
  5
443
330
442
100
AcDbEntity
  8
001
370
    50
  0
LINE
  5
44D
330
1F
100
AcDbEntity
  8
001
370
    50
100
AcDbLine
 10
51.930373
 20
-51.093291
 30
0.0
 11
51.457611
 21
-55.19519
 31
0.0
  0
POLYLINE
  5
44E
330
1F
100
AcDbEntity
  8
001
370
    50
100
AcDb2dPolyline
 66
     1
 10
0.0
 20
0.0
 30
0.0
  0
VERTEX
  5
450
330
44E
100
AcDbEntity
  8
001
370
    50
100
AcDbVertex
100
AcDb2dVertex
 10
51.457611
 20
-55.19519
 30
0.0
  0
VERTEX
  5
451
330
44E
100
AcDbEntity
  8
001
370
    50
100
AcDbVertex
100
AcDb2dVertex
 10
51.457293
 20
-55.224468
 30
0.0
  0
VERTEX
  5
452
330
44E
100
AcDbEntity
  8
001
370
    50
100
AcDbVertex
100
AcDb2dVertex
 10
51.46174
 20
-55.264717
 30
0.0
  0
VERTEX
  5
453
330
44E
100
AcDbEntity
  8
001
370
    50
100
AcDbVertex
100
AcDb2dVertex
 10
51.473393
 20
-55.302907
 30
0.0
  0
VERTEX
  5
454
330
44E
100
AcDbEntity
  8
001
370
    50
100
AcDbVertex
100
AcDb2dVertex
 10
51.48971
 20
-55.334894
 30
0.0
  0
VERTEX
  5
455
330
44E
100
AcDbEntity
  8
001
370
    50
100
AcDbVertex
100
AcDb2dVertex
 10
51.511339
 20
-55.368325
 30
0.0
  0
VERTEX
  5
456
330
44E
100
AcDbEntity
  8
001
370
    50
100
AcDbVertex
100
AcDb2dVertex
 10
51.540672
 20
-55.403589
 30
0.0
  0
VERTEX
  5
457
330
44E
100
AcDbEntity
  8
001
370
    50
100
AcDbVertex
100
AcDb2dVertex
 10
51.549265
 20
-55.412622
 30
0.0
  0
VERTEX
  5
458
330
44E
100
AcDbEntity
  8
001
370
    50
100
AcDbVertex
100
AcDb2dVertex
 10
51.555375
 20
-55.418838
 30
0.0
  0
SEQEND
  5
44F
330
44E
100
AcDbEntity
  8
001
370
    50
  0
LINE
  5
459
330
1F
100
AcDbEntity
  8
001
370
    50
100
AcDbLine
 10
79.456315
 20
-31.10357
 30
0.0
 11
73.691126
 21
-31.10357
 31
0.0
  0
LINE
  5
45A
330
1F
100
AcDbEntity
  8
001
370
    50
100
AcDbLine
 10
67.873974
 20
-109.50357
 30
0.0
 11
79.456315
 21
-109.50357
 31
0.0
  0
POLYLINE
  5
45B
330
1F
100
AcDbEntity
  8
001
370
    50
100
AcDb2dPolyline
 66
     1
 10
0.0
 20
0.0
 30
0.0
  0
VERTEX
  5
45D
330
45B
100
AcDbEntity
  8
001
370
    50
100
AcDbVertex
100
AcDb2dVertex
 10
74.495927
 20
-41.024145
 30
0.0
  0
VERTEX
  5
45E
330
45B
100
AcDbEntity
  8
001
370
    50
100
AcDbVertex
100
AcDb2dVertex
 10
73.152745
 20
-41.118202
 30
0.0
  0
VERTEX
  5
45F
330
45B
100
AcDbEntity
  8
001
370
    50
100
AcDbVertex
100
AcDb2dVertex
 10
71.189662
 20
-41.256102
 30
0.0
  0
VERTEX
  5
460
330
45B
100
AcDbEntity
  8
001
370
    50
100
AcDbVertex
100
AcDb2dVertex
 10
69.22096
 20
-41.395003
 30
0.0
  0
VERTEX
  5
461
330
45B
100
AcDbEntity
  8
001
370
    50
100
AcDbVertex
100
AcDb2dVertex
 10
67.873974
 20
-41.490337
 30
0.0
  0
SEQEND
  5
45C
330
45B
100
AcDbEntity
  8
001
370
    50
  0
LINE
  5
462
330
1F
100
AcDbEntity
  8
001
370
    50
100
AcDbLine
 10
67.873974
 20
-108.971334
 30
0.0
 11
67.873974
 21
-109.50357
 31
0.0
  0
POLYLINE
  5
463
330
1F
100
AcDbEntity
  8
001
370
    50
100
AcDb2dPolyline
 66
     1
 10
0.0
 20
0.0
 30
0.0
  0
VERTEX
  5
465
330
463
100
AcDbEntity
  8
001
370
    50
100
AcDbVertex
100
AcDb2dVertex
 10
67.873974
 20
-108.971334
 30
0.0
  0
VERTEX
  5
466
330
463
100
AcDbEntity
  8
001
370
    50
100
AcDbVertex
100
AcDb2dVertex
 10
69.377078
 20
-108.946016
 30
0.0
  0
VERTEX
  5
467
330
463
100
AcDbEntity
  8
001
370
    50
100
AcDbVertex
100
AcDb2dVertex
 10
71.573905
 20
-108.908034
 30
0.0
  0
VERTEX
  5
468
330
463
100
AcDbEntity
  8
001
370
    50
100
AcDbVertex
100
AcDb2dVertex
 10
74.411248
 20
-108.856956
 30
0.0
  0
VERTEX
  5
469
330
463
100
AcDbEntity
  8
001
370
    50
100
AcDbVertex
100
AcDb2dVertex
 10
76.352568
 20
-108.820886
 30
0.0
  0
SEQEND
  5
464
330
463
100
AcDbEntity
  8
001
370
    50
  0
POLYLINE
  5
46A
330
1F
100
AcDbEntity
  8
001
370
    50
100
AcDb2dPolyline
 66
     1
 10
0.0
 20
0.0
 30
0.0
  0
VERTEX
  5
46C
330
46A
100
AcDbEntity
  8
001
370
    50
100
AcDbVertex
100
AcDb2dVertex
 10
73.691126
 20
-89.90357
 30
0.0
  0
VERTEX
  5
46D
330
46A
100
AcDbEntity
  8
001
370
    50
100
AcDbVertex
100
AcDb2dVertex
 10
73.827061
 20
-91.870609
 30
0.0
  0
VERTEX
  5
46E
330
46A
100
AcDbEntity
  8
001
370
    50
100
AcDbVertex
100
AcDb2dVertex
 10
74.056668
 20
-94.651142
 30
0.0
  0
VERTEX
  5
46F
330
46A
100
AcDbEntity
  8
001
370
    50
100
AcDbVertex
100
AcDb2dVertex
 10
74.361521
 20
-97.882974
 30
0.0
  0
VERTEX
  5
470
330
46A
100
AcDbEntity
  8
001
370
    50
100
AcDbVertex
100
AcDb2dVertex
 10
74.723196
 20
-101.203914
 30
0.0
  0
VERTEX
  5
471
330
46A
100
AcDbEntity
  8
001
370
    50
100
AcDbVertex
100
AcDb2dVertex
 10
75.123266
 20
-104.251766
 30
0.0
  0
VERTEX
  5
472
330
46A
100
AcDbEntity
  8
001
370
    50
100
AcDbVertex
100
AcDb2dVertex
 10
75.360485
 20
-105.642703
 30
0.0
  0
VERTEX
  5
473
330
46A
100
AcDbEntity
  8
001
370
    50
100
AcDbVertex
100
AcDb2dVertex
 10
75.741391
 20
-107.139521
 30
0.0
  0
VERTEX
  5
474
330
46A
100
AcDbEntity
  8
001
370
    50
100
AcDbVertex
100
AcDb2dVertex
 10
76.070345
 20
-108.129779
 30
0.0
  0
VERTEX
  5
475
330
46A
100
AcDbEntity
  8
001
370
    50
100
AcDbVertex
100
AcDb2dVertex
 10
76.352568
 20
-108.820886
 30
0.0
  0
SEQEND
  5
46B
330
46A
100
AcDbEntity
  8
001
370
    50
  0
POLYLINE
  5
476
330
1F
100
AcDbEntity
  8
001
370
    50
100
AcDb2dPolyline
 66
     1
 10
0.0
 20
0.0
 30
0.0
  0
VERTEX
  5
478
330
476
100
AcDbEntity
  8
001
370
    50
100
AcDbVertex
100
AcDb2dVertex
 10
75.836106
 20
-62.508943
 30
0.0
  0
VERTEX
  5
479
330
476
100
AcDbEntity
  8
001
370
    50
100
AcDbVertex
100
AcDb2dVertex
 10
74.22161
 20
-62.342598
 30
0.0
  0
VERTEX
  5
47A
330
476
100
AcDbEntity
  8
001
370
    50
100
AcDbVertex
100
AcDb2dVertex
 10
71.861898
 20
-62.100101
 30
0.0
  0
VERTEX
  5
47B
330
476
100
AcDbEntity
  8
001
370
    50
100
AcDbVertex
100
AcDb2dVertex
 10
69.494094
 20
-61.857651
 30
0.0
  0
VERTEX
  5
47C
330
476
100
AcDbEntity
  8
001
370
    50
100
AcDbVertex
100
AcDb2dVertex
 10
67.873974
 20
-61.69219
 30
0.0
  0
SEQEND
  5
477
330
476
100
AcDbEntity
  8
001
370
    50
  0
LINE
  5
47D
330
1F
100
AcDbEntity
  8
001
370
    50
100
AcDbLine
 10
67.873974
 20
-45.394471
 30
0.0
 11
67.873974
 21
-61.69219
 31
0.0
  0
POLYLINE
  5
47E
330
1F
100
AcDbEntity
  8
001
370
    50
100
AcDb2dPolyline
 66
     1
 10
0.0
 20
0.0
 30
0.0
  0
VERTEX
  5
480
330
47E
100
AcDbEntity
  8
001
370
    50
100
AcDbVertex
100
AcDb2dVertex
 10
76.352568
 20
-44.736798
 30
0.0
  0
VERTEX
  5
481
330
47E
100
AcDbEntity
  8
001
370
    50
100
AcDbVertex
100
AcDb2dVertex
 10
74.802288
 20
-44.856381
 30
0.0
  0
VERTEX
  5
482
330
47E
100
AcDbEntity
  8
001
370
    50
100
AcDbVertex
100
AcDb2dVertex
 10
72.536535
 20
-45.031672
 30
0.0
  0
VERTEX
  5
483
330
47E
100
AcDbEntity
  8
001
370
    50
100
AcDbVertex
100
AcDb2dVertex
 10
69.913091
 20
-45.235426
 30
0.0
  0
VERTEX
  5
484
330
47E
100
AcDbEntity
  8
001
370
    50
100
AcDbVertex
100
AcDb2dVertex
 10
68.702361
 20
-45.329799
 30
0.0
  0
VERTEX
  5
485
330
47E
100
AcDbEntity
  8
001
370
    50
100
AcDbVertex
100
AcDb2dVertex
 10
67.873974
 20
-45.394471
 30
0.0
  0
SEQEND
  5
47F
330
47E
100
AcDbEntity
  8
001
370
    50
  0
POLYLINE
  5
486
330
1F
100
AcDbEntity
  8
001
370
    50
100
AcDb2dPolyline
 66
     1
 10
0.0
 20
0.0
 30
0.0
  0
VERTEX
  5
488
330
486
100
AcDbEntity
  8
001
370
    50
100
AcDbVertex
100
AcDb2dVertex
 10
76.352568
 20
-44.736798
 30
0.0
  0
VERTEX
  5
489
330
486
100
AcDbEntity
  8
001
370
    50
100
AcDbVertex
100
AcDb2dVertex
 10
76.161936
 20
-43.251532
 30
0.0
  0
VERTEX
  5
48A
330
486
100
AcDbEntity
  8
001
370
    50
100
AcDbVertex
100
AcDb2dVertex
 10
75.877793
 20
-41.131328
 30
0.0
  0
VERTEX
  5
48B
330
486
100
AcDbEntity
  8
001
370
    50
100
AcDbVertex
100
AcDb2dVertex
 10
75.520081
 20
-38.697548
 30
0.0
  0
VERTEX
  5
48C
330
486
100
AcDbEntity
  8
001
370
    50
100
AcDbVertex
100
AcDb2dVertex
 10
75.10874
 20
-36.271555
 30
0.0
  0
VERTEX
  5
48D
330
486
100
AcDbEntity
  8
001
370
    50
100
AcDbVertex
100
AcDb2dVertex
 10
74.814698
 20
-34.769131
 30
0.0
  0
VERTEX
  5
48E
330
486
100
AcDbEntity
  8
001
370
    50
100
AcDbVertex
100
AcDb2dVertex
 10
74.551742
 20
-33.410409
 30
0.0
  0
VERTEX
  5
48F
330
486
100
AcDbEntity
  8
001
370
    50
100
AcDbVertex
100
AcDb2dVertex
 10
74.391493
 20
-32.606656
 30
0.0
  0
VERTEX
  5
490
330
486
100
AcDbEntity
  8
001
370
    50
100
AcDbVertex
100
AcDb2dVertex
 10
74.071552
 20
-31.670243
 30
0.0
  0
VERTEX
  5
491
330
486
100
AcDbEntity
  8
001
370
    50
100
AcDbVertex
100
AcDb2dVertex
 10
73.880236
 20
-31.286319
 30
0.0
  0
VERTEX
  5
492
330
486
100
AcDbEntity
  8
001
370
    50
100
AcDbVertex
100
AcDb2dVertex
 10
73.691126
 20
-31.10357
 30
0.0
  0
SEQEND
  5
487
330
486
100
AcDbEntity
  8
001
370
    50
  0
LINE
  5
493
330
1F
100
AcDbEntity
  8
001
370
    50
100
AcDbLine
 10
79.456315
 20
-31.10357
 30
0.0
 11
79.456315
 21
-109.50357
 31
0.0
  0
POLYLINE
  5
494
330
1F
100
AcDbEntity
  8
001
370
    50
100
AcDb2dPolyline
 66
     1
 10
0.0
 20
0.0
 30
0.0
  0
VERTEX
  5
496
330
494
100
AcDbEntity
  8
001
370
    50
100
AcDbVertex
100
AcDb2dVertex
 10
75.836106
 20
-62.508943
 30
0.0
  0
VERTEX
  5
497
330
494
100
AcDbEntity
  8
001
370
    50
100
AcDbVertex
100
AcDb2dVertex
 10
75.803736
 20
-62.845357
 30
0.0
  0
VERTEX
  5
498
330
494
100
AcDbEntity
  8
001
370
    50
100
AcDbVertex
100
AcDb2dVertex
 10
75.757186
 20
-63.330916
 30
0.0
  0
VERTEX
  5
499
330
494
100
AcDbEntity
  8
001
370
    50
100
AcDbVertex
100
AcDb2dVertex
 10
75.519462
 20
-65.85091
 30
0.0
  0
VERTEX
  5
49A
330
494
100
AcDbEntity
  8
001
370
    50
100
AcDbVertex
100
AcDb2dVertex
 10
75.321376
 20
-68.030385
 30
0.0
  0
VERTEX
  5
49B
330
494
100
AcDbEntity
  8
001
370
    50
100
AcDbVertex
100
AcDb2dVertex
 10
75.137829
 20
-70.135305
 30
0.0
  0
VERTEX
  5
49C
330
494
100
AcDbEntity
  8
001
370
    50
100
AcDbVertex
100
AcDb2dVertex
 10
74.949428
 20
-72.368021
 30
0.0
  0
VERTEX
  5
49D
330
494
100
AcDbEntity
  8
001
370
    50
100
AcDbVertex
100
AcDb2dVertex
 10
74.759599
 20
-74.676428
 30
0.0
  0
VERTEX
  5
49E
330
494
100
AcDbEntity
  8
001
370
    50
100
AcDbVertex
100
AcDb2dVertex
 10
74.577473
 20
-76.944808
 30
0.0
  0
VERTEX
  5
49F
330
494
100
AcDbEntity
  8
001
370
    50
100
AcDbVertex
100
AcDb2dVertex
 10
74.389295
 20
-79.360595
 30
0.0
  0
VERTEX
  5
4A0
330
494
100
AcDbEntity
  8
001
370
    50
100
AcDbVertex
100
AcDb2dVertex
 10
74.214971
 20
-81.714029
 30
0.0
  0
VERTEX
  5
4A1
330
494
100
AcDbEntity
  8
001
370
    50
100
AcDbVertex
100
AcDb2dVertex
 10
74.046945
 20
-84.140855
 30
0.0
  0
VERTEX
  5
4A2
330
494
100
AcDbEntity
  8
001
370
    50
100
AcDbVertex
100
AcDb2dVertex
 10
73.877659
 20
-86.77682
 30
0.0
  0
VERTEX
  5
4A3
330
494
100
AcDbEntity
  8
001
370
    50
100
AcDbVertex
100
AcDb2dVertex
 10
73.699555
 20
-89.757668
 30
0.0
  0
VERTEX
  5
4A4
330
494
100
AcDbEntity
  8
001
370
    50
100
AcDbVertex
100
AcDb2dVertex
 10
73.69455
 20
-89.844249
 30
0.0
  0
VERTEX
  5
4A5
330
494
100
AcDbEntity
  8
001
370
    50
100
AcDbVertex
100
AcDb2dVertex
 10
73.691126
 20
-89.90357
 30
0.0
  0
SEQEND
  5
495
330
494
100
AcDbEntity
  8
001
370
    50
  0
LINE
  5
4A6
330
1F
100
AcDbEntity
  8
001
370
    50
100
AcDbLine
 10
79.456315
 20
-109.50357
 30
0.0
 11
86.456315
 21
-107.627926
 31
0.0
  0
LINE
  5
4A7
330
1F
100
AcDbEntity
  8
001
370
    50
100
AcDbLine
 10
86.456315
 20
-32.979215
 30
0.0
 11
79.456315
 21
-31.10357
 31
0.0
  0
LINE
  5
4A8
330
1F
100
AcDbEntity
  8
001
370
    50
100
AcDbLine
 10
86.456315
 20
-32.979215
 30
0.0
 11
86.456315
 21
-107.627926
 31
0.0
  0
POLYLINE
  5
4A9
330
1F
100
AcDbEntity
  8
001
370
    50
100
AcDb2dPolyline
 66
     1
 10
0.0
 20
0.0
 30
0.0
  0
VERTEX
  5
4AB
330
4A9
100
AcDbEntity
  8
001
370
    50
100
AcDbVertex
100
AcDb2dVertex
 10
63.22071
 20
-62.630301
 30
0.0
  0
VERTEX
  5
4AC
330
4A9
100
AcDbEntity
  8
001
370
    50
100
AcDbVertex
100
AcDb2dVertex
 10
63.220513
 20
-62.615714
 30
0.0
  0
VERTEX
  5
4AD
330
4A9
100
AcDbEntity
  8
001
370
    50
100
AcDbVertex
100
AcDb2dVertex
 10
63.219669
 20
-62.594417
 30
0.0
  0
VERTEX
  5
4AE
330
4A9
100
AcDbEntity
  8
001
370
    50
100
AcDbVertex
100
AcDb2dVertex
 10
63.218041
 20
-62.573003
 30
0.0
  0
VERTEX
  5
4AF
330
4A9
100
AcDbEntity
  8
001
370
    50
100
AcDbVertex
100
AcDb2dVertex
 10
63.216548
 20
-62.558381
 30
0.0
  0
SEQEND
  5
4AA
330
4A9
100
AcDbEntity
  8
001
370
    50
  0
POLYLINE
  5
4B0
330
1F
100
AcDbEntity
  8
001
370
    50
100
AcDb2dPolyline
 66
     1
 10
0.0
 20
0.0
 30
0.0
  0
VERTEX
  5
4B2
330
4B0
100
AcDbEntity
  8
001
370
    50
100
AcDbVertex
100
AcDb2dVertex
 10
71.47849
 20
-78.851512
 30
0.0
  0
VERTEX
  5
4B3
330
4B0
100
AcDbEntity
  8
001
370
    50
100
AcDbVertex
100
AcDb2dVertex
 10
72.639974
 20
-78.489457
 30
0.0
  0
VERTEX
  5
4B4
330
4B0
100
AcDbEntity
  8
001
370
    50
100
AcDbVertex
100
AcDb2dVertex
 10
74.204025
 20
-77.695464
 30
0.0
  0
VERTEX
  5
4B5
330
4B0
100
AcDbEntity
  8
001
370
    50
100
AcDbVertex
100
AcDb2dVertex
 10
74.404265
 20
-77.552001
 30
0.0
  0
VERTEX
  5
4B6
330
4B0
100
AcDbEntity
  8
001
370
    50
100
AcDbVertex
100
AcDb2dVertex
 10
74.538344
 20
-77.44954
 30
0.0
  0
SEQEND
  5
4B1
330
4B0
100
AcDbEntity
  8
001
370
    50
  0
POLYLINE
  5
4B7
330
1F
100
AcDbEntity
  8
001
370
    50
100
AcDb2dPolyline
 66
     1
 10
0.0
 20
0.0
 30
0.0
  0
VERTEX
  5
4B9
330
4B7
100
AcDbEntity
  8
001
370
    50
100
AcDbVertex
100
AcDb2dVertex
 10
71.47849
 20
-78.851512
 30
0.0
  0
VERTEX
  5
4BA
330
4B7
100
AcDbEntity
  8
001
370
    50
100
AcDbVertex
100
AcDb2dVertex
 10
70.655424
 20
-78.420162
 30
0.0
  0
VERTEX
  5
4BB
330
4B7
100
AcDbEntity
  8
001
370
    50
100
AcDbVertex
100
AcDb2dVertex
 10
69.407265
 20
-77.901415
 30
0.0
  0
VERTEX
  5
4BC
330
4B7
100
AcDbEntity
  8
001
370
    50
100
AcDbVertex
100
AcDb2dVertex
 10
67.380911
 20
-77.425368
 30
0.0
  0
VERTEX
  5
4BD
330
4B7
100
AcDbEntity
  8
001
370
    50
100
AcDbVertex
100
AcDb2dVertex
 10
65.950069
 20
-77.30357
 30
0.0
  0
SEQEND
  5
4B8
330
4B7
100
AcDbEntity
  8
001
370
    50
  0
LINE
  5
4BE
330
1F
100
AcDbEntity
  8
001
370
    50
100
AcDbLine
 10
65.950069
 20
-77.30357
 30
0.0
 11
60.161869
 21
-77.30357
 31
0.0
  0
LINE
  5
4BF
330
1F
100
AcDbEntity
  8
001
370
    50
100
AcDbLine
 10
60.161869
 20
-77.221625
 30
0.0
 11
60.161869
 21
-77.30357
 31
0.0
  0
POLYLINE
  5
4C0
330
1F
100
AcDbEntity
  8
001
370
    50
100
AcDb2dPolyline
 66
     1
 10
0.0
 20
0.0
 30
0.0
  0
VERTEX
  5
4C2
330
4C0
100
AcDbEntity
  8
001
370
    50
100
AcDbVertex
100
AcDb2dVertex
 10
52.656315
 20
-67.664462
 30
0.0
  0
VERTEX
  5
4C3
330
4C0
100
AcDbEntity
  8
001
370
    50
100
AcDbVertex
100
AcDb2dVertex
 10
53.74532
 20
-68.829166
 30
0.0
  0
VERTEX
  5
4C4
330
4C0
100
AcDbEntity
  8
001
370
    50
100
AcDbVertex
100
AcDb2dVertex
 10
54.824407
 20
-70.003014
 30
0.0
  0
VERTEX
  5
4C5
330
4C0
100
AcDbEntity
  8
001
370
    50
100
AcDbVertex
100
AcDb2dVertex
 10
55.863922
 20
-71.171177
 30
0.0
  0
VERTEX
  5
4C6
330
4C0
100
AcDbEntity
  8
001
370
    50
100
AcDbVertex
100
AcDb2dVertex
 10
56.878049
 20
-72.361473
 30
0.0
  0
VERTEX
  5
4C7
330
4C0
100
AcDbEntity
  8
001
370
    50
100
AcDbVertex
100
AcDb2dVertex
 10
57.363956
 20
-72.955045
 30
0.0
  0
VERTEX
  5
4C8
330
4C0
100
AcDbEntity
  8
001
370
    50
100
AcDbVertex
100
AcDb2dVertex
 10
57.839354
 20
-73.556919
 30
0.0
  0
VERTEX
  5
4C9
330
4C0
100
AcDbEntity
  8
001
370
    50
100
AcDbVertex
100
AcDb2dVertex
 10
58.291
 20
-74.154376
 30
0.0
  0
VERTEX
  5
4CA
330
4C0
100
AcDbEntity
  8
001
370
    50
100
AcDbVertex
100
AcDb2dVertex
 10
58.728846
 20
-74.76239
 30
0.0
  0
VERTEX
  5
4CB
330
4C0
100
AcDbEntity
  8
001
370
    50
100
AcDbVertex
100
AcDb2dVertex
 10
59.137814
 20
-75.364879
 30
0.0
  0
VERTEX
  5
4CC
330
4C0
100
AcDbEntity
  8
001
370
    50
100
AcDbVertex
100
AcDb2dVertex
 10
59.518827
 20
-75.984595
 30
0.0
  0
VERTEX
  5
4CD
330
4C0
100
AcDbEntity
  8
001
370
    50
100
AcDbVertex
100
AcDb2dVertex
 10
59.849965
 20
-76.597673
 30
0.0
  0
VERTEX
  5
4CE
330
4C0
100
AcDbEntity
  8
001
370
    50
100
AcDbVertex
100
AcDb2dVertex
 10
60.161869
 20
-77.221625
 30
0.0
  0
SEQEND
  5
4C1
330
4C0
100
AcDbEntity
  8
001
370
    50
  0
LINE
  5
4CF
330
1F
100
AcDbEntity
  8
001
370
    50
100
AcDbLine
 10
52.656315
 20
-67.664462
 30
0.0
 11
52.656315
 21
-60.312111
 31
0.0
  0
LINE
  5
4D0
330
1F
100
AcDbEntity
  8
001
370
    50
100
AcDbLine
 10
52.656315
 20
-60.312111
 30
0.0
 11
53.55096
 21
-60.142557
 31
0.0
  0
POLYLINE
  5
4D1
330
1F
100
AcDbEntity
  8
001
370
    50
100
AcDb2dPolyline
 66
     1
 10
0.0
 20
0.0
 30
0.0
  0
VERTEX
  5
4D3
330
4D1
100
AcDbEntity
  8
001
370
    50
100
AcDbVertex
100
AcDb2dVertex
 10
67.873974
 20
-61.69219
 30
0.0
  0
VERTEX
  5
4D4
330
4D1
100
AcDbEntity
  8
001
370
    50
100
AcDbVertex
100
AcDb2dVertex
 10
66.157094
 20
-61.504823
 30
0.0
  0
VERTEX
  5
4D5
330
4D1
100
AcDbEntity
  8
001
370
    50
100
AcDbVertex
100
AcDb2dVertex
 10
63.647729
 20
-61.231719
 30
0.0
  0
VERTEX
  5
4D6
330
4D1
100
AcDbEntity
  8
001
370
    50
100
AcDbVertex
100
AcDb2dVertex
 10
60.742026
 20
-60.91661
 30
0.0
  0
VERTEX
  5
4D7
330
4D1
100
AcDbEntity
  8
001
370
    50
100
AcDbVertex
100
AcDb2dVertex
 10
57.812427
 20
-60.600383
 30
0.0
  0
VERTEX
  5
4D8
330
4D1
100
AcDbEntity
  8
001
370
    50
100
AcDbVertex
100
AcDb2dVertex
 10
55.282213
 20
-60.328251
 30
0.0
  0
VERTEX
  5
4D9
330
4D1
100
AcDbEntity
  8
001
370
    50
100
AcDbVertex
100
AcDb2dVertex
 10
53.55096
 20
-60.142557
 30
0.0
  0
SEQEND
  5
4D2
330
4D1
100
AcDbEntity
  8
001
370
    50
  0
POLYLINE
  5
4DA
330
1F
100
AcDbEntity
  8
001
370
    50
100
AcDb2dPolyline
 66
     1
 10
0.0
 20
0.0
 30
0.0
  0
VERTEX
  5
4DC
330
4DA
100
AcDbEntity
  8
001
370
    50
100
AcDbVertex
100
AcDb2dVertex
 10
67.657866
 20
-49.135673
 30
0.0
  0
VERTEX
  5
4DD
330
4DA
100
AcDbEntity
  8
001
370
    50
100
AcDbVertex
100
AcDb2dVertex
 10
66.10555
 20
-49.255579
 30
0.0
  0
VERTEX
  5
4DE
330
4DA
100
AcDbEntity
  8
001
370
    50
100
AcDbVertex
100
AcDb2dVertex
 10
63.836819
 20
-49.431326
 30
0.0
  0
VERTEX
  5
4DF
330
4DA
100
AcDbEntity
  8
001
370
    50
100
AcDbVertex
100
AcDb2dVertex
 10
61.209926
 20
-49.635581
 30
0.0
  0
VERTEX
  5
4E0
330
4DA
100
AcDbEntity
  8
001
370
    50
100
AcDbVertex
100
AcDb2dVertex
 10
58.089542
 20
-49.879488
 30
0.0
  0
VERTEX
  5
4E1
330
4DA
100
AcDbEntity
  8
001
370
    50
100
AcDbVertex
100
AcDb2dVertex
 10
55.394737
 20
-50.091058
 30
0.0
  0
VERTEX
  5
4E2
330
4DA
100
AcDbEntity
  8
001
370
    50
100
AcDbVertex
100
AcDb2dVertex
 10
53.55096
 20
-50.236293
 30
0.0
  0
SEQEND
  5
4DB
330
4DA
100
AcDbEntity
  8
001
370
    50
  0
POLYLINE
  5
4E3
330
1F
100
AcDbEntity
  8
001
370
    50
100
AcDb2dPolyline
 66
     1
 10
0.0
 20
0.0
 30
0.0
  0
VERTEX
  5
4E5
330
4E3
100
AcDbEntity
  8
001
370
    50
100
AcDbVertex
100
AcDb2dVertex
 10
67.657866
 20
-49.135673
 30
0.0
  0
VERTEX
  5
4E6
330
4E3
100
AcDbEntity
  8
001
370
    50
100
AcDbVertex
100
AcDb2dVertex
 10
67.534953
 20
-48.372137
 30
0.0
  0
VERTEX
  5
4E7
330
4E3
100
AcDbEntity
  8
001
370
    50
100
AcDbVertex
100
AcDb2dVertex
 10
67.331303
 20
-47.260605
 30
0.0
  0
VERTEX
  5
4E8
330
4E3
100
AcDbEntity
  8
001
370
    50
100
AcDbVertex
100
AcDb2dVertex
 10
67.101402
 20
-46.190465
 30
0.0
  0
VERTEX
  5
4E9
330
4E3
100
AcDbEntity
  8
001
370
    50
100
AcDbVertex
100
AcDb2dVertex
 10
66.927925
 20
-45.461754
 30
0.0
  0
SEQEND
  5
4E4
330
4E3
100
AcDbEntity
  8
001
370
    50
  0
POLYLINE
  5
4EA
330
1F
100
AcDbEntity
  8
001
370
    50
100
AcDb2dPolyline
 66
     1
 10
0.0
 20
0.0
 30
0.0
  0
VERTEX
  5
4EC
330
4EA
100
AcDbEntity
  8
001
370
    50
100
AcDbVertex
100
AcDb2dVertex
 10
67.873974
 20
-45.394471
 30
0.0
  0
VERTEX
  5
4ED
330
4EA
100
AcDbEntity
  8
001
370
    50
100
AcDbVertex
100
AcDb2dVertex
 10
67.681844
 20
-45.408126
 30
0.0
  0
VERTEX
  5
4EE
330
4EA
100
AcDbEntity
  8
001
370
    50
100
AcDbVertex
100
AcDb2dVertex
 10
67.401038
 20
-45.428091
 30
0.0
  0
VERTEX
  5
4EF
330
4EA
100
AcDbEntity
  8
001
370
    50
100
AcDbVertex
100
AcDb2dVertex
 10
67.120127
 20
-45.448075
 30
0.0
  0
VERTEX
  5
4F0
330
4EA
100
AcDbEntity
  8
001
370
    50
100
AcDbVertex
100
AcDb2dVertex
 10
66.927925
 20
-45.461754
 30
0.0
  0
SEQEND
  5
4EB
330
4EA
100
AcDbEntity
  8
001
370
    50
  0
LINE
  5
4F1
330
1F
100
AcDbEntity
  8
001
370
    50
100
AcDbLine
 10
53.55096
 20
-50.236293
 30
0.0
 11
53.55096
 21
-60.142557
 31
0.0
  0
LINE
  5
4F2
330
1F
100
AcDbEntity
  8
001
370
    50
100
AcDbLine
 10
53.55096
 20
-50.236293
 30
0.0
 11
52.656315
 21
-50.563205
 31
0.0
  0
LINE
  5
4F3
330
1F
100
AcDbEntity
  8
001
370
    50
100
AcDbLine
 10
52.656315
 20
-50.563205
 30
0.0
 11
52.656315
 21
-60.312111
 31
0.0
  0
POLYLINE
  5
4F4
330
1F
100
AcDbEntity
  8
001
370
    50
100
AcDb2dPolyline
 66
     1
 10
0.0
 20
0.0
 30
0.0
  0
VERTEX
  5
4F6
330
4F4
100
AcDbEntity
  8
001
370
    50
100
AcDbVertex
100
AcDb2dVertex
 10
58.149462
 20
-62.263499
 30
0.0
  0
VERTEX
  5
4F7
330
4F4
100
AcDbEntity
  8
001
370
    50
100
AcDbVertex
100
AcDb2dVertex
 10
58.154415
 20
-62.295919
 30
0.0
  0
VERTEX
  5
4F8
330
4F4
100
AcDbEntity
  8
001
370
    50
100
AcDbVertex
100
AcDb2dVertex
 10
58.163275
 20
-62.341646
 30
0.0
  0
VERTEX
  5
4F9
330
4F4
100
AcDbEntity
  8
001
370
    50
100
AcDbVertex
100
AcDb2dVertex
 10
58.20128
 20
-62.46286
 30
0.0
  0
VERTEX
  5
4FA
330
4F4
100
AcDbEntity
  8
001
370
    50
100
AcDbVertex
100
AcDb2dVertex
 10
58.253911
 20
-62.562747
 30
0.0
  0
VERTEX
  5
4FB
330
4F4
100
AcDbEntity
  8
001
370
    50
100
AcDbVertex
100
AcDb2dVertex
 10
58.329754
 20
-62.67291
 30
0.0
  0
VERTEX
  5
4FC
330
4F4
100
AcDbEntity
  8
001
370
    50
100
AcDbVertex
100
AcDb2dVertex
 10
58.418354
 20
-62.779236
 30
0.0
  0
VERTEX
  5
4FD
330
4F4
100
AcDbEntity
  8
001
370
    50
100
AcDbVertex
100
AcDb2dVertex
 10
58.823935
 20
-63.107602
 30
0.0
  0
VERTEX
  5
4FE
330
4F4
100
AcDbEntity
  8
001
370
    50
100
AcDbVertex
100
AcDb2dVertex
 10
59.294321
 20
-63.337137
 30
0.0
  0
VERTEX
  5
4FF
330
4F4
100
AcDbEntity
  8
001
370
    50
100
AcDbVertex
100
AcDb2dVertex
 10
59.694871
 20
-63.476035
 30
0.0
  0
VERTEX
  5
500
330
4F4
100
AcDbEntity
  8
001
370
    50
100
AcDbVertex
100
AcDb2dVertex
 10
60.10453
 20
-63.578027
 30
0.0
  0
VERTEX
  5
501
330
4F4
100
AcDbEntity
  8
001
370
    50
100
AcDbVertex
100
AcDb2dVertex
 10
60.322622
 20
-63.617203
 30
0.0
  0
VERTEX
  5
502
330
4F4
100
AcDbEntity
  8
001
370
    50
100
AcDbVertex
100
AcDb2dVertex
 10
60.542385
 20
-63.646864
 30
0.0
  0
VERTEX
  5
503
330
4F4
100
AcDbEntity
  8
001
370
    50
100
AcDbVertex
100
AcDb2dVertex
 10
60.763217
 20
-63.667215
 30
0.0
  0
VERTEX
  5
504
330
4F4
100
AcDbEntity
  8
001
370
    50
100
AcDbVertex
100
AcDb2dVertex
 10
60.984512
 20
-63.678149
 30
0.0
  0
VERTEX
  5
505
330
4F4
100
AcDbEntity
  8
001
370
    50
100
AcDbVertex
100
AcDb2dVertex
 10
61.406381
 20
-63.671641
 30
0.0
  0
VERTEX
  5
506
330
4F4
100
AcDbEntity
  8
001
370
    50
100
AcDbVertex
100
AcDb2dVertex
 10
61.828127
 20
-63.625427
 30
0.0
  0
VERTEX
  5
507
330
4F4
100
AcDbEntity
  8
001
370
    50
100
AcDbVertex
100
AcDb2dVertex
 10
62.339308
 20
-63.502929
 30
0.0
  0
VERTEX
  5
508
330
4F4
100
AcDbEntity
  8
001
370
    50
100
AcDbVertex
100
AcDb2dVertex
 10
62.807035
 20
-63.278568
 30
0.0
  0
VERTEX
  5
509
330
4F4
100
AcDbEntity
  8
001
370
    50
100
AcDbVertex
100
AcDb2dVertex
 10
62.916338
 20
-63.198158
 30
0.0
  0
VERTEX
  5
50A
330
4F4
100
AcDbEntity
  8
001
370
    50
100
AcDbVertex
100
AcDb2dVertex
 10
63.015908
 20
-63.104555
 30
0.0
  0
VERTEX
  5
50B
330
4F4
100
AcDbEntity
  8
001
370
    50
100
AcDbVertex
100
AcDb2dVertex
 10
63.092162
 20
-63.009983
 30
0.0
  0
VERTEX
  5
50C
330
4F4
100
AcDbEntity
  8
001
370
    50
100
AcDbVertex
100
AcDb2dVertex
 10
63.153898
 20
-62.909466
 30
0.0
  0
VERTEX
  5
50D
330
4F4
100
AcDbEntity
  8
001
370
    50
100
AcDbVertex
100
AcDb2dVertex
 10
63.194416
 20
-62.813829
 30
0.0
  0
VERTEX
  5
50E
330
4F4
100
AcDbEntity
  8
001
370
    50
100
AcDbVertex
100
AcDb2dVertex
 10
63.216811
 20
-62.69923
 30
0.0
  0
VERTEX
  5
50F
330
4F4
100
AcDbEntity
  8
001
370
    50
100
AcDbVertex
100
AcDb2dVertex
 10
63.219745
 20
-62.658796
 30
0.0
  0
VERTEX
  5
510
330
4F4
100
AcDbEntity
  8
001
370
    50
100
AcDbVertex
100
AcDb2dVertex
 10
63.22071
 20
-62.630301
 30
0.0
  0
SEQEND
  5
4F5
330
4F4
100
AcDbEntity
  8
001
370
    50
  0
POLYLINE
  5
511
330
1F
100
AcDbEntity
  8
001
370
    50
100
AcDb2dPolyline
 66
     1
 10
0.0
 20
0.0
 30
0.0
  0
VERTEX
  5
513
330
511
100
AcDbEntity
  8
001
370
    50
100
AcDbVertex
100
AcDb2dVertex
 10
63.216548
 20
-62.558381
 30
0.0
  0
VERTEX
  5
514
330
511
100
AcDbEntity
  8
001
370
    50
100
AcDbVertex
100
AcDb2dVertex
 10
63.211595
 20
-62.525961
 30
0.0
  0
VERTEX
  5
515
330
511
100
AcDbEntity
  8
001
370
    50
100
AcDbVertex
100
AcDb2dVertex
 10
63.202735
 20
-62.480234
 30
0.0
  0
VERTEX
  5
516
330
511
100
AcDbEntity
  8
001
370
    50
100
AcDbVertex
100
AcDb2dVertex
 10
63.16473
 20
-62.35902
 30
0.0
  0
VERTEX
  5
517
330
511
100
AcDbEntity
  8
001
370
    50
100
AcDbVertex
100
AcDb2dVertex
 10
63.112098
 20
-62.259133
 30
0.0
  0
VERTEX
  5
518
330
511
100
AcDbEntity
  8
001
370
    50
100
AcDbVertex
100
AcDb2dVertex
 10
63.036256
 20
-62.14897
 30
0.0
  0
VERTEX
  5
519
330
511
100
AcDbEntity
  8
001
370
    50
100
AcDbVertex
100
AcDb2dVertex
 10
62.947655
 20
-62.042644
 30
0.0
  0
VERTEX
  5
51A
330
511
100
AcDbEntity
  8
001
370
    50
100
AcDbVertex
100
AcDb2dVertex
 10
62.542075
 20
-61.714278
 30
0.0
  0
VERTEX
  5
51B
330
511
100
AcDbEntity
  8
001
370
    50
100
AcDbVertex
100
AcDb2dVertex
 10
62.071688
 20
-61.484743
 30
0.0
  0
VERTEX
  5
51C
330
511
100
AcDbEntity
  8
001
370
    50
100
AcDbVertex
100
AcDb2dVertex
 10
61.671139
 20
-61.345845
 30
0.0
  0
VERTEX
  5
51D
330
511
100
AcDbEntity
  8
001
370
    50
100
AcDbVertex
100
AcDb2dVertex
 10
61.261479
 20
-61.243853
 30
0.0
  0
VERTEX
  5
51E
330
511
100
AcDbEntity
  8
001
370
    50
100
AcDbVertex
100
AcDb2dVertex
 10
61.043387
 20
-61.204678
 30
0.0
  0
VERTEX
  5
51F
330
511
100
AcDbEntity
  8
001
370
    50
100
AcDbVertex
100
AcDb2dVertex
 10
60.823625
 20
-61.175016
 30
0.0
  0
VERTEX
  5
520
330
511
100
AcDbEntity
  8
001
370
    50
100
AcDbVertex
100
AcDb2dVertex
 10
60.602794
 20
-61.154661
 30
0.0
  0
VERTEX
  5
521
330
511
100
AcDbEntity
  8
001
370
    50
100
AcDbVertex
100
AcDb2dVertex
 10
60.381498
 20
-61.143731
 30
0.0
  0
VERTEX
  5
522
330
511
100
AcDbEntity
  8
001
370
    50
100
AcDbVertex
100
AcDb2dVertex
 10
59.95961
 20
-61.150274
 30
0.0
  0
VERTEX
  5
523
330
511
100
AcDbEntity
  8
001
370
    50
100
AcDbVertex
100
AcDb2dVertex
 10
59.537882
 20
-61.196453
 30
0.0
  0
VERTEX
  5
524
330
511
100
AcDbEntity
  8
001
370
    50
100
AcDbVertex
100
AcDb2dVertex
 10
59.026799
 20
-61.318764
 30
0.0
  0
VERTEX
  5
525
330
511
100
AcDbEntity
  8
001
370
    50
100
AcDbVertex
100
AcDb2dVertex
 10
58.558975
 20
-61.543312
 30
0.0
  0
VERTEX
  5
526
330
511
100
AcDbEntity
  8
001
370
    50
100
AcDbVertex
100
AcDb2dVertex
 10
58.4496
 20
-61.623859
 30
0.0
  0
VERTEX
  5
527
330
511
100
AcDbEntity
  8
001
370
    50
100
AcDbVertex
100
AcDb2dVertex
 10
58.350101
 20
-61.717325
 30
0.0
  0
VERTEX
  5
528
330
511
100
AcDbEntity
  8
001
370
    50
100
AcDbVertex
100
AcDb2dVertex
 10
58.274045
 20
-61.81152
 30
0.0
  0
VERTEX
  5
529
330
511
100
AcDbEntity
  8
001
370
    50
100
AcDbVertex
100
AcDb2dVertex
 10
58.212112
 20
-61.912414
 30
0.0
  0
VERTEX
  5
52A
330
511
100
AcDbEntity
  8
001
370
    50
100
AcDbVertex
100
AcDb2dVertex
 10
58.170954
 20
-62.009275
 30
0.0
  0
VERTEX
  5
52B
330
511
100
AcDbEntity
  8
001
370
    50
100
AcDbVertex
100
AcDb2dVertex
 10
58.149199
 20
-62.12265
 30
0.0
  0
VERTEX
  5
52C
330
511
100
AcDbEntity
  8
001
370
    50
100
AcDbVertex
100
AcDb2dVertex
 10
58.146633
 20
-62.204697
 30
0.0
  0
VERTEX
  5
52D
330
511
100
AcDbEntity
  8
001
370
    50
100
AcDbVertex
100
AcDb2dVertex
 10
58.149462
 20
-62.263499
 30
0.0
  0
SEQEND
  5
512
330
511
100
AcDbEntity
  8
001
370
    50
  0
LINE
  5
52E
330
1F
100
AcDbEntity
  8
001
370
    50
100
AcDbLine
 10
66.746213
 20
-45.629423
 30
0.0
 11
66.927925
 21
-45.461754
 31
0.0
  0
LINE
  5
52F
330
1F
100
AcDbEntity
  8
001
370
    50
100
AcDbLine
 10
73.691126
 20
-31.10357
 30
0.0
 11
74.140618
 21
-36.30357
 31
0.0
  0
POLYLINE
  5
530
330
1F
100
AcDbEntity
  8
001
370
    50
100
AcDb2dPolyline
 66
     1
 10
0.0
 20
0.0
 30
0.0
  0
VERTEX
  5
532
330
530
100
AcDbEntity
  8
001
370
    50
100
AcDbVertex
100
AcDb2dVertex
 10
74.191724
 20
-82.334298
 30
0.0
  0
VERTEX
  5
533
330
530
100
AcDbEntity
  8
001
370
    50
100
AcDbVertex
100
AcDb2dVertex
 10
74.093428
 20
-82.093751
 30
0.0
  0
VERTEX
  5
534
330
530
100
AcDbEntity
  8
001
370
    50
100
AcDbVertex
100
AcDb2dVertex
 10
73.990013
 20
-81.855481
 30
0.0
  0
VERTEX
  5
535
330
530
100
AcDbEntity
  8
001
370
    50
100
AcDbVertex
100
AcDb2dVertex
 10
73.764662
 20
-81.408713
 30
0.0
  0
VERTEX
  5
536
330
530
100
AcDbEntity
  8
001
370
    50
100
AcDbVertex
100
AcDb2dVertex
 10
73.507419
 20
-80.978911
 30
0.0
  0
VERTEX
  5
537
330
530
100
AcDbEntity
  8
001
370
    50
100
AcDbVertex
100
AcDb2dVertex
 10
73.203393
 20
-80.539385
 30
0.0
  0
VERTEX
  5
538
330
530
100
AcDbEntity
  8
001
370
    50
100
AcDbVertex
100
AcDb2dVertex
 10
72.870444
 20
-80.12171
 30
0.0
  0
VERTEX
  5
539
330
530
100
AcDbEntity
  8
001
370
    50
100
AcDbVertex
100
AcDb2dVertex
 10
72.575914
 20
-79.796772
 30
0.0
  0
VERTEX
  5
53A
330
530
100
AcDbEntity
  8
001
370
    50
100
AcDbVertex
100
AcDb2dVertex
 10
72.263189
 20
-79.48919
 30
0.0
  0
VERTEX
  5
53B
330
530
100
AcDbEntity
  8
001
370
    50
100
AcDbVertex
100
AcDb2dVertex
 10
71.905892
 20
-79.177407
 30
0.0
  0
VERTEX
  5
53C
330
530
100
AcDbEntity
  8
001
370
    50
100
AcDbVertex
100
AcDb2dVertex
 10
71.530096
 20
-78.888476
 30
0.0
  0
VERTEX
  5
53D
330
530
100
AcDbEntity
  8
001
370
    50
100
AcDbVertex
100
AcDb2dVertex
 10
71.504312
 20
-78.869966
 30
0.0
  0
VERTEX
  5
53E
330
530
100
AcDbEntity
  8
001
370
    50
100
AcDbVertex
100
AcDb2dVertex
 10
71.47849
 20
-78.851512
 30
0.0
  0
SEQEND
  5
531
330
530
100
AcDbEntity
  8
001
370
    50
  0
POLYLINE
  5
53F
330
1F
100
AcDbEntity
  8
001
370
    50
100
AcDb2dPolyline
 66
     1
 10
0.0
 20
0.0
 30
0.0
  0
VERTEX
  5
541
330
53F
100
AcDbEntity
  8
001
370
    50
100
AcDbVertex
100
AcDb2dVertex
 10
74.64571
 20
-43.185974
 30
0.0
  0
VERTEX
  5
542
330
53F
100
AcDbEntity
  8
001
370
    50
100
AcDbVertex
100
AcDb2dVertex
 10
74.651397
 20
-43.273703
 30
0.0
  0
VERTEX
  5
543
330
53F
100
AcDbEntity
  8
001
370
    50
100
AcDbVertex
100
AcDb2dVertex
 10
74.656905
 20
-43.361445
 30
0.0
  0
VERTEX
  5
544
330
53F
100
AcDbEntity
  8
001
370
    50
100
AcDbVertex
100
AcDb2dVertex
 10
74.684207
 20
-43.927618
 30
0.0
  0
VERTEX
  5
545
330
53F
100
AcDbEntity
  8
001
370
    50
100
AcDbVertex
100
AcDb2dVertex
 10
74.697926
 20
-44.494301
 30
0.0
  0
VERTEX
  5
546
330
53F
100
AcDbEntity
  8
001
370
    50
100
AcDbVertex
100
AcDb2dVertex
 10
74.699791
 20
-44.679281
 30
0.0
  0
VERTEX
  5
547
330
53F
100
AcDbEntity
  8
001
370
    50
100
AcDbVertex
100
AcDb2dVertex
 10
74.701005
 20
-44.864263
 30
0.0
  0
SEQEND
  5
540
330
53F
100
AcDbEntity
  8
001
370
    50
  0
POLYLINE
  5
548
330
1F
100
AcDbEntity
  8
001
370
    50
100
AcDb2dPolyline
 66
     1
 10
0.0
 20
0.0
 30
0.0
  0
VERTEX
  5
54A
330
548
100
AcDbEntity
  8
001
370
    50
100
AcDbVertex
100
AcDb2dVertex
 10
74.64571
 20
-43.185974
 30
0.0
  0
VERTEX
  5
54B
330
548
100
AcDbEntity
  8
001
370
    50
100
AcDbVertex
100
AcDb2dVertex
 10
74.496338
 20
-41.006193
 30
0.0
  0
VERTEX
  5
54C
330
548
100
AcDbEntity
  8
001
370
    50
100
AcDbVertex
100
AcDb2dVertex
 10
74.262739
 20
-37.82149
 30
0.0
  0
VERTEX
  5
54D
330
548
100
AcDbEntity
  8
001
370
    50
100
AcDbVertex
100
AcDb2dVertex
 10
74.191454
 20
-36.920126
 30
0.0
  0
VERTEX
  5
54E
330
548
100
AcDbEntity
  8
001
370
    50
100
AcDbVertex
100
AcDb2dVertex
 10
74.140618
 20
-36.30357
 30
0.0
  0
SEQEND
  5
549
330
548
100
AcDbEntity
  8
001
370
    50
  0
POLYLINE
  5
54F
330
1F
100
AcDbEntity
  8
001
370
    50
100
AcDb2dPolyline
 66
     1
 10
0.0
 20
0.0
 30
0.0
  0
VERTEX
  5
551
330
54F
100
AcDbEntity
  8
001
370
    50
100
AcDbVertex
100
AcDb2dVertex
 10
66.927925
 20
-109.000323
 30
0.0
  0
VERTEX
  5
552
330
54F
100
AcDbEntity
  8
001
370
    50
100
AcDbVertex
100
AcDb2dVertex
 10
67.120128
 20
-108.994453
 30
0.0
  0
VERTEX
  5
553
330
54F
100
AcDbEntity
  8
001
370
    50
100
AcDbVertex
100
AcDb2dVertex
 10
67.401038
 20
-108.985857
 30
0.0
  0
VERTEX
  5
554
330
54F
100
AcDbEntity
  8
001
370
    50
100
AcDbVertex
100
AcDb2dVertex
 10
67.681844
 20
-108.97724
 30
0.0
  0
VERTEX
  5
555
330
54F
100
AcDbEntity
  8
001
370
    50
100
AcDbVertex
100
AcDb2dVertex
 10
67.873974
 20
-108.971334
 30
0.0
  0
SEQEND
  5
550
330
54F
100
AcDbEntity
  8
001
370
    50
  0
LINE
  5
556
330
1F
100
AcDbEntity
  8
001
370
    50
100
AcDbLine
 10
65.362618
 20
-106.38227
 30
0.0
 11
66.927925
 21
-109.000323
 31
0.0
  0
POLYLINE
  5
557
330
1F
100
AcDbEntity
  8
001
370
    50
100
AcDb2dPolyline
 66
     1
 10
0.0
 20
0.0
 30
0.0
  0
VERTEX
  5
559
330
557
100
AcDbEntity
  8
001
370
    50
100
AcDbVertex
100
AcDb2dVertex
 10
61.890192
 20
-97.860665
 30
0.0
  0
VERTEX
  5
55A
330
557
100
AcDbEntity
  8
001
370
    50
100
AcDbVertex
100
AcDb2dVertex
 10
61.877806
 20
-97.749182
 30
0.0
  0
VERTEX
  5
55B
330
557
100
AcDbEntity
  8
001
370
    50
100
AcDbVertex
100
AcDb2dVertex
 10
61.855298
 20
-97.590609
 30
0.0
  0
VERTEX
  5
55C
330
557
100
AcDbEntity
  8
001
370
    50
100
AcDbVertex
100
AcDb2dVertex
 10
61.717858
 20
-97.051836
 30
0.0
  0
VERTEX
  5
55D
330
557
100
AcDbEntity
  8
001
370
    50
100
AcDbVertex
100
AcDb2dVertex
 10
61.500713
 20
-96.611554
 30
0.0
  0
VERTEX
  5
55E
330
557
100
AcDbEntity
  8
001
370
    50
100
AcDbVertex
100
AcDb2dVertex
 10
61.029143
 20
-96.004926
 30
0.0
  0
VERTEX
  5
55F
330
557
100
AcDbEntity
  8
001
370
    50
100
AcDbVertex
100
AcDb2dVertex
 10
60.408066
 20
-95.513477
 30
0.0
  0
VERTEX
  5
560
330
557
100
AcDbEntity
  8
001
370
    50
100
AcDbVertex
100
AcDb2dVertex
 10
60.173569
 20
-95.391686
 30
0.0
  0
VERTEX
  5
561
330
557
100
AcDbEntity
  8
001
370
    50
100
AcDbVertex
100
AcDb2dVertex
 10
59.93647
 20
-95.292476
 30
0.0
  0
VERTEX
  5
562
330
557
100
AcDbEntity
  8
001
370
    50
100
AcDbVertex
100
AcDb2dVertex
 10
59.699358
 20
-95.214045
 30
0.0
  0
VERTEX
  5
563
330
557
100
AcDbEntity
  8
001
370
    50
100
AcDbVertex
100
AcDb2dVertex
 10
59.433852
 20
-95.15713
 30
0.0
  0
VERTEX
  5
564
330
557
100
AcDbEntity
  8
001
370
    50
100
AcDbVertex
100
AcDb2dVertex
 10
59.134292
 20
-95.122927
 30
0.0
  0
VERTEX
  5
565
330
557
100
AcDbEntity
  8
001
370
    50
100
AcDbVertex
100
AcDb2dVertex
 10
58.915483
 20
-95.111554
 30
0.0
  0
SEQEND
  5
558
330
557
100
AcDbEntity
  8
001
370
    50
  0
POLYLINE
  5
566
330
1F
100
AcDbEntity
  8
001
370
    50
100
AcDb2dPolyline
 66
     1
 10
0.0
 20
0.0
 30
0.0
  0
VERTEX
  5
568
330
566
100
AcDbEntity
  8
001
370
    50
100
AcDbVertex
100
AcDb2dVertex
 10
60.161869
 20
-80.880645
 30
0.0
  0
VERTEX
  5
569
330
566
100
AcDbEntity
  8
001
370
    50
100
AcDbVertex
100
AcDb2dVertex
 10
59.436423
 20
-82.313826
 30
0.0
  0
VERTEX
  5
56A
330
566
100
AcDbEntity
  8
001
370
    50
100
AcDbVertex
100
AcDb2dVertex
 10
58.702513
 20
-83.742617
 30
0.0
  0
VERTEX
  5
56B
330
566
100
AcDbEntity
  8
001
370
    50
100
AcDbVertex
100
AcDb2dVertex
 10
57.954091
 20
-85.163839
 30
0.0
  0
VERTEX
  5
56C
330
566
100
AcDbEntity
  8
001
370
    50
100
AcDbVertex
100
AcDb2dVertex
 10
57.194699
 20
-86.579297
 30
0.0
  0
VERTEX
  5
56D
330
566
100
AcDbEntity
  8
001
370
    50
100
AcDbVertex
100
AcDb2dVertex
 10
56.172639
 20
-88.462727
 30
0.0
  0
VERTEX
  5
56E
330
566
100
AcDbEntity
  8
001
370
    50
100
AcDbVertex
100
AcDb2dVertex
 10
55.142508
 20
-90.341718
 30
0.0
  0
VERTEX
  5
56F
330
566
100
AcDbEntity
  8
001
370
    50
100
AcDbVertex
100
AcDb2dVertex
 10
54.105155
 20
-92.216721
 30
0.0
  0
VERTEX
  5
570
330
566
100
AcDbEntity
  8
001
370
    50
100
AcDbVertex
100
AcDb2dVertex
 10
53.381503
 20
-93.51624
 30
0.0
  0
VERTEX
  5
571
330
566
100
AcDbEntity
  8
001
370
    50
100
AcDbVertex
100
AcDb2dVertex
 10
52.656315
 20
-94.814906
 30
0.0
  0
SEQEND
  5
567
330
566
100
AcDbEntity
  8
001
370
    50
  0
LINE
  5
572
330
1F
100
AcDbEntity
  8
001
370
    50
100
AcDbLine
 10
60.161869
 20
-77.30357
 30
0.0
 11
60.161869
 21
-80.880645
 31
0.0
  0
POLYLINE
  5
573
330
1F
100
AcDbEntity
  8
001
370
    50
100
AcDb2dPolyline
 66
     1
 10
0.0
 20
0.0
 30
0.0
  0
VERTEX
  5
575
330
573
100
AcDbEntity
  8
001
370
    50
100
AcDbVertex
100
AcDb2dVertex
 10
66.927925
 20
-109.000323
 30
0.0
  0
VERTEX
  5
576
330
573
100
AcDbEntity
  8
001
370
    50
100
AcDbVertex
100
AcDb2dVertex
 10
67.015117
 20
-109.07056
 30
0.0
  0
VERTEX
  5
577
330
573
100
AcDbEntity
  8
001
370
    50
100
AcDbVertex
100
AcDb2dVertex
 10
67.14553
 20
-109.169328
 30
0.0
  0
VERTEX
  5
578
330
573
100
AcDbEntity
  8
001
370
    50
100
AcDbVertex
100
AcDb2dVertex
 10
67.441831
 20
-109.35813
 30
0.0
  0
VERTEX
  5
579
330
573
100
AcDbEntity
  8
001
370
    50
100
AcDbVertex
100
AcDb2dVertex
 10
67.657866
 20
-109.46369
 30
0.0
  0
SEQEND
  5
574
330
573
100
AcDbEntity
  8
001
370
    50
  0
POLYLINE
  5
57A
330
1F
100
AcDbEntity
  8
001
370
    50
100
AcDb2dPolyline
 66
     1
 10
0.0
 20
0.0
 30
0.0
  0
VERTEX
  5
57C
330
57A
100
AcDbEntity
  8
001
370
    50
100
AcDbVertex
100
AcDb2dVertex
 10
52.656315
 20
-93.152786
 30
0.0
  0
VERTEX
  5
57D
330
57A
100
AcDbEntity
  8
001
370
    50
100
AcDbVertex
100
AcDb2dVertex
 10
53.748241
 20
-91.005597
 30
0.0
  0
VERTEX
  5
57E
330
57A
100
AcDbEntity
  8
001
370
    50
100
AcDbVertex
100
AcDb2dVertex
 10
54.824407
 20
-88.850505
 30
0.0
  0
VERTEX
  5
57F
330
57A
100
AcDbEntity
  8
001
370
    50
100
AcDbVertex
100
AcDb2dVertex
 10
55.871067
 20
-86.678894
 30
0.0
  0
VERTEX
  5
580
330
57A
100
AcDbEntity
  8
001
370
    50
100
AcDbVertex
100
AcDb2dVertex
 10
56.878049
 20
-84.488623
 30
0.0
  0
VERTEX
  5
581
330
57A
100
AcDbEntity
  8
001
370
    50
100
AcDbVertex
100
AcDb2dVertex
 10
57.366339
 20
-83.379545
 30
0.0
  0
VERTEX
  5
582
330
57A
100
AcDbEntity
  8
001
370
    50
100
AcDbVertex
100
AcDb2dVertex
 10
57.839354
 20
-82.263923
 30
0.0
  0
VERTEX
  5
583
330
57A
100
AcDbEntity
  8
001
370
    50
100
AcDbVertex
100
AcDb2dVertex
 10
58.294517
 20
-81.13951
 30
0.0
  0
VERTEX
  5
584
330
57A
100
AcDbEntity
  8
001
370
    50
100
AcDbVertex
100
AcDb2dVertex
 10
58.728846
 20
-80.006759
 30
0.0
  0
VERTEX
  5
585
330
57A
100
AcDbEntity
  8
001
370
    50
100
AcDbVertex
100
AcDb2dVertex
 10
59.140823
 20
-78.858511
 30
0.0
  0
VERTEX
  5
586
330
57A
100
AcDbEntity
  8
001
370
    50
100
AcDbVertex
100
AcDb2dVertex
 10
59.518827
 20
-77.698922
 30
0.0
  0
VERTEX
  5
587
330
57A
100
AcDbEntity
  8
001
370
    50
100
AcDbVertex
100
AcDb2dVertex
 10
59.685508
 20
-77.140142
 30
0.0
  0
VERTEX
  5
588
330
57A
100
AcDbEntity
  8
001
370
    50
100
AcDbVertex
100
AcDb2dVertex
 10
59.847099
 20
-76.57981
 30
0.0
  0
SEQEND
  5
57B
330
57A
100
AcDbEntity
  8
001
370
    50
  0
POLYLINE
  5
589
330
1F
100
AcDbEntity
  8
001
370
    50
100
AcDb2dPolyline
 66
     1
 10
0.0
 20
0.0
 30
0.0
  0
VERTEX
  5
58B
330
589
100
AcDbEntity
  8
001
370
    50
100
AcDbVertex
100
AcDb2dVertex
 10
63.22071
 20
-43.232912
 30
0.0
  0
VERTEX
  5
58C
330
589
100
AcDbEntity
  8
001
370
    50
100
AcDbVertex
100
AcDb2dVertex
 10
63.219745
 20
-43.204418
 30
0.0
  0
VERTEX
  5
58D
330
589
100
AcDbEntity
  8
001
370
    50
100
AcDbVertex
100
AcDb2dVertex
 10
63.216811
 20
-43.163984
 30
0.0
  0
VERTEX
  5
58E
330
589
100
AcDbEntity
  8
001
370
    50
100
AcDbVertex
100
AcDb2dVertex
 10
63.194416
 20
-43.049384
 30
0.0
  0
VERTEX
  5
58F
330
589
100
AcDbEntity
  8
001
370
    50
100
AcDbVertex
100
AcDb2dVertex
 10
63.153898
 20
-42.953748
 30
0.0
  0
VERTEX
  5
590
330
589
100
AcDbEntity
  8
001
370
    50
100
AcDbVertex
100
AcDb2dVertex
 10
63.092162
 20
-42.853231
 30
0.0
  0
VERTEX
  5
591
330
589
100
AcDbEntity
  8
001
370
    50
100
AcDbVertex
100
AcDb2dVertex
 10
63.015908
 20
-42.758659
 30
0.0
  0
VERTEX
  5
592
330
589
100
AcDbEntity
  8
001
370
    50
100
AcDbVertex
100
AcDb2dVertex
 10
62.916338
 20
-42.665056
 30
0.0
  0
VERTEX
  5
593
330
589
100
AcDbEntity
  8
001
370
    50
100
AcDbVertex
100
AcDb2dVertex
 10
62.807035
 20
-42.584646
 30
0.0
  0
VERTEX
  5
594
330
589
100
AcDbEntity
  8
001
370
    50
100
AcDbVertex
100
AcDb2dVertex
 10
62.339308
 20
-42.360285
 30
0.0
  0
VERTEX
  5
595
330
589
100
AcDbEntity
  8
001
370
    50
100
AcDbVertex
100
AcDb2dVertex
 10
61.828127
 20
-42.237787
 30
0.0
  0
VERTEX
  5
596
330
589
100
AcDbEntity
  8
001
370
    50
100
AcDbVertex
100
AcDb2dVertex
 10
61.406381
 20
-42.191573
 30
0.0
  0
VERTEX
  5
597
330
589
100
AcDbEntity
  8
001
370
    50
100
AcDbVertex
100
AcDb2dVertex
 10
60.984512
 20
-42.185065
 30
0.0
  0
VERTEX
  5
598
330
589
100
AcDbEntity
  8
001
370
    50
100
AcDbVertex
100
AcDb2dVertex
 10
60.763217
 20
-42.195999
 30
0.0
  0
VERTEX
  5
599
330
589
100
AcDbEntity
  8
001
370
    50
100
AcDbVertex
100
AcDb2dVertex
 10
60.542385
 20
-42.21635
 30
0.0
  0
VERTEX
  5
59A
330
589
100
AcDbEntity
  8
001
370
    50
100
AcDbVertex
100
AcDb2dVertex
 10
60.322622
 20
-42.246011
 30
0.0
  0
VERTEX
  5
59B
330
589
100
AcDbEntity
  8
001
370
    50
100
AcDbVertex
100
AcDb2dVertex
 10
60.10453
 20
-42.285187
 30
0.0
  0
VERTEX
  5
59C
330
589
100
AcDbEntity
  8
001
370
    50
100
AcDbVertex
100
AcDb2dVertex
 10
59.694871
 20
-42.387179
 30
0.0
  0
VERTEX
  5
59D
330
589
100
AcDbEntity
  8
001
370
    50
100
AcDbVertex
100
AcDb2dVertex
 10
59.294321
 20
-42.526077
 30
0.0
  0
VERTEX
  5
59E
330
589
100
AcDbEntity
  8
001
370
    50
100
AcDbVertex
100
AcDb2dVertex
 10
58.823935
 20
-42.755612
 30
0.0
  0
VERTEX
  5
59F
330
589
100
AcDbEntity
  8
001
370
    50
100
AcDbVertex
100
AcDb2dVertex
 10
58.418354
 20
-43.083978
 30
0.0
  0
VERTEX
  5
5A0
330
589
100
AcDbEntity
  8
001
370
    50
100
AcDbVertex
100
AcDb2dVertex
 10
58.329754
 20
-43.190304
 30
0.0
  0
VERTEX
  5
5A1
330
589
100
AcDbEntity
  8
001
370
    50
100
AcDbVertex
100
AcDb2dVertex
 10
58.253911
 20
-43.300467
 30
0.0
  0
VERTEX
  5
5A2
330
589
100
AcDbEntity
  8
001
370
    50
100
AcDbVertex
100
AcDb2dVertex
 10
58.20128
 20
-43.400354
 30
0.0
  0
VERTEX
  5
5A3
330
589
100
AcDbEntity
  8
001
370
    50
100
AcDbVertex
100
AcDb2dVertex
 10
58.163275
 20
-43.521568
 30
0.0
  0
VERTEX
  5
5A4
330
589
100
AcDbEntity
  8
001
370
    50
100
AcDbVertex
100
AcDb2dVertex
 10
58.154415
 20
-43.567295
 30
0.0
  0
VERTEX
  5
5A5
330
589
100
AcDbEntity
  8
001
370
    50
100
AcDbVertex
100
AcDb2dVertex
 10
58.149462
 20
-43.599715
 30
0.0
  0
SEQEND
  5
58A
330
589
100
AcDbEntity
  8
001
370
    50
  0
LINE
  5
5A6
330
1F
100
AcDbEntity
  8
001
370
    50
100
AcDbLine
 10
52.656315
 20
-46.060357
 30
0.0
 11
52.656315
 21
-42.741112
 31
0.0
  0
LINE
  5
5A7
330
1F
100
AcDbEntity
  8
001
370
    50
100
AcDbLine
 10
52.656315
 20
-42.741112
 30
0.0
 11
53.55096
 21
-42.416891
 31
0.0
  0
POLYLINE
  5
5A8
330
1F
100
AcDbEntity
  8
001
370
    50
100
AcDb2dPolyline
 66
     1
 10
0.0
 20
0.0
 30
0.0
  0
VERTEX
  5
5AA
330
5A8
100
AcDbEntity
  8
001
370
    50
100
AcDbVertex
100
AcDb2dVertex
 10
67.873974
 20
-41.490337
 30
0.0
  0
VERTEX
  5
5AB
330
5A8
100
AcDbEntity
  8
001
370
    50
100
AcDbVertex
100
AcDb2dVertex
 10
66.156981
 20
-41.599794
 30
0.0
  0
VERTEX
  5
5AC
330
5A8
100
AcDbEntity
  8
001
370
    50
100
AcDbVertex
100
AcDb2dVertex
 10
63.647578
 20
-41.760516
 30
0.0
  0
VERTEX
  5
5AD
330
5A8
100
AcDbEntity
  8
001
370
    50
100
AcDbVertex
100
AcDb2dVertex
 10
60.742026
 20
-41.94774
 30
0.0
  0
VERTEX
  5
5AE
330
5A8
100
AcDbEntity
  8
001
370
    50
100
AcDbVertex
100
AcDb2dVertex
 10
57.812275
 20
-42.137996
 30
0.0
  0
VERTEX
  5
5AF
330
5A8
100
AcDbEntity
  8
001
370
    50
100
AcDbVertex
100
AcDb2dVertex
 10
55.2821
 20
-42.30329
 30
0.0
  0
VERTEX
  5
5B0
330
5A8
100
AcDbEntity
  8
001
370
    50
100
AcDbVertex
100
AcDb2dVertex
 10
53.55096
 20
-42.416891
 30
0.0
  0
SEQEND
  5
5A9
330
5A8
100
AcDbEntity
  8
001
370
    50
  0
POLYLINE
  5
5B1
330
1F
100
AcDbEntity
  8
001
370
    50
100
AcDb2dPolyline
 66
     1
 10
0.0
 20
0.0
 30
0.0
  0
VERTEX
  5
5B3
330
5B1
100
AcDbEntity
  8
001
370
    50
100
AcDbVertex
100
AcDb2dVertex
 10
63.216548
 20
-43.304833
 30
0.0
  0
VERTEX
  5
5B4
330
5B1
100
AcDbEntity
  8
001
370
    50
100
AcDbVertex
100
AcDb2dVertex
 10
63.218041
 20
-43.29021
 30
0.0
  0
VERTEX
  5
5B5
330
5B1
100
AcDbEntity
  8
001
370
    50
100
AcDbVertex
100
AcDb2dVertex
 10
63.219669
 20
-43.268797
 30
0.0
  0
VERTEX
  5
5B6
330
5B1
100
AcDbEntity
  8
001
370
    50
100
AcDbVertex
100
AcDb2dVertex
 10
63.220513
 20
-43.2475
 30
0.0
  0
VERTEX
  5
5B7
330
5B1
100
AcDbEntity
  8
001
370
    50
100
AcDbVertex
100
AcDb2dVertex
 10
63.22071
 20
-43.232912
 30
0.0
  0
SEQEND
  5
5B2
330
5B1
100
AcDbEntity
  8
001
370
    50
  0
POLYLINE
  5
5B8
330
1F
100
AcDbEntity
  8
001
370
    50
100
AcDb2dPolyline
 66
     1
 10
0.0
 20
0.0
 30
0.0
  0
VERTEX
  5
5BA
330
5B8
100
AcDbEntity
  8
001
370
    50
100
AcDbVertex
100
AcDb2dVertex
 10
58.149462
 20
-43.599715
 30
0.0
  0
VERTEX
  5
5BB
330
5B8
100
AcDbEntity
  8
001
370
    50
100
AcDbVertex
100
AcDb2dVertex
 10
58.146633
 20
-43.658517
 30
0.0
  0
VERTEX
  5
5BC
330
5B8
100
AcDbEntity
  8
001
370
    50
100
AcDbVertex
100
AcDb2dVertex
 10
58.149199
 20
-43.740564
 30
0.0
  0
VERTEX
  5
5BD
330
5B8
100
AcDbEntity
  8
001
370
    50
100
AcDbVertex
100
AcDb2dVertex
 10
58.170954
 20
-43.853938
 30
0.0
  0
VERTEX
  5
5BE
330
5B8
100
AcDbEntity
  8
001
370
    50
100
AcDbVertex
100
AcDb2dVertex
 10
58.212112
 20
-43.9508
 30
0.0
  0
VERTEX
  5
5BF
330
5B8
100
AcDbEntity
  8
001
370
    50
100
AcDbVertex
100
AcDb2dVertex
 10
58.274045
 20
-44.051694
 30
0.0
  0
VERTEX
  5
5C0
330
5B8
100
AcDbEntity
  8
001
370
    50
100
AcDbVertex
100
AcDb2dVertex
 10
58.350101
 20
-44.145888
 30
0.0
  0
VERTEX
  5
5C1
330
5B8
100
AcDbEntity
  8
001
370
    50
100
AcDbVertex
100
AcDb2dVertex
 10
58.4496
 20
-44.239354
 30
0.0
  0
VERTEX
  5
5C2
330
5B8
100
AcDbEntity
  8
001
370
    50
100
AcDbVertex
100
AcDb2dVertex
 10
58.558975
 20
-44.319902
 30
0.0
  0
VERTEX
  5
5C3
330
5B8
100
AcDbEntity
  8
001
370
    50
100
AcDbVertex
100
AcDb2dVertex
 10
59.026799
 20
-44.54445
 30
0.0
  0
VERTEX
  5
5C4
330
5B8
100
AcDbEntity
  8
001
370
    50
100
AcDbVertex
100
AcDb2dVertex
 10
59.537882
 20
-44.66676
 30
0.0
  0
VERTEX
  5
5C5
330
5B8
100
AcDbEntity
  8
001
370
    50
100
AcDbVertex
100
AcDb2dVertex
 10
59.95961
 20
-44.71294
 30
0.0
  0
VERTEX
  5
5C6
330
5B8
100
AcDbEntity
  8
001
370
    50
100
AcDbVertex
100
AcDb2dVertex
 10
60.381498
 20
-44.719482
 30
0.0
  0
VERTEX
  5
5C7
330
5B8
100
AcDbEntity
  8
001
370
    50
100
AcDbVertex
100
AcDb2dVertex
 10
60.602794
 20
-44.708553
 30
0.0
  0
VERTEX
  5
5C8
330
5B8
100
AcDbEntity
  8
001
370
    50
100
AcDbVertex
100
AcDb2dVertex
 10
60.823625
 20
-44.688198
 30
0.0
  0
VERTEX
  5
5C9
330
5B8
100
AcDbEntity
  8
001
370
    50
100
AcDbVertex
100
AcDb2dVertex
 10
61.043387
 20
-44.658536
 30
0.0
  0
VERTEX
  5
5CA
330
5B8
100
AcDbEntity
  8
001
370
    50
100
AcDbVertex
100
AcDb2dVertex
 10
61.261479
 20
-44.61936
 30
0.0
  0
VERTEX
  5
5CB
330
5B8
100
AcDbEntity
  8
001
370
    50
100
AcDbVertex
100
AcDb2dVertex
 10
61.671139
 20
-44.517369
 30
0.0
  0
VERTEX
  5
5CC
330
5B8
100
AcDbEntity
  8
001
370
    50
100
AcDbVertex
100
AcDb2dVertex
 10
62.071688
 20
-44.378471
 30
0.0
  0
VERTEX
  5
5CD
330
5B8
100
AcDbEntity
  8
001
370
    50
100
AcDbVertex
100
AcDb2dVertex
 10
62.542075
 20
-44.148936
 30
0.0
  0
VERTEX
  5
5CE
330
5B8
100
AcDbEntity
  8
001
370
    50
100
AcDbVertex
100
AcDb2dVertex
 10
62.947655
 20
-43.82057
 30
0.0
  0
VERTEX
  5
5CF
330
5B8
100
AcDbEntity
  8
001
370
    50
100
AcDbVertex
100
AcDb2dVertex
 10
63.036256
 20
-43.714244
 30
0.0
  0
VERTEX
  5
5D0
330
5B8
100
AcDbEntity
  8
001
370
    50
100
AcDbVertex
100
AcDb2dVertex
 10
63.112098
 20
-43.604081
 30
0.0
  0
VERTEX
  5
5D1
330
5B8
100
AcDbEntity
  8
001
370
    50
100
AcDbVertex
100
AcDb2dVertex
 10
63.16473
 20
-43.504193
 30
0.0
  0
VERTEX
  5
5D2
330
5B8
100
AcDbEntity
  8
001
370
    50
100
AcDbVertex
100
AcDb2dVertex
 10
63.202735
 20
-43.38298
 30
0.0
  0
VERTEX
  5
5D3
330
5B8
100
AcDbEntity
  8
001
370
    50
100
AcDbVertex
100
AcDb2dVertex
 10
63.211595
 20
-43.337253
 30
0.0
  0
VERTEX
  5
5D4
330
5B8
100
AcDbEntity
  8
001
370
    50
100
AcDbVertex
100
AcDb2dVertex
 10
63.216548
 20
-43.304833
 30
0.0
  0
SEQEND
  5
5B9
330
5B8
100
AcDbEntity
  8
001
370
    50
  0
LINE
  5
5D5
330
1F
100
AcDbEntity
  8
001
370
    50
100
AcDbLine
 10
67.272695
 20
-99.93809
 30
0.0
 11
67.272695
 21
-101.670141
 31
0.0
  0
LINE
  5
5D6
330
1F
100
AcDbEntity
  8
001
370
    50
100
AcDbLine
 10
64.272695
 20
-101.670141
 30
0.0
 11
64.272695
 21
-99.93809
 31
0.0
  0
LINE
  5
5D7
330
1F
100
AcDbEntity
  8
001
370
    50
100
AcDbLine
 10
64.272695
 20
-99.93809
 30
0.0
 11
65.772695
 21
-99.072065
 31
0.0
  0
LINE
  5
5D8
330
1F
100
AcDbEntity
  8
001
370
    50
100
AcDbLine
 10
67.272695
 20
-101.670141
 30
0.0
 11
65.772695
 21
-102.536166
 31
0.0
  0
LINE
  5
5D9
330
1F
100
AcDbEntity
  8
001
370
    50
100
AcDbLine
 10
65.772695
 20
-102.536166
 30
0.0
 11
64.272695
 21
-101.670141
 31
0.0
  0
LINE
  5
5DA
330
1F
100
AcDbEntity
  8
001
370
    50
100
AcDbLine
 10
67.272695
 20
-99.93809
 30
0.0
 11
65.772695
 21
-99.072065
 31
0.0
  0
LINE
  5
5DB
330
1F
100
AcDbEntity
  8
001
  6
CENTER
370
     9
100
AcDbLine
 10
49.950811
 20
-70.30357
 30
0.0
 11
173.927309
 21
-70.30357
 31
0.0
  0
LINE
  5
5DC
330
1F
100
AcDbEntity
  8
001
370
    50
100
AcDbLine
 10
58.394557
 20
-97.199958
 30
0.0
 11
51.56245
 21
-109.105385
 31
0.0
  0
LINE
  5
5DD
330
1F
100
AcDbEntity
  8
001
370
    50
100
AcDbLine
 10
65.984865
 20
-110.267632
 30
0.0
 11
52.25841
 21
-110.303568
 31
0.0
  0
ARC
  5
5DE
330
1F
100
AcDbEntity
  8
001
370
    50
100
AcDbCircle
 10
52.256315
 20
-109.50357
 30
0.0
 40
0.8
100
AcDbArc
 50
150.15
 51
270.15
  0
ARC
  5
5DF
330
1F
100
AcDbEntity
  8
001
370
    50
100
AcDbCircle
 10
65.982771
 20
-109.467634
 30
0.0
 40
0.8
100
AcDbArc
 50
270.15
 51
30.15
  0
ARC
  5
5E0
330
1F
100
AcDbEntity
  8
001
370
    50
100
AcDbCircle
 10
59.088422
 20
-97.598143
 30
0.0
 40
0.8
100
AcDbArc
 50
30.15
 51
150.15
  0
LINE
  5
5E1
330
1F
100
AcDbEntity
  8
001
370
    50
100
AcDbLine
 10
59.780192
 20
-97.196331
 30
0.0
 11
60.566126
 21
-98.549414
 31
0.0
  0
LINE
  5
5E2
330
1F
100
AcDbEntity
  8
001
370
    50
100
AcDbLine
 10
52.656315
 20
-107.199248
 30
0.0
 11
52.656315
 21
-93.152786
 31
0.0
  0
POLYLINE
  5
5E3
330
1F
100
AcDbEntity
  8
001
370
    50
100
AcDb2dPolyline
 66
     1
 10
0.0
 20
0.0
 30
0.0
  0
VERTEX
  5
5E5
330
5E3
100
AcDbEntity
  8
001
370
    50
100
AcDbVertex
100
AcDb2dVertex
 10
66.782677
 20
-109.479915
 30
0.0
  0
VERTEX
  5
5E6
330
5E3
100
AcDbEntity
  8
001
370
    50
100
AcDbVertex
100
AcDb2dVertex
 10
66.960468
 20
-109.476634
 30
0.0
  0
VERTEX
  5
5E7
330
5E3
100
AcDbEntity
  8
001
370
    50
100
AcDbVertex
100
AcDb2dVertex
 10
67.220316
 20
-109.471826
 30
0.0
  0
VERTEX
  5
5E8
330
5E3
100
AcDbEntity
  8
001
370
    50
100
AcDbVertex
100
AcDb2dVertex
 10
67.480111
 20
-109.467001
 30
0.0
  0
VERTEX
  5
5E9
330
5E3
100
AcDbEntity
  8
001
370
    50
100
AcDbVertex
100
AcDb2dVertex
 10
67.657866
 20
-109.46369
 30
0.0
  0
SEQEND
  5
5E4
330
5E3
100
AcDbEntity
  8
001
370
    50
  0
LINE
  5
5EA
330
1F
100
AcDbEntity
  8
001
370
    50
100
AcDbLine
 10
66.781131
 20
-109.51883
 30
0.0
 11
67.873974
 21
-109.50357
 31
0.0
  0
LINE
  5
5EB
330
1F
100
AcDbEntity
  8
001
370
    50
100
AcDbLine
 10
65.178023
 20
-106.489376
 30
0.0
 11
66.674542
 21
-109.065822
 31
0.0
  0
ARC
  5
5EC
330
1F
100
AcDbEntity
  8
001
370
    50
100
AcDbCircle
 10
59.109169
 20
-105.523116
 30
0.0
 40
1.9
100
AcDbArc
 50
66.436957
 51
353.317399
  0
POLYLINE
  5
5ED
330
1F
100
AcDbEntity
  8
001
370
    50
100
AcDb2dPolyline
 66
     1
 10
0.0
 20
0.0
 30
0.0
  0
VERTEX
  5
5EF
330
5ED
100
AcDbEntity
  8
001
370
    50
100
AcDbVertex
100
AcDb2dVertex
 10
59.141932
 20
-95.120198
 30
0.0
  0
VERTEX
  5
5F0
330
5ED
100
AcDbEntity
  8
001
370
    50
100
AcDbVertex
100
AcDb2dVertex
 10
59.020049
 20
-95.133165
 30
0.0
  0
VERTEX
  5
5F1
330
5ED
100
AcDbEntity
  8
001
370
    50
100
AcDbVertex
100
AcDb2dVertex
 10
58.850012
 20
-95.15713
 30
0.0
  0
VERTEX
  5
5F2
330
5ED
100
AcDbEntity
  8
001
370
    50
100
AcDbVertex
100
AcDb2dVertex
 10
58.58182
 20
-95.214911
 30
0.0
  0
VERTEX
  5
5F3
330
5ED
100
AcDbEntity
  8
001
370
    50
100
AcDbVertex
100
AcDb2dVertex
 10
58.347394
 20
-95.292476
 30
0.0
  0
VERTEX
  5
5F4
330
5ED
100
AcDbEntity
  8
001
370
    50
100
AcDbVertex
100
AcDb2dVertex
 10
58.111053
 20
-95.392099
 30
0.0
  0
VERTEX
  5
5F5
330
5ED
100
AcDbEntity
  8
001
370
    50
100
AcDbVertex
100
AcDb2dVertex
 10
57.875797
 20
-95.513477
 30
0.0
  0
VERTEX
  5
5F6
330
5ED
100
AcDbEntity
  8
001
370
    50
100
AcDbVertex
100
AcDb2dVertex
 10
57.254912
 20
-95.991262
 30
0.0
  0
VERTEX
  5
5F7
330
5ED
100
AcDbEntity
  8
001
370
    50
100
AcDbVertex
100
AcDb2dVertex
 10
56.783151
 20
-96.611554
 30
0.0
  0
VERTEX
  5
5F8
330
5ED
100
AcDbEntity
  8
001
370
    50
100
AcDbVertex
100
AcDb2dVertex
 10
56.563604
 20
-97.086841
 30
0.0
  0
VERTEX
  5
5F9
330
5ED
100
AcDbEntity
  8
001
370
    50
100
AcDbVertex
100
AcDb2dVertex
 10
56.428566
 20
-97.590609
 30
0.0
  0
VERTEX
  5
5FA
330
5ED
100
AcDbEntity
  8
001
370
    50
100
AcDbVertex
100
AcDb2dVertex
 10
56.394029
 20
-97.849439
 30
0.0
  0
VERTEX
  5
5FB
330
5ED
100
AcDbEntity
  8
001
370
    50
100
AcDbVertex
100
AcDb2dVertex
 10
56.383214
 20
-98.111554
 30
0.0
  0
VERTEX
  5
5FC
330
5ED
100
AcDbEntity
  8
001
370
    50
100
AcDbVertex
100
AcDb2dVertex
 10
56.396301
 20
-98.37549
 30
0.0
  0
VERTEX
  5
5FD
330
5ED
100
AcDbEntity
  8
001
370
    50
100
AcDbVertex
100
AcDb2dVertex
 10
56.428566
 20
-98.632498
 30
0.0
  0
VERTEX
  5
5FE
330
5ED
100
AcDbEntity
  8
001
370
    50
100
AcDbVertex
100
AcDb2dVertex
 10
56.545546
 20
-99.110927
 30
0.0
  0
VERTEX
  5
5FF
330
5ED
100
AcDbEntity
  8
001
370
    50
100
AcDbVertex
100
AcDb2dVertex
 10
56.783151
 20
-99.611554
 30
0.0
  0
VERTEX
  5
600
330
5ED
100
AcDbEntity
  8
001
370
    50
100
AcDbVertex
100
AcDb2dVertex
 10
56.851827
 20
-99.723968
 30
0.0
  0
VERTEX
  5
601
330
5ED
100
AcDbEntity
  8
001
370
    50
100
AcDbVertex
100
AcDb2dVertex
 10
56.901755
 20
-99.80127
 30
0.0
  0
SEQEND
  5
5EE
330
5ED
100
AcDbEntity
  8
001
370
    50
  0
POLYLINE
  5
602
330
1F
100
AcDbEntity
  8
001
370
    50
100
AcDb2dPolyline
 66
     1
 10
0.0
 20
0.0
 30
0.0
  0
VERTEX
  5
604
330
602
100
AcDbEntity
  8
001
370
    50
100
AcDbVertex
100
AcDb2dVertex
 10
58.915483
 20
-95.111554
 30
0.0
  0
VERTEX
  5
605
330
602
100
AcDbEntity
  8
001
370
    50
100
AcDbVertex
100
AcDb2dVertex
 10
58.69667
 20
-95.122965
 30
0.0
  0
VERTEX
  5
606
330
602
100
AcDbEntity
  8
001
370
    50
100
AcDbVertex
100
AcDb2dVertex
 10
58.397114
 20
-95.15713
 30
0.0
  0
VERTEX
  5
607
330
602
100
AcDbEntity
  8
001
370
    50
100
AcDbVertex
100
AcDb2dVertex
 10
58.131622
 20
-95.213854
 30
0.0
  0
VERTEX
  5
608
330
602
100
AcDbEntity
  8
001
370
    50
100
AcDbVertex
100
AcDb2dVertex
 10
57.894496
 20
-95.292476
 30
0.0
  0
VERTEX
  5
609
330
602
100
AcDbEntity
  8
001
370
    50
100
AcDbVertex
100
AcDb2dVertex
 10
57.657344
 20
-95.392413
 30
0.0
  0
VERTEX
  5
60A
330
602
100
AcDbEntity
  8
001
370
    50
100
AcDbVertex
100
AcDb2dVertex
 10
57.422899
 20
-95.513477
 30
0.0
  0
VERTEX
  5
60B
330
602
100
AcDbEntity
  8
001
370
    50
100
AcDbVertex
100
AcDb2dVertex
 10
56.802836
 20
-95.991007
 30
0.0
  0
VERTEX
  5
60C
330
602
100
AcDbEntity
  8
001
370
    50
100
AcDbVertex
100
AcDb2dVertex
 10
56.330253
 20
-96.611554
 30
0.0
  0
VERTEX
  5
60D
330
602
100
AcDbEntity
  8
001
370
    50
100
AcDbVertex
100
AcDb2dVertex
 10
56.110566
 20
-97.086728
 30
0.0
  0
VERTEX
  5
60E
330
602
100
AcDbEntity
  8
001
370
    50
100
AcDbVertex
100
AcDb2dVertex
 10
55.975667
 20
-97.590609
 30
0.0
  0
VERTEX
  5
60F
330
602
100
AcDbEntity
  8
001
370
    50
100
AcDbVertex
100
AcDb2dVertex
 10
55.941181
 20
-97.849667
 30
0.0
  0
VERTEX
  5
610
330
602
100
AcDbEntity
  8
001
370
    50
100
AcDbVertex
100
AcDb2dVertex
 10
55.930316
 20
-98.111554
 30
0.0
  0
VERTEX
  5
611
330
602
100
AcDbEntity
  8
001
370
    50
100
AcDbVertex
100
AcDb2dVertex
 10
55.943267
 20
-98.37469
 30
0.0
  0
VERTEX
  5
612
330
602
100
AcDbEntity
  8
001
370
    50
100
AcDbVertex
100
AcDb2dVertex
 10
55.975667
 20
-98.632498
 30
0.0
  0
VERTEX
  5
613
330
602
100
AcDbEntity
  8
001
370
    50
100
AcDbVertex
100
AcDb2dVertex
 10
56.093985
 20
-99.11899
 30
0.0
  0
VERTEX
  5
614
330
602
100
AcDbEntity
  8
001
370
    50
100
AcDbVertex
100
AcDb2dVertex
 10
56.330253
 20
-99.611554
 30
0.0
  0
VERTEX
  5
615
330
602
100
AcDbEntity
  8
001
370
    50
100
AcDbVertex
100
AcDb2dVertex
 10
56.542399
 20
-99.922853
 30
0.0
  0
VERTEX
  5
616
330
602
100
AcDbEntity
  8
001
370
    50
100
AcDbVertex
100
AcDb2dVertex
 10
56.710751
 20
-100.134109
 30
0.0
  0
SEQEND
  5
603
330
602
100
AcDbEntity
  8
001
370
    50
  0
LINE
  5
617
330
1F
100
AcDbEntity
  8
001
370
    50
100
AcDbLine
 10
88.456315
 20
-49.30357
 30
0.0
 11
163.456315
 21
-49.30357
 31
0.0
  0
ARC
  5
618
330
1F
100
AcDbEntity
  8
001
370
    50
100
AcDbCircle
 10
163.456315
 20
-57.30357
 30
0.0
 40
8.0
100
AcDbArc
 50
0.0
 51
90.0
  0
LINE
  5
619
330
1F
100
AcDbEntity
  8
001
370
    50
100
AcDbLine
 10
171.456315
 20
-83.30357
 30
0.0
 11
171.456315
 21
-57.30357
 31
0.0
  0
LINE
  5
61A
330
1F
100
AcDbEntity
  8
001
370
    50
100
AcDbLine
 10
171.456315
 20
-70.30357
 30
0.0
 11
174.054391
 21
-71.80357
 31
0.0
  0
LINE
  5
61B
330
1F
100
AcDbEntity
  8
001
370
    50
100
AcDbLine
 10
171.456315
 20
-70.30357
 30
0.0
 11
174.054391
 21
-68.80357
 31
0.0
  0
LINE
  5
61C
330
1F
100
AcDbEntity
  8
001
370
    50
100
AcDbLine
 10
88.456315
 20
-91.30357
 30
0.0
 11
88.456315
 21
-49.30357
 31
0.0
  0
LINE
  5
61D
330
1F
100
AcDbEntity
  8
001
370
    50
100
AcDbLine
 10
88.456315
 20
-49.80357
 30
0.0
 11
86.456315
 21
-49.80357
 31
0.0
  0
LINE
  5
61E
330
1F
100
AcDbEntity
  8
001
370
    50
100
AcDbLine
 10
88.456315
 20
-91.30357
 30
0.0
 11
163.456315
 21
-91.30357
 31
0.0
  0
ARC
  5
61F
330
1F
100
AcDbEntity
  8
001
370
    50
100
AcDbCircle
 10
163.456315
 20
-83.30357
 30
0.0
 40
8.0
100
AcDbArc
 50
270.0
 51
0.0
  0
LINE
  5
620
330
1F
100
AcDbEntity
  8
001
370
    50
100
AcDbLine
 10
88.456315
 20
-90.80357
 30
0.0
 11
86.456315
 21
-90.80357
 31
0.0
  0
ENDSEC
  0
SECTION
  2
OBJECTS
  0
DICTIONARY
  5
C
330
0
100
AcDbDictionary
281
     1
  3
ACAD_GROUP
350
D
  3
ACAD_LAYOUT
350
1A
  3
ACAD_MLEADERSTYLE
350
624
  3
ACAD_MLINESTYLE
350
17
  3
ACAD_PLOTSETTINGS
350
19
  3
ACAD_PLOTSTYLENAME
350
E
  3
ACAD_SCALELIST
350
3B
  3
ACAD_TABLESTYLE
350
623
  3
ACAD_VISUALSTYLE
350
2A
  3
AcDbVariableDictionary
350
621
  0
DICTIONARY
  5
D
102
{ACAD_REACTORS
330
C
102
}
330
C
100
AcDbDictionary
281
     1
  0
DICTIONARY
  5
1A
102
{ACAD_REACTORS
330
C
102
}
330
C
100
AcDbDictionary
281
     1
  3
Layout1
350
1E
  3
Layout2
350
26
  3
Model
350
22
  0
DICTIONARY
  5
624
102
{ACAD_REACTORS
330
C
102
}
330
C
100
AcDbDictionary
281
     1
  0
DICTIONARY
  5
17
102
{ACAD_REACTORS
330
C
102
}
330
C
100
AcDbDictionary
281
     1
  3
Standard
350
18
  0
DICTIONARY
  5
19
102
{ACAD_REACTORS
330
C
102
}
330
C
100
AcDbDictionary
281
     1
  0
ACDBDICTIONARYWDFLT
  5
E
102
{ACAD_REACTORS
330
C
102
}
330
C
100
AcDbDictionary
281
     1
  3
Normal
350
F
100
AcDbDictionaryWithDefault
340
F
  0
DICTIONARY
  5
3B
102
{ACAD_REACTORS
330
C
102
}
330
C
100
AcDbDictionary
281
     1
  3
A0
350
3C
  3
A1
350
3D
  3
A2
350
3E
  3
A3
350
3F
  3
A4
350
40
  3
A5
350
41
  3
A6
350
42
  3
A7
350
43
  3
A8
350
44
  3
A9
350
45
  3
B0
350
46
  3
B1
350
47
  3
B2
350
48
  3
B3
350
49
  3
B4
350
4A
  3
B5
350
4B
  3
B6
350
4C
  3
B7
350
4D
  3
B8
350
4E
  3
B9
350
4F
  3
C0
350
50
  3
C1
350
51
  3
C2
350
52
  3
C3
350
53
  3
C4
350
54
  3
C5
350
55
  3
C6
350
56
  3
C7
350
57
  3
C8
350
58
  3
C9
350
59
  3
D0
350
5A
  3
D1
350
5B
  3
D2
350
5C
  0
DICTIONARY
  5
623
102
{ACAD_REACTORS
330
C
102
}
330
C
100
AcDbDictionary
281
     1
  0
DICTIONARY
  5
2A
102
{ACAD_REACTORS
330
C
102
}
330
C
100
AcDbDictionary
281
     1
  3
2dWireframe
350
2F
  3
3D Hidden
350
31
  3
3dWireframe
350
30
  3
Basic
350
32
  3
Brighten
350
36
  3
ColorChange
350
3A
  3
Conceptual
350
34
  3
Dim
350
35
  3
Facepattern
350
39
  3
Flat
350
2B
  3
FlatWithEdges
350
2C
  3
Gouraud
350
2D
  3
GouraudWithEdges
350
2E
  3
Linepattern
350
38
  3
Realistic
350
33
  3
Thicken
350
37
  0
DICTIONARY
  5
621
102
{ACAD_REACTORS
330
C
102
}
330
C
100
AcDbDictionary
281
     1
  3
CANNOSCALE
350
622
  3
PSOLHEIGHT
350
626
  3
PSOLWIDTH
350
625
  0
LAYOUT
  5
1E
102
{ACAD_REACTORS
330
1A
102
}
330
1A
100
AcDbPlotSettings
  1

  2
none_device
  4

  6

 40
0.0
 41
0.0
 42
0.0
 43
0.0
 44
0.0
 45
0.0
 46
0.0
 47
0.0
 48
0.0
 49
0.0
140
0.0
141
0.0
142
1.0
143
1.0
 70
   688
 72
     0
 73
     0
 74
     5
  7

 75
    16
147
1.0
148
0.0
149
0.0
100
AcDbLayout
  1
Layout1
 70
     1
 71
     1
 10
0.0
 20
0.0
 11
12.0
 21
9.0
 12
0.0
 22
0.0
 32
0.0
 14
1.000000E+20
 24
1.000000E+20
 34
0.0
 15
-1.000000E+20
 25
-1.000000E+20
 35
0.0
146
0.0
 13
0.0
 23
0.0
 33
0.0
 16
1.0
 26
0.0
 36
0.0
 17
0.0
 27
1.0
 37
0.0
 76
     0
330
1B
  0
LAYOUT
  5
26
102
{ACAD_REACTORS
330
1A
102
}
330
1A
100
AcDbPlotSettings
  1

  2
none_device
  4

  6

 40
0.0
 41
0.0
 42
0.0
 43
0.0
 44
0.0
 45
0.0
 46
0.0
 47
0.0
 48
0.0
 49
0.0
140
0.0
141
0.0
142
1.0
143
1.0
 70
   688
 72
     0
 73
     0
 74
     5
  7

 75
    16
147
1.0
148
0.0
149
0.0
100
AcDbLayout
  1
Layout2
 70
     1
 71
     2
 10
0.0
 20
0.0
 11
0.0
 21
0.0
 12
0.0
 22
0.0
 32
0.0
 14
0.0
 24
0.0
 34
0.0
 15
0.0
 25
0.0
 35
0.0
146
0.0
 13
0.0
 23
0.0
 33
0.0
 16
1.0
 26
0.0
 36
0.0
 17
0.0
 27
1.0
 37
0.0
 76
     0
330
23
  0
LAYOUT
  5
22
102
{ACAD_REACTORS
330
1A
102
}
330
1A
100
AcDbPlotSettings
  1

  2
none_device
  4

  6

 40
0.0
 41
0.0
 42
0.0
 43
0.0
 44
0.0
 45
0.0
 46
0.0
 47
0.0
 48
0.0
 49
0.0
140
0.0
141
0.0
142
1.0
143
1.0
 70
  1712
 72
     0
 73
     0
 74
     0
  7

 75
     0
147
1.0
148
0.0
149
0.0
100
AcDbLayout
  1
Model
 70
     1
 71
     0
 10
0.0
 20
0.0
 11
12.0
 21
9.0
 12
0.0
 22
0.0
 32
0.0
 14
4.250153
 24
-110.303574
 34
0.0
 15
214.250153
 25
179.091904
 35
0.0
146
0.0
 13
0.0
 23
0.0
 33
0.0
 16
1.0
 26
0.0
 36
0.0
 17
0.0
 27
1.0
 37
0.0
 76
     0
330
1F
331
29
  0
MLINESTYLE
  5
18
102
{ACAD_REACTORS
330
17
102
}
330
17
100
AcDbMlineStyle
  2
Standard
 70
     0
  3

 62
   256
 51
90.0
 52
90.0
 71
     2
 49
0.5
 62
   256
  6
BYLAYER
 49
-0.5
 62
   256
  6
BYLAYER
  0
ACDBPLACEHOLDER
  5
F
102
{ACAD_REACTORS
330
E
102
}
330
E
  0
SCALE
  5
3C
102
{ACAD_REACTORS
330
3B
102
}
330
3B
100
AcDbScale
 70
     0
300
1:1
140
1.0
141
1.0
290
     1
  0
SCALE
  5
3D
102
{ACAD_REACTORS
330
3B
102
}
330
3B
100
AcDbScale
 70
     0
300
1:2
140
1.0
141
2.0
290
     0
  0
SCALE
  5
3E
102
{ACAD_REACTORS
330
3B
102
}
330
3B
100
AcDbScale
 70
     0
300
1:4
140
1.0
141
4.0
290
     0
  0
SCALE
  5
3F
102
{ACAD_REACTORS
330
3B
102
}
330
3B
100
AcDbScale
 70
     0
300
1:5
140
1.0
141
5.0
290
     0
  0
SCALE
  5
40
102
{ACAD_REACTORS
330
3B
102
}
330
3B
100
AcDbScale
 70
     0
300
1:8
140
1.0
141
8.0
290
     0
  0
SCALE
  5
41
102
{ACAD_REACTORS
330
3B
102
}
330
3B
100
AcDbScale
 70
     0
300
1:10
140
1.0
141
10.0
290
     0
  0
SCALE
  5
42
102
{ACAD_REACTORS
330
3B
102
}
330
3B
100
AcDbScale
 70
     0
300
1:16
140
1.0
141
16.0
290
     0
  0
SCALE
  5
43
102
{ACAD_REACTORS
330
3B
102
}
330
3B
100
AcDbScale
 70
     0
300
1:20
140
1.0
141
20.0
290
     0
  0
SCALE
  5
44
102
{ACAD_REACTORS
330
3B
102
}
330
3B
100
AcDbScale
 70
     0
300
1:30
140
1.0
141
30.0
290
     0
  0
SCALE
  5
45
102
{ACAD_REACTORS
330
3B
102
}
330
3B
100
AcDbScale
 70
     0
300
1:40
140
1.0
141
40.0
290
     0
  0
SCALE
  5
46
102
{ACAD_REACTORS
330
3B
102
}
330
3B
100
AcDbScale
 70
     0
300
1:50
140
1.0
141
50.0
290
     0
  0
SCALE
  5
47
102
{ACAD_REACTORS
330
3B
102
}
330
3B
100
AcDbScale
 70
     0
300
1:100
140
1.0
141
100.0
290
     0
  0
SCALE
  5
48
102
{ACAD_REACTORS
330
3B
102
}
330
3B
100
AcDbScale
 70
     0
300
2:1
140
2.0
141
1.0
290
     0
  0
SCALE
  5
49
102
{ACAD_REACTORS
330
3B
102
}
330
3B
100
AcDbScale
 70
     0
300
4:1
140
4.0
141
1.0
290
     0
  0
SCALE
  5
4A
102
{ACAD_REACTORS
330
3B
102
}
330
3B
100
AcDbScale
 70
     0
300
8:1
140
8.0
141
1.0
290
     0
  0
SCALE
  5
4B
102
{ACAD_REACTORS
330
3B
102
}
330
3B
100
AcDbScale
 70
     0
300
10:1
140
10.0
141
1.0
290
     0
  0
SCALE
  5
4C
102
{ACAD_REACTORS
330
3B
102
}
330
3B
100
AcDbScale
 70
     0
300
100:1
140
100.0
141
1.0
290
     0
  0
SCALE
  5
4D
102
{ACAD_REACTORS
330
3B
102
}
330
3B
100
AcDbScale
 70
     0
300
1/128" = 1'-0"
140
0.007812
141
12.0
290
     0
  0
SCALE
  5
4E
102
{ACAD_REACTORS
330
3B
102
}
330
3B
100
AcDbScale
 70
     0
300
1/64" = 1'-0"
140
0.015625
141
12.0
290
     0
  0
SCALE
  5
4F
102
{ACAD_REACTORS
330
3B
102
}
330
3B
100
AcDbScale
 70
     0
300
1/32" = 1'-0"
140
0.03125
141
12.0
290
     0
  0
SCALE
  5
50
102
{ACAD_REACTORS
330
3B
102
}
330
3B
100
AcDbScale
 70
     0
300
1/16" = 1'-0"
140
0.0625
141
12.0
290
     0
  0
SCALE
  5
51
102
{ACAD_REACTORS
330
3B
102
}
330
3B
100
AcDbScale
 70
     0
300
3/32" = 1'-0"
140
0.09375
141
12.0
290
     0
  0
SCALE
  5
52
102
{ACAD_REACTORS
330
3B
102
}
330
3B
100
AcDbScale
 70
     0
300
1/8" = 1'-0"
140
0.125
141
12.0
290
     0
  0
SCALE
  5
53
102
{ACAD_REACTORS
330
3B
102
}
330
3B
100
AcDbScale
 70
     0
300
3/16" = 1'-0"
140
0.1875
141
12.0
290
     0
  0
SCALE
  5
54
102
{ACAD_REACTORS
330
3B
102
}
330
3B
100
AcDbScale
 70
     0
300
1/4" = 1'-0"
140
0.25
141
12.0
290
     0
  0
SCALE
  5
55
102
{ACAD_REACTORS
330
3B
102
}
330
3B
100
AcDbScale
 70
     0
300
3/8" = 1'-0"
140
0.375
141
12.0
290
     0
  0
SCALE
  5
56
102
{ACAD_REACTORS
330
3B
102
}
330
3B
100
AcDbScale
 70
     0
300
1/2" = 1'-0"
140
0.5
141
12.0
290
     0
  0
SCALE
  5
57
102
{ACAD_REACTORS
330
3B
102
}
330
3B
100
AcDbScale
 70
     0
300
3/4" = 1'-0"
140
0.75
141
12.0
290
     0
  0
SCALE
  5
58
102
{ACAD_REACTORS
330
3B
102
}
330
3B
100
AcDbScale
 70
     0
300
1" = 1'-0"
140
1.0
141
12.0
290
     0
  0
SCALE
  5
59
102
{ACAD_REACTORS
330
3B
102
}
330
3B
100
AcDbScale
 70
     0
300
1-1/2" = 1'-0"
140
1.5
141
12.0
290
     0
  0
SCALE
  5
5A
102
{ACAD_REACTORS
330
3B
102
}
330
3B
100
AcDbScale
 70
     0
300
3" = 1'-0"
140
3.0
141
12.0
290
     0
  0
SCALE
  5
5B
102
{ACAD_REACTORS
330
3B
102
}
330
3B
100
AcDbScale
 70
     0
300
6" = 1'-0"
140
6.0
141
12.0
290
     0
  0
SCALE
  5
5C
102
{ACAD_REACTORS
330
3B
102
}
330
3B
100
AcDbScale
 70
     0
300
1'-0" = 1'-0"
140
12.0
141
12.0
290
     0
  0
VISUALSTYLE
  5
2F
102
{ACAD_REACTORS
330
2A
102
}
330
2A
100
AcDbVisualStyle
  2
2dWireframe
 70
     4
 71
     0
 72
     2
 73
     0
 90
        0
 40
-0.6
 41
-30.0
 62
     5
 63
     7
 74
     1
 91
        4
 64
     7
 65
   257
 75
     1
175
     1
 42
1.0
 92
        0
 66
   257
 43
1.0
 76
     1
 77
     6
 78
     2
 67
     7
 79
     5
170
     0
171
     0
290
     0
174
     0
 93
        1
 44
0.0
173
     0
291
     0
 45
0.0
1001
ACAD
1000
AcDbSavedByObjectVersion
1070
     0
  0
VISUALSTYLE
  5
31
102
{ACAD_REACTORS
330
2A
102
}
330
2A
100
AcDbVisualStyle
  2
3D Hidden
 70
     6
 71
     1
 72
     2
 73
     2
 90
        0
 40
-0.6
 41
-30.0
 62
     5
 63
     7
 74
     2
 91
        2
 64
     7
 65
   257
 75
     2
175
     1
 42
40.0
 92
        0
 66
   257
 43
1.0
 76
     1
 77
     6
 78
     2
 67
     7
 79
     3
170
     0
171
     0
290
     0
174
     0
 93
        1
 44
0.0
173
     0
291
     0
 45
0.0
1001
ACAD
1000
AcDbSavedByObjectVersion
1070
     0
  0
VISUALSTYLE
  5
30
102
{ACAD_REACTORS
330
2A
102
}
330
2A
100
AcDbVisualStyle
  2
3dWireframe
 70
     5
 71
     0
 72
     2
 73
     0
 90
        0
 40
-0.6
 41
-30.0
 62
     5
 63
     7
 74
     1
 91
        4
 64
     7
 65
   257
 75
     1
175
     1
 42
1.0
 92
        0
 66
   257
 43
1.0
 76
     1
 77
     6
 78
     2
 67
     7
 79
     5
170
     0
171
     0
290
     0
174
     0
 93
        1
 44
0.0
173
     0
291
     0
 45
0.0
1001
ACAD
1000
AcDbSavedByObjectVersion
1070
     0
  0
VISUALSTYLE
  5
32
102
{ACAD_REACTORS
330
2A
102
}
330
2A
100
AcDbVisualStyle
  2
Basic
 70
     7
 71
     1
 72
     0
 73
     1
 90
        0
 40
-0.6
 41
-30.0
 62
     5
 63
     7
 74
     0
 91
        4
 64
     7
 65
   257
 75
     1
175
     1
 42
1.0
 92
        8
 66
     7
 43
1.0
 76
     1
 77
     6
 78
     2
 67
     7
 79
     5
170
     0
171
     0
290
     0
174
     0
 93
        1
 44
0.0
173
     0
291
     1
 45
0.0
1001
ACAD
1000
AcDbSavedByObjectVersion
1070
     0
  0
VISUALSTYLE
  5
36
102
{ACAD_REACTORS
330
2A
102
}
330
2A
100
AcDbVisualStyle
  2
Brighten
 70
    12
 71
     2
 72
     2
 73
     0
 90
        0
 40
-0.6
 41
-30.0
 62
     5
 63
     7
 74
     1
 91
        4
 64
     7
 65
   257
 75
     1
175
     1
 42
1.0
 92
        8
 66
     7
 43
1.0
 76
     1
 77
     6
 78
     2
 67
     7
 79
     5
170
     0
171
     0
290
     0
174
     0
 93
        1
 44
50.0
173
     0
291
     1
 45
0.0
1001
ACAD
1000
AcDbSavedByObjectVersion
1070
     0
  0
VISUALSTYLE
  5
3A
102
{ACAD_REACTORS
330
2A
102
}
330
2A
100
AcDbVisualStyle
  2
ColorChange
 70
    16
 71
     2
 72
     2
 73
     3
 90
        0
 40
-0.6
 41
-30.0
 62
     5
 63
     8
 74
     1
 91
        4
 64
     7
 65
   257
 75
     1
175
     1
 42
1.0
 92
        8
 66
     8
 43
1.0
 76
     1
 77
     6
 78
     2
 67
     7
 79
     5
170
     0
171
     0
290
     0
174
     0
 93
        1
 44
0.0
173
     0
291
     1
 45
0.0
1001
ACAD
1000
AcDbSavedByObjectVersion
1070
     0
  0
VISUALSTYLE
  5
34
102
{ACAD_REACTORS
330
2A
102
}
330
2A
100
AcDbVisualStyle
  2
Conceptual
 70
     9
 71
     3
 72
     2
 73
     0
 90
        0
 40
-0.6
 41
-30.0
 62
     5
 63
     7
 74
     2
 91
        2
 64
     7
 65
   257
 75
     1
175
     1
 42
40.0
 92
        8
 66
     7
 43
1.0
 76
     1
 77
     6
 78
     2
 67
     7
 79
     3
170
     0
171
     0
290
     0
174
     0
 93
        1
 44
0.0
173
     0
291
     0
 45
0.0
1001
ACAD
1000
AcDbSavedByObjectVersion
1070
     0
  0
VISUALSTYLE
  5
35
102
{ACAD_REACTORS
330
2A
102
}
330
2A
100
AcDbVisualStyle
  2
Dim
 70
    11
 71
     2
 72
     2
 73
     0
 90
        0
 40
-0.6
 41
-30.0
 62
     5
 63
     7
 74
     1
 91
        4
 64
     7
 65
   257
 75
     1
175
     1
 42
1.0
 92
        8
 66
     7
 43
1.0
 76
     1
 77
     6
 78
     2
 67
     7
 79
     5
170
     0
171
     0
290
     0
174
     0
 93
        1
 44
-50.0
173
     0
291
     1
 45
0.0
1001
ACAD
1000
AcDbSavedByObjectVersion
1070
     0
  0
VISUALSTYLE
  5
39
102
{ACAD_REACTORS
330
2A
102
}
330
2A
100
AcDbVisualStyle
  2
Facepattern
 70
    15
 71
     2
 72
     2
 73
     0
 90
        0
 40
-0.6
 41
-30.0
 62
     5
 63
     7
 74
     1
 91
        4
 64
     7
 65
   257
 75
     1
175
     1
 42
1.0
 92
        8
 66
     7
 43
1.0
 76
     1
 77
     6
 78
     2
 67
     7
 79
     5
170
     0
171
     0
290
     0
174
     0
 93
        1
 44
0.0
173
     0
291
     1
 45
0.0
1001
ACAD
1000
AcDbSavedByObjectVersion
1070
     0
  0
VISUALSTYLE
  5
2B
102
{ACAD_REACTORS
330
2A
102
}
330
2A
100
AcDbVisualStyle
  2
Flat
 70
     0
 71
     2
 72
     1
 73
     1
 90
        2
 40
-0.6
 41
30.0
 62
     5
 63
     7
 74
     0
 91
        4
 64
     7
 65
   257
 75
     1
175
     1
 42
1.0
 92
        8
 66
     7
 43
1.0
 76
     1
 77
     6
 78
     2
 67
     7
 79
     5
170
     0
171
     0
290
     0
174
     0
 93
       13
 44
0.0
173
     0
291
     1
 45
0.0
1001
ACAD
1000
AcDbSavedByObjectVersion
1070
     0
  0
VISUALSTYLE
  5
2C
102
{ACAD_REACTORS
330
2A
102
}
330
2A
100
AcDbVisualStyle
  2
FlatWithEdges
 70
     1
 71
     2
 72
     1
 73
     1
 90
        2
 40
-0.6
 41
30.0
 62
     5
 63
     7
 74
     1
 91
        4
 64
     7
 65
   257
 75
     1
175
     1
 42
1.0
 92
        0
 66
   257
 43
1.0
 76
     1
 77
     6
 78
     2
 67
     7
 79
     5
170
     0
171
     0
290
     0
174
     0
 93
       13
 44
0.0
173
     0
291
     1
 45
0.0
1001
ACAD
1000
AcDbSavedByObjectVersion
1070
     0
  0
VISUALSTYLE
  5
2D
102
{ACAD_REACTORS
330
2A
102
}
330
2A
100
AcDbVisualStyle
  2
Gouraud
 70
     2
 71
     2
 72
     2
 73
     1
 90
        2
 40
-0.6
 41
30.0
 62
     5
 63
     7
 74
     0
 91
        4
 64
     7
 65
   257
 75
     1
175
     1
 42
1.0
 92
        0
 66
     7
 43
1.0
 76
     1
 77
     6
 78
     2
 67
     7
 79
     5
170
     0
171
     0
290
     0
174
     0
 93
       13
 44
0.0
173
     0
291
     1
 45
0.0
1001
ACAD
1000
AcDbSavedByObjectVersion
1070
     0
  0
VISUALSTYLE
  5
2E
102
{ACAD_REACTORS
330
2A
102
}
330
2A
100
AcDbVisualStyle
  2
GouraudWithEdges
 70
     3
 71
     2
 72
     2
 73
     1
 90
        2
 40
-0.6
 41
30.0
 62
     5
 63
     7
 74
     1
 91
        4
 64
     7
 65
   257
 75
     1
175
     1
 42
1.0
 92
        0
 66
   257
 43
1.0
 76
     1
 77
     6
 78
     2
 67
     7
 79
     5
170
     0
171
     0
290
     0
174
     0
 93
       13
 44
0.0
173
     0
291
     1
 45
0.0
1001
ACAD
1000
AcDbSavedByObjectVersion
1070
     0
  0
VISUALSTYLE
  5
38
102
{ACAD_REACTORS
330
2A
102
}
330
2A
100
AcDbVisualStyle
  2
Linepattern
 70
    14
 71
     2
 72
     2
 73
     0
 90
        0
 40
-0.6
 41
-30.0
 62
     5
 63
     7
 74
     1
 91
        4
 64
     7
 65
   257
 75
     7
175
     7
 42
1.0
 92
        8
 66
     7
 43
1.0
 76
     1
 77
     6
 78
     2
 67
     7
 79
     5
170
     0
171
     0
290
     0
174
     0
 93
        1
 44
0.0
173
     0
291
     1
 45
0.0
1001
ACAD
1000
AcDbSavedByObjectVersion
1070
     0
  0
VISUALSTYLE
  5
33
102
{ACAD_REACTORS
330
2A
102
}
330
2A
100
AcDbVisualStyle
  2
Realistic
 70
     8
 71
     2
 72
     2
 73
     0
 90
        0
 40
-0.6
 41
-30.0
 62
     5
 63
     7
 74
     1
 91
        0
 64
     7
 65
   257
 75
     1
175
     1
 42
1.0
 92
        8
 66
     8
 43
1.0
 76
     1
 77
     6
 78
     2
 67
     7
 79
     5
170
     0
171
     0
290
     0
174
     0
 93
       13
 44
0.0
173
     0
291
     0
 45
0.0
1001
ACAD
1000
AcDbSavedByObjectVersion
1070
     0
  0
VISUALSTYLE
  5
37
102
{ACAD_REACTORS
330
2A
102
}
330
2A
100
AcDbVisualStyle
  2
Thicken
 70
    13
 71
     2
 72
     2
 73
     0
 90
        0
 40
-0.6
 41
-30.0
 62
     5
 63
     7
 74
     1
 91
        4
 64
     7
 65
   257
 75
     1
175
     1
 42
1.0
 92
       12
 66
     7
 43
1.0
 76
     1
 77
     6
 78
     2
 67
     7
 79
     5
170
     0
171
     0
290
     0
174
     0
 93
        1
 44
0.0
173
     0
291
     1
 45
0.0
1001
ACAD
1000
AcDbSavedByObjectVersion
1070
     0
  0
DICTIONARYVAR
  5
622
102
{ACAD_REACTORS
330
621
102
}
330
621
100
DictionaryVariables
280
     0
  1
1:1
  0
DICTIONARYVAR
  5
626
102
{ACAD_REACTORS
330
621
102
}
330
621
100
DictionaryVariables
280
     0
  1
80.000000
  0
DICTIONARYVAR
  5
625
102
{ACAD_REACTORS
330
621
102
}
330
621
100
DictionaryVariables
280
     0
  1
5.000000
  0
ENDSEC
  0
EOF
