  0
SECTION
  2
HEADER
  9
$ACADVER
  1
AC1015
  9
$ACADMAINTVER
 70
     6
  9
$DWGCODEPAGE
  3
ANSI_932
  9
$INSBASE
 10
0.0
 20
0.0
 30
0.0
  9
$EXTMIN
 10
50.049194
 20
1.707245
 30
0.0
  9
$EXTMAX
 10
486.353699
 20
434.207977
 30
0.0
  9
$LIMMIN
 10
0.0
 20
0.0
  9
$LIMMAX
 10
12.0
 20
9.0
  9
$ORTHOMODE
 70
     0
  9
$REGENMODE
 70
     1
  9
$FILLMODE
 70
     1
  9
$QTEXTMODE
 70
     0
  9
$MIRRTEXT
 70
     1
  9
$LTSCALE
 40
6.14344
  9
$ATTMODE
 70
     1
  9
$TEXTSIZE
 40
3.2
  9
$TRACEWID
 40
1.0
  9
$TEXTSTYLE
  7
Standard
  9
$CLAYER
  8
0
  9
$CELTYPE
  6
ByLayer
  9
$CECOLOR
 62
   256
  9
$CELTSCALE
 40
1.0
  9
$DISPSILH
 70
     0
  9
$DIMSCALE
 40
1.0
  9
$DIMASZ
 40
2.5
  9
$DIMEXO
 40
0.625
  9
$DIMDLI
 40
3.75
  9
$DIMRND
 40
0.0
  9
$DIMDLE
 40
0.0
  9
$DIMEXE
 40
1.25
  9
$DIMTP
 40
0.0
  9
$DIMTM
 40
0.0
  9
$DIMTXT
 40
2.5
  9
$DIMCEN
 40
0.09
  9
$DIMTSZ
 40
0.0
  9
$DIMTOL
 70
     0
  9
$DIMLIM
 70
     0
  9
$DIMTIH
 70
     0
  9
$DIMTOH
 70
     0
  9
$DIMSE1
 70
     0
  9
$DIMSE2
 70
     0
  9
$DIMTAD
 70
     0
  9
$DIMZIN
 70
     8
  9
$DIMBLK
  1

  9
$DIMASO
 70
     1
  9
$DIMSHO
 70
     0
  9
$DIMPOST
  1

  9
$DIMAPOST
  1

  9
$DIMALT
 70
     0
  9
$DIMALTD
 70
     3
  9
$DIMALTF
 40
0.03937
  9
$DIMLFAC
 40
1.0
  9
$DIMTOFL
 70
     1
  9
$DIMTVP
 40
0.0
  9
$DIMTIX
 70
     0
  9
$DIMSOXD
 70
     0
  9
$DIMSAH
 70
     0
  9
$DIMBLK1
  1

  9
$DIMBLK2
  1

  9
$DIMSTYLE
  2
ISO-25
  9
$DIMCLRD
 70
     0
  9
$DIMCLRE
 70
     0
  9
$DIMCLRT
 70
     0
  9
$DIMTFAC
 40
1.0
  9
$DIMGAP
 40
0.625
  9
$DIMJUST
 70
     0
  9
$DIMSD1
 70
     0
  9
$DIMSD2
 70
     0
  9
$DIMTOLJ
 70
     0
  9
$DIMTZIN
 70
     8
  9
$DIMALTZ
 70
     0
  9
$DIMALTTZ
 70
     0
  9
$DIMUPT
 70
     0
  9
$DIMDEC
 70
     2
  9
$DIMTDEC
 70
     2
  9
$DIMALTU
 70
     2
  9
$DIMALTTD
 70
     3
  9
$DIMTXSTY
  7
Standard
  9
$DIMAUNIT
 70
     0
  9
$DIMADEC
 70
     0
  9
$DIMALTRND
 40
0.0
  9
$DIMAZIN
 70
     0
  9
$DIMDSEP
 70
    44
  9
$DIMATFIT
 70
     3
  9
$DIMFRAC
 70
     0
  9
$DIMLDRBLK
  1

  9
$DIMLUNIT
 70
     2
  9
$DIMLWD
 70
    -2
  9
$DIMLWE
 70
    -2
  9
$DIMTMOVE
 70
     0
  9
$LUNITS
 70
     2
  9
$LUPREC
 70
     4
  9
$SKETCHINC
 40
1.0
  9
$FILLETRAD
 40
0.0
  9
$AUNITS
 70
     0
  9
$AUPREC
 70
     0
  9
$MENU
  1
.
  9
$ELEVATION
 40
0.0
  9
$PELEVATION
 40
0.0
  9
$THICKNESS
 40
0.0
  9
$LIMCHECK
 70
     0
  9
$CHAMFERA
 40
10.0
  9
$CHAMFERB
 40
10.0
  9
$CHAMFERC
 40
20.0
  9
$CHAMFERD
 40
0.0
  9
$SKPOLY
 70
     0
  9
$TDCREATE
 40
2454847.678309641
  9
$TDUCREATE
 40
2454847.303309641
  9
$TDUPDATE
 40
2454847.678309653
  9
$TDUUPDATE
 40
2454847.303309653
  9
$TDINDWG
 40
0.0000000116
  9
$TDUSRTIMER
 40
0.0000000116
  9
$USRTIMER
 70
     1
  9
$ANGBASE
 50
0.0
  9
$ANGDIR
 70
     0
  9
$PDMODE
 70
     0
  9
$PDSIZE
 40
0.0
  9
$PLINEWID
 40
0.0
  9
$SPLFRAME
 70
     0
  9
$SPLINETYPE
 70
     6
  9
$SPLINESEGS
 70
     8
  9
$HANDSEED
  5
63C
  9
$SURFTAB1
 70
     6
  9
$SURFTAB2
 70
     6
  9
$SURFTYPE
 70
     6
  9
$SURFU
 70
     6
  9
$SURFV
 70
     6
  9
$UCSBASE
  2

  9
$UCSNAME
  2

  9
$UCSORG
 10
0.0
 20
0.0
 30
0.0
  9
$UCSXDIR
 10
1.0
 20
0.0
 30
0.0
  9
$UCSYDIR
 10
0.0
 20
1.0
 30
0.0
  9
$UCSORTHOREF
  2

  9
$UCSORTHOVIEW
 70
     0
  9
$UCSORGTOP
 10
0.0
 20
0.0
 30
0.0
  9
$UCSORGBOTTOM
 10
0.0
 20
0.0
 30
0.0
  9
$UCSORGLEFT
 10
0.0
 20
0.0
 30
0.0
  9
$UCSORGRIGHT
 10
0.0
 20
0.0
 30
0.0
  9
$UCSORGFRONT
 10
0.0
 20
0.0
 30
0.0
  9
$UCSORGBACK
 10
0.0
 20
0.0
 30
0.0
  9
$PUCSBASE
  2

  9
$PUCSNAME
  2

  9
$PUCSORG
 10
0.0
 20
0.0
 30
0.0
  9
$PUCSXDIR
 10
1.0
 20
0.0
 30
0.0
  9
$PUCSYDIR
 10
0.0
 20
1.0
 30
0.0
  9
$PUCSORTHOREF
  2

  9
$PUCSORTHOVIEW
 70
     0
  9
$PUCSORGTOP
 10
0.0
 20
0.0
 30
0.0
  9
$PUCSORGBOTTOM
 10
0.0
 20
0.0
 30
0.0
  9
$PUCSORGLEFT
 10
0.0
 20
0.0
 30
0.0
  9
$PUCSORGRIGHT
 10
0.0
 20
0.0
 30
0.0
  9
$PUCSORGFRONT
 10
0.0
 20
0.0
 30
0.0
  9
$PUCSORGBACK
 10
0.0
 20
0.0
 30
0.0
  9
$USERI1
 70
     0
  9
$USERI2
 70
     0
  9
$USERI3
 70
     0
  9
$USERI4
 70
     0
  9
$USERI5
 70
     0
  9
$USERR1
 40
0.0
  9
$USERR2
 40
0.0
  9
$USERR3
 40
0.0
  9
$USERR4
 40
0.0
  9
$USERR5
 40
0.0
  9
$WORLDVIEW
 70
     1
  9
$SHADEDGE
 70
     3
  9
$SHADEDIF
 70
    70
  9
$TILEMODE
 70
     1
  9
$MAXACTVP
 70
    64
  9
$PINSBASE
 10
0.0
 20
0.0
 30
0.0
  9
$PLIMCHECK
 70
     0
  9
$PEXTMIN
 10
1.000000E+20
 20
1.000000E+20
 30
0.0
  9
$PEXTMAX
 10
-1.000000E+20
 20
-1.000000E+20
 30
0.0
  9
$PLIMMIN
 10
0.0
 20
0.0
  9
$PLIMMAX
 10
12.0
 20
9.0
  9
$UNITMODE
 70
     0
  9
$VISRETAIN
 70
     1
  9
$PLINEGEN
 70
     0
  9
$PSLTSCALE
 70
     1
  9
$TREEDEPTH
 70
  3020
  9
$CMLSTYLE
  2
Standard
  9
$CMLJUST
 70
     0
  9
$CMLSCALE
 40
20.0
  9
$PROXYGRAPHICS
 70
     1
  9
$MEASUREMENT
 70
     1
  9
$CELWEIGHT
370
    -1
  9
$ENDCAPS
280
     0
  9
$JOINSTYLE
280
     0
  9
$LWDISPLAY
290
     0
  9
$INSUNITS
 70
     4
  9
$HYPERLINKBASE
  1

  9
$STYLESHEET
  1

  9
$XEDIT
290
     1
  9
$CEPSNTYPE
380
     0
  9
$PSTYLEMODE
290
     1
  9
$FINGERPRINTGUID
  2
{124D318F-C108-4633-927D-28EEF3D3DFDC}
  9
$VERSIONGUID
  2
{FAEB1C32-E019-11D5-929B-00C0DF256EC4}
  9
$EXTNAMES
290
     1
  9
$PSVPSCALE
 40
0.0
  9
$OLESTARTUP
290
     0
  0
ENDSEC
  0
SECTION
  2
CLASSES
  0
CLASS
  1
ACDBDICTIONARYWDFLT
  2
AcDbDictionaryWithDefault
  3
ObjectDBX Classes
 90
        0
280
     0
281
     0
  0
CLASS
  1
VISUALSTYLE
  2
AcDbVisualStyle
  3
ObjectDBX Classes
 90
     4095
280
     0
281
     0
  0
CLASS
  1
SCALE
  2
AcDbScale
  3
ObjectDBX Classes
 90
     1153
280
     0
281
     0
  0
CLASS
  1
DICTIONARYVAR
  2
AcDbDictionaryVar
  3
ObjectDBX Classes
 90
        0
280
     0
281
     0
  0
CLASS
  1
ACDBPLACEHOLDER
  2
AcDbPlaceHolder
  3
ObjectDBX Classes
 90
        0
280
     0
281
     0
  0
CLASS
  1
LAYOUT
  2
AcDbLayout
  3
ObjectDBX Classes
 90
        0
280
     0
281
     0
  0
ENDSEC
  0
SECTION
  2
TABLES
  0
TABLE
  2
VPORT
  5
8
330
0
100
AcDbSymbolTable
 70
     1
  0
VPORT
  5
29
330
8
100
AcDbSymbolTableRecord
100
AcDbViewportTableRecord
  2
*Active
 70
     0
 10
0.0
 20
0.0
 11
1.0
 21
1.0
 12
268.201447
 22
217.957611
 13
0.0
 23
0.0
 14
1.0
 24
1.0
 15
0.0
 25
0.0
 16
0.0
 26
0.0
 36
1.0
 17
0.0
 27
0.0
 37
0.0
 40
436.82574
 41
1.691288
 42
50.0
 43
0.0
 44
0.0
 50
0.0
 51
0.0
 71
     0
 72
   100
 73
     1
 74
     3
 75
     0
 76
     0
 77
     0
 78
     0
281
     0
 65
     1
110
0.0
120
0.0
130
0.0
111
1.0
121
0.0
131
0.0
112
0.0
122
1.0
132
0.0
 79
     0
146
0.0
  0
ENDTAB
  0
TABLE
  2
LTYPE
  5
5
330
0
100
AcDbSymbolTable
 70
     5
  0
LTYPE
  5
14
330
5
100
AcDbSymbolTableRecord
100
AcDbLinetypeTableRecord
  2
ByBlock
 70
     0
  3

 72
    65
 73
     0
 40
0.0
  0
LTYPE
  5
15
330
5
100
AcDbSymbolTableRecord
100
AcDbLinetypeTableRecord
  2
ByLayer
 70
     0
  3

 72
    65
 73
     0
 40
0.0
  0
LTYPE
  5
16
330
5
100
AcDbSymbolTableRecord
100
AcDbLinetypeTableRecord
  2
Continuous
 70
     0
  3
Solid line
 72
    65
 73
     0
 40
0.0
  0
LTYPE
  5
5D
330
5
100
AcDbSymbolTableRecord
100
AcDbLinetypeTableRecord
  2
DASHED
 70
     0
  3
DASHED
 72
    83
 73
     2
 40
0.75
 49
0.5
 74
     0
 49
-0.25
 74
     0
  0
LTYPE
  5
5E
330
5
100
AcDbSymbolTableRecord
100
AcDbLinetypeTableRecord
  2
HIDDEN
 70
     0
  3
HIDDEN
 72
    83
 73
     2
 40
0.375
 49
0.25
 74
     0
 49
-0.125
 74
     0
  0
LTYPE
  5
5F
330
5
100
AcDbSymbolTableRecord
100
AcDbLinetypeTableRecord
  2
CENTER
 70
     0
  3
CENTER
 72
    83
 73
     4
 40
2.0
 49
1.25
 74
     0
 49
-0.25
 74
     0
 49
0.25
 74
     0
 49
-0.25
 74
     0
  0
LTYPE
  5
60
330
5
100
AcDbSymbolTableRecord
100
AcDbLinetypeTableRecord
  2
PHANTOM
 70
     0
  3
PHANTOM
 72
    83
 73
     6
 40
2.5
 49
1.25
 74
     0
 49
-0.25
 74
     0
 49
0.25
 74
     0
 49
-0.25
 74
     0
 49
0.25
 74
     0
 49
-0.25
 74
     0
  0
ENDTAB
  0
TABLE
  2
LAYER
  5
2
330
0
100
AcDbSymbolTable
 70
     2
  0
LAYER
  5
10
330
2
100
AcDbSymbolTableRecord
100
AcDbLayerTableRecord
  2
0
 70
     0
 62
     7
  6
Continuous
370
    -3
390
F
  0
LAYER
  5
61
330
2
100
AcDbSymbolTableRecord
100
AcDbLayerTableRecord
  2
001
 70
     0
 62
     7
  6
Continuous
370
    -3
390
F
  0
ENDTAB
  0
TABLE
  2
STYLE
  5
3
330
0
100
AcDbSymbolTable
 70
     2
  0
STYLE
  5
11
330
3
100
AcDbSymbolTableRecord
100
AcDbTextStyleTableRecord
  2
Standard
 70
     0
 40
0.0
 41
1.0
 50
0.0
 71
     0
 42
0.2
  3
TXT
  4
BIGFONT
  0
STYLE
  5
62
330
3
100
AcDbSymbolTableRecord
100
AcDbTextStyleTableRecord
  2
TATEGAKI
 70
     4
 40
1.0
 41
1.0
 50
0.0
 71
     0
 42
0.2
  3
TXT
  4
BIGFONT
  0
ENDTAB
  0
TABLE
  2
VIEW
  5
6
330
0
100
AcDbSymbolTable
 70
     0
  0
ENDTAB
  0
TABLE
  2
UCS
  5
7
330
0
100
AcDbSymbolTable
 70
     0
  0
ENDTAB
  0
TABLE
  2
APPID
  5
9
330
0
100
AcDbSymbolTable
 70
     1
  0
APPID
  5
12
330
9
100
AcDbSymbolTableRecord
100
AcDbRegAppTableRecord
  2
ACAD
 70
     0
  0
ENDTAB
  0
TABLE
  2
DIMSTYLE
  5
A
330
0
100
AcDbSymbolTable
 70
     2
100
AcDbDimStyleTable
  0
DIMSTYLE
105
27
330
A
100
AcDbSymbolTableRecord
100
AcDbDimStyleTableRecord
  2
ISO-25
 70
     0
 41
2.5
 42
0.625
 43
3.75
 44
1.25
 73
     0
 74
     0
 77
     1
 78
     8
140
2.5
141
2.5
143
0.03937
147
0.625
171
     3
172
     1
271
     2
272
     2
274
     3
278
    44
283
     0
284
     8
340
11
  0
DIMSTYLE
105
63
102
{ACAD_REACTORS
330
166
330
167
330
168
330
169
330
16A
330
176
330
183
330
184
330
185
330
191
330
192
330
193
102
}
330
A
100
AcDbSymbolTableRecord
100
AcDbDimStyleTableRecord
  2
Standard
 70
     0
 41
1.5
 42
0.0
 44
2.75
 73
     0
 74
     0
 77
     1
 78
     8
 79
     2
140
4.0
146
0.8
147
1.0
172
     1
179
     1
271
     1
340
11
  0
ENDTAB
  0
TABLE
  2
BLOCK_RECORD
  5
1
330
0
100
AcDbSymbolTable
 70
    13
  0
BLOCK_RECORD
  5
1F
330
1
100
AcDbSymbolTableRecord
100
AcDbBlockTableRecord
  2
*Model_Space
340
22
  0
BLOCK_RECORD
  5
1B
330
1
100
AcDbSymbolTableRecord
100
AcDbBlockTableRecord
  2
*Paper_Space
340
1E
  0
BLOCK_RECORD
  5
23
330
1
100
AcDbSymbolTableRecord
100
AcDbBlockTableRecord
  2
*Paper_Space0
340
26
  0
BLOCK_RECORD
  5
64
330
1
100
AcDbSymbolTableRecord
100
AcDbBlockTableRecord
  2
*D1
340
0
  0
BLOCK_RECORD
  5
78
330
1
100
AcDbSymbolTableRecord
100
AcDbBlockTableRecord
  2
*D2
340
0
  0
BLOCK_RECORD
  5
8C
330
1
100
AcDbSymbolTableRecord
100
AcDbBlockTableRecord
  2
*D3
340
0
  0
BLOCK_RECORD
  5
A0
330
1
100
AcDbSymbolTableRecord
100
AcDbBlockTableRecord
  2
*D4
340
0
  0
BLOCK_RECORD
  5
B5
330
1
100
AcDbSymbolTableRecord
100
AcDbBlockTableRecord
  2
*D5
340
0
  0
BLOCK_RECORD
  5
CB
330
1
100
AcDbSymbolTableRecord
100
AcDbBlockTableRecord
  2
*D6
340
0
  0
BLOCK_RECORD
  5
DF
330
1
100
AcDbSymbolTableRecord
100
AcDbBlockTableRecord
  2
*D7
340
0
  0
BLOCK_RECORD
  5
F3
330
1
100
AcDbSymbolTableRecord
100
AcDbBlockTableRecord
  2
*D8
340
0
  0
BLOCK_RECORD
  5
108
330
1
100
AcDbSymbolTableRecord
100
AcDbBlockTableRecord
  2
*D9
340
0
  0
BLOCK_RECORD
  5
11E
330
1
100
AcDbSymbolTableRecord
100
AcDbBlockTableRecord
  2
*D10
340
0
  0
BLOCK_RECORD
  5
132
330
1
100
AcDbSymbolTableRecord
100
AcDbBlockTableRecord
  2
*D11
340
0
  0
BLOCK_RECORD
  5
146
330
1
100
AcDbSymbolTableRecord
100
AcDbBlockTableRecord
  2
*D12
340
0
  0
ENDTAB
  0
ENDSEC
  0
SECTION
  2
BLOCKS
  0
BLOCK
  5
20
330
1F
100
AcDbEntity
  8
0
100
AcDbBlockBegin
  2
*Model_Space
 70
     0
 10
0.0
 20
0.0
 30
0.0
  3
*Model_Space
  1

  0
ENDBLK
  5
21
330
1F
100
AcDbEntity
  8
0
100
AcDbBlockEnd
  0
BLOCK
  5
1C
330
1B
100
AcDbEntity
 67
     1
  8
0
100
AcDbBlockBegin
  2
*Paper_Space
 70
     0
 10
0.0
 20
0.0
 30
0.0
  3
*Paper_Space
  1

  0
ENDBLK
  5
1D
330
1B
100
AcDbEntity
 67
     1
  8
0
100
AcDbBlockEnd
  0
BLOCK
  5
24
330
23
100
AcDbEntity
  8
0
100
AcDbBlockBegin
  2
*Paper_Space0
 70
     0
 10
0.0
 20
0.0
 30
0.0
  3
*Paper_Space0
  1

  0
ENDBLK
  5
25
330
23
100
AcDbEntity
  8
0
100
AcDbBlockEnd
  0
BLOCK
  5
65
330
64
100
AcDbEntity
  8
0
100
AcDbBlockBegin
  2
*D1
 70
     1
 10
0.0
 20
0.0
 30
0.0
  3
*D1
  1

  0
LINE
  5
67
330
64
100
AcDbEntity
  8
001
370
     9
100
AcDbLine
 10
131.951845
 20
65.0636
 30
0.0
 11
131.951845
 21
30.0649
 31
0.0
  0
LINE
  5
68
330
64
100
AcDbEntity
  8
001
370
     9
100
AcDbLine
 10
106.951845
 20
43.789467
 30
0.0
 11
106.951845
 21
30.0649
 31
0.0
  0
LINE
  5
69
330
64
100
AcDbEntity
  8
001
370
     9
100
AcDbLine
 10
131.951845
 20
32.8149
 30
0.0
 11
106.951845
 21
32.8149
 31
0.0
  0
POLYLINE
  5
6A
330
64
100
AcDbEntity
  8
001
370
     9
100
AcDb2dPolyline
 66
     1
 10
0.0
 20
0.0
 30
0.0
  0
VERTEX
  5
6C
330
6A
100
AcDbEntity
  8
001
370
     9
100
AcDbVertex
100
AcDb2dVertex
 10
130.451845
 20
33.216824
 30
0.0
  0
VERTEX
  5
6D
330
6A
100
AcDbEntity
  8
001
370
     9
100
AcDbVertex
100
AcDb2dVertex
 10
131.951845
 20
32.8149
 30
0.0
  0
VERTEX
  5
6E
330
6A
100
AcDbEntity
  8
001
370
     9
100
AcDbVertex
100
AcDb2dVertex
 10
130.451845
 20
32.412976
 30
0.0
  0
SEQEND
  5
6B
330
6A
100
AcDbEntity
  8
001
370
     9
  0
POLYLINE
  5
6F
330
64
100
AcDbEntity
  8
001
370
     9
100
AcDb2dPolyline
 66
     1
 10
0.0
 20
0.0
 30
0.0
  0
VERTEX
  5
71
330
6F
100
AcDbEntity
  8
001
370
     9
100
AcDbVertex
100
AcDb2dVertex
 10
108.451845
 20
32.412976
 30
0.0
  0
VERTEX
  5
72
330
6F
100
AcDbEntity
  8
001
370
     9
100
AcDbVertex
100
AcDb2dVertex
 10
106.951845
 20
32.8149
 30
0.0
  0
VERTEX
  5
73
330
6F
100
AcDbEntity
  8
001
370
     9
100
AcDbVertex
100
AcDb2dVertex
 10
108.451845
 20
33.216824
 30
0.0
  0
SEQEND
  5
70
330
6F
100
AcDbEntity
  8
001
370
     9
  0
TEXT
  5
74
330
64
100
AcDbEntity
  8
001
370
    30
100
AcDbText
 10
115.451845
 20
33.8149
 30
0.0
 40
4.0
  1
２５
 41
0.833333
100
AcDbText
  0
POINT
  5
75
330
64
100
AcDbEntity
  8
001
370
     9
100
AcDbPoint
 10
131.951845
 20
65.0636
 30
0.0
  0
POINT
  5
76
330
64
100
AcDbEntity
  8
001
370
     9
100
AcDbPoint
 10
106.951845
 20
43.789467
 30
0.0
  0
POINT
  5
77
330
64
100
AcDbEntity
  8
001
370
     9
100
AcDbPoint
 10
106.951845
 20
32.8149
 30
0.0
  0
ENDBLK
  5
66
330
64
100
AcDbEntity
  8
0
100
AcDbBlockEnd
  0
BLOCK
  5
79
330
78
100
AcDbEntity
  8
0
100
AcDbBlockBegin
  2
*D2
 70
     1
 10
0.0
 20
0.0
 30
0.0
  3
*D2
  1

  0
LINE
  5
7B
330
78
100
AcDbEntity
  8
001
370
     9
100
AcDbLine
 10
131.951845
 20
65.0636
 30
0.0
 11
131.951845
 21
30.0649
 31
0.0
  0
LINE
  5
7C
330
78
100
AcDbEntity
  8
001
370
     9
100
AcDbLine
 10
211.951845
 20
88.6636
 30
0.0
 11
211.951845
 21
30.0649
 31
0.0
  0
LINE
  5
7D
330
78
100
AcDbEntity
  8
001
370
     9
100
AcDbLine
 10
131.951845
 20
32.8149
 30
0.0
 11
211.951845
 21
32.8149
 31
0.0
  0
POLYLINE
  5
7E
330
78
100
AcDbEntity
  8
001
370
     9
100
AcDb2dPolyline
 66
     1
 10
0.0
 20
0.0
 30
0.0
  0
VERTEX
  5
80
330
7E
100
AcDbEntity
  8
001
370
     9
100
AcDbVertex
100
AcDb2dVertex
 10
133.451845
 20
32.412976
 30
0.0
  0
VERTEX
  5
81
330
7E
100
AcDbEntity
  8
001
370
     9
100
AcDbVertex
100
AcDb2dVertex
 10
131.951845
 20
32.8149
 30
0.0
  0
VERTEX
  5
82
330
7E
100
AcDbEntity
  8
001
370
     9
100
AcDbVertex
100
AcDb2dVertex
 10
133.451845
 20
33.216824
 30
0.0
  0
SEQEND
  5
7F
330
7E
100
AcDbEntity
  8
001
370
     9
  0
POLYLINE
  5
83
330
78
100
AcDbEntity
  8
001
370
     9
100
AcDb2dPolyline
 66
     1
 10
0.0
 20
0.0
 30
0.0
  0
VERTEX
  5
85
330
83
100
AcDbEntity
  8
001
370
     9
100
AcDbVertex
100
AcDb2dVertex
 10
210.451845
 20
33.216824
 30
0.0
  0
VERTEX
  5
86
330
83
100
AcDbEntity
  8
001
370
     9
100
AcDbVertex
100
AcDb2dVertex
 10
211.951845
 20
32.8149
 30
0.0
  0
VERTEX
  5
87
330
83
100
AcDbEntity
  8
001
370
     9
100
AcDbVertex
100
AcDb2dVertex
 10
210.451845
 20
32.412976
 30
0.0
  0
SEQEND
  5
84
330
83
100
AcDbEntity
  8
001
370
     9
  0
TEXT
  5
88
330
78
100
AcDbEntity
  8
001
370
    30
100
AcDbText
 10
167.951845
 20
33.8149
 30
0.0
 40
4.0
  1
８０
 41
0.833333
100
AcDbText
  0
POINT
  5
89
330
78
100
AcDbEntity
  8
001
370
     9
100
AcDbPoint
 10
131.951845
 20
65.0636
 30
0.0
  0
POINT
  5
8A
330
78
100
AcDbEntity
  8
001
370
     9
100
AcDbPoint
 10
211.951845
 20
88.6636
 30
0.0
  0
POINT
  5
8B
330
78
100
AcDbEntity
  8
001
370
     9
100
AcDbPoint
 10
211.951845
 20
32.8149
 30
0.0
  0
ENDBLK
  5
7A
330
78
100
AcDbEntity
  8
0
100
AcDbBlockEnd
  0
BLOCK
  5
8D
330
8C
100
AcDbEntity
  8
0
100
AcDbBlockBegin
  2
*D3
 70
     1
 10
0.0
 20
0.0
 30
0.0
  3
*D3
  1

  0
LINE
  5
8F
330
8C
100
AcDbEntity
  8
001
370
     9
100
AcDbLine
 10
106.951845
 20
43.789467
 30
0.0
 11
106.951845
 21
16.392268
 31
0.0
  0
LINE
  5
90
330
8C
100
AcDbEntity
  8
001
370
     9
100
AcDbLine
 10
211.951845
 20
88.6636
 30
0.0
 11
211.951845
 21
16.392268
 31
0.0
  0
LINE
  5
91
330
8C
100
AcDbEntity
  8
001
370
     9
100
AcDbLine
 10
106.951845
 20
19.142268
 30
0.0
 11
211.951845
 21
19.142268
 31
0.0
  0
POLYLINE
  5
92
330
8C
100
AcDbEntity
  8
001
370
     9
100
AcDb2dPolyline
 66
     1
 10
0.0
 20
0.0
 30
0.0
  0
VERTEX
  5
94
330
92
100
AcDbEntity
  8
001
370
     9
100
AcDbVertex
100
AcDb2dVertex
 10
108.451845
 20
18.740344
 30
0.0
  0
VERTEX
  5
95
330
92
100
AcDbEntity
  8
001
370
     9
100
AcDbVertex
100
AcDb2dVertex
 10
106.951845
 20
19.142268
 30
0.0
  0
VERTEX
  5
96
330
92
100
AcDbEntity
  8
001
370
     9
100
AcDbVertex
100
AcDb2dVertex
 10
108.451845
 20
19.544191
 30
0.0
  0
SEQEND
  5
93
330
92
100
AcDbEntity
  8
001
370
     9
  0
POLYLINE
  5
97
330
8C
100
AcDbEntity
  8
001
370
     9
100
AcDb2dPolyline
 66
     1
 10
0.0
 20
0.0
 30
0.0
  0
VERTEX
  5
99
330
97
100
AcDbEntity
  8
001
370
     9
100
AcDbVertex
100
AcDb2dVertex
 10
210.451845
 20
19.544191
 30
0.0
  0
VERTEX
  5
9A
330
97
100
AcDbEntity
  8
001
370
     9
100
AcDbVertex
100
AcDb2dVertex
 10
211.951845
 20
19.142268
 30
0.0
  0
VERTEX
  5
9B
330
97
100
AcDbEntity
  8
001
370
     9
100
AcDbVertex
100
AcDb2dVertex
 10
210.451845
 20
18.740344
 30
0.0
  0
SEQEND
  5
98
330
97
100
AcDbEntity
  8
001
370
     9
  0
TEXT
  5
9C
330
8C
100
AcDbEntity
  8
001
370
    30
100
AcDbText
 10
153.451845
 20
20.142268
 30
0.0
 40
4.0
  1
１０５
 41
0.833333
100
AcDbText
  0
POINT
  5
9D
330
8C
100
AcDbEntity
  8
001
370
     9
100
AcDbPoint
 10
106.951845
 20
43.789467
 30
0.0
  0
POINT
  5
9E
330
8C
100
AcDbEntity
  8
001
370
     9
100
AcDbPoint
 10
211.951845
 20
88.6636
 30
0.0
  0
POINT
  5
9F
330
8C
100
AcDbEntity
  8
001
370
     9
100
AcDbPoint
 10
211.951845
 20
19.142268
 30
0.0
  0
ENDBLK
  5
8E
330
8C
100
AcDbEntity
  8
0
100
AcDbBlockEnd
  0
BLOCK
  5
A1
330
A0
100
AcDbEntity
  8
0
100
AcDbBlockBegin
  2
*D4
 70
     1
 10
0.0
 20
0.0
 30
0.0
  3
*D4
  1

  0
LINE
  5
A3
330
A0
100
AcDbEntity
  8
001
370
     9
100
AcDbLine
 10
106.951845
 20
43.789467
 30
0.0
 11
106.951845
 21
50.11588
 31
0.0
  0
LINE
  5
A4
330
A0
100
AcDbEntity
  8
001
370
     9
100
AcDbLine
 10
90.721721
 20
58.743673
 30
0.0
 11
98.324052
 21
58.743673
 31
0.0
  0
ARC
  5
A5
330
A0
100
AcDbEntity
  8
001
370
     9
100
AcDbCircle
 10
106.951845
 20
58.743673
 30
0.0
 40
11.37779312406096
100
AcDbArc
 50
180.0
 51
270.0
  0
POLYLINE
  5
A6
330
A0
100
AcDbEntity
  8
001
370
     9
100
AcDb2dPolyline
 66
     1
 10
0.0
 20
0.0
 30
0.0
  0
VERTEX
  5
A8
330
A6
100
AcDbEntity
  8
001
370
     9
100
AcDbVertex
100
AcDb2dVertex
 10
105.481577
 20
47.865736
 30
0.0
  0
VERTEX
  5
A9
330
A6
100
AcDbEntity
  8
001
370
     9
100
AcDbVertex
100
AcDb2dVertex
 10
106.951845
 20
47.36588
 30
0.0
  0
VERTEX
  5
AA
330
A6
100
AcDbEntity
  8
001
370
     9
100
AcDbVertex
100
AcDb2dVertex
 10
105.428628
 20
47.063634
 30
0.0
  0
SEQEND
  5
A7
330
A6
100
AcDbEntity
  8
001
370
     9
  0
POLYLINE
  5
AB
330
A0
100
AcDbEntity
  8
001
370
     9
100
AcDb2dPolyline
 66
     1
 10
0.0
 20
0.0
 30
0.0
  0
VERTEX
  5
AD
330
AB
100
AcDbEntity
  8
001
370
     9
100
AcDbVertex
100
AcDb2dVertex
 10
95.271806
 20
57.220456
 30
0.0
  0
VERTEX
  5
AE
330
AB
100
AcDbEntity
  8
001
370
     9
100
AcDbVertex
100
AcDb2dVertex
 10
95.574052
 20
58.743673
 30
0.0
  0
VERTEX
  5
AF
330
AB
100
AcDbEntity
  8
001
370
     9
100
AcDbVertex
100
AcDb2dVertex
 10
96.073908
 20
57.273405
 30
0.0
  0
SEQEND
  5
AC
330
AB
100
AcDbEntity
  8
001
370
     9
  0
TEXT
  5
B0
330
A0
100
AcDbEntity
  8
001
370
    30
100
AcDbText
 10
95.370996
 20
55.648106
 30
0.0
 40
4.0
  1
９０%%d
 50
314.999992
 41
0.978261
100
AcDbText
  0
POINT
  5
B1
330
A0
100
AcDbEntity
  8
001
370
     9
100
AcDbPoint
 10
106.951845
 20
50.11588
 30
0.0
  0
POINT
  5
B2
330
A0
100
AcDbEntity
  8
001
370
     9
100
AcDbPoint
 10
106.951845
 20
58.743673
 30
0.0
  0
POINT
  5
B3
330
A0
100
AcDbEntity
  8
001
370
     9
100
AcDbPoint
 10
106.951845
 20
58.743673
 30
0.0
  0
POINT
  5
B4
330
A0
100
AcDbEntity
  8
001
370
     9
100
AcDbPoint
 10
98.324052
 20
58.743673
 30
0.0
  0
ENDBLK
  5
A2
330
A0
100
AcDbEntity
  8
0
100
AcDbBlockEnd
  0
BLOCK
  5
B6
330
B5
100
AcDbEntity
  8
0
100
AcDbBlockBegin
  2
*D5
 70
     1
 10
0.0
 20
0.0
 30
0.0
  3
*D5
  1

  0
LINE
  5
B8
330
B5
100
AcDbEntity
  8
001
370
     9
100
AcDbLine
 10
121.851845
 20
58.826606
 30
0.0
 11
121.851845
 21
39.351799
 31
0.0
  0
LINE
  5
B9
330
B5
100
AcDbEntity
  8
001
370
     9
100
AcDbLine
 10
106.951845
 20
43.789467
 30
0.0
 11
106.951845
 21
39.351799
 31
0.0
  0
LINE
  5
BA
330
B5
100
AcDbEntity
  8
001
370
     9
100
AcDbLine
 10
121.851845
 20
42.101799
 30
0.0
 11
106.951845
 21
42.101799
 31
0.0
  0
POLYLINE
  5
BB
330
B5
100
AcDbEntity
  8
001
370
     9
100
AcDb2dPolyline
 66
     1
 10
0.0
 20
0.0
 30
0.0
  0
VERTEX
  5
BD
330
BB
100
AcDbEntity
  8
001
370
     9
100
AcDbVertex
100
AcDb2dVertex
 10
123.351845
 20
41.699875
 30
0.0
  0
VERTEX
  5
BE
330
BB
100
AcDbEntity
  8
001
370
     9
100
AcDbVertex
100
AcDb2dVertex
 10
121.851845
 20
42.101799
 30
0.0
  0
VERTEX
  5
BF
330
BB
100
AcDbEntity
  8
001
370
     9
100
AcDbVertex
100
AcDb2dVertex
 10
123.351845
 20
42.503723
 30
0.0
  0
SEQEND
  5
BC
330
BB
100
AcDbEntity
  8
001
370
     9
  0
POLYLINE
  5
C0
330
B5
100
AcDbEntity
  8
001
370
     9
100
AcDb2dPolyline
 66
     1
 10
0.0
 20
0.0
 30
0.0
  0
VERTEX
  5
C2
330
C0
100
AcDbEntity
  8
001
370
     9
100
AcDbVertex
100
AcDb2dVertex
 10
105.451845
 20
42.503723
 30
0.0
  0
VERTEX
  5
C3
330
C0
100
AcDbEntity
  8
001
370
     9
100
AcDbVertex
100
AcDb2dVertex
 10
106.951845
 20
42.101799
 30
0.0
  0
VERTEX
  5
C4
330
C0
100
AcDbEntity
  8
001
370
     9
100
AcDbVertex
100
AcDb2dVertex
 10
105.451845
 20
41.699875
 30
0.0
  0
SEQEND
  5
C1
330
C0
100
AcDbEntity
  8
001
370
     9
  0
TEXT
  5
C5
330
B5
100
AcDbEntity
  8
001
370
    30
100
AcDbText
 10
79.451845
 20
43.101799
 30
0.0
 40
4.0
  1
（１４．９）
 41
0.833333
100
AcDbText
  0
POINT
  5
C6
330
B5
100
AcDbEntity
  8
001
370
     9
100
AcDbPoint
 10
121.851845
 20
58.826606
 30
0.0
  0
POINT
  5
C7
330
B5
100
AcDbEntity
  8
001
370
     9
100
AcDbPoint
 10
106.951845
 20
43.789467
 30
0.0
  0
POINT
  5
C8
330
B5
100
AcDbEntity
  8
001
370
     9
100
AcDbPoint
 10
106.951845
 20
42.101799
 30
0.0
  0
LINE
  5
C9
330
B5
100
AcDbEntity
  8
001
370
     9
100
AcDbLine
 10
121.851845
 20
42.101799
 30
0.0
 11
124.351845
 21
42.101799
 31
0.0
  0
LINE
  5
CA
330
B5
100
AcDbEntity
  8
001
370
     9
100
AcDbLine
 10
106.951845
 20
42.101799
 30
0.0
 11
76.451845
 21
42.101799
 31
0.0
  0
ENDBLK
  5
B7
330
B5
100
AcDbEntity
  8
0
100
AcDbBlockEnd
  0
BLOCK
  5
CC
330
CB
100
AcDbEntity
  8
0
100
AcDbBlockBegin
  2
*D6
 70
     1
 10
0.0
 20
0.0
 30
0.0
  3
*D6
  1

  0
LINE
  5
CE
330
CB
100
AcDbEntity
  8
001
370
     9
100
AcDbLine
 10
205.951845
 20
82.6636
 30
0.0
 11
240.869013
 21
82.6636
 31
0.0
  0
LINE
  5
CF
330
CB
100
AcDbEntity
  8
001
370
     9
100
AcDbLine
 10
205.951845
 20
114.6636
 30
0.0
 11
240.869013
 21
114.6636
 31
0.0
  0
LINE
  5
D0
330
CB
100
AcDbEntity
  8
001
370
     9
100
AcDbLine
 10
238.119013
 20
82.6636
 30
0.0
 11
238.119013
 21
114.6636
 31
0.0
  0
POLYLINE
  5
D1
330
CB
100
AcDbEntity
  8
001
370
     9
100
AcDb2dPolyline
 66
     1
 10
0.0
 20
0.0
 30
0.0
  0
VERTEX
  5
D3
330
D1
100
AcDbEntity
  8
001
370
     9
100
AcDbVertex
100
AcDb2dVertex
 10
238.520937
 20
84.1636
 30
0.0
  0
VERTEX
  5
D4
330
D1
100
AcDbEntity
  8
001
370
     9
100
AcDbVertex
100
AcDb2dVertex
 10
238.119013
 20
82.6636
 30
0.0
  0
VERTEX
  5
D5
330
D1
100
AcDbEntity
  8
001
370
     9
100
AcDbVertex
100
AcDb2dVertex
 10
237.71709
 20
84.1636
 30
0.0
  0
SEQEND
  5
D2
330
D1
100
AcDbEntity
  8
001
370
     9
  0
POLYLINE
  5
D6
330
CB
100
AcDbEntity
  8
001
370
     9
100
AcDb2dPolyline
 66
     1
 10
0.0
 20
0.0
 30
0.0
  0
VERTEX
  5
D8
330
D6
100
AcDbEntity
  8
001
370
     9
100
AcDbVertex
100
AcDb2dVertex
 10
237.71709
 20
113.1636
 30
0.0
  0
VERTEX
  5
D9
330
D6
100
AcDbEntity
  8
001
370
     9
100
AcDbVertex
100
AcDb2dVertex
 10
238.119013
 20
114.6636
 30
0.0
  0
VERTEX
  5
DA
330
D6
100
AcDbEntity
  8
001
370
     9
100
AcDbVertex
100
AcDb2dVertex
 10
238.520937
 20
113.1636
 30
0.0
  0
SEQEND
  5
D7
330
D6
100
AcDbEntity
  8
001
370
     9
  0
TEXT
  5
DB
330
CB
100
AcDbEntity
  8
001
370
    30
100
AcDbText
 10
237.119013
 20
92.6636
 30
0.0
 40
4.0
  1
%%c３２
 50
90.000003
 41
0.882353
100
AcDbText
  0
POINT
  5
DC
330
CB
100
AcDbEntity
  8
001
370
     9
100
AcDbPoint
 10
205.951845
 20
82.6636
 30
0.0
  0
POINT
  5
DD
330
CB
100
AcDbEntity
  8
001
370
     9
100
AcDbPoint
 10
205.951845
 20
114.6636
 30
0.0
  0
POINT
  5
DE
330
CB
100
AcDbEntity
  8
001
370
     9
100
AcDbPoint
 10
238.119013
 20
114.6636
 30
0.0
  0
ENDBLK
  5
CD
330
CB
100
AcDbEntity
  8
0
100
AcDbBlockEnd
  0
BLOCK
  5
E0
330
DF
100
AcDbEntity
  8
0
100
AcDbBlockBegin
  2
*D7
 70
     1
 10
0.0
 20
0.0
 30
0.0
  3
*D7
  1

  0
LINE
  5
E2
330
DF
100
AcDbEntity
  8
001
370
     9
100
AcDbLine
 10
131.951845
 20
279.254836
 30
0.0
 11
131.951845
 21
244.256136
 31
0.0
  0
LINE
  5
E3
330
DF
100
AcDbEntity
  8
001
370
     9
100
AcDbLine
 10
106.951845
 20
257.980703
 30
0.0
 11
106.951845
 21
244.256136
 31
0.0
  0
LINE
  5
E4
330
DF
100
AcDbEntity
  8
001
370
     9
100
AcDbLine
 10
131.951845
 20
247.006136
 30
0.0
 11
106.951845
 21
247.006136
 31
0.0
  0
POLYLINE
  5
E5
330
DF
100
AcDbEntity
  8
001
370
     9
100
AcDb2dPolyline
 66
     1
 10
0.0
 20
0.0
 30
0.0
  0
VERTEX
  5
E7
330
E5
100
AcDbEntity
  8
001
370
     9
100
AcDbVertex
100
AcDb2dVertex
 10
130.451845
 20
247.40806
 30
0.0
  0
VERTEX
  5
E8
330
E5
100
AcDbEntity
  8
001
370
     9
100
AcDbVertex
100
AcDb2dVertex
 10
131.951845
 20
247.006136
 30
0.0
  0
VERTEX
  5
E9
330
E5
100
AcDbEntity
  8
001
370
     9
100
AcDbVertex
100
AcDb2dVertex
 10
130.451845
 20
246.604212
 30
0.0
  0
SEQEND
  5
E6
330
E5
100
AcDbEntity
  8
001
370
     9
  0
POLYLINE
  5
EA
330
DF
100
AcDbEntity
  8
001
370
     9
100
AcDb2dPolyline
 66
     1
 10
0.0
 20
0.0
 30
0.0
  0
VERTEX
  5
EC
330
EA
100
AcDbEntity
  8
001
370
     9
100
AcDbVertex
100
AcDb2dVertex
 10
108.451845
 20
246.604212
 30
0.0
  0
VERTEX
  5
ED
330
EA
100
AcDbEntity
  8
001
370
     9
100
AcDbVertex
100
AcDb2dVertex
 10
106.951845
 20
247.006136
 30
0.0
  0
VERTEX
  5
EE
330
EA
100
AcDbEntity
  8
001
370
     9
100
AcDbVertex
100
AcDb2dVertex
 10
108.451845
 20
247.40806
 30
0.0
  0
SEQEND
  5
EB
330
EA
100
AcDbEntity
  8
001
370
     9
  0
TEXT
  5
EF
330
DF
100
AcDbEntity
  8
001
370
    30
100
AcDbText
 10
115.451845
 20
248.006136
 30
0.0
 40
4.0
  1
２５
 41
0.833333
100
AcDbText
  0
POINT
  5
F0
330
DF
100
AcDbEntity
  8
001
370
     9
100
AcDbPoint
 10
131.951845
 20
279.254836
 30
0.0
  0
POINT
  5
F1
330
DF
100
AcDbEntity
  8
001
370
     9
100
AcDbPoint
 10
106.951845
 20
257.980703
 30
0.0
  0
POINT
  5
F2
330
DF
100
AcDbEntity
  8
001
370
     9
100
AcDbPoint
 10
106.951845
 20
247.006136
 30
0.0
  0
ENDBLK
  5
E1
330
DF
100
AcDbEntity
  8
0
100
AcDbBlockEnd
  0
BLOCK
  5
F4
330
F3
100
AcDbEntity
  8
0
100
AcDbBlockBegin
  2
*D8
 70
     1
 10
0.0
 20
0.0
 30
0.0
  3
*D8
  1

  0
LINE
  5
F6
330
F3
100
AcDbEntity
  8
001
370
     9
100
AcDbLine
 10
106.951845
 20
257.980703
 30
0.0
 11
106.951845
 21
264.307116
 31
0.0
  0
LINE
  5
F7
330
F3
100
AcDbEntity
  8
001
370
     9
100
AcDbLine
 10
90.721721
 20
272.934909
 30
0.0
 11
98.324052
 21
272.934909
 31
0.0
  0
ARC
  5
F8
330
F3
100
AcDbEntity
  8
001
370
     9
100
AcDbCircle
 10
106.951845
 20
272.934909
 30
0.0
 40
11.37779312406096
100
AcDbArc
 50
180.0
 51
270.0
  0
POLYLINE
  5
F9
330
F3
100
AcDbEntity
  8
001
370
     9
100
AcDb2dPolyline
 66
     1
 10
0.0
 20
0.0
 30
0.0
  0
VERTEX
  5
FB
330
F9
100
AcDbEntity
  8
001
370
     9
100
AcDbVertex
100
AcDb2dVertex
 10
105.481577
 20
262.056972
 30
0.0
  0
VERTEX
  5
FC
330
F9
100
AcDbEntity
  8
001
370
     9
100
AcDbVertex
100
AcDb2dVertex
 10
106.951845
 20
261.557116
 30
0.0
  0
VERTEX
  5
FD
330
F9
100
AcDbEntity
  8
001
370
     9
100
AcDbVertex
100
AcDb2dVertex
 10
105.428628
 20
261.25487
 30
0.0
  0
SEQEND
  5
FA
330
F9
100
AcDbEntity
  8
001
370
     9
  0
POLYLINE
  5
FE
330
F3
100
AcDbEntity
  8
001
370
     9
100
AcDb2dPolyline
 66
     1
 10
0.0
 20
0.0
 30
0.0
  0
VERTEX
  5
100
330
FE
100
AcDbEntity
  8
001
370
     9
100
AcDbVertex
100
AcDb2dVertex
 10
95.271806
 20
271.411692
 30
0.0
  0
VERTEX
  5
101
330
FE
100
AcDbEntity
  8
001
370
     9
100
AcDbVertex
100
AcDb2dVertex
 10
95.574052
 20
272.934909
 30
0.0
  0
VERTEX
  5
102
330
FE
100
AcDbEntity
  8
001
370
     9
100
AcDbVertex
100
AcDb2dVertex
 10
96.073908
 20
271.464641
 30
0.0
  0
SEQEND
  5
FF
330
FE
100
AcDbEntity
  8
001
370
     9
  0
TEXT
  5
103
330
F3
100
AcDbEntity
  8
001
370
    30
100
AcDbText
 10
95.370996
 20
269.839342
 30
0.0
 40
4.0
  1
９０%%d
 50
314.999992
 41
0.978261
100
AcDbText
  0
POINT
  5
104
330
F3
100
AcDbEntity
  8
001
370
     9
100
AcDbPoint
 10
106.951845
 20
264.307116
 30
0.0
  0
POINT
  5
105
330
F3
100
AcDbEntity
  8
001
370
     9
100
AcDbPoint
 10
106.951845
 20
272.934909
 30
0.0
  0
POINT
  5
106
330
F3
100
AcDbEntity
  8
001
370
     9
100
AcDbPoint
 10
106.951845
 20
272.934909
 30
0.0
  0
POINT
  5
107
330
F3
100
AcDbEntity
  8
001
370
     9
100
AcDbPoint
 10
98.324052
 20
272.934909
 30
0.0
  0
ENDBLK
  5
F5
330
F3
100
AcDbEntity
  8
0
100
AcDbBlockEnd
  0
BLOCK
  5
109
330
108
100
AcDbEntity
  8
0
100
AcDbBlockBegin
  2
*D9
 70
     1
 10
0.0
 20
0.0
 30
0.0
  3
*D9
  1

  0
LINE
  5
10B
330
108
100
AcDbEntity
  8
001
370
     9
100
AcDbLine
 10
121.851845
 20
273.017842
 30
0.0
 11
121.851845
 21
253.543035
 31
0.0
  0
LINE
  5
10C
330
108
100
AcDbEntity
  8
001
370
     9
100
AcDbLine
 10
106.951845
 20
257.980703
 30
0.0
 11
106.951845
 21
253.543035
 31
0.0
  0
LINE
  5
10D
330
108
100
AcDbEntity
  8
001
370
     9
100
AcDbLine
 10
121.851845
 20
256.293035
 30
0.0
 11
106.951845
 21
256.293035
 31
0.0
  0
POLYLINE
  5
10E
330
108
100
AcDbEntity
  8
001
370
     9
100
AcDb2dPolyline
 66
     1
 10
0.0
 20
0.0
 30
0.0
  0
VERTEX
  5
110
330
10E
100
AcDbEntity
  8
001
370
     9
100
AcDbVertex
100
AcDb2dVertex
 10
123.351845
 20
255.891111
 30
0.0
  0
VERTEX
  5
111
330
10E
100
AcDbEntity
  8
001
370
     9
100
AcDbVertex
100
AcDb2dVertex
 10
121.851845
 20
256.293035
 30
0.0
  0
VERTEX
  5
112
330
10E
100
AcDbEntity
  8
001
370
     9
100
AcDbVertex
100
AcDb2dVertex
 10
123.351845
 20
256.694959
 30
0.0
  0
SEQEND
  5
10F
330
10E
100
AcDbEntity
  8
001
370
     9
  0
POLYLINE
  5
113
330
108
100
AcDbEntity
  8
001
370
     9
100
AcDb2dPolyline
 66
     1
 10
0.0
 20
0.0
 30
0.0
  0
VERTEX
  5
115
330
113
100
AcDbEntity
  8
001
370
     9
100
AcDbVertex
100
AcDb2dVertex
 10
105.451845
 20
256.694959
 30
0.0
  0
VERTEX
  5
116
330
113
100
AcDbEntity
  8
001
370
     9
100
AcDbVertex
100
AcDb2dVertex
 10
106.951845
 20
256.293035
 30
0.0
  0
VERTEX
  5
117
330
113
100
AcDbEntity
  8
001
370
     9
100
AcDbVertex
100
AcDb2dVertex
 10
105.451845
 20
255.891111
 30
0.0
  0
SEQEND
  5
114
330
113
100
AcDbEntity
  8
001
370
     9
  0
TEXT
  5
118
330
108
100
AcDbEntity
  8
001
370
    30
100
AcDbText
 10
79.451845
 20
257.293035
 30
0.0
 40
4.0
  1
（１４．９）
 41
0.833333
100
AcDbText
  0
POINT
  5
119
330
108
100
AcDbEntity
  8
001
370
     9
100
AcDbPoint
 10
121.851845
 20
273.017842
 30
0.0
  0
POINT
  5
11A
330
108
100
AcDbEntity
  8
001
370
     9
100
AcDbPoint
 10
106.951845
 20
257.980703
 30
0.0
  0
POINT
  5
11B
330
108
100
AcDbEntity
  8
001
370
     9
100
AcDbPoint
 10
106.951845
 20
256.293035
 30
0.0
  0
LINE
  5
11C
330
108
100
AcDbEntity
  8
001
370
     9
100
AcDbLine
 10
121.851845
 20
256.293035
 30
0.0
 11
124.351845
 21
256.293035
 31
0.0
  0
LINE
  5
11D
330
108
100
AcDbEntity
  8
001
370
     9
100
AcDbLine
 10
106.951845
 20
256.293035
 30
0.0
 11
76.451845
 21
256.293035
 31
0.0
  0
ENDBLK
  5
10A
330
108
100
AcDbEntity
  8
0
100
AcDbBlockEnd
  0
BLOCK
  5
11F
330
11E
100
AcDbEntity
  8
0
100
AcDbBlockBegin
  2
*D10
 70
     1
 10
0.0
 20
0.0
 30
0.0
  3
*D10
  1

  0
LINE
  5
121
330
11E
100
AcDbEntity
  8
001
370
     9
100
AcDbLine
 10
275.951845
 20
328.854836
 30
0.0
 11
311.832536
 21
328.854836
 31
0.0
  0
LINE
  5
122
330
11E
100
AcDbEntity
  8
001
370
     9
100
AcDbLine
 10
275.951845
 20
296.854836
 30
0.0
 11
311.832536
 21
296.854836
 31
0.0
  0
LINE
  5
123
330
11E
100
AcDbEntity
  8
001
370
     9
100
AcDbLine
 10
309.082536
 20
328.854836
 30
0.0
 11
309.082536
 21
296.854836
 31
0.0
  0
POLYLINE
  5
124
330
11E
100
AcDbEntity
  8
001
370
     9
100
AcDb2dPolyline
 66
     1
 10
0.0
 20
0.0
 30
0.0
  0
VERTEX
  5
126
330
124
100
AcDbEntity
  8
001
370
     9
100
AcDbVertex
100
AcDb2dVertex
 10
308.680612
 20
327.354836
 30
0.0
  0
VERTEX
  5
127
330
124
100
AcDbEntity
  8
001
370
     9
100
AcDbVertex
100
AcDb2dVertex
 10
309.082536
 20
328.854836
 30
0.0
  0
VERTEX
  5
128
330
124
100
AcDbEntity
  8
001
370
     9
100
AcDbVertex
100
AcDb2dVertex
 10
309.48446
 20
327.354836
 30
0.0
  0
SEQEND
  5
125
330
124
100
AcDbEntity
  8
001
370
     9
  0
POLYLINE
  5
129
330
11E
100
AcDbEntity
  8
001
370
     9
100
AcDb2dPolyline
 66
     1
 10
0.0
 20
0.0
 30
0.0
  0
VERTEX
  5
12B
330
129
100
AcDbEntity
  8
001
370
     9
100
AcDbVertex
100
AcDb2dVertex
 10
309.48446
 20
298.354836
 30
0.0
  0
VERTEX
  5
12C
330
129
100
AcDbEntity
  8
001
370
     9
100
AcDbVertex
100
AcDb2dVertex
 10
309.082536
 20
296.854836
 30
0.0
  0
VERTEX
  5
12D
330
129
100
AcDbEntity
  8
001
370
     9
100
AcDbVertex
100
AcDb2dVertex
 10
308.680612
 20
298.354836
 30
0.0
  0
SEQEND
  5
12A
330
129
100
AcDbEntity
  8
001
370
     9
  0
TEXT
  5
12E
330
11E
100
AcDbEntity
  8
001
370
    30
100
AcDbText
 10
308.082536
 20
306.854836
 30
0.0
 40
4.0
  1
%%c３２
 50
90.000003
 41
0.882353
100
AcDbText
  0
POINT
  5
12F
330
11E
100
AcDbEntity
  8
001
370
     9
100
AcDbPoint
 10
275.951845
 20
328.854836
 30
0.0
  0
POINT
  5
130
330
11E
100
AcDbEntity
  8
001
370
     9
100
AcDbPoint
 10
275.951845
 20
296.854836
 30
0.0
  0
POINT
  5
131
330
11E
100
AcDbEntity
  8
001
370
     9
100
AcDbPoint
 10
309.082536
 20
296.854836
 30
0.0
  0
ENDBLK
  5
120
330
11E
100
AcDbEntity
  8
0
100
AcDbBlockEnd
  0
BLOCK
  5
133
330
132
100
AcDbEntity
  8
0
100
AcDbBlockBegin
  2
*D11
 70
     1
 10
0.0
 20
0.0
 30
0.0
  3
*D11
  1

  0
LINE
  5
135
330
132
100
AcDbEntity
  8
001
370
     9
100
AcDbLine
 10
106.951845
 20
257.980703
 30
0.0
 11
106.951845
 21
230.583504
 31
0.0
  0
LINE
  5
136
330
132
100
AcDbEntity
  8
001
370
     9
100
AcDbLine
 10
281.951845
 20
302.854836
 30
0.0
 11
281.951845
 21
230.583504
 31
0.0
  0
LINE
  5
137
330
132
100
AcDbEntity
  8
001
370
     9
100
AcDbLine
 10
106.951845
 20
233.333504
 30
0.0
 11
281.951845
 21
233.333504
 31
0.0
  0
POLYLINE
  5
138
330
132
100
AcDbEntity
  8
001
370
     9
100
AcDb2dPolyline
 66
     1
 10
0.0
 20
0.0
 30
0.0
  0
VERTEX
  5
13A
330
138
100
AcDbEntity
  8
001
370
     9
100
AcDbVertex
100
AcDb2dVertex
 10
108.451845
 20
232.93158
 30
0.0
  0
VERTEX
  5
13B
330
138
100
AcDbEntity
  8
001
370
     9
100
AcDbVertex
100
AcDb2dVertex
 10
106.951845
 20
233.333504
 30
0.0
  0
VERTEX
  5
13C
330
138
100
AcDbEntity
  8
001
370
     9
100
AcDbVertex
100
AcDb2dVertex
 10
108.451845
 20
233.735427
 30
0.0
  0
SEQEND
  5
139
330
138
100
AcDbEntity
  8
001
370
     9
  0
POLYLINE
  5
13D
330
132
100
AcDbEntity
  8
001
370
     9
100
AcDb2dPolyline
 66
     1
 10
0.0
 20
0.0
 30
0.0
  0
VERTEX
  5
13F
330
13D
100
AcDbEntity
  8
001
370
     9
100
AcDbVertex
100
AcDb2dVertex
 10
280.451845
 20
233.735427
 30
0.0
  0
VERTEX
  5
140
330
13D
100
AcDbEntity
  8
001
370
     9
100
AcDbVertex
100
AcDb2dVertex
 10
281.951845
 20
233.333504
 30
0.0
  0
VERTEX
  5
141
330
13D
100
AcDbEntity
  8
001
370
     9
100
AcDbVertex
100
AcDb2dVertex
 10
280.451845
 20
232.93158
 30
0.0
  0
SEQEND
  5
13E
330
13D
100
AcDbEntity
  8
001
370
     9
  0
TEXT
  5
142
330
132
100
AcDbEntity
  8
001
370
    30
100
AcDbText
 10
188.451845
 20
234.333504
 30
0.0
 40
4.0
  1
１７５
 41
0.833333
100
AcDbText
  0
POINT
  5
143
330
132
100
AcDbEntity
  8
001
370
     9
100
AcDbPoint
 10
106.951845
 20
257.980703
 30
0.0
  0
POINT
  5
144
330
132
100
AcDbEntity
  8
001
370
     9
100
AcDbPoint
 10
281.951845
 20
302.854836
 30
0.0
  0
POINT
  5
145
330
132
100
AcDbEntity
  8
001
370
     9
100
AcDbPoint
 10
281.951845
 20
233.333504
 30
0.0
  0
ENDBLK
  5
134
330
132
100
AcDbEntity
  8
0
100
AcDbBlockEnd
  0
BLOCK
  5
147
330
146
100
AcDbEntity
  8
0
100
AcDbBlockBegin
  2
*D12
 70
     1
 10
0.0
 20
0.0
 30
0.0
  3
*D12
  1

  0
LINE
  5
149
330
146
100
AcDbEntity
  8
001
370
     9
100
AcDbLine
 10
131.951845
 20
279.254836
 30
0.0
 11
131.951845
 21
244.256136
 31
0.0
  0
LINE
  5
14A
330
146
100
AcDbEntity
  8
001
370
     9
100
AcDbLine
 10
281.951845
 20
302.854836
 30
0.0
 11
281.951845
 21
244.256136
 31
0.0
  0
LINE
  5
14B
330
146
100
AcDbEntity
  8
001
370
     9
100
AcDbLine
 10
131.951845
 20
247.006136
 30
0.0
 11
281.951845
 21
247.006136
 31
0.0
  0
POLYLINE
  5
14C
330
146
100
AcDbEntity
  8
001
370
     9
100
AcDb2dPolyline
 66
     1
 10
0.0
 20
0.0
 30
0.0
  0
VERTEX
  5
14E
330
14C
100
AcDbEntity
  8
001
370
     9
100
AcDbVertex
100
AcDb2dVertex
 10
133.451845
 20
246.604212
 30
0.0
  0
VERTEX
  5
14F
330
14C
100
AcDbEntity
  8
001
370
     9
100
AcDbVertex
100
AcDb2dVertex
 10
131.951845
 20
247.006136
 30
0.0
  0
VERTEX
  5
150
330
14C
100
AcDbEntity
  8
001
370
     9
100
AcDbVertex
100
AcDb2dVertex
 10
133.451845
 20
247.40806
 30
0.0
  0
SEQEND
  5
14D
330
14C
100
AcDbEntity
  8
001
370
     9
  0
POLYLINE
  5
151
330
146
100
AcDbEntity
  8
001
370
     9
100
AcDb2dPolyline
 66
     1
 10
0.0
 20
0.0
 30
0.0
  0
VERTEX
  5
153
330
151
100
AcDbEntity
  8
001
370
     9
100
AcDbVertex
100
AcDb2dVertex
 10
280.451845
 20
247.40806
 30
0.0
  0
VERTEX
  5
154
330
151
100
AcDbEntity
  8
001
370
     9
100
AcDbVertex
100
AcDb2dVertex
 10
281.951845
 20
247.006136
 30
0.0
  0
VERTEX
  5
155
330
151
100
AcDbEntity
  8
001
370
     9
100
AcDbVertex
100
AcDb2dVertex
 10
280.451845
 20
246.604212
 30
0.0
  0
SEQEND
  5
152
330
151
100
AcDbEntity
  8
001
370
     9
  0
TEXT
  5
156
330
146
100
AcDbEntity
  8
001
370
    30
100
AcDbText
 10
200.951845
 20
248.006136
 30
0.0
 40
4.0
  1
１５０
 41
0.833333
100
AcDbText
  0
POINT
  5
157
330
146
100
AcDbEntity
  8
001
370
     9
100
AcDbPoint
 10
131.951845
 20
279.254836
 30
0.0
  0
POINT
  5
158
330
146
100
AcDbEntity
  8
001
370
     9
100
AcDbPoint
 10
281.951845
 20
302.854836
 30
0.0
  0
POINT
  5
159
330
146
100
AcDbEntity
  8
001
370
     9
100
AcDbPoint
 10
281.951845
 20
247.006136
 30
0.0
  0
ENDBLK
  5
148
330
146
100
AcDbEntity
  8
0
100
AcDbBlockEnd
  0
ENDSEC
  0
SECTION
  2
ENTITIES
  0
TEXT
  5
15A
330
1F
100
AcDbEntity
  8
001
370
    30
100
AcDbText
 10
77.297182
 20
92.743673
 30
0.0
 40
4.0
  1
%%c８０
 50
90.000003
 41
0.882353
100
AcDbText
  0
POLYLINE
  5
15B
330
1F
100
AcDbEntity
  8
001
370
     9
100
AcDb2dPolyline
 66
     1
 10
0.0
 20
0.0
 30
0.0
  0
VERTEX
  5
15D
330
15B
100
AcDbEntity
  8
001
370
     9
100
AcDbVertex
100
AcDb2dVertex
 10
78.699105
 20
60.243673
 30
0.0
  0
VERTEX
  5
15E
330
15B
100
AcDbEntity
  8
001
370
     9
100
AcDbVertex
100
AcDb2dVertex
 10
78.297182
 20
58.743673
 30
0.0
  0
VERTEX
  5
15F
330
15B
100
AcDbEntity
  8
001
370
     9
100
AcDbVertex
100
AcDb2dVertex
 10
77.895258
 20
60.243673
 30
0.0
  0
SEQEND
  5
15C
330
15B
100
AcDbEntity
  8
001
370
     9
  0
LINE
  5
160
330
1F
100
AcDbEntity
  8
001
370
     9
100
AcDbLine
 10
78.297182
 20
138.743673
 30
0.0
 11
78.297182
 21
58.743673
 31
0.0
  0
POLYLINE
  5
161
330
1F
100
AcDbEntity
  8
001
370
     9
100
AcDb2dPolyline
 66
     1
 10
0.0
 20
0.0
 30
0.0
  0
VERTEX
  5
163
330
161
100
AcDbEntity
  8
001
370
     9
100
AcDbVertex
100
AcDb2dVertex
 10
90.721721
 20
58.743673
 30
0.0
  0
VERTEX
  5
164
330
161
100
AcDbEntity
  8
001
370
     9
100
AcDbVertex
100
AcDb2dVertex
 10
78.297182
 20
58.743673
 30
0.0
  0
VERTEX
  5
165
330
161
100
AcDbEntity
  8
001
370
     9
100
AcDbVertex
100
AcDb2dVertex
 10
75.547182
 20
58.743673
 30
0.0
  0
SEQEND
  5
162
330
161
100
AcDbEntity
  8
001
370
     9
  0
DIMENSION
  5
166
330
1F
100
AcDbEntity
  8
001
370
     9
100
AcDbDimension
  2
*D1
 10
106.951845
 20
32.8149
 30
0.0
 11
119.451845
 21
35.8149
 31
0.0
 70
   160
 71
     5
 42
-1.0
  3
Standard
100
AcDbAlignedDimension
 13
131.951845
 23
65.0636
 33
0.0
 14
106.951845
 24
43.789467
 34
0.0
 50
180.0
100
AcDbRotatedDimension
  0
DIMENSION
  5
167
330
1F
100
AcDbEntity
  8
001
370
     9
100
AcDbDimension
  2
*D2
 10
211.951845
 20
32.8149
 30
0.0
 11
171.951845
 21
35.8149
 31
0.0
 70
   160
 71
     5
 42
-1.0
  3
Standard
100
AcDbAlignedDimension
 13
131.951845
 23
65.0636
 33
0.0
 14
211.951845
 24
88.6636
 34
0.0
100
AcDbRotatedDimension
  0
DIMENSION
  5
168
330
1F
100
AcDbEntity
  8
001
370
     9
100
AcDbDimension
  2
*D3
 10
211.951845
 20
19.142268
 30
0.0
 11
159.451845
 21
22.142268
 31
0.0
 70
   160
 71
     5
 42
-1.0
  3
Standard
100
AcDbAlignedDimension
 13
106.951845
 23
43.789467
 33
0.0
 14
211.951845
 24
88.6636
 34
0.0
 50
360.0
100
AcDbRotatedDimension
  0
DIMENSION
  5
169
330
1F
100
AcDbEntity
  8
001
370
     9
100
AcDbDimension
  2
*D4
 10
106.951845
 20
58.743673
 30
0.0
 11
101.02785
 21
52.819678
 31
0.0
 70
    34
 71
     5
 42
-1.0
  3
Standard
100
AcDb2LineAngularDimension
 13
106.951845
 23
50.11588
 33
0.0
 14
106.951845
 24
58.743673
 34
0.0
 15
98.324052
 25
58.743673
 35
0.0
 16
98.90653
 26
50.698358
 36
0.0
  0
DIMENSION
  5
16A
330
1F
100
AcDbEntity
  8
001
370
     9
100
AcDbDimension
  2
*D5
 10
106.951845
 20
42.101799
 30
0.0
 11
91.451845
 21
45.101799
 31
0.0
 70
   160
 71
     5
 42
-1.0
  3
Standard
100
AcDbAlignedDimension
 13
121.851845
 23
58.826606
 33
0.0
 14
106.951845
 24
43.789467
 34
0.0
 50
180.0
100
AcDbRotatedDimension
  0
TEXT
  5
16B
330
1F
100
AcDbEntity
  8
001
370
    30
100
AcDbText
 10
76.656643
 20
53.735125
 30
0.0
 40
4.0
  1
Ｒ３
 41
0.833333
100
AcDbText
  0
POLYLINE
  5
16C
330
1F
100
AcDbEntity
  8
001
370
     9
100
AcDb2dPolyline
 66
     1
 10
0.0
 20
0.0
 30
0.0
  0
VERTEX
  5
16E
330
16C
100
AcDbEntity
  8
001
370
     9
100
AcDbVertex
100
AcDb2dVertex
 10
105.609776
 20
60.49541
 30
0.0
  0
VERTEX
  5
16F
330
16C
100
AcDbEntity
  8
001
370
     9
100
AcDbVertex
100
AcDb2dVertex
 10
107.153776
 20
60.66156
 30
0.0
  0
VERTEX
  5
170
330
16C
100
AcDbEntity
  8
001
370
     9
100
AcDbVertex
100
AcDb2dVertex
 10
105.899707
 20
59.74567
 30
0.0
  0
SEQEND
  5
16D
330
16C
100
AcDbEntity
  8
001
370
     9
  0
POLYLINE
  5
171
330
1F
100
AcDbEntity
  8
001
370
     9
100
AcDb2dPolyline
 66
     1
 10
0.0
 20
0.0
 30
0.0
  0
VERTEX
  5
173
330
171
100
AcDbEntity
  8
001
370
     9
100
AcDbVertex
100
AcDb2dVertex
 10
107.153776
 20
60.66156
 30
0.0
  0
VERTEX
  5
174
330
171
100
AcDbEntity
  8
001
370
     9
100
AcDbVertex
100
AcDb2dVertex
 10
86.656643
 20
52.735125
 30
0.0
  0
VERTEX
  5
175
330
171
100
AcDbEntity
  8
001
370
     9
100
AcDbVertex
100
AcDb2dVertex
 10
74.656643
 20
52.735125
 30
0.0
  0
SEQEND
  5
172
330
171
100
AcDbEntity
  8
001
370
     9
  0
DIMENSION
  5
176
330
1F
100
AcDbEntity
  8
001
370
     9
100
AcDbDimension
  2
*D6
 10
238.119013
 20
114.6636
 30
0.0
 11
235.119013
 21
98.6636
 31
0.0
 70
   160
 71
     5
 42
-1.0
  3
Standard
100
AcDbAlignedDimension
 13
205.951845
 23
82.6636
 33
0.0
 14
205.951845
 24
114.6636
 34
0.0
 50
90.0
100
AcDbRotatedDimension
  0
TEXT
  5
177
330
1F
100
AcDbEntity
  8
001
370
    30
100
AcDbText
 10
77.297182
 20
306.934909
 30
0.0
 40
4.0
  1
%%c８０
 50
90.000003
 41
0.882353
100
AcDbText
  0
POLYLINE
  5
178
330
1F
100
AcDbEntity
  8
001
370
     9
100
AcDb2dPolyline
 66
     1
 10
0.0
 20
0.0
 30
0.0
  0
VERTEX
  5
17A
330
178
100
AcDbEntity
  8
001
370
     9
100
AcDbVertex
100
AcDb2dVertex
 10
78.699105
 20
274.434909
 30
0.0
  0
VERTEX
  5
17B
330
178
100
AcDbEntity
  8
001
370
     9
100
AcDbVertex
100
AcDb2dVertex
 10
78.297182
 20
272.934909
 30
0.0
  0
VERTEX
  5
17C
330
178
100
AcDbEntity
  8
001
370
     9
100
AcDbVertex
100
AcDb2dVertex
 10
77.895258
 20
274.434909
 30
0.0
  0
SEQEND
  5
179
330
178
100
AcDbEntity
  8
001
370
     9
  0
LINE
  5
17D
330
1F
100
AcDbEntity
  8
001
370
     9
100
AcDbLine
 10
78.297182
 20
352.934909
 30
0.0
 11
78.297182
 21
272.934909
 31
0.0
  0
POLYLINE
  5
17E
330
1F
100
AcDbEntity
  8
001
370
     9
100
AcDb2dPolyline
 66
     1
 10
0.0
 20
0.0
 30
0.0
  0
VERTEX
  5
180
330
17E
100
AcDbEntity
  8
001
370
     9
100
AcDbVertex
100
AcDb2dVertex
 10
90.721721
 20
272.934909
 30
0.0
  0
VERTEX
  5
181
330
17E
100
AcDbEntity
  8
001
370
     9
100
AcDbVertex
100
AcDb2dVertex
 10
78.297182
 20
272.934909
 30
0.0
  0
VERTEX
  5
182
330
17E
100
AcDbEntity
  8
001
370
     9
100
AcDbVertex
100
AcDb2dVertex
 10
75.547182
 20
272.934909
 30
0.0
  0
SEQEND
  5
17F
330
17E
100
AcDbEntity
  8
001
370
     9
  0
DIMENSION
  5
183
330
1F
100
AcDbEntity
  8
001
370
     9
100
AcDbDimension
  2
*D7
 10
106.951845
 20
247.006136
 30
0.0
 11
119.451845
 21
250.006136
 31
0.0
 70
   160
 71
     5
 42
-1.0
  3
Standard
100
AcDbAlignedDimension
 13
131.951845
 23
279.254836
 33
0.0
 14
106.951845
 24
257.980703
 34
0.0
 50
180.0
100
AcDbRotatedDimension
  0
DIMENSION
  5
184
330
1F
100
AcDbEntity
  8
001
370
     9
100
AcDbDimension
  2
*D8
 10
106.951845
 20
272.934909
 30
0.0
 11
101.02785
 21
267.010914
 31
0.0
 70
    34
 71
     5
 42
-1.0
  3
Standard
100
AcDb2LineAngularDimension
 13
106.951845
 23
264.307116
 33
0.0
 14
106.951845
 24
272.934909
 34
0.0
 15
98.324052
 25
272.934909
 35
0.0
 16
98.90653
 26
264.889594
 36
0.0
  0
DIMENSION
  5
185
330
1F
100
AcDbEntity
  8
001
370
     9
100
AcDbDimension
  2
*D9
 10
106.951845
 20
256.293035
 30
0.0
 11
91.451845
 21
259.293035
 31
0.0
 70
   160
 71
     5
 42
-1.0
  3
Standard
100
AcDbAlignedDimension
 13
121.851845
 23
273.017842
 33
0.0
 14
106.951845
 24
257.980703
 34
0.0
 50
180.0
100
AcDbRotatedDimension
  0
TEXT
  5
186
330
1F
100
AcDbEntity
  8
001
370
    30
100
AcDbText
 10
76.656643
 20
267.926361
 30
0.0
 40
4.0
  1
Ｒ３
 41
0.833333
100
AcDbText
  0
POLYLINE
  5
187
330
1F
100
AcDbEntity
  8
001
370
     9
100
AcDb2dPolyline
 66
     1
 10
0.0
 20
0.0
 30
0.0
  0
VERTEX
  5
189
330
187
100
AcDbEntity
  8
001
370
     9
100
AcDbVertex
100
AcDb2dVertex
 10
105.609776
 20
274.686646
 30
0.0
  0
VERTEX
  5
18A
330
187
100
AcDbEntity
  8
001
370
     9
100
AcDbVertex
100
AcDb2dVertex
 10
107.153776
 20
274.852796
 30
0.0
  0
VERTEX
  5
18B
330
187
100
AcDbEntity
  8
001
370
     9
100
AcDbVertex
100
AcDb2dVertex
 10
105.899707
 20
273.936906
 30
0.0
  0
SEQEND
  5
188
330
187
100
AcDbEntity
  8
001
370
     9
  0
POLYLINE
  5
18C
330
1F
100
AcDbEntity
  8
001
370
     9
100
AcDb2dPolyline
 66
     1
 10
0.0
 20
0.0
 30
0.0
  0
VERTEX
  5
18E
330
18C
100
AcDbEntity
  8
001
370
     9
100
AcDbVertex
100
AcDb2dVertex
 10
107.153776
 20
274.852796
 30
0.0
  0
VERTEX
  5
18F
330
18C
100
AcDbEntity
  8
001
370
     9
100
AcDbVertex
100
AcDb2dVertex
 10
86.656643
 20
266.926361
 30
0.0
  0
VERTEX
  5
190
330
18C
100
AcDbEntity
  8
001
370
     9
100
AcDbVertex
100
AcDb2dVertex
 10
74.656643
 20
266.926361
 30
0.0
  0
SEQEND
  5
18D
330
18C
100
AcDbEntity
  8
001
370
     9
  0
DIMENSION
  5
191
330
1F
100
AcDbEntity
  8
001
370
     9
100
AcDbDimension
  2
*D10
 10
309.082536
 20
296.854836
 30
0.0
 11
306.082535
 21
312.854836
 31
0.0
 70
   160
 71
     5
 42
-1.0
  3
Standard
100
AcDbAlignedDimension
 13
275.951845
 23
328.854836
 33
0.0
 14
275.951845
 24
296.854836
 34
0.0
 50
270.0
100
AcDbRotatedDimension
  0
DIMENSION
  5
192
330
1F
100
AcDbEntity
  8
001
370
     9
100
AcDbDimension
  2
*D11
 10
281.951845
 20
233.333504
 30
0.0
 11
194.451845
 21
236.333504
 31
0.0
 70
   160
 71
     5
 42
-1.0
  3
Standard
100
AcDbAlignedDimension
 13
106.951845
 23
257.980703
 33
0.0
 14
281.951845
 24
302.854836
 34
0.0
100
AcDbRotatedDimension
  0
DIMENSION
  5
193
330
1F
100
AcDbEntity
  8
001
370
     9
100
AcDbDimension
  2
*D12
 10
281.951845
 20
247.006136
 30
0.0
 11
206.951845
 21
250.006136
 31
0.0
 70
   160
 71
     5
 42
-1.0
  3
Standard
100
AcDbAlignedDimension
 13
131.951845
 23
279.254836
 33
0.0
 14
281.951845
 24
302.854836
 34
0.0
100
AcDbRotatedDimension
  0
TEXT
  5
194
330
1F
100
AcDbEntity
  8
001
370
    30
100
AcDbText
 10
407.995505
 20
46.752815
 30
0.0
 40
4.0
  1
%%c８０
 50
90.000003
 41
0.882353
100
AcDbText
  0
POLYLINE
  5
195
330
1F
100
AcDbEntity
  8
001
370
     9
100
AcDb2dPolyline
 66
     1
 10
0.0
 20
0.0
 30
0.0
  0
VERTEX
  5
197
330
195
100
AcDbEntity
  8
001
370
     9
100
AcDbVertex
100
AcDb2dVertex
 10
409.397429
 20
14.252815
 30
0.0
  0
VERTEX
  5
198
330
195
100
AcDbEntity
  8
001
370
     9
100
AcDbVertex
100
AcDb2dVertex
 10
408.995505
 20
12.752815
 30
0.0
  0
VERTEX
  5
199
330
195
100
AcDbEntity
  8
001
370
     9
100
AcDbVertex
100
AcDb2dVertex
 10
408.593581
 20
14.252815
 30
0.0
  0
SEQEND
  5
196
330
195
100
AcDbEntity
  8
001
370
     9
  0
LINE
  5
19A
330
1F
100
AcDbEntity
  8
001
370
     9
100
AcDbLine
 10
408.995505
 20
92.752815
 30
0.0
 11
408.995505
 21
12.752815
 31
0.0
  0
POLYLINE
  5
19B
330
1F
100
AcDbEntity
  8
001
370
     9
100
AcDb2dPolyline
 66
     1
 10
0.0
 20
0.0
 30
0.0
  0
VERTEX
  5
19D
330
19B
100
AcDbEntity
  8
001
370
     9
100
AcDbVertex
100
AcDb2dVertex
 10
421.420044
 20
12.752815
 30
0.0
  0
VERTEX
  5
19E
330
19B
100
AcDbEntity
  8
001
370
     9
100
AcDbVertex
100
AcDb2dVertex
 10
408.995505
 20
12.752815
 30
0.0
  0
VERTEX
  5
19F
330
19B
100
AcDbEntity
  8
001
370
     9
100
AcDbVertex
100
AcDb2dVertex
 10
406.245505
 20
12.752815
 30
0.0
  0
SEQEND
  5
19C
330
19B
100
AcDbEntity
  8
001
370
     9
  0
TEXT
  5
1A0
330
1F
100
AcDbEntity
  8
001
370
    30
100
AcDbText
 10
407.995505
 20
158.948243
 30
0.0
 40
4.0
  1
%%c８０
 50
90.000003
 41
0.882353
100
AcDbText
  0
POLYLINE
  5
1A1
330
1F
100
AcDbEntity
  8
001
370
     9
100
AcDb2dPolyline
 66
     1
 10
0.0
 20
0.0
 30
0.0
  0
VERTEX
  5
1A3
330
1A1
100
AcDbEntity
  8
001
370
     9
100
AcDbVertex
100
AcDb2dVertex
 10
409.397429
 20
126.448243
 30
0.0
  0
VERTEX
  5
1A4
330
1A1
100
AcDbEntity
  8
001
370
     9
100
AcDbVertex
100
AcDb2dVertex
 10
408.995505
 20
124.948243
 30
0.0
  0
VERTEX
  5
1A5
330
1A1
100
AcDbEntity
  8
001
370
     9
100
AcDbVertex
100
AcDb2dVertex
 10
408.593581
 20
126.448243
 30
0.0
  0
SEQEND
  5
1A2
330
1A1
100
AcDbEntity
  8
001
370
     9
  0
LINE
  5
1A6
330
1F
100
AcDbEntity
  8
001
370
     9
100
AcDbLine
 10
408.995505
 20
204.948243
 30
0.0
 11
408.995505
 21
124.948243
 31
0.0
  0
POLYLINE
  5
1A7
330
1F
100
AcDbEntity
  8
001
370
     9
100
AcDb2dPolyline
 66
     1
 10
0.0
 20
0.0
 30
0.0
  0
VERTEX
  5
1A9
330
1A7
100
AcDbEntity
  8
001
370
     9
100
AcDbVertex
100
AcDb2dVertex
 10
421.420044
 20
124.948243
 30
0.0
  0
VERTEX
  5
1AA
330
1A7
100
AcDbEntity
  8
001
370
     9
100
AcDbVertex
100
AcDb2dVertex
 10
408.995505
 20
124.948243
 30
0.0
  0
VERTEX
  5
1AB
330
1A7
100
AcDbEntity
  8
001
370
     9
100
AcDbVertex
100
AcDb2dVertex
 10
406.245505
 20
124.948243
 30
0.0
  0
SEQEND
  5
1A8
330
1A7
100
AcDbEntity
  8
001
370
     9
  0
TEXT
  5
1AC
330
1F
100
AcDbEntity
  8
001
370
    30
100
AcDbText
 10
409.632428
 20
273.657883
 30
0.0
 40
4.0
  1
%%c８０
 50
90.000003
 41
0.882353
100
AcDbText
  0
POLYLINE
  5
1AD
330
1F
100
AcDbEntity
  8
001
370
     9
100
AcDb2dPolyline
 66
     1
 10
0.0
 20
0.0
 30
0.0
  0
VERTEX
  5
1AF
330
1AD
100
AcDbEntity
  8
001
370
     9
100
AcDbVertex
100
AcDb2dVertex
 10
411.034351
 20
241.157883
 30
0.0
  0
VERTEX
  5
1B0
330
1AD
100
AcDbEntity
  8
001
370
     9
100
AcDbVertex
100
AcDb2dVertex
 10
410.632428
 20
239.657883
 30
0.0
  0
VERTEX
  5
1B1
330
1AD
100
AcDbEntity
  8
001
370
     9
100
AcDbVertex
100
AcDb2dVertex
 10
410.230504
 20
241.157883
 30
0.0
  0
SEQEND
  5
1AE
330
1AD
100
AcDbEntity
  8
001
370
     9
  0
LINE
  5
1B2
330
1F
100
AcDbEntity
  8
001
370
     9
100
AcDbLine
 10
410.632428
 20
319.657883
 30
0.0
 11
410.632428
 21
239.657883
 31
0.0
  0
POLYLINE
  5
1B3
330
1F
100
AcDbEntity
  8
001
370
     9
100
AcDb2dPolyline
 66
     1
 10
0.0
 20
0.0
 30
0.0
  0
VERTEX
  5
1B5
330
1B3
100
AcDbEntity
  8
001
370
     9
100
AcDbVertex
100
AcDb2dVertex
 10
423.056967
 20
239.657883
 30
0.0
  0
VERTEX
  5
1B6
330
1B3
100
AcDbEntity
  8
001
370
     9
100
AcDbVertex
100
AcDb2dVertex
 10
410.632428
 20
239.657883
 30
0.0
  0
VERTEX
  5
1B7
330
1B3
100
AcDbEntity
  8
001
370
     9
100
AcDbVertex
100
AcDb2dVertex
 10
407.882428
 20
239.657883
 30
0.0
  0
SEQEND
  5
1B4
330
1B3
100
AcDbEntity
  8
001
370
     9
  0
TEXT
  5
1B8
330
1F
100
AcDbEntity
  8
001
370
    30
100
AcDbText
 10
410.178069
 20
388.207988
 30
0.0
 40
4.0
  1
%%c８０
 50
90.000003
 41
0.882353
100
AcDbText
  0
POLYLINE
  5
1B9
330
1F
100
AcDbEntity
  8
001
370
     9
100
AcDb2dPolyline
 66
     1
 10
0.0
 20
0.0
 30
0.0
  0
VERTEX
  5
1BB
330
1B9
100
AcDbEntity
  8
001
370
     9
100
AcDbVertex
100
AcDb2dVertex
 10
411.579992
 20
355.707988
 30
0.0
  0
VERTEX
  5
1BC
330
1B9
100
AcDbEntity
  8
001
370
     9
100
AcDbVertex
100
AcDb2dVertex
 10
411.178069
 20
354.207988
 30
0.0
  0
VERTEX
  5
1BD
330
1B9
100
AcDbEntity
  8
001
370
     9
100
AcDbVertex
100
AcDb2dVertex
 10
410.776145
 20
355.707988
 30
0.0
  0
SEQEND
  5
1BA
330
1B9
100
AcDbEntity
  8
001
370
     9
  0
LINE
  5
1BE
330
1F
100
AcDbEntity
  8
001
370
     9
100
AcDbLine
 10
411.178069
 20
434.207988
 30
0.0
 11
411.178069
 21
354.207988
 31
0.0
  0
POLYLINE
  5
1BF
330
1F
100
AcDbEntity
  8
001
370
     9
100
AcDb2dPolyline
 66
     1
 10
0.0
 20
0.0
 30
0.0
  0
VERTEX
  5
1C1
330
1BF
100
AcDbEntity
  8
001
370
     9
100
AcDbVertex
100
AcDb2dVertex
 10
423.602608
 20
354.207988
 30
0.0
  0
VERTEX
  5
1C2
330
1BF
100
AcDbEntity
  8
001
370
     9
100
AcDbVertex
100
AcDb2dVertex
 10
411.178069
 20
354.207988
 30
0.0
  0
VERTEX
  5
1C3
330
1BF
100
AcDbEntity
  8
001
370
     9
100
AcDbVertex
100
AcDb2dVertex
 10
408.428069
 20
354.207988
 30
0.0
  0
SEQEND
  5
1C0
330
1BF
100
AcDbEntity
  8
001
370
     9
  0
TEXT
  5
1C4
330
1F
100
AcDbEntity
  8
001
370
    30
100
AcDbText
 10
418.730731
 20
343.789917
 30
0.0
 40
4.0
  1
Ｒ５
 41
0.833333
100
AcDbText
  0
POLYLINE
  5
1C5
330
1F
100
AcDbEntity
  8
001
370
     9
100
AcDb2dPolyline
 66
     1
 10
0.0
 20
0.0
 30
0.0
  0
VERTEX
  5
1C7
330
1C5
100
AcDbEntity
  8
001
370
     9
100
AcDbVertex
100
AcDb2dVertex
 10
438.280919
 20
354.536736
 30
0.0
  0
VERTEX
  5
1C8
330
1C5
100
AcDbEntity
  8
001
370
     9
100
AcDbVertex
100
AcDb2dVertex
 10
439.562746
 20
355.413355
 30
0.0
  0
VERTEX
  5
1C9
330
1C5
100
AcDbEntity
  8
001
370
     9
100
AcDbVertex
100
AcDb2dVertex
 10
438.89096
 20
354.013267
 30
0.0
  0
SEQEND
  5
1C6
330
1C5
100
AcDbEntity
  8
001
370
     9
  0
POLYLINE
  5
1CA
330
1F
100
AcDbEntity
  8
001
370
     9
100
AcDb2dPolyline
 66
     1
 10
0.0
 20
0.0
 30
0.0
  0
VERTEX
  5
1CC
330
1CA
100
AcDbEntity
  8
001
370
     9
100
AcDbVertex
100
AcDb2dVertex
 10
439.562746
 20
355.413355
 30
0.0
  0
VERTEX
  5
1CD
330
1CA
100
AcDbEntity
  8
001
370
     9
100
AcDbVertex
100
AcDb2dVertex
 10
428.730731
 20
342.789917
 30
0.0
  0
VERTEX
  5
1CE
330
1CA
100
AcDbEntity
  8
001
370
     9
100
AcDbVertex
100
AcDb2dVertex
 10
416.730731
 20
342.789917
 30
0.0
  0
SEQEND
  5
1CB
330
1CA
100
AcDbEntity
  8
001
370
     9
  0
TEXT
  5
1CF
330
1F
100
AcDbEntity
  8
001
370
    30
100
AcDbText
 10
411.101409
 20
232.51442
 30
0.0
 40
4.0
  1
Ｒ４．５
 41
0.833333
100
AcDbText
  0
POLYLINE
  5
1D0
330
1F
100
AcDbEntity
  8
001
370
     9
100
AcDb2dPolyline
 66
     1
 10
0.0
 20
0.0
 30
0.0
  0
VERTEX
  5
1D2
330
1D0
100
AcDbEntity
  8
001
370
     9
100
AcDbVertex
100
AcDb2dVertex
 10
437.66921
 20
240.293408
 30
0.0
  0
VERTEX
  5
1D3
330
1D0
100
AcDbEntity
  8
001
370
     9
100
AcDbVertex
100
AcDb2dVertex
 10
439.029779
 20
241.042002
 30
0.0
  0
VERTEX
  5
1D4
330
1D0
100
AcDbEntity
  8
001
370
     9
100
AcDbVertex
100
AcDb2dVertex
 10
438.225789
 20
239.713415
 30
0.0
  0
SEQEND
  5
1D1
330
1D0
100
AcDbEntity
  8
001
370
     9
  0
POLYLINE
  5
1D5
330
1F
100
AcDbEntity
  8
001
370
     9
100
AcDb2dPolyline
 66
     1
 10
0.0
 20
0.0
 30
0.0
  0
VERTEX
  5
1D7
330
1D5
100
AcDbEntity
  8
001
370
     9
100
AcDbVertex
100
AcDb2dVertex
 10
439.029779
 20
241.042002
 30
0.0
  0
VERTEX
  5
1D8
330
1D5
100
AcDbEntity
  8
001
370
     9
100
AcDbVertex
100
AcDb2dVertex
 10
429.101409
 20
231.51442
 30
0.0
  0
VERTEX
  5
1D9
330
1D5
100
AcDbEntity
  8
001
370
     9
100
AcDbVertex
100
AcDb2dVertex
 10
409.101409
 20
231.51442
 30
0.0
  0
SEQEND
  5
1D6
330
1D5
100
AcDbEntity
  8
001
370
     9
  0
TEXT
  5
1DA
330
1F
100
AcDbEntity
  8
001
370
    30
100
AcDbText
 10
420.52336
 20
116.521884
 30
0.0
 40
4.0
  1
Ｒ４
 41
0.833333
100
AcDbText
  0
POLYLINE
  5
1DB
330
1F
100
AcDbEntity
  8
001
370
     9
100
AcDb2dPolyline
 66
     1
 10
0.0
 20
0.0
 30
0.0
  0
VERTEX
  5
1DD
330
1DB
100
AcDbEntity
  8
001
370
     9
100
AcDbVertex
100
AcDb2dVertex
 10
437.901865
 20
124.990579
 30
0.0
  0
VERTEX
  5
1DE
330
1DB
100
AcDbEntity
  8
001
370
     9
100
AcDbVertex
100
AcDb2dVertex
 10
439.171545
 20
125.884702
 30
0.0
  0
VERTEX
  5
1DF
330
1DB
100
AcDbEntity
  8
001
370
     9
100
AcDbVertex
100
AcDb2dVertex
 10
438.519032
 20
124.475529
 30
0.0
  0
SEQEND
  5
1DC
330
1DB
100
AcDbEntity
  8
001
370
     9
  0
POLYLINE
  5
1E0
330
1F
100
AcDbEntity
  8
001
370
     9
100
AcDb2dPolyline
 66
     1
 10
0.0
 20
0.0
 30
0.0
  0
VERTEX
  5
1E2
330
1E0
100
AcDbEntity
  8
001
370
     9
100
AcDbVertex
100
AcDb2dVertex
 10
439.171545
 20
125.884702
 30
0.0
  0
VERTEX
  5
1E3
330
1E0
100
AcDbEntity
  8
001
370
     9
100
AcDbVertex
100
AcDb2dVertex
 10
430.52336
 20
115.521884
 30
0.0
  0
VERTEX
  5
1E4
330
1E0
100
AcDbEntity
  8
001
370
     9
100
AcDbVertex
100
AcDb2dVertex
 10
418.52336
 20
115.521884
 30
0.0
  0
SEQEND
  5
1E1
330
1E0
100
AcDbEntity
  8
001
370
     9
  0
TEXT
  5
1E5
330
1F
100
AcDbEntity
  8
001
370
    30
100
AcDbText
 10
410.950679
 20
2.707243
 30
0.0
 40
4.0
  1
Ｒ３．５
 41
0.833333
100
AcDbText
  0
POLYLINE
  5
1E6
330
1F
100
AcDbEntity
  8
001
370
     9
100
AcDb2dPolyline
 66
     1
 10
0.0
 20
0.0
 30
0.0
  0
VERTEX
  5
1E8
330
1E6
100
AcDbEntity
  8
001
370
     9
100
AcDbVertex
100
AcDb2dVertex
 10
437.665696
 20
12.689401
 30
0.0
  0
VERTEX
  5
1E9
330
1E6
100
AcDbEntity
  8
001
370
     9
100
AcDbVertex
100
AcDb2dVertex
 10
438.938963
 20
13.578407
 30
0.0
  0
VERTEX
  5
1EA
330
1E6
100
AcDbEntity
  8
001
370
     9
100
AcDbVertex
100
AcDb2dVertex
 10
438.280784
 20
12.171871
 30
0.0
  0
SEQEND
  5
1E7
330
1E6
100
AcDbEntity
  8
001
370
     9
  0
POLYLINE
  5
1EB
330
1F
100
AcDbEntity
  8
001
370
     9
100
AcDb2dPolyline
 66
     1
 10
0.0
 20
0.0
 30
0.0
  0
VERTEX
  5
1ED
330
1EB
100
AcDbEntity
  8
001
370
     9
100
AcDbVertex
100
AcDb2dVertex
 10
438.938963
 20
13.578407
 30
0.0
  0
VERTEX
  5
1EE
330
1EB
100
AcDbEntity
  8
001
370
     9
100
AcDbVertex
100
AcDb2dVertex
 10
428.950679
 20
1.707243
 30
0.0
  0
VERTEX
  5
1EF
330
1EB
100
AcDbEntity
  8
001
370
     9
100
AcDbVertex
100
AcDb2dVertex
 10
408.950679
 20
1.707243
 30
0.0
  0
SEQEND
  5
1EC
330
1EB
100
AcDbEntity
  8
001
370
     9
  0
TEXT
  5
1F0
330
1F
100
AcDbEntity
  8
001
370
    30
100
AcDbText
 10
50.04921
 20
378.253271
 30
0.0
 40
10.0
  1
すみっこ　ＳＫ３２－８０ＡＬＲＬ　（４枚刃）
 41
0.833333
100
AcDbText
  0
TEXT
  5
1F1
330
1F
100
AcDbEntity
  8
001
370
    30
100
AcDbText
 10
55.04921
 20
191.13729
 30
0.0
 40
10.0
  1
すみっこ　ＳＫ３２－８０ＡＬＲ　（４枚刃）
 41
0.833333
100
AcDbText
  0
LINE
  5
1F2
330
1F
100
AcDbEntity
  8
001
  6
DASHED
370
    30
100
AcDbLine
 10
109.440865
 20
118.6636
 30
0.0
 11
109.440865
 21
78.6636
 31
0.0
  0
LINE
  5
1F3
330
1F
100
AcDbEntity
  8
001
  6
DASHED
370
    30
100
AcDbLine
 10
109.440865
 20
118.6636
 30
0.0
 11
107.973507
 21
132.62458
 31
0.0
  0
POLYLINE
  5
1F4
330
1F
100
AcDbEntity
  8
001
370
    50
100
AcDb2dPolyline
 66
     1
 10
0.0
 20
0.0
 30
0.0
  0
VERTEX
  5
1F6
330
1F4
100
AcDbEntity
  8
001
370
    50
100
AcDbVertex
100
AcDb2dVertex
 10
107.973507
 20
71.973748
 30
0.0
  0
VERTEX
  5
1F7
330
1F4
100
AcDbEntity
  8
001
370
    50
100
AcDbVertex
100
AcDb2dVertex
 10
108.187653
 20
74.631994
 30
0.0
  0
VERTEX
  5
1F8
330
1F4
100
AcDbEntity
  8
001
370
    50
100
AcDbVertex
100
AcDb2dVertex
 10
108.393689
 20
77.290863
 30
0.0
  0
VERTEX
  5
1F9
330
1F4
100
AcDbEntity
  8
001
370
    50
100
AcDbVertex
100
AcDb2dVertex
 10
108.407616
 20
77.477162
 30
0.0
  0
VERTEX
  5
1FA
330
1F4
100
AcDbEntity
  8
001
370
    50
100
AcDbVertex
100
AcDb2dVertex
 10
108.421503
 20
77.663465
 30
0.0
  0
SEQEND
  5
1F5
330
1F4
100
AcDbEntity
  8
001
370
    50
  0
POLYLINE
  5
1FB
330
1F
100
AcDbEntity
  8
001
370
    50
100
AcDb2dPolyline
 66
     1
 10
0.0
 20
0.0
 30
0.0
  0
VERTEX
  5
1FD
330
1FB
100
AcDbEntity
  8
001
370
    50
100
AcDbVertex
100
AcDb2dVertex
 10
112.150499
 20
131.051252
 30
0.0
  0
VERTEX
  5
1FE
330
1FB
100
AcDbEntity
  8
001
370
    50
100
AcDbVertex
100
AcDb2dVertex
 10
111.857273
 20
131.034192
 30
0.0
  0
VERTEX
  5
1FF
330
1FB
100
AcDbEntity
  8
001
370
    50
100
AcDbVertex
100
AcDb2dVertex
 10
111.566031
 20
131.002126
 30
0.0
  0
VERTEX
  5
200
330
1FB
100
AcDbEntity
  8
001
370
    50
100
AcDbVertex
100
AcDb2dVertex
 10
111.278687
 20
130.943253
 30
0.0
  0
VERTEX
  5
201
330
1FB
100
AcDbEntity
  8
001
370
    50
100
AcDbVertex
100
AcDb2dVertex
 10
110.997203
 20
130.858667
 30
0.0
  0
VERTEX
  5
202
330
1FB
100
AcDbEntity
  8
001
370
    50
100
AcDbVertex
100
AcDb2dVertex
 10
110.634854
 20
130.712411
 30
0.0
  0
VERTEX
  5
203
330
1FB
100
AcDbEntity
  8
001
370
    50
100
AcDbVertex
100
AcDb2dVertex
 10
110.28916
 20
130.530613
 30
0.0
  0
VERTEX
  5
204
330
1FB
100
AcDbEntity
  8
001
370
    50
100
AcDbVertex
100
AcDb2dVertex
 10
109.962653
 20
130.315492
 30
0.0
  0
VERTEX
  5
205
330
1FB
100
AcDbEntity
  8
001
370
    50
100
AcDbVertex
100
AcDb2dVertex
 10
109.65817
 20
130.070159
 30
0.0
  0
VERTEX
  5
206
330
1FB
100
AcDbEntity
  8
001
370
    50
100
AcDbVertex
100
AcDb2dVertex
 10
109.379991
 20
129.800161
 30
0.0
  0
VERTEX
  5
207
330
1FB
100
AcDbEntity
  8
001
370
    50
100
AcDbVertex
100
AcDb2dVertex
 10
109.126165
 20
129.507113
 30
0.0
  0
VERTEX
  5
208
330
1FB
100
AcDbEntity
  8
001
370
    50
100
AcDbVertex
100
AcDb2dVertex
 10
108.89688
 20
129.194184
 30
0.0
  0
VERTEX
  5
209
330
1FB
100
AcDbEntity
  8
001
370
    50
100
AcDbVertex
100
AcDb2dVertex
 10
108.692827
 20
128.864244
 30
0.0
  0
VERTEX
  5
20A
330
1FB
100
AcDbEntity
  8
001
370
    50
100
AcDbVertex
100
AcDb2dVertex
 10
108.47967
 20
128.444814
 30
0.0
  0
VERTEX
  5
20B
330
1FB
100
AcDbEntity
  8
001
370
    50
100
AcDbVertex
100
AcDb2dVertex
 10
108.303637
 20
128.008398
 30
0.0
  0
VERTEX
  5
20C
330
1FB
100
AcDbEntity
  8
001
370
    50
100
AcDbVertex
100
AcDb2dVertex
 10
108.163838
 20
127.558824
 30
0.0
  0
VERTEX
  5
20D
330
1FB
100
AcDbEntity
  8
001
370
    50
100
AcDbVertex
100
AcDb2dVertex
 10
108.059313
 20
127.09969
 30
0.0
  0
VERTEX
  5
20E
330
1FB
100
AcDbEntity
  8
001
370
    50
100
AcDbVertex
100
AcDb2dVertex
 10
107.99312
 20
126.666287
 30
0.0
  0
VERTEX
  5
20F
330
1FB
100
AcDbEntity
  8
001
370
    50
100
AcDbVertex
100
AcDb2dVertex
 10
107.958298
 20
126.229543
 30
0.0
  0
VERTEX
  5
210
330
1FB
100
AcDbEntity
  8
001
370
    50
100
AcDbVertex
100
AcDb2dVertex
 10
107.953105
 20
126.054524
 30
0.0
  0
VERTEX
  5
211
330
1FB
100
AcDbEntity
  8
001
370
    50
100
AcDbVertex
100
AcDb2dVertex
 10
107.950568
 20
125.879427
 30
0.0
  0
SEQEND
  5
1FC
330
1FB
100
AcDbEntity
  8
001
370
    50
  0
LINE
  5
212
330
1F
100
AcDbEntity
  8
001
370
    50
100
AcDbLine
 10
126.951845
 20
131.051252
 30
0.0
 11
112.150499
 21
131.051252
 31
0.0
  0
POLYLINE
  5
213
330
1F
100
AcDbEntity
  8
001
370
    50
100
AcDb2dPolyline
 66
     1
 10
0.0
 20
0.0
 30
0.0
  0
VERTEX
  5
215
330
213
100
AcDbEntity
  8
001
370
    50
100
AcDbVertex
100
AcDb2dVertex
 10
131.951845
 20
124.892591
 30
0.0
  0
VERTEX
  5
216
330
213
100
AcDbEntity
  8
001
370
    50
100
AcDbVertex
100
AcDb2dVertex
 10
131.948153
 20
125.099802
 30
0.0
  0
VERTEX
  5
217
330
213
100
AcDbEntity
  8
001
370
    50
100
AcDbVertex
100
AcDb2dVertex
 10
131.94131
 20
125.306901
 30
0.0
  0
VERTEX
  5
218
330
213
100
AcDbEntity
  8
001
370
    50
100
AcDbVertex
100
AcDb2dVertex
 10
131.903634
 20
125.779144
 30
0.0
  0
VERTEX
  5
219
330
213
100
AcDbEntity
  8
001
370
    50
100
AcDbVertex
100
AcDb2dVertex
 10
131.835636
 20
126.248273
 30
0.0
  0
VERTEX
  5
21A
330
213
100
AcDbEntity
  8
001
370
    50
100
AcDbVertex
100
AcDb2dVertex
 10
131.738849
 20
126.713973
 30
0.0
  0
VERTEX
  5
21B
330
213
100
AcDbEntity
  8
001
370
    50
100
AcDbVertex
100
AcDb2dVertex
 10
131.612678
 20
127.172462
 30
0.0
  0
VERTEX
  5
21C
330
213
100
AcDbEntity
  8
001
370
    50
100
AcDbVertex
100
AcDb2dVertex
 10
131.456645
 20
127.619232
 30
0.0
  0
VERTEX
  5
21D
330
213
100
AcDbEntity
  8
001
370
    50
100
AcDbVertex
100
AcDb2dVertex
 10
131.26931
 20
128.053815
 30
0.0
  0
VERTEX
  5
21E
330
213
100
AcDbEntity
  8
001
370
    50
100
AcDbVertex
100
AcDb2dVertex
 10
131.048311
 20
128.476383
 30
0.0
  0
VERTEX
  5
21F
330
213
100
AcDbEntity
  8
001
370
    50
100
AcDbVertex
100
AcDb2dVertex
 10
130.795153
 20
128.880576
 30
0.0
  0
VERTEX
  5
220
330
213
100
AcDbEntity
  8
001
370
    50
100
AcDbVertex
100
AcDb2dVertex
 10
130.510417
 20
129.262804
 30
0.0
  0
VERTEX
  5
221
330
213
100
AcDbEntity
  8
001
370
    50
100
AcDbVertex
100
AcDb2dVertex
 10
130.193946
 20
129.619047
 30
0.0
  0
VERTEX
  5
222
330
213
100
AcDbEntity
  8
001
370
    50
100
AcDbVertex
100
AcDb2dVertex
 10
129.842919
 20
129.947608
 30
0.0
  0
VERTEX
  5
223
330
213
100
AcDbEntity
  8
001
370
    50
100
AcDbVertex
100
AcDb2dVertex
 10
129.46215
 20
130.241492
 30
0.0
  0
VERTEX
  5
224
330
213
100
AcDbEntity
  8
001
370
    50
100
AcDbVertex
100
AcDb2dVertex
 10
129.054784
 20
130.496569
 30
0.0
  0
VERTEX
  5
225
330
213
100
AcDbEntity
  8
001
370
    50
100
AcDbVertex
100
AcDb2dVertex
 10
128.623442
 20
130.707823
 30
0.0
  0
VERTEX
  5
226
330
213
100
AcDbEntity
  8
001
370
    50
100
AcDbVertex
100
AcDb2dVertex
 10
128.239515
 20
130.849483
 30
0.0
  0
VERTEX
  5
227
330
213
100
AcDbEntity
  8
001
370
    50
100
AcDbVertex
100
AcDb2dVertex
 10
127.843807
 20
130.954726
 30
0.0
  0
VERTEX
  5
228
330
213
100
AcDbEntity
  8
001
370
    50
100
AcDbVertex
100
AcDb2dVertex
 10
127.439974
 20
131.022639
 30
0.0
  0
VERTEX
  5
229
330
213
100
AcDbEntity
  8
001
370
    50
100
AcDbVertex
100
AcDb2dVertex
 10
127.03194
 20
131.050487
 30
0.0
  0
VERTEX
  5
22A
330
213
100
AcDbEntity
  8
001
370
    50
100
AcDbVertex
100
AcDb2dVertex
 10
126.991892
 20
131.050973
 30
0.0
  0
VERTEX
  5
22B
330
213
100
AcDbEntity
  8
001
370
    50
100
AcDbVertex
100
AcDb2dVertex
 10
126.951845
 20
131.051252
 30
0.0
  0
SEQEND
  5
214
330
213
100
AcDbEntity
  8
001
370
    50
  0
LINE
  5
22C
330
1F
100
AcDbEntity
  8
001
370
    50
100
AcDbLine
 10
107.950568
 20
125.879427
 30
0.0
 11
107.973507
 21
125.353452
 31
0.0
  0
ARC
  5
22D
330
1F
100
AcDbEntity
  8
001
370
    50
100
AcDbCircle
 10
112.150499
 20
133.0636
 30
0.0
 40
4.200000000000002
100
AcDbArc
 50
90.0
 51
180.0
  0
ARC
  5
22E
330
1F
100
AcDbEntity
  8
001
  6
DASHED
370
    30
100
AcDbCircle
 10
112.150499
 20
133.0636
 30
0.0
 40
4.200000000000002
100
AcDbArc
 50
180.0
 51
186.0
  0
LINE
  5
22F
330
1F
100
AcDbEntity
  8
001
370
    50
100
AcDbLine
 10
126.951845
 20
137.2636
 30
0.0
 11
112.150499
 21
137.2636
 31
0.0
  0
LINE
  5
230
330
1F
100
AcDbEntity
  8
001
370
    50
100
AcDbLine
 10
136.951845
 20
114.6636
 30
0.0
 11
136.951845
 21
82.6636
 31
0.0
  0
ARC
  5
231
330
1F
100
AcDbEntity
  8
001
370
    50
100
AcDbCircle
 10
136.951845
 20
119.6636
 30
0.0
 40
5.000000000000001
100
AcDbArc
 50
180.0
 51
270.0
  0
ARC
  5
232
330
1F
100
AcDbEntity
  8
001
370
    50
100
AcDbCircle
 10
136.951845
 20
77.6636
 30
0.0
 40
5.000000000000001
100
AcDbArc
 50
90.0
 51
180.0
  0
ARC
  5
233
330
1F
100
AcDbEntity
  8
001
370
    50
100
AcDbCircle
 10
126.951845
 20
132.2636
 30
0.0
 40
5.000000000000001
100
AcDbArc
 50
0.0
 51
90.0
  0
LINE
  5
234
330
1F
100
AcDbEntity
  8
001
370
    50
100
AcDbLine
 10
211.951845
 20
88.6636
 30
0.0
 11
211.951845
 21
108.6636
 31
0.0
  0
POLYLINE
  5
235
330
1F
100
AcDbEntity
  8
001
370
    50
100
AcDb2dPolyline
 66
     1
 10
0.0
 20
0.0
 30
0.0
  0
VERTEX
  5
237
330
235
100
AcDbEntity
  8
001
370
    50
100
AcDbVertex
100
AcDb2dVertex
 10
126.951845
 20
60.130427
 30
0.0
  0
VERTEX
  5
238
330
235
100
AcDbEntity
  8
001
370
    50
100
AcDbVertex
100
AcDb2dVertex
 10
127.373708
 20
60.150944
 30
0.0
  0
VERTEX
  5
239
330
235
100
AcDbEntity
  8
001
370
    50
100
AcDbVertex
100
AcDb2dVertex
 10
127.792817
 20
60.193822
 30
0.0
  0
VERTEX
  5
23A
330
235
100
AcDbEntity
  8
001
370
    50
100
AcDbVertex
100
AcDb2dVertex
 10
128.206638
 20
60.276736
 30
0.0
  0
VERTEX
  5
23B
330
235
100
AcDbEntity
  8
001
370
    50
100
AcDbVertex
100
AcDb2dVertex
 10
128.61168
 20
60.398218
 30
0.0
  0
VERTEX
  5
23C
330
235
100
AcDbEntity
  8
001
370
    50
100
AcDbVertex
100
AcDb2dVertex
 10
129.005675
 20
60.553425
 30
0.0
  0
VERTEX
  5
23D
330
235
100
AcDbEntity
  8
001
370
    50
100
AcDbVertex
100
AcDb2dVertex
 10
129.385052
 20
60.740866
 30
0.0
  0
VERTEX
  5
23E
330
235
100
AcDbEntity
  8
001
370
    50
100
AcDbVertex
100
AcDb2dVertex
 10
129.747939
 20
60.960561
 30
0.0
  0
VERTEX
  5
23F
330
235
100
AcDbEntity
  8
001
370
    50
100
AcDbVertex
100
AcDb2dVertex
 10
130.090526
 20
61.210803
 30
0.0
  0
VERTEX
  5
240
330
235
100
AcDbEntity
  8
001
370
    50
100
AcDbVertex
100
AcDb2dVertex
 10
130.407857
 20
61.487832
 30
0.0
  0
VERTEX
  5
241
330
235
100
AcDbEntity
  8
001
370
    50
100
AcDbVertex
100
AcDb2dVertex
 10
130.700576
 20
61.790876
 30
0.0
  0
VERTEX
  5
242
330
235
100
AcDbEntity
  8
001
370
    50
100
AcDbVertex
100
AcDb2dVertex
 10
130.967547
 20
62.118301
 30
0.0
  0
VERTEX
  5
243
330
235
100
AcDbEntity
  8
001
370
    50
100
AcDbVertex
100
AcDb2dVertex
 10
131.205323
 20
62.467223
 30
0.0
  0
VERTEX
  5
244
330
235
100
AcDbEntity
  8
001
370
    50
100
AcDbVertex
100
AcDb2dVertex
 10
131.409621
 20
62.831351
 30
0.0
  0
VERTEX
  5
245
330
235
100
AcDbEntity
  8
001
370
    50
100
AcDbVertex
100
AcDb2dVertex
 10
131.5836
 20
63.211464
 30
0.0
  0
VERTEX
  5
246
330
235
100
AcDbEntity
  8
001
370
    50
100
AcDbVertex
100
AcDb2dVertex
 10
131.727074
 20
63.605327
 30
0.0
  0
VERTEX
  5
247
330
235
100
AcDbEntity
  8
001
370
    50
100
AcDbVertex
100
AcDb2dVertex
 10
131.83324
 20
64.009679
 30
0.0
  0
VERTEX
  5
248
330
235
100
AcDbEntity
  8
001
370
    50
100
AcDbVertex
100
AcDb2dVertex
 10
131.911741
 20
64.547613
 30
0.0
  0
VERTEX
  5
249
330
235
100
AcDbEntity
  8
001
370
    50
100
AcDbVertex
100
AcDb2dVertex
 10
131.951845
 20
65.092311
 30
0.0
  0
SEQEND
  5
236
330
235
100
AcDbEntity
  8
001
370
    50
  0
LINE
  5
24A
330
1F
100
AcDbEntity
  8
001
370
    50
100
AcDbLine
 10
107.950555
 20
71.444852
 30
0.0
 11
107.973507
 21
71.973748
 31
0.0
  0
ARC
  5
24B
330
1F
100
AcDbEntity
  8
001
370
    50
100
AcDbCircle
 10
126.951845
 20
65.0636
 30
0.0
 40
5.000000000000001
100
AcDbArc
 50
270.0
 51
0.0
  0
LINE
  5
24C
330
1F
100
AcDbEntity
  8
001
  6
CENTER
370
     9
100
AcDbLine
 10
216.109336
 20
98.6636
 30
0.0
 11
103.945403
 21
98.6636
 31
0.0
  0
LINE
  5
24D
330
1F
100
AcDbEntity
  8
001
370
    50
100
AcDbLine
 10
131.951845
 20
77.6636
 30
0.0
 11
107.950499
 21
77.6636
 31
0.0
  0
LINE
  5
24E
330
1F
100
AcDbEntity
  8
001
370
    50
100
AcDbLine
 10
107.950499
 20
119.6636
 30
0.0
 11
108.421609
 21
119.6636
 31
0.0
  0
POLYLINE
  5
24F
330
1F
100
AcDbEntity
  8
001
370
    50
100
AcDb2dPolyline
 66
     1
 10
0.0
 20
0.0
 30
0.0
  0
VERTEX
  5
251
330
24F
100
AcDbEntity
  8
001
370
    50
100
AcDbVertex
100
AcDb2dVertex
 10
107.973507
 20
125.353452
 30
0.0
  0
VERTEX
  5
252
330
24F
100
AcDbEntity
  8
001
370
    50
100
AcDbVertex
100
AcDb2dVertex
 10
108.024859
 20
124.727613
 30
0.0
  0
VERTEX
  5
253
330
24F
100
AcDbEntity
  8
001
370
    50
100
AcDbVertex
100
AcDb2dVertex
 10
108.075944
 20
124.101752
 30
0.0
  0
VERTEX
  5
254
330
24F
100
AcDbEntity
  8
001
370
    50
100
AcDbVertex
100
AcDb2dVertex
 10
108.27471
 20
121.599681
 30
0.0
  0
VERTEX
  5
255
330
24F
100
AcDbEntity
  8
001
370
    50
100
AcDbVertex
100
AcDb2dVertex
 10
108.463347
 20
119.09683
 30
0.0
  0
VERTEX
  5
256
330
24F
100
AcDbEntity
  8
001
370
    50
100
AcDbVertex
100
AcDb2dVertex
 10
108.640338
 20
116.592945
 30
0.0
  0
VERTEX
  5
257
330
24F
100
AcDbEntity
  8
001
370
    50
100
AcDbVertex
100
AcDb2dVertex
 10
108.804351
 20
114.088147
 30
0.0
  0
VERTEX
  5
258
330
24F
100
AcDbEntity
  8
001
370
    50
100
AcDbVertex
100
AcDb2dVertex
 10
108.953056
 20
111.581283
 30
0.0
  0
VERTEX
  5
259
330
24F
100
AcDbEntity
  8
001
370
    50
100
AcDbVertex
100
AcDb2dVertex
 10
109.079468
 20
109.073273
 30
0.0
  0
VERTEX
  5
25A
330
24F
100
AcDbEntity
  8
001
370
    50
100
AcDbVertex
100
AcDb2dVertex
 10
109.175774
 20
106.665471
 30
0.0
  0
VERTEX
  5
25B
330
24F
100
AcDbEntity
  8
001
370
    50
100
AcDbVertex
100
AcDb2dVertex
 10
109.257545
 20
104.257043
 30
0.0
  0
SEQEND
  5
250
330
24F
100
AcDbEntity
  8
001
370
    50
  0
LINE
  5
25C
330
1F
100
AcDbEntity
  8
001
370
    50
100
AcDbLine
 10
131.951845
 20
65.0636
 30
0.0
 11
131.951845
 21
132.2636
 31
0.0
  0
LINE
  5
25D
330
1F
100
AcDbEntity
  8
001
370
    50
100
AcDbLine
 10
107.950499
 20
133.0636
 30
0.0
 11
107.950499
 21
125.879427
 31
0.0
  0
LINE
  5
25E
330
1F
100
AcDbEntity
  8
001
370
    50
100
AcDbLine
 10
139.951845
 20
82.6636
 30
0.0
 11
139.951845
 21
114.6636
 31
0.0
  0
LINE
  5
25F
330
1F
100
AcDbEntity
  8
001
370
    50
100
AcDbLine
 10
139.951845
 20
114.1636
 30
0.0
 11
136.951845
 21
114.1636
 31
0.0
  0
LINE
  5
260
330
1F
100
AcDbEntity
  8
001
370
    50
100
AcDbLine
 10
136.951845
 20
83.1636
 30
0.0
 11
139.951845
 21
83.1636
 31
0.0
  0
LINE
  5
261
330
1F
100
AcDbEntity
  8
001
370
    50
100
AcDbLine
 10
205.951845
 20
114.6636
 30
0.0
 11
139.951845
 21
114.6636
 31
0.0
  0
LINE
  5
262
330
1F
100
AcDbEntity
  8
001
370
    50
100
AcDbLine
 10
205.951845
 20
82.6636
 30
0.0
 11
139.951845
 21
82.6636
 31
0.0
  0
LINE
  5
263
330
1F
100
AcDbEntity
  8
001
370
    50
100
AcDbLine
 10
211.951845
 20
98.6636
 30
0.0
 11
215.415946
 21
100.6636
 31
0.0
  0
LINE
  5
264
330
1F
100
AcDbEntity
  8
001
370
    50
100
AcDbLine
 10
211.951845
 20
98.6636
 30
0.0
 11
215.415946
 21
96.6636
 31
0.0
  0
ARC
  5
265
330
1F
100
AcDbEntity
  8
001
370
    50
100
AcDbCircle
 10
205.951845
 20
108.6636
 30
0.0
 40
6.0
100
AcDbArc
 50
0.0
 51
90.0
  0
ARC
  5
266
330
1F
100
AcDbEntity
  8
001
370
    50
100
AcDbCircle
 10
205.951845
 20
88.6636
 30
0.0
 40
6.0
100
AcDbArc
 50
270.0
 51
0.0
  0
LINE
  5
267
330
1F
100
AcDbEntity
  8
001
370
    50
100
AcDbLine
 10
107.250499
 20
103.6636
 30
0.0
 11
124.042294
 21
103.6636
 31
0.0
  0
POLYLINE
  5
268
330
1F
100
AcDbEntity
  8
001
370
    50
100
AcDb2dPolyline
 66
     1
 10
0.0
 20
0.0
 30
0.0
  0
VERTEX
  5
26A
330
268
100
AcDbEntity
  8
001
370
    50
100
AcDbVertex
100
AcDb2dVertex
 10
123.202846
 20
103.4636
 30
0.0
  0
VERTEX
  5
26B
330
268
100
AcDbEntity
  8
001
370
    50
100
AcDbVertex
100
AcDb2dVertex
 10
123.036156
 20
102.859718
 30
0.0
  0
VERTEX
  5
26C
330
268
100
AcDbEntity
  8
001
370
    50
100
AcDbVertex
100
AcDb2dVertex
 10
122.793818
 20
101.976768
 30
0.0
  0
VERTEX
  5
26D
330
268
100
AcDbEntity
  8
001
370
    50
100
AcDbVertex
100
AcDb2dVertex
 10
122.553263
 20
101.09331
 30
0.0
  0
VERTEX
  5
26E
330
268
100
AcDbEntity
  8
001
370
    50
100
AcDbVertex
100
AcDb2dVertex
 10
122.389552
 20
100.4886
 30
0.0
  0
SEQEND
  5
269
330
268
100
AcDbEntity
  8
001
370
    50
  0
LINE
  5
26F
330
1F
100
AcDbEntity
  8
001
370
    50
100
AcDbLine
 10
124.042294
 20
103.6636
 30
0.0
 11
123.988704
 21
103.4636
 31
0.0
  0
LINE
  5
270
330
1F
100
AcDbEntity
  8
001
370
    50
100
AcDbLine
 10
107.950499
 20
100.4886
 30
0.0
 11
122.389552
 21
100.4886
 31
0.0
  0
LINE
  5
271
330
1F
100
AcDbEntity
  8
001
370
    50
100
AcDbLine
 10
107.250499
 20
103.6636
 30
0.0
 11
107.950499
 21
100.4886
 31
0.0
  0
LINE
  5
272
330
1F
100
AcDbEntity
  8
001
370
    50
100
AcDbLine
 10
107.250499
 20
93.6636
 30
0.0
 11
107.950499
 21
96.8386
 31
0.0
  0
LINE
  5
273
330
1F
100
AcDbEntity
  8
001
370
    50
100
AcDbLine
 10
107.250499
 20
93.6636
 30
0.0
 11
107.950499
 21
93.6636
 31
0.0
  0
LINE
  5
274
330
1F
100
AcDbEntity
  8
001
370
    50
100
AcDbLine
 10
107.950499
 20
100.4886
 30
0.0
 11
107.950499
 21
77.6636
 31
0.0
  0
LINE
  5
275
330
1F
100
AcDbEntity
  8
001
370
    50
100
AcDbLine
 10
107.950499
 20
119.6636
 30
0.0
 11
107.950499
 21
103.6636
 31
0.0
  0
LINE
  5
276
330
1F
100
AcDbEntity
  8
001
370
    50
100
AcDbLine
 10
131.951845
 20
103.4636
 30
0.0
 11
123.202846
 21
103.4636
 31
0.0
  0
LINE
  5
277
330
1F
100
AcDbEntity
  8
001
370
    50
100
AcDbLine
 10
106.961508
 20
61.984197
 30
0.0
 11
107.43636
 21
67.88605
 31
0.0
  0
CIRCLE
  5
278
330
1F
100
AcDbEntity
  8
001
370
    50
100
AcDbCircle
 10
115.049975
 20
63.541735
 30
0.0
 40
3.0
  0
LINE
  5
279
330
1F
100
AcDbEntity
  8
001
370
    50
100
AcDbLine
 10
122.722616
 20
65.09637
 30
0.0
 11
122.247764
 21
59.194516
 31
0.0
  0
LINE
  5
27A
330
1F
100
AcDbEntity
  8
001
370
    50
100
AcDbLine
 10
119.899739
 20
68.338209
 30
0.0
 11
107.832279
 21
68.253961
 31
0.0
  0
CIRCLE
  5
27B
330
1F
100
AcDbEntity
  8
001
370
    50
100
AcDbCircle
 10
115.054963
 20
63.555001
 30
0.0
 40
2.5
  0
LINE
  5
27C
330
1F
100
AcDbEntity
  8
001
370
    50
100
AcDbLine
 10
115.634532
 20
64.553716
 30
0.0
 11
115.318211
 21
65.10442
 31
0.0
  0
LINE
  5
27D
330
1F
100
AcDbEntity
  8
001
370
    50
100
AcDbLine
 10
114.479834
 20
64.55628
 30
0.0
 11
114.798597
 21
65.105574
 31
0.0
  0
ARC
  5
27E
330
1F
100
AcDbEntity
  8
001
370
    50
100
AcDbCircle
 10
115.058071
 20
64.954997
 30
0.0
 40
0.3
100
AcDbArc
 50
29.872778
 51
149.872778
  0
LINE
  5
27F
330
1F
100
AcDbEntity
  8
001
370
    50
100
AcDbLine
 10
114.479834
 20
64.55628
 30
0.0
 11
113.844751
 21
64.55769
 31
0.0
  0
LINE
  5
280
330
1F
100
AcDbEntity
  8
001
370
    50
100
AcDbLine
 10
113.900265
 20
63.557564
 30
0.0
 11
113.583944
 21
64.108268
 31
0.0
  0
ARC
  5
281
330
1F
100
AcDbEntity
  8
001
370
    50
100
AcDbCircle
 10
113.844085
 20
64.257691
 30
0.0
 40
0.3
100
AcDbArc
 50
89.872778
 51
209.872778
  0
LINE
  5
282
330
1F
100
AcDbEntity
  8
001
370
    50
100
AcDbLine
 10
113.900265
 20
63.557564
 30
0.0
 11
113.581502
 21
63.008271
 31
0.0
  0
LINE
  5
283
330
1F
100
AcDbEntity
  8
001
370
    50
100
AcDbLine
 10
114.475394
 20
62.556285
 30
0.0
 11
113.84031
 21
62.557695
 31
0.0
  0
ARC
  5
284
330
1F
100
AcDbEntity
  8
001
370
    50
100
AcDbCircle
 10
113.840976
 20
62.857694
 30
0.0
 40
0.3
100
AcDbArc
 50
149.872778
 51
269.872778
  0
LINE
  5
285
330
1F
100
AcDbEntity
  8
001
370
    50
100
AcDbLine
 10
114.475394
 20
62.556285
 30
0.0
 11
114.791714
 21
62.005581
 31
0.0
  0
LINE
  5
286
330
1F
100
AcDbEntity
  8
001
370
    50
100
AcDbLine
 10
115.630091
 20
62.553721
 30
0.0
 11
115.311328
 21
62.004427
 31
0.0
  0
ARC
  5
287
330
1F
100
AcDbEntity
  8
001
370
    50
100
AcDbCircle
 10
115.051854
 20
62.155004
 30
0.0
 40
0.3
100
AcDbArc
 50
209.872778
 51
329.872778
  0
LINE
  5
288
330
1F
100
AcDbEntity
  8
001
370
    50
100
AcDbLine
 10
115.630091
 20
62.553721
 30
0.0
 11
116.265175
 21
62.552311
 31
0.0
  0
LINE
  5
289
330
1F
100
AcDbEntity
  8
001
370
    50
100
AcDbLine
 10
116.20966
 20
63.552437
 30
0.0
 11
116.525981
 21
63.001733
 31
0.0
  0
ARC
  5
28A
330
1F
100
AcDbEntity
  8
001
370
    50
100
AcDbCircle
 10
116.265841
 20
62.85231
 30
0.0
 40
0.3
100
AcDbArc
 50
269.872778
 51
29.872778
  0
LINE
  5
28B
330
1F
100
AcDbEntity
  8
001
370
    50
100
AcDbLine
 10
116.20966
 20
63.552437
 30
0.0
 11
116.528424
 21
64.10173
 31
0.0
  0
LINE
  5
28C
330
1F
100
AcDbEntity
  8
001
370
    50
100
AcDbLine
 10
115.634532
 20
64.553716
 30
0.0
 11
116.269616
 21
64.552306
 31
0.0
  0
ARC
  5
28D
330
1F
100
AcDbEntity
  8
001
370
    50
100
AcDbCircle
 10
116.26895
 20
64.252307
 30
0.0
 40
0.3
100
AcDbArc
 50
329.872778
 51
89.872778
  0
LINE
  5
28E
330
1F
100
AcDbEntity
  8
001
370
    50
100
AcDbLine
 10
121.851845
 20
58.826606
 30
0.0
 11
109.972789
 21
58.743673
 31
0.0
  0
ARC
  5
28F
330
1F
100
AcDbEntity
  8
001
370
    50
100
AcDbCircle
 10
121.206813
 20
66.602352
 30
0.0
 40
3.0
100
AcDbArc
 50
298.349498
 51
144.83356
  0
ARC
  5
290
330
1F
100
AcDbEntity
  8
001
370
    50
100
AcDbCircle
 10
107.835072
 20
67.853971
 30
0.0
 40
0.4
100
AcDbArc
 50
90.4
 51
175.4
  0
ARC
  5
291
330
1F
100
AcDbEntity
  8
001
370
    50
100
AcDbCircle
 10
121.849052
 20
59.226596
 30
0.0
 40
0.4
100
AcDbArc
 50
270.4
 51
355.4
  0
ARC
  5
292
330
1F
100
AcDbEntity
  8
001
370
    50
100
AcDbCircle
 10
119.732279
 20
65.336967
 30
0.0
 40
3.0
100
AcDbArc
 50
355.4
 51
90.4
  0
ARC
  5
293
330
1F
100
AcDbEntity
  8
001
370
    50
100
AcDbCircle
 10
109.951845
 20
61.7436
 30
0.0
 40
3.0
100
AcDbArc
 50
175.4
 51
270.4
  0
LINE
  5
294
330
1F
100
AcDbEntity
  8
001
  6
DASHED
370
    30
100
AcDbLine
 10
108.346771
 20
68.253997
 30
0.0
 11
109.440865
 21
78.6636
 31
0.0
  0
LINE
  5
295
330
1F
100
AcDbEntity
  8
001
370
    50
100
AcDbLine
 10
109.264239
 20
77.6636
 30
0.0
 11
108.293663
 21
68.25073
 31
0.0
  0
LINE
  5
296
330
1F
100
AcDbEntity
  8
001
370
    50
100
AcDbLine
 10
107.950499
 20
71.427373
 30
0.0
 11
107.950499
 21
68.254786
 31
0.0
  0
LINE
  5
297
330
1F
100
AcDbEntity
  8
001
370
    50
100
AcDbLine
 10
106.961508
 20
135.343003
 30
0.0
 11
107.43636
 21
129.441149
 31
0.0
  0
LINE
  5
298
330
1F
100
AcDbEntity
  8
001
370
    50
100
AcDbLine
 10
109.972789
 20
138.583527
 30
0.0
 11
122.040249
 21
138.499278
 31
0.0
  0
ARC
  5
299
330
1F
100
AcDbEntity
  8
001
370
    50
100
AcDbCircle
 10
122.037456
 20
138.099288
 30
0.0
 40
0.4
100
AcDbArc
 50
4.6
 51
89.6
  0
ARC
  5
29A
330
1F
100
AcDbEntity
  8
001
370
    50
100
AcDbCircle
 10
109.951845
 20
135.5836
 30
0.0
 40
3.0
100
AcDbArc
 50
89.6
 51
184.6
  0
ARC
  5
29B
330
1F
100
AcDbEntity
  8
001
370
    50
100
AcDbCircle
 10
107.835072
 20
129.473229
 30
0.0
 40
0.4
100
AcDbArc
 50
184.6
 51
269.6
  0
LINE
  5
29C
330
1F
100
AcDbEntity
  8
001
370
    50
100
AcDbLine
 10
107.950499
 20
129.072413
 30
0.0
 11
107.832279
 21
129.073238
 31
0.0
  0
LINE
  5
29D
330
1F
100
AcDbEntity
  8
001
370
    50
100
AcDbLine
 10
122.505987
 20
137.2636
 30
0.0
 11
122.436168
 21
138.131368
 31
0.0
  0
LINE
  5
29E
330
1F
100
AcDbEntity
  8
001
370
     9
100
AcDbLine
 10
109.972789
 20
58.743673
 30
0.0
 11
90.721721
 21
58.743673
 31
0.0
  0
LINE
  5
29F
330
1F
100
AcDbEntity
  8
001
370
     9
100
AcDbLine
 10
106.951845
 20
43.789467
 30
0.0
 11
106.951845
 21
61.7436
 31
0.0
  0
POLYLINE
  5
2A0
330
1F
100
AcDbEntity
  8
001
370
    50
100
AcDb2dPolyline
 66
     1
 10
0.0
 20
0.0
 30
0.0
  0
VERTEX
  5
2A2
330
2A0
100
AcDbEntity
  8
001
370
    50
100
AcDbVertex
100
AcDb2dVertex
 10
122.32761
 20
60.186914
 30
0.0
  0
VERTEX
  5
2A3
330
2A0
100
AcDbEntity
  8
001
370
    50
100
AcDbVertex
100
AcDb2dVertex
 10
122.421657
 20
60.185644
 30
0.0
  0
VERTEX
  5
2A4
330
2A0
100
AcDbEntity
  8
001
370
    50
100
AcDbVertex
100
AcDb2dVertex
 10
122.515704
 20
60.184374
 30
0.0
  0
VERTEX
  5
2A5
330
2A0
100
AcDbEntity
  8
001
370
    50
100
AcDbVertex
100
AcDb2dVertex
 10
122.772582
 20
60.180905
 30
0.0
  0
VERTEX
  5
2A6
330
2A0
100
AcDbEntity
  8
001
370
    50
100
AcDbVertex
100
AcDb2dVertex
 10
123.02946
 20
60.177436
 30
0.0
  0
VERTEX
  5
2A7
330
2A0
100
AcDbEntity
  8
001
370
    50
100
AcDbVertex
100
AcDb2dVertex
 10
123.830785
 20
60.166839
 30
0.0
  0
VERTEX
  5
2A8
330
2A0
100
AcDbEntity
  8
001
370
    50
100
AcDbVertex
100
AcDb2dVertex
 10
124.78874
 20
60.154795
 30
0.0
  0
VERTEX
  5
2A9
330
2A0
100
AcDbEntity
  8
001
370
    50
100
AcDbVertex
100
AcDb2dVertex
 10
126.073079
 20
60.139912
 30
0.0
  0
VERTEX
  5
2AA
330
2A0
100
AcDbEntity
  8
001
370
    50
100
AcDbVertex
100
AcDb2dVertex
 10
126.951845
 20
60.130427
 30
0.0
  0
SEQEND
  5
2A1
330
2A0
100
AcDbEntity
  8
001
370
    50
  0
LINE
  5
2AB
330
1F
100
AcDbEntity
  8
001
370
    50
100
AcDbLine
 10
122.317689
 20
60.0636
 30
0.0
 11
126.951845
 21
60.0636
 31
0.0
  0
LINE
  5
2AC
330
1F
100
AcDbEntity
  8
001
  6
DASHED
370
    30
100
AcDbLine
 10
109.440865
 20
332.854836
 30
0.0
 11
109.440865
 21
292.854836
 31
0.0
  0
LINE
  5
2AD
330
1F
100
AcDbEntity
  8
001
  6
DASHED
370
    30
100
AcDbLine
 10
109.440865
 20
332.854836
 30
0.0
 11
107.973507
 21
346.815816
 31
0.0
  0
POLYLINE
  5
2AE
330
1F
100
AcDbEntity
  8
001
370
    50
100
AcDb2dPolyline
 66
     1
 10
0.0
 20
0.0
 30
0.0
  0
VERTEX
  5
2B0
330
2AE
100
AcDbEntity
  8
001
370
    50
100
AcDbVertex
100
AcDb2dVertex
 10
107.973507
 20
286.164984
 30
0.0
  0
VERTEX
  5
2B1
330
2AE
100
AcDbEntity
  8
001
370
    50
100
AcDbVertex
100
AcDb2dVertex
 10
108.187653
 20
288.82323
 30
0.0
  0
VERTEX
  5
2B2
330
2AE
100
AcDbEntity
  8
001
370
    50
100
AcDbVertex
100
AcDb2dVertex
 10
108.393689
 20
291.482099
 30
0.0
  0
VERTEX
  5
2B3
330
2AE
100
AcDbEntity
  8
001
370
    50
100
AcDbVertex
100
AcDb2dVertex
 10
108.407616
 20
291.668398
 30
0.0
  0
VERTEX
  5
2B4
330
2AE
100
AcDbEntity
  8
001
370
    50
100
AcDbVertex
100
AcDb2dVertex
 10
108.421503
 20
291.854701
 30
0.0
  0
SEQEND
  5
2AF
330
2AE
100
AcDbEntity
  8
001
370
    50
  0
POLYLINE
  5
2B5
330
1F
100
AcDbEntity
  8
001
370
    50
100
AcDb2dPolyline
 66
     1
 10
0.0
 20
0.0
 30
0.0
  0
VERTEX
  5
2B7
330
2B5
100
AcDbEntity
  8
001
370
    50
100
AcDbVertex
100
AcDb2dVertex
 10
112.150499
 20
345.242488
 30
0.0
  0
VERTEX
  5
2B8
330
2B5
100
AcDbEntity
  8
001
370
    50
100
AcDbVertex
100
AcDb2dVertex
 10
111.857273
 20
345.225428
 30
0.0
  0
VERTEX
  5
2B9
330
2B5
100
AcDbEntity
  8
001
370
    50
100
AcDbVertex
100
AcDb2dVertex
 10
111.566031
 20
345.193362
 30
0.0
  0
VERTEX
  5
2BA
330
2B5
100
AcDbEntity
  8
001
370
    50
100
AcDbVertex
100
AcDb2dVertex
 10
111.278687
 20
345.134489
 30
0.0
  0
VERTEX
  5
2BB
330
2B5
100
AcDbEntity
  8
001
370
    50
100
AcDbVertex
100
AcDb2dVertex
 10
110.997203
 20
345.049903
 30
0.0
  0
VERTEX
  5
2BC
330
2B5
100
AcDbEntity
  8
001
370
    50
100
AcDbVertex
100
AcDb2dVertex
 10
110.634854
 20
344.903647
 30
0.0
  0
VERTEX
  5
2BD
330
2B5
100
AcDbEntity
  8
001
370
    50
100
AcDbVertex
100
AcDb2dVertex
 10
110.28916
 20
344.721849
 30
0.0
  0
VERTEX
  5
2BE
330
2B5
100
AcDbEntity
  8
001
370
    50
100
AcDbVertex
100
AcDb2dVertex
 10
109.962653
 20
344.506728
 30
0.0
  0
VERTEX
  5
2BF
330
2B5
100
AcDbEntity
  8
001
370
    50
100
AcDbVertex
100
AcDb2dVertex
 10
109.65817
 20
344.261395
 30
0.0
  0
VERTEX
  5
2C0
330
2B5
100
AcDbEntity
  8
001
370
    50
100
AcDbVertex
100
AcDb2dVertex
 10
109.379991
 20
343.991397
 30
0.0
  0
VERTEX
  5
2C1
330
2B5
100
AcDbEntity
  8
001
370
    50
100
AcDbVertex
100
AcDb2dVertex
 10
109.126165
 20
343.698349
 30
0.0
  0
VERTEX
  5
2C2
330
2B5
100
AcDbEntity
  8
001
370
    50
100
AcDbVertex
100
AcDb2dVertex
 10
108.89688
 20
343.38542
 30
0.0
  0
VERTEX
  5
2C3
330
2B5
100
AcDbEntity
  8
001
370
    50
100
AcDbVertex
100
AcDb2dVertex
 10
108.692827
 20
343.05548
 30
0.0
  0
VERTEX
  5
2C4
330
2B5
100
AcDbEntity
  8
001
370
    50
100
AcDbVertex
100
AcDb2dVertex
 10
108.47967
 20
342.63605
 30
0.0
  0
VERTEX
  5
2C5
330
2B5
100
AcDbEntity
  8
001
370
    50
100
AcDbVertex
100
AcDb2dVertex
 10
108.303637
 20
342.199634
 30
0.0
  0
VERTEX
  5
2C6
330
2B5
100
AcDbEntity
  8
001
370
    50
100
AcDbVertex
100
AcDb2dVertex
 10
108.163838
 20
341.75006
 30
0.0
  0
VERTEX
  5
2C7
330
2B5
100
AcDbEntity
  8
001
370
    50
100
AcDbVertex
100
AcDb2dVertex
 10
108.059313
 20
341.290926
 30
0.0
  0
VERTEX
  5
2C8
330
2B5
100
AcDbEntity
  8
001
370
    50
100
AcDbVertex
100
AcDb2dVertex
 10
107.99312
 20
340.857523
 30
0.0
  0
VERTEX
  5
2C9
330
2B5
100
AcDbEntity
  8
001
370
    50
100
AcDbVertex
100
AcDb2dVertex
 10
107.958298
 20
340.420779
 30
0.0
  0
VERTEX
  5
2CA
330
2B5
100
AcDbEntity
  8
001
370
    50
100
AcDbVertex
100
AcDb2dVertex
 10
107.953105
 20
340.24576
 30
0.0
  0
VERTEX
  5
2CB
330
2B5
100
AcDbEntity
  8
001
370
    50
100
AcDbVertex
100
AcDb2dVertex
 10
107.950568
 20
340.070663
 30
0.0
  0
SEQEND
  5
2B6
330
2B5
100
AcDbEntity
  8
001
370
    50
  0
LINE
  5
2CC
330
1F
100
AcDbEntity
  8
001
370
    50
100
AcDbLine
 10
126.951845
 20
345.242488
 30
0.0
 11
112.150499
 21
345.242488
 31
0.0
  0
POLYLINE
  5
2CD
330
1F
100
AcDbEntity
  8
001
370
    50
100
AcDb2dPolyline
 66
     1
 10
0.0
 20
0.0
 30
0.0
  0
VERTEX
  5
2CF
330
2CD
100
AcDbEntity
  8
001
370
    50
100
AcDbVertex
100
AcDb2dVertex
 10
131.951845
 20
339.083827
 30
0.0
  0
VERTEX
  5
2D0
330
2CD
100
AcDbEntity
  8
001
370
    50
100
AcDbVertex
100
AcDb2dVertex
 10
131.948153
 20
339.291038
 30
0.0
  0
VERTEX
  5
2D1
330
2CD
100
AcDbEntity
  8
001
370
    50
100
AcDbVertex
100
AcDb2dVertex
 10
131.94131
 20
339.498137
 30
0.0
  0
VERTEX
  5
2D2
330
2CD
100
AcDbEntity
  8
001
370
    50
100
AcDbVertex
100
AcDb2dVertex
 10
131.903634
 20
339.97038
 30
0.0
  0
VERTEX
  5
2D3
330
2CD
100
AcDbEntity
  8
001
370
    50
100
AcDbVertex
100
AcDb2dVertex
 10
131.835636
 20
340.439509
 30
0.0
  0
VERTEX
  5
2D4
330
2CD
100
AcDbEntity
  8
001
370
    50
100
AcDbVertex
100
AcDb2dVertex
 10
131.738849
 20
340.905209
 30
0.0
  0
VERTEX
  5
2D5
330
2CD
100
AcDbEntity
  8
001
370
    50
100
AcDbVertex
100
AcDb2dVertex
 10
131.612678
 20
341.363697
 30
0.0
  0
VERTEX
  5
2D6
330
2CD
100
AcDbEntity
  8
001
370
    50
100
AcDbVertex
100
AcDb2dVertex
 10
131.456645
 20
341.810467
 30
0.0
  0
VERTEX
  5
2D7
330
2CD
100
AcDbEntity
  8
001
370
    50
100
AcDbVertex
100
AcDb2dVertex
 10
131.26931
 20
342.245051
 30
0.0
  0
VERTEX
  5
2D8
330
2CD
100
AcDbEntity
  8
001
370
    50
100
AcDbVertex
100
AcDb2dVertex
 10
131.048311
 20
342.667618
 30
0.0
  0
VERTEX
  5
2D9
330
2CD
100
AcDbEntity
  8
001
370
    50
100
AcDbVertex
100
AcDb2dVertex
 10
130.795153
 20
343.071812
 30
0.0
  0
VERTEX
  5
2DA
330
2CD
100
AcDbEntity
  8
001
370
    50
100
AcDbVertex
100
AcDb2dVertex
 10
130.510417
 20
343.45404
 30
0.0
  0
VERTEX
  5
2DB
330
2CD
100
AcDbEntity
  8
001
370
    50
100
AcDbVertex
100
AcDb2dVertex
 10
130.193946
 20
343.810283
 30
0.0
  0
VERTEX
  5
2DC
330
2CD
100
AcDbEntity
  8
001
370
    50
100
AcDbVertex
100
AcDb2dVertex
 10
129.842919
 20
344.138844
 30
0.0
  0
VERTEX
  5
2DD
330
2CD
100
AcDbEntity
  8
001
370
    50
100
AcDbVertex
100
AcDb2dVertex
 10
129.46215
 20
344.432728
 30
0.0
  0
VERTEX
  5
2DE
330
2CD
100
AcDbEntity
  8
001
370
    50
100
AcDbVertex
100
AcDb2dVertex
 10
129.054784
 20
344.687805
 30
0.0
  0
VERTEX
  5
2DF
330
2CD
100
AcDbEntity
  8
001
370
    50
100
AcDbVertex
100
AcDb2dVertex
 10
128.623442
 20
344.899059
 30
0.0
  0
VERTEX
  5
2E0
330
2CD
100
AcDbEntity
  8
001
370
    50
100
AcDbVertex
100
AcDb2dVertex
 10
128.239515
 20
345.040719
 30
0.0
  0
VERTEX
  5
2E1
330
2CD
100
AcDbEntity
  8
001
370
    50
100
AcDbVertex
100
AcDb2dVertex
 10
127.843807
 20
345.145962
 30
0.0
  0
VERTEX
  5
2E2
330
2CD
100
AcDbEntity
  8
001
370
    50
100
AcDbVertex
100
AcDb2dVertex
 10
127.439974
 20
345.213875
 30
0.0
  0
VERTEX
  5
2E3
330
2CD
100
AcDbEntity
  8
001
370
    50
100
AcDbVertex
100
AcDb2dVertex
 10
127.03194
 20
345.241723
 30
0.0
  0
VERTEX
  5
2E4
330
2CD
100
AcDbEntity
  8
001
370
    50
100
AcDbVertex
100
AcDb2dVertex
 10
126.991892
 20
345.242209
 30
0.0
  0
VERTEX
  5
2E5
330
2CD
100
AcDbEntity
  8
001
370
    50
100
AcDbVertex
100
AcDb2dVertex
 10
126.951845
 20
345.242488
 30
0.0
  0
SEQEND
  5
2CE
330
2CD
100
AcDbEntity
  8
001
370
    50
  0
LINE
  5
2E6
330
1F
100
AcDbEntity
  8
001
370
    50
100
AcDbLine
 10
107.950568
 20
340.070663
 30
0.0
 11
107.973507
 21
339.544688
 31
0.0
  0
ARC
  5
2E7
330
1F
100
AcDbEntity
  8
001
370
    50
100
AcDbCircle
 10
112.150499
 20
347.254836
 30
0.0
 40
4.200000000000002
100
AcDbArc
 50
90.0
 51
180.0
  0
ARC
  5
2E8
330
1F
100
AcDbEntity
  8
001
  6
DASHED
370
    30
100
AcDbCircle
 10
112.150499
 20
347.254836
 30
0.0
 40
4.200000000000002
100
AcDbArc
 50
180.0
 51
186.0
  0
LINE
  5
2E9
330
1F
100
AcDbEntity
  8
001
370
    50
100
AcDbLine
 10
126.951845
 20
351.454836
 30
0.0
 11
112.150499
 21
351.454836
 31
0.0
  0
LINE
  5
2EA
330
1F
100
AcDbEntity
  8
001
370
    50
100
AcDbLine
 10
136.951845
 20
328.854836
 30
0.0
 11
136.951845
 21
296.854836
 31
0.0
  0
ARC
  5
2EB
330
1F
100
AcDbEntity
  8
001
370
    50
100
AcDbCircle
 10
136.951845
 20
333.854836
 30
0.0
 40
5.000000000000001
100
AcDbArc
 50
180.0
 51
270.0
  0
ARC
  5
2EC
330
1F
100
AcDbEntity
  8
001
370
    50
100
AcDbCircle
 10
136.951845
 20
291.854836
 30
0.0
 40
5.000000000000001
100
AcDbArc
 50
90.0
 51
180.0
  0
ARC
  5
2ED
330
1F
100
AcDbEntity
  8
001
370
    50
100
AcDbCircle
 10
126.951845
 20
346.454836
 30
0.0
 40
5.000000000000001
100
AcDbArc
 50
0.0
 51
90.0
  0
POLYLINE
  5
2EE
330
1F
100
AcDbEntity
  8
001
370
    50
100
AcDb2dPolyline
 66
     1
 10
0.0
 20
0.0
 30
0.0
  0
VERTEX
  5
2F0
330
2EE
100
AcDbEntity
  8
001
370
    50
100
AcDbVertex
100
AcDb2dVertex
 10
126.951845
 20
274.321663
 30
0.0
  0
VERTEX
  5
2F1
330
2EE
100
AcDbEntity
  8
001
370
    50
100
AcDbVertex
100
AcDb2dVertex
 10
127.373708
 20
274.34218
 30
0.0
  0
VERTEX
  5
2F2
330
2EE
100
AcDbEntity
  8
001
370
    50
100
AcDbVertex
100
AcDb2dVertex
 10
127.792817
 20
274.385057
 30
0.0
  0
VERTEX
  5
2F3
330
2EE
100
AcDbEntity
  8
001
370
    50
100
AcDbVertex
100
AcDb2dVertex
 10
128.206638
 20
274.467972
 30
0.0
  0
VERTEX
  5
2F4
330
2EE
100
AcDbEntity
  8
001
370
    50
100
AcDbVertex
100
AcDb2dVertex
 10
128.61168
 20
274.589454
 30
0.0
  0
VERTEX
  5
2F5
330
2EE
100
AcDbEntity
  8
001
370
    50
100
AcDbVertex
100
AcDb2dVertex
 10
129.005675
 20
274.744661
 30
0.0
  0
VERTEX
  5
2F6
330
2EE
100
AcDbEntity
  8
001
370
    50
100
AcDbVertex
100
AcDb2dVertex
 10
129.385052
 20
274.932101
 30
0.0
  0
VERTEX
  5
2F7
330
2EE
100
AcDbEntity
  8
001
370
    50
100
AcDbVertex
100
AcDb2dVertex
 10
129.747939
 20
275.151797
 30
0.0
  0
VERTEX
  5
2F8
330
2EE
100
AcDbEntity
  8
001
370
    50
100
AcDbVertex
100
AcDb2dVertex
 10
130.090526
 20
275.402039
 30
0.0
  0
VERTEX
  5
2F9
330
2EE
100
AcDbEntity
  8
001
370
    50
100
AcDbVertex
100
AcDb2dVertex
 10
130.407857
 20
275.679068
 30
0.0
  0
VERTEX
  5
2FA
330
2EE
100
AcDbEntity
  8
001
370
    50
100
AcDbVertex
100
AcDb2dVertex
 10
130.700576
 20
275.982112
 30
0.0
  0
VERTEX
  5
2FB
330
2EE
100
AcDbEntity
  8
001
370
    50
100
AcDbVertex
100
AcDb2dVertex
 10
130.967547
 20
276.309537
 30
0.0
  0
VERTEX
  5
2FC
330
2EE
100
AcDbEntity
  8
001
370
    50
100
AcDbVertex
100
AcDb2dVertex
 10
131.205323
 20
276.658459
 30
0.0
  0
VERTEX
  5
2FD
330
2EE
100
AcDbEntity
  8
001
370
    50
100
AcDbVertex
100
AcDb2dVertex
 10
131.409621
 20
277.022587
 30
0.0
  0
VERTEX
  5
2FE
330
2EE
100
AcDbEntity
  8
001
370
    50
100
AcDbVertex
100
AcDb2dVertex
 10
131.5836
 20
277.4027
 30
0.0
  0
VERTEX
  5
2FF
330
2EE
100
AcDbEntity
  8
001
370
    50
100
AcDbVertex
100
AcDb2dVertex
 10
131.727074
 20
277.796563
 30
0.0
  0
VERTEX
  5
300
330
2EE
100
AcDbEntity
  8
001
370
    50
100
AcDbVertex
100
AcDb2dVertex
 10
131.83324
 20
278.200915
 30
0.0
  0
VERTEX
  5
301
330
2EE
100
AcDbEntity
  8
001
370
    50
100
AcDbVertex
100
AcDb2dVertex
 10
131.911741
 20
278.738849
 30
0.0
  0
VERTEX
  5
302
330
2EE
100
AcDbEntity
  8
001
370
    50
100
AcDbVertex
100
AcDb2dVertex
 10
131.951845
 20
279.283547
 30
0.0
  0
SEQEND
  5
2EF
330
2EE
100
AcDbEntity
  8
001
370
    50
  0
LINE
  5
303
330
1F
100
AcDbEntity
  8
001
370
    50
100
AcDbLine
 10
107.950555
 20
285.636087
 30
0.0
 11
107.973507
 21
286.164984
 31
0.0
  0
ARC
  5
304
330
1F
100
AcDbEntity
  8
001
370
    50
100
AcDbCircle
 10
126.951845
 20
279.254836
 30
0.0
 40
5.000000000000001
100
AcDbArc
 50
270.0
 51
0.0
  0
LINE
  5
305
330
1F
100
AcDbEntity
  8
001
370
    50
100
AcDbLine
 10
131.951845
 20
291.854836
 30
0.0
 11
107.950499
 21
291.854836
 31
0.0
  0
LINE
  5
306
330
1F
100
AcDbEntity
  8
001
370
    50
100
AcDbLine
 10
107.950499
 20
333.854836
 30
0.0
 11
108.421609
 21
333.854836
 31
0.0
  0
POLYLINE
  5
307
330
1F
100
AcDbEntity
  8
001
370
    50
100
AcDb2dPolyline
 66
     1
 10
0.0
 20
0.0
 30
0.0
  0
VERTEX
  5
309
330
307
100
AcDbEntity
  8
001
370
    50
100
AcDbVertex
100
AcDb2dVertex
 10
107.973507
 20
339.544688
 30
0.0
  0
VERTEX
  5
30A
330
307
100
AcDbEntity
  8
001
370
    50
100
AcDbVertex
100
AcDb2dVertex
 10
108.024859
 20
338.918849
 30
0.0
  0
VERTEX
  5
30B
330
307
100
AcDbEntity
  8
001
370
    50
100
AcDbVertex
100
AcDb2dVertex
 10
108.075944
 20
338.292988
 30
0.0
  0
VERTEX
  5
30C
330
307
100
AcDbEntity
  8
001
370
    50
100
AcDbVertex
100
AcDb2dVertex
 10
108.27471
 20
335.790917
 30
0.0
  0
VERTEX
  5
30D
330
307
100
AcDbEntity
  8
001
370
    50
100
AcDbVertex
100
AcDb2dVertex
 10
108.463347
 20
333.288066
 30
0.0
  0
VERTEX
  5
30E
330
307
100
AcDbEntity
  8
001
370
    50
100
AcDbVertex
100
AcDb2dVertex
 10
108.640338
 20
330.784181
 30
0.0
  0
VERTEX
  5
30F
330
307
100
AcDbEntity
  8
001
370
    50
100
AcDbVertex
100
AcDb2dVertex
 10
108.804351
 20
328.279383
 30
0.0
  0
VERTEX
  5
310
330
307
100
AcDbEntity
  8
001
370
    50
100
AcDbVertex
100
AcDb2dVertex
 10
108.953056
 20
325.772519
 30
0.0
  0
VERTEX
  5
311
330
307
100
AcDbEntity
  8
001
370
    50
100
AcDbVertex
100
AcDb2dVertex
 10
109.079468
 20
323.264508
 30
0.0
  0
VERTEX
  5
312
330
307
100
AcDbEntity
  8
001
370
    50
100
AcDbVertex
100
AcDb2dVertex
 10
109.175774
 20
320.856707
 30
0.0
  0
VERTEX
  5
313
330
307
100
AcDbEntity
  8
001
370
    50
100
AcDbVertex
100
AcDb2dVertex
 10
109.257545
 20
318.448279
 30
0.0
  0
SEQEND
  5
308
330
307
100
AcDbEntity
  8
001
370
    50
  0
LINE
  5
314
330
1F
100
AcDbEntity
  8
001
370
    50
100
AcDbLine
 10
131.951845
 20
279.254836
 30
0.0
 11
131.951845
 21
346.454836
 31
0.0
  0
LINE
  5
315
330
1F
100
AcDbEntity
  8
001
370
    50
100
AcDbLine
 10
107.950499
 20
347.254836
 30
0.0
 11
107.950499
 21
340.070663
 31
0.0
  0
LINE
  5
316
330
1F
100
AcDbEntity
  8
001
370
    50
100
AcDbLine
 10
139.951845
 20
296.854836
 30
0.0
 11
139.951845
 21
328.854836
 31
0.0
  0
LINE
  5
317
330
1F
100
AcDbEntity
  8
001
370
    50
100
AcDbLine
 10
139.951845
 20
328.354836
 30
0.0
 11
136.951845
 21
328.354836
 31
0.0
  0
LINE
  5
318
330
1F
100
AcDbEntity
  8
001
370
    50
100
AcDbLine
 10
136.951845
 20
297.354836
 30
0.0
 11
139.951845
 21
297.354836
 31
0.0
  0
LINE
  5
319
330
1F
100
AcDbEntity
  8
001
370
    50
100
AcDbLine
 10
107.250499
 20
317.854836
 30
0.0
 11
124.042294
 21
317.854836
 31
0.0
  0
POLYLINE
  5
31A
330
1F
100
AcDbEntity
  8
001
370
    50
100
AcDb2dPolyline
 66
     1
 10
0.0
 20
0.0
 30
0.0
  0
VERTEX
  5
31C
330
31A
100
AcDbEntity
  8
001
370
    50
100
AcDbVertex
100
AcDb2dVertex
 10
123.202846
 20
317.654836
 30
0.0
  0
VERTEX
  5
31D
330
31A
100
AcDbEntity
  8
001
370
    50
100
AcDbVertex
100
AcDb2dVertex
 10
123.036156
 20
317.050954
 30
0.0
  0
VERTEX
  5
31E
330
31A
100
AcDbEntity
  8
001
370
    50
100
AcDbVertex
100
AcDb2dVertex
 10
122.793818
 20
316.168004
 30
0.0
  0
VERTEX
  5
31F
330
31A
100
AcDbEntity
  8
001
370
    50
100
AcDbVertex
100
AcDb2dVertex
 10
122.553263
 20
315.284546
 30
0.0
  0
VERTEX
  5
320
330
31A
100
AcDbEntity
  8
001
370
    50
100
AcDbVertex
100
AcDb2dVertex
 10
122.389552
 20
314.679836
 30
0.0
  0
SEQEND
  5
31B
330
31A
100
AcDbEntity
  8
001
370
    50
  0
LINE
  5
321
330
1F
100
AcDbEntity
  8
001
370
    50
100
AcDbLine
 10
124.042294
 20
317.854836
 30
0.0
 11
123.988704
 21
317.654836
 31
0.0
  0
LINE
  5
322
330
1F
100
AcDbEntity
  8
001
370
    50
100
AcDbLine
 10
107.950499
 20
314.679836
 30
0.0
 11
122.389552
 21
314.679836
 31
0.0
  0
LINE
  5
323
330
1F
100
AcDbEntity
  8
001
370
    50
100
AcDbLine
 10
107.250499
 20
317.854836
 30
0.0
 11
107.950499
 21
314.679836
 31
0.0
  0
LINE
  5
324
330
1F
100
AcDbEntity
  8
001
370
    50
100
AcDbLine
 10
107.250499
 20
307.854836
 30
0.0
 11
107.950499
 21
311.029836
 31
0.0
  0
LINE
  5
325
330
1F
100
AcDbEntity
  8
001
370
    50
100
AcDbLine
 10
107.250499
 20
307.854836
 30
0.0
 11
107.950499
 21
307.854836
 31
0.0
  0
LINE
  5
326
330
1F
100
AcDbEntity
  8
001
370
    50
100
AcDbLine
 10
107.950499
 20
314.679836
 30
0.0
 11
107.950499
 21
291.854836
 31
0.0
  0
LINE
  5
327
330
1F
100
AcDbEntity
  8
001
370
    50
100
AcDbLine
 10
107.950499
 20
333.854836
 30
0.0
 11
107.950499
 21
317.854836
 31
0.0
  0
LINE
  5
328
330
1F
100
AcDbEntity
  8
001
370
    50
100
AcDbLine
 10
131.951845
 20
317.654836
 30
0.0
 11
123.202846
 21
317.654836
 31
0.0
  0
LINE
  5
329
330
1F
100
AcDbEntity
  8
001
370
    50
100
AcDbLine
 10
106.961508
 20
276.175432
 30
0.0
 11
107.43636
 21
282.077286
 31
0.0
  0
CIRCLE
  5
32A
330
1F
100
AcDbEntity
  8
001
370
    50
100
AcDbCircle
 10
115.049975
 20
277.732971
 30
0.0
 40
3.0
  0
LINE
  5
32B
330
1F
100
AcDbEntity
  8
001
370
    50
100
AcDbLine
 10
122.722616
 20
279.287606
 30
0.0
 11
122.247764
 21
273.385752
 31
0.0
  0
LINE
  5
32C
330
1F
100
AcDbEntity
  8
001
370
    50
100
AcDbLine
 10
119.899739
 20
282.529445
 30
0.0
 11
107.832279
 21
282.445197
 31
0.0
  0
CIRCLE
  5
32D
330
1F
100
AcDbEntity
  8
001
370
    50
100
AcDbCircle
 10
115.054963
 20
277.746236
 30
0.0
 40
2.5
  0
LINE
  5
32E
330
1F
100
AcDbEntity
  8
001
370
    50
100
AcDbLine
 10
115.634532
 20
278.744952
 30
0.0
 11
115.318211
 21
279.295656
 31
0.0
  0
LINE
  5
32F
330
1F
100
AcDbEntity
  8
001
370
    50
100
AcDbLine
 10
114.479834
 20
278.747516
 30
0.0
 11
114.798597
 21
279.29681
 31
0.0
  0
ARC
  5
330
330
1F
100
AcDbEntity
  8
001
370
    50
100
AcDbCircle
 10
115.058071
 20
279.146233
 30
0.0
 40
0.3
100
AcDbArc
 50
29.872778
 51
149.872778
  0
LINE
  5
331
330
1F
100
AcDbEntity
  8
001
370
    50
100
AcDbLine
 10
114.479834
 20
278.747516
 30
0.0
 11
113.844751
 21
278.748926
 31
0.0
  0
LINE
  5
332
330
1F
100
AcDbEntity
  8
001
370
    50
100
AcDbLine
 10
113.900265
 20
277.7488
 30
0.0
 11
113.583944
 21
278.299504
 31
0.0
  0
ARC
  5
333
330
1F
100
AcDbEntity
  8
001
370
    50
100
AcDbCircle
 10
113.844085
 20
278.448927
 30
0.0
 40
0.3
100
AcDbArc
 50
89.872778
 51
209.872778
  0
LINE
  5
334
330
1F
100
AcDbEntity
  8
001
370
    50
100
AcDbLine
 10
113.900265
 20
277.7488
 30
0.0
 11
113.581502
 21
277.199507
 31
0.0
  0
LINE
  5
335
330
1F
100
AcDbEntity
  8
001
370
    50
100
AcDbLine
 10
114.475394
 20
276.747521
 30
0.0
 11
113.84031
 21
276.748931
 31
0.0
  0
ARC
  5
336
330
1F
100
AcDbEntity
  8
001
370
    50
100
AcDbCircle
 10
113.840976
 20
277.04893
 30
0.0
 40
0.3
100
AcDbArc
 50
149.872778
 51
269.872778
  0
LINE
  5
337
330
1F
100
AcDbEntity
  8
001
370
    50
100
AcDbLine
 10
114.475394
 20
276.747521
 30
0.0
 11
114.791714
 21
276.196817
 31
0.0
  0
LINE
  5
338
330
1F
100
AcDbEntity
  8
001
370
    50
100
AcDbLine
 10
115.630091
 20
276.744957
 30
0.0
 11
115.311328
 21
276.195663
 31
0.0
  0
ARC
  5
339
330
1F
100
AcDbEntity
  8
001
370
    50
100
AcDbCircle
 10
115.051854
 20
276.34624
 30
0.0
 40
0.3
100
AcDbArc
 50
209.872778
 51
329.872778
  0
LINE
  5
33A
330
1F
100
AcDbEntity
  8
001
370
    50
100
AcDbLine
 10
115.630091
 20
276.744957
 30
0.0
 11
116.265175
 21
276.743547
 31
0.0
  0
LINE
  5
33B
330
1F
100
AcDbEntity
  8
001
370
    50
100
AcDbLine
 10
116.20966
 20
277.743673
 30
0.0
 11
116.525981
 21
277.192969
 31
0.0
  0
ARC
  5
33C
330
1F
100
AcDbEntity
  8
001
370
    50
100
AcDbCircle
 10
116.265841
 20
277.043546
 30
0.0
 40
0.3
100
AcDbArc
 50
269.872778
 51
29.872778
  0
LINE
  5
33D
330
1F
100
AcDbEntity
  8
001
370
    50
100
AcDbLine
 10
116.20966
 20
277.743673
 30
0.0
 11
116.528424
 21
278.292966
 31
0.0
  0
LINE
  5
33E
330
1F
100
AcDbEntity
  8
001
370
    50
100
AcDbLine
 10
115.634532
 20
278.744952
 30
0.0
 11
116.269616
 21
278.743542
 31
0.0
  0
ARC
  5
33F
330
1F
100
AcDbEntity
  8
001
370
    50
100
AcDbCircle
 10
116.26895
 20
278.443543
 30
0.0
 40
0.3
100
AcDbArc
 50
329.872778
 51
89.872778
  0
LINE
  5
340
330
1F
100
AcDbEntity
  8
001
370
    50
100
AcDbLine
 10
121.851845
 20
273.017842
 30
0.0
 11
109.972789
 21
272.934909
 31
0.0
  0
ARC
  5
341
330
1F
100
AcDbEntity
  8
001
370
    50
100
AcDbCircle
 10
121.206813
 20
280.793588
 30
0.0
 40
3.0
100
AcDbArc
 50
298.349498
 51
144.83356
  0
ARC
  5
342
330
1F
100
AcDbEntity
  8
001
370
    50
100
AcDbCircle
 10
107.835072
 20
282.045207
 30
0.0
 40
0.4
100
AcDbArc
 50
90.4
 51
175.4
  0
ARC
  5
343
330
1F
100
AcDbEntity
  8
001
370
    50
100
AcDbCircle
 10
121.849052
 20
273.417832
 30
0.0
 40
0.4
100
AcDbArc
 50
270.4
 51
355.4
  0
ARC
  5
344
330
1F
100
AcDbEntity
  8
001
370
    50
100
AcDbCircle
 10
119.732279
 20
279.528203
 30
0.0
 40
3.0
100
AcDbArc
 50
355.4
 51
90.4
  0
ARC
  5
345
330
1F
100
AcDbEntity
  8
001
370
    50
100
AcDbCircle
 10
109.951845
 20
275.934836
 30
0.0
 40
3.0
100
AcDbArc
 50
175.4
 51
270.4
  0
LINE
  5
346
330
1F
100
AcDbEntity
  8
001
  6
DASHED
370
    30
100
AcDbLine
 10
108.346771
 20
282.445233
 30
0.0
 11
109.440865
 21
292.854836
 31
0.0
  0
LINE
  5
347
330
1F
100
AcDbEntity
  8
001
370
    50
100
AcDbLine
 10
109.264239
 20
291.854836
 30
0.0
 11
108.293663
 21
282.441966
 31
0.0
  0
LINE
  5
348
330
1F
100
AcDbEntity
  8
001
370
    50
100
AcDbLine
 10
107.950499
 20
285.618609
 30
0.0
 11
107.950499
 21
282.446022
 31
0.0
  0
LINE
  5
349
330
1F
100
AcDbEntity
  8
001
370
    50
100
AcDbLine
 10
106.961508
 20
349.534239
 30
0.0
 11
107.43636
 21
343.632385
 31
0.0
  0
LINE
  5
34A
330
1F
100
AcDbEntity
  8
001
370
    50
100
AcDbLine
 10
109.972789
 20
352.774763
 30
0.0
 11
122.040249
 21
352.690514
 31
0.0
  0
ARC
  5
34B
330
1F
100
AcDbEntity
  8
001
370
    50
100
AcDbCircle
 10
122.037456
 20
352.290524
 30
0.0
 40
0.4
100
AcDbArc
 50
4.6
 51
89.6
  0
ARC
  5
34C
330
1F
100
AcDbEntity
  8
001
370
    50
100
AcDbCircle
 10
109.951845
 20
349.774836
 30
0.0
 40
3.0
100
AcDbArc
 50
89.6
 51
184.6
  0
ARC
  5
34D
330
1F
100
AcDbEntity
  8
001
370
    50
100
AcDbCircle
 10
107.835072
 20
343.664464
 30
0.0
 40
0.4
100
AcDbArc
 50
184.6
 51
269.6
  0
LINE
  5
34E
330
1F
100
AcDbEntity
  8
001
370
    50
100
AcDbLine
 10
107.950499
 20
343.263649
 30
0.0
 11
107.832279
 21
343.264474
 31
0.0
  0
LINE
  5
34F
330
1F
100
AcDbEntity
  8
001
370
    50
100
AcDbLine
 10
122.505987
 20
351.454836
 30
0.0
 11
122.436168
 21
352.322604
 31
0.0
  0
LINE
  5
350
330
1F
100
AcDbEntity
  8
001
370
     9
100
AcDbLine
 10
109.972789
 20
272.934909
 30
0.0
 11
90.721721
 21
272.934909
 31
0.0
  0
LINE
  5
351
330
1F
100
AcDbEntity
  8
001
370
     9
100
AcDbLine
 10
106.951845
 20
257.980703
 30
0.0
 11
106.951845
 21
275.934836
 31
0.0
  0
POLYLINE
  5
352
330
1F
100
AcDbEntity
  8
001
370
    50
100
AcDb2dPolyline
 66
     1
 10
0.0
 20
0.0
 30
0.0
  0
VERTEX
  5
354
330
352
100
AcDbEntity
  8
001
370
    50
100
AcDbVertex
100
AcDb2dVertex
 10
122.32761
 20
274.37815
 30
0.0
  0
VERTEX
  5
355
330
352
100
AcDbEntity
  8
001
370
    50
100
AcDbVertex
100
AcDb2dVertex
 10
122.421657
 20
274.37688
 30
0.0
  0
VERTEX
  5
356
330
352
100
AcDbEntity
  8
001
370
    50
100
AcDbVertex
100
AcDb2dVertex
 10
122.515704
 20
274.37561
 30
0.0
  0
VERTEX
  5
357
330
352
100
AcDbEntity
  8
001
370
    50
100
AcDbVertex
100
AcDb2dVertex
 10
122.772582
 20
274.372141
 30
0.0
  0
VERTEX
  5
358
330
352
100
AcDbEntity
  8
001
370
    50
100
AcDbVertex
100
AcDb2dVertex
 10
123.02946
 20
274.368672
 30
0.0
  0
VERTEX
  5
359
330
352
100
AcDbEntity
  8
001
370
    50
100
AcDbVertex
100
AcDb2dVertex
 10
123.830785
 20
274.358075
 30
0.0
  0
VERTEX
  5
35A
330
352
100
AcDbEntity
  8
001
370
    50
100
AcDbVertex
100
AcDb2dVertex
 10
124.78874
 20
274.346031
 30
0.0
  0
VERTEX
  5
35B
330
352
100
AcDbEntity
  8
001
370
    50
100
AcDbVertex
100
AcDb2dVertex
 10
126.073079
 20
274.331148
 30
0.0
  0
VERTEX
  5
35C
330
352
100
AcDbEntity
  8
001
370
    50
100
AcDbVertex
100
AcDb2dVertex
 10
126.951845
 20
274.321663
 30
0.0
  0
SEQEND
  5
353
330
352
100
AcDbEntity
  8
001
370
    50
  0
LINE
  5
35D
330
1F
100
AcDbEntity
  8
001
370
    50
100
AcDbLine
 10
122.317689
 20
274.254836
 30
0.0
 11
126.951845
 21
274.254836
 31
0.0
  0
LINE
  5
35E
330
1F
100
AcDbEntity
  8
001
370
    50
100
AcDbLine
 10
281.951845
 20
302.854836
 30
0.0
 11
281.951845
 21
322.854836
 31
0.0
  0
LINE
  5
35F
330
1F
100
AcDbEntity
  8
001
370
    50
100
AcDbLine
 10
275.951845
 20
328.854836
 30
0.0
 11
139.951845
 21
328.854836
 31
0.0
  0
LINE
  5
360
330
1F
100
AcDbEntity
  8
001
370
    50
100
AcDbLine
 10
275.951845
 20
296.854836
 30
0.0
 11
139.951845
 21
296.854836
 31
0.0
  0
LINE
  5
361
330
1F
100
AcDbEntity
  8
001
370
    50
100
AcDbLine
 10
281.951845
 20
312.854836
 30
0.0
 11
285.415946
 21
314.854836
 31
0.0
  0
LINE
  5
362
330
1F
100
AcDbEntity
  8
001
370
    50
100
AcDbLine
 10
281.951845
 20
312.854836
 30
0.0
 11
285.415946
 21
310.854836
 31
0.0
  0
ARC
  5
363
330
1F
100
AcDbEntity
  8
001
370
    50
100
AcDbCircle
 10
275.951845
 20
322.854836
 30
0.0
 40
6.0
100
AcDbArc
 50
0.0
 51
90.0
  0
ARC
  5
364
330
1F
100
AcDbEntity
  8
001
370
    50
100
AcDbCircle
 10
275.951845
 20
302.854836
 30
0.0
 40
6.0
100
AcDbArc
 50
270.0
 51
0.0
  0
LINE
  5
365
330
1F
100
AcDbEntity
  8
001
  6
CENTER
370
     9
100
AcDbLine
 10
289.332097
 20
312.854836
 30
0.0
 11
103.945403
 21
312.854836
 31
0.0
  0
LINE
  5
366
330
1F
100
AcDbEntity
  8
001
  6
DASHED
370
    30
100
AcDbLine
 10
440.139188
 20
72.672742
 30
0.0
 11
440.139188
 21
32.672742
 31
0.0
  0
LINE
  5
367
330
1F
100
AcDbEntity
  8
001
  6
DASHED
370
    30
100
AcDbLine
 10
440.139188
 20
72.672742
 30
0.0
 11
438.67183
 21
86.633722
 31
0.0
  0
POLYLINE
  5
368
330
1F
100
AcDbEntity
  8
001
370
    50
100
AcDb2dPolyline
 66
     1
 10
0.0
 20
0.0
 30
0.0
  0
VERTEX
  5
36A
330
368
100
AcDbEntity
  8
001
370
    50
100
AcDbVertex
100
AcDb2dVertex
 10
438.67183
 20
25.98289
 30
0.0
  0
VERTEX
  5
36B
330
368
100
AcDbEntity
  8
001
370
    50
100
AcDbVertex
100
AcDb2dVertex
 10
438.885977
 20
28.641136
 30
0.0
  0
VERTEX
  5
36C
330
368
100
AcDbEntity
  8
001
370
    50
100
AcDbVertex
100
AcDb2dVertex
 10
439.092013
 20
31.300005
 30
0.0
  0
VERTEX
  5
36D
330
368
100
AcDbEntity
  8
001
370
    50
100
AcDbVertex
100
AcDb2dVertex
 10
439.105939
 20
31.486304
 30
0.0
  0
VERTEX
  5
36E
330
368
100
AcDbEntity
  8
001
370
    50
100
AcDbVertex
100
AcDb2dVertex
 10
439.119826
 20
31.672607
 30
0.0
  0
SEQEND
  5
369
330
368
100
AcDbEntity
  8
001
370
    50
  0
POLYLINE
  5
36F
330
1F
100
AcDbEntity
  8
001
370
    50
100
AcDb2dPolyline
 66
     1
 10
0.0
 20
0.0
 30
0.0
  0
VERTEX
  5
371
330
36F
100
AcDbEntity
  8
001
370
    50
100
AcDbVertex
100
AcDb2dVertex
 10
442.848822
 20
85.060394
 30
0.0
  0
VERTEX
  5
372
330
36F
100
AcDbEntity
  8
001
370
    50
100
AcDbVertex
100
AcDb2dVertex
 10
442.555596
 20
85.043334
 30
0.0
  0
VERTEX
  5
373
330
36F
100
AcDbEntity
  8
001
370
    50
100
AcDbVertex
100
AcDb2dVertex
 10
442.264354
 20
85.011268
 30
0.0
  0
VERTEX
  5
374
330
36F
100
AcDbEntity
  8
001
370
    50
100
AcDbVertex
100
AcDb2dVertex
 10
441.97701
 20
84.952395
 30
0.0
  0
VERTEX
  5
375
330
36F
100
AcDbEntity
  8
001
370
    50
100
AcDbVertex
100
AcDb2dVertex
 10
441.695526
 20
84.867809
 30
0.0
  0
VERTEX
  5
376
330
36F
100
AcDbEntity
  8
001
370
    50
100
AcDbVertex
100
AcDb2dVertex
 10
441.333177
 20
84.721553
 30
0.0
  0
VERTEX
  5
377
330
36F
100
AcDbEntity
  8
001
370
    50
100
AcDbVertex
100
AcDb2dVertex
 10
440.987483
 20
84.539755
 30
0.0
  0
VERTEX
  5
378
330
36F
100
AcDbEntity
  8
001
370
    50
100
AcDbVertex
100
AcDb2dVertex
 10
440.660976
 20
84.324634
 30
0.0
  0
VERTEX
  5
379
330
36F
100
AcDbEntity
  8
001
370
    50
100
AcDbVertex
100
AcDb2dVertex
 10
440.356493
 20
84.079301
 30
0.0
  0
VERTEX
  5
37A
330
36F
100
AcDbEntity
  8
001
370
    50
100
AcDbVertex
100
AcDb2dVertex
 10
440.078314
 20
83.809303
 30
0.0
  0
VERTEX
  5
37B
330
36F
100
AcDbEntity
  8
001
370
    50
100
AcDbVertex
100
AcDb2dVertex
 10
439.824488
 20
83.516255
 30
0.0
  0
VERTEX
  5
37C
330
36F
100
AcDbEntity
  8
001
370
    50
100
AcDbVertex
100
AcDb2dVertex
 10
439.595203
 20
83.203326
 30
0.0
  0
VERTEX
  5
37D
330
36F
100
AcDbEntity
  8
001
370
    50
100
AcDbVertex
100
AcDb2dVertex
 10
439.391151
 20
82.873386
 30
0.0
  0
VERTEX
  5
37E
330
36F
100
AcDbEntity
  8
001
370
    50
100
AcDbVertex
100
AcDb2dVertex
 10
439.177993
 20
82.453956
 30
0.0
  0
VERTEX
  5
37F
330
36F
100
AcDbEntity
  8
001
370
    50
100
AcDbVertex
100
AcDb2dVertex
 10
439.00196
 20
82.01754
 30
0.0
  0
VERTEX
  5
380
330
36F
100
AcDbEntity
  8
001
370
    50
100
AcDbVertex
100
AcDb2dVertex
 10
438.862161
 20
81.567966
 30
0.0
  0
VERTEX
  5
381
330
36F
100
AcDbEntity
  8
001
370
    50
100
AcDbVertex
100
AcDb2dVertex
 10
438.757636
 20
81.108832
 30
0.0
  0
VERTEX
  5
382
330
36F
100
AcDbEntity
  8
001
370
    50
100
AcDbVertex
100
AcDb2dVertex
 10
438.691443
 20
80.675429
 30
0.0
  0
VERTEX
  5
383
330
36F
100
AcDbEntity
  8
001
370
    50
100
AcDbVertex
100
AcDb2dVertex
 10
438.656621
 20
80.238686
 30
0.0
  0
VERTEX
  5
384
330
36F
100
AcDbEntity
  8
001
370
    50
100
AcDbVertex
100
AcDb2dVertex
 10
438.651429
 20
80.063667
 30
0.0
  0
VERTEX
  5
385
330
36F
100
AcDbEntity
  8
001
370
    50
100
AcDbVertex
100
AcDb2dVertex
 10
438.648891
 20
79.888569
 30
0.0
  0
SEQEND
  5
370
330
36F
100
AcDbEntity
  8
001
370
    50
  0
LINE
  5
386
330
1F
100
AcDbEntity
  8
001
370
    50
100
AcDbLine
 10
457.650168
 20
85.060394
 30
0.0
 11
442.848822
 21
85.060394
 31
0.0
  0
POLYLINE
  5
387
330
1F
100
AcDbEntity
  8
001
370
    50
100
AcDb2dPolyline
 66
     1
 10
0.0
 20
0.0
 30
0.0
  0
VERTEX
  5
389
330
387
100
AcDbEntity
  8
001
370
    50
100
AcDbVertex
100
AcDb2dVertex
 10
462.650168
 20
78.901733
 30
0.0
  0
VERTEX
  5
38A
330
387
100
AcDbEntity
  8
001
370
    50
100
AcDbVertex
100
AcDb2dVertex
 10
462.646476
 20
79.108944
 30
0.0
  0
VERTEX
  5
38B
330
387
100
AcDbEntity
  8
001
370
    50
100
AcDbVertex
100
AcDb2dVertex
 10
462.639633
 20
79.316043
 30
0.0
  0
VERTEX
  5
38C
330
387
100
AcDbEntity
  8
001
370
    50
100
AcDbVertex
100
AcDb2dVertex
 10
462.601957
 20
79.788287
 30
0.0
  0
VERTEX
  5
38D
330
387
100
AcDbEntity
  8
001
370
    50
100
AcDbVertex
100
AcDb2dVertex
 10
462.53396
 20
80.257415
 30
0.0
  0
VERTEX
  5
38E
330
387
100
AcDbEntity
  8
001
370
    50
100
AcDbVertex
100
AcDb2dVertex
 10
462.437172
 20
80.723115
 30
0.0
  0
VERTEX
  5
38F
330
387
100
AcDbEntity
  8
001
370
    50
100
AcDbVertex
100
AcDb2dVertex
 10
462.311001
 20
81.181604
 30
0.0
  0
VERTEX
  5
390
330
387
100
AcDbEntity
  8
001
370
    50
100
AcDbVertex
100
AcDb2dVertex
 10
462.154968
 20
81.628374
 30
0.0
  0
VERTEX
  5
391
330
387
100
AcDbEntity
  8
001
370
    50
100
AcDbVertex
100
AcDb2dVertex
 10
461.967633
 20
82.062957
 30
0.0
  0
VERTEX
  5
392
330
387
100
AcDbEntity
  8
001
370
    50
100
AcDbVertex
100
AcDb2dVertex
 10
461.746635
 20
82.485525
 30
0.0
  0
VERTEX
  5
393
330
387
100
AcDbEntity
  8
001
370
    50
100
AcDbVertex
100
AcDb2dVertex
 10
461.493476
 20
82.889718
 30
0.0
  0
VERTEX
  5
394
330
387
100
AcDbEntity
  8
001
370
    50
100
AcDbVertex
100
AcDb2dVertex
 10
461.20874
 20
83.271946
 30
0.0
  0
VERTEX
  5
395
330
387
100
AcDbEntity
  8
001
370
    50
100
AcDbVertex
100
AcDb2dVertex
 10
460.892269
 20
83.628189
 30
0.0
  0
VERTEX
  5
396
330
387
100
AcDbEntity
  8
001
370
    50
100
AcDbVertex
100
AcDb2dVertex
 10
460.541242
 20
83.95675
 30
0.0
  0
VERTEX
  5
397
330
387
100
AcDbEntity
  8
001
370
    50
100
AcDbVertex
100
AcDb2dVertex
 10
460.160473
 20
84.250634
 30
0.0
  0
VERTEX
  5
398
330
387
100
AcDbEntity
  8
001
370
    50
100
AcDbVertex
100
AcDb2dVertex
 10
459.753107
 20
84.505711
 30
0.0
  0
VERTEX
  5
399
330
387
100
AcDbEntity
  8
001
370
    50
100
AcDbVertex
100
AcDb2dVertex
 10
459.321766
 20
84.716965
 30
0.0
  0
VERTEX
  5
39A
330
387
100
AcDbEntity
  8
001
370
    50
100
AcDbVertex
100
AcDb2dVertex
 10
458.937838
 20
84.858625
 30
0.0
  0
VERTEX
  5
39B
330
387
100
AcDbEntity
  8
001
370
    50
100
AcDbVertex
100
AcDb2dVertex
 10
458.54213
 20
84.963868
 30
0.0
  0
VERTEX
  5
39C
330
387
100
AcDbEntity
  8
001
370
    50
100
AcDbVertex
100
AcDb2dVertex
 10
458.138297
 20
85.031781
 30
0.0
  0
VERTEX
  5
39D
330
387
100
AcDbEntity
  8
001
370
    50
100
AcDbVertex
100
AcDb2dVertex
 10
457.730263
 20
85.059629
 30
0.0
  0
VERTEX
  5
39E
330
387
100
AcDbEntity
  8
001
370
    50
100
AcDbVertex
100
AcDb2dVertex
 10
457.690216
 20
85.060115
 30
0.0
  0
VERTEX
  5
39F
330
387
100
AcDbEntity
  8
001
370
    50
100
AcDbVertex
100
AcDb2dVertex
 10
457.650168
 20
85.060394
 30
0.0
  0
SEQEND
  5
388
330
387
100
AcDbEntity
  8
001
370
    50
  0
LINE
  5
3A0
330
1F
100
AcDbEntity
  8
001
370
    50
100
AcDbLine
 10
438.648891
 20
79.888569
 30
0.0
 11
438.67183
 21
79.362594
 31
0.0
  0
ARC
  5
3A1
330
1F
100
AcDbEntity
  8
001
370
    50
100
AcDbCircle
 10
442.848822
 20
87.072742
 30
0.0
 40
4.200000000000002
100
AcDbArc
 50
90.0
 51
180.0
  0
ARC
  5
3A2
330
1F
100
AcDbEntity
  8
001
  6
DASHED
370
    30
100
AcDbCircle
 10
442.848822
 20
87.072742
 30
0.0
 40
4.200000000000002
100
AcDbArc
 50
180.0
 51
186.0
  0
LINE
  5
3A3
330
1F
100
AcDbEntity
  8
001
370
    50
100
AcDbLine
 10
457.650168
 20
91.272742
 30
0.0
 11
442.848822
 21
91.272742
 31
0.0
  0
LINE
  5
3A4
330
1F
100
AcDbEntity
  8
001
370
    50
100
AcDbLine
 10
467.650168
 20
68.672742
 30
0.0
 11
467.650168
 21
36.672742
 31
0.0
  0
ARC
  5
3A5
330
1F
100
AcDbEntity
  8
001
370
    50
100
AcDbCircle
 10
467.650168
 20
73.672742
 30
0.0
 40
5.000000000000001
100
AcDbArc
 50
180.0
 51
270.0
  0
ARC
  5
3A6
330
1F
100
AcDbEntity
  8
001
370
    50
100
AcDbCircle
 10
467.650168
 20
31.672742
 30
0.0
 40
5.000000000000001
100
AcDbArc
 50
90.0
 51
180.0
  0
ARC
  5
3A7
330
1F
100
AcDbEntity
  8
001
370
    50
100
AcDbCircle
 10
457.650168
 20
86.272742
 30
0.0
 40
5.000000000000001
100
AcDbArc
 50
0.0
 51
90.0
  0
POLYLINE
  5
3A8
330
1F
100
AcDbEntity
  8
001
370
    50
100
AcDb2dPolyline
 66
     1
 10
0.0
 20
0.0
 30
0.0
  0
VERTEX
  5
3AA
330
3A8
100
AcDbEntity
  8
001
370
    50
100
AcDbVertex
100
AcDb2dVertex
 10
457.650168
 20
14.139569
 30
0.0
  0
VERTEX
  5
3AB
330
3A8
100
AcDbEntity
  8
001
370
    50
100
AcDbVertex
100
AcDb2dVertex
 10
458.072031
 20
14.160086
 30
0.0
  0
VERTEX
  5
3AC
330
3A8
100
AcDbEntity
  8
001
370
    50
100
AcDbVertex
100
AcDb2dVertex
 10
458.49114
 20
14.202964
 30
0.0
  0
VERTEX
  5
3AD
330
3A8
100
AcDbEntity
  8
001
370
    50
100
AcDbVertex
100
AcDb2dVertex
 10
458.904961
 20
14.285878
 30
0.0
  0
VERTEX
  5
3AE
330
3A8
100
AcDbEntity
  8
001
370
    50
100
AcDbVertex
100
AcDb2dVertex
 10
459.310003
 20
14.40736
 30
0.0
  0
VERTEX
  5
3AF
330
3A8
100
AcDbEntity
  8
001
370
    50
100
AcDbVertex
100
AcDb2dVertex
 10
459.703998
 20
14.562567
 30
0.0
  0
VERTEX
  5
3B0
330
3A8
100
AcDbEntity
  8
001
370
    50
100
AcDbVertex
100
AcDb2dVertex
 10
460.083375
 20
14.750008
 30
0.0
  0
VERTEX
  5
3B1
330
3A8
100
AcDbEntity
  8
001
370
    50
100
AcDbVertex
100
AcDb2dVertex
 10
460.446262
 20
14.969703
 30
0.0
  0
VERTEX
  5
3B2
330
3A8
100
AcDbEntity
  8
001
370
    50
100
AcDbVertex
100
AcDb2dVertex
 10
460.788849
 20
15.219945
 30
0.0
  0
VERTEX
  5
3B3
330
3A8
100
AcDbEntity
  8
001
370
    50
100
AcDbVertex
100
AcDb2dVertex
 10
461.10618
 20
15.496974
 30
0.0
  0
VERTEX
  5
3B4
330
3A8
100
AcDbEntity
  8
001
370
    50
100
AcDbVertex
100
AcDb2dVertex
 10
461.398899
 20
15.800018
 30
0.0
  0
VERTEX
  5
3B5
330
3A8
100
AcDbEntity
  8
001
370
    50
100
AcDbVertex
100
AcDb2dVertex
 10
461.66587
 20
16.127443
 30
0.0
  0
VERTEX
  5
3B6
330
3A8
100
AcDbEntity
  8
001
370
    50
100
AcDbVertex
100
AcDb2dVertex
 10
461.903646
 20
16.476365
 30
0.0
  0
VERTEX
  5
3B7
330
3A8
100
AcDbEntity
  8
001
370
    50
100
AcDbVertex
100
AcDb2dVertex
 10
462.107944
 20
16.840493
 30
0.0
  0
VERTEX
  5
3B8
330
3A8
100
AcDbEntity
  8
001
370
    50
100
AcDbVertex
100
AcDb2dVertex
 10
462.281923
 20
17.220606
 30
0.0
  0
VERTEX
  5
3B9
330
3A8
100
AcDbEntity
  8
001
370
    50
100
AcDbVertex
100
AcDb2dVertex
 10
462.425397
 20
17.614469
 30
0.0
  0
VERTEX
  5
3BA
330
3A8
100
AcDbEntity
  8
001
370
    50
100
AcDbVertex
100
AcDb2dVertex
 10
462.531563
 20
18.018821
 30
0.0
  0
VERTEX
  5
3BB
330
3A8
100
AcDbEntity
  8
001
370
    50
100
AcDbVertex
100
AcDb2dVertex
 10
462.610064
 20
18.556755
 30
0.0
  0
VERTEX
  5
3BC
330
3A8
100
AcDbEntity
  8
001
370
    50
100
AcDbVertex
100
AcDb2dVertex
 10
462.650168
 20
19.101453
 30
0.0
  0
SEQEND
  5
3A9
330
3A8
100
AcDbEntity
  8
001
370
    50
  0
LINE
  5
3BD
330
1F
100
AcDbEntity
  8
001
370
    50
100
AcDbLine
 10
438.648878
 20
25.453994
 30
0.0
 11
438.67183
 21
25.98289
 31
0.0
  0
ARC
  5
3BE
330
1F
100
AcDbEntity
  8
001
370
    50
100
AcDbCircle
 10
457.650168
 20
19.072742
 30
0.0
 40
5.000000000000001
100
AcDbArc
 50
270.0
 51
0.0
  0
LINE
  5
3BF
330
1F
100
AcDbEntity
  8
001
370
    50
100
AcDbLine
 10
462.650168
 20
31.672742
 30
0.0
 11
438.648822
 21
31.672742
 31
0.0
  0
LINE
  5
3C0
330
1F
100
AcDbEntity
  8
001
370
    50
100
AcDbLine
 10
438.648822
 20
73.672742
 30
0.0
 11
439.119932
 21
73.672742
 31
0.0
  0
POLYLINE
  5
3C1
330
1F
100
AcDbEntity
  8
001
370
    50
100
AcDb2dPolyline
 66
     1
 10
0.0
 20
0.0
 30
0.0
  0
VERTEX
  5
3C3
330
3C1
100
AcDbEntity
  8
001
370
    50
100
AcDbVertex
100
AcDb2dVertex
 10
438.67183
 20
79.362594
 30
0.0
  0
VERTEX
  5
3C4
330
3C1
100
AcDbEntity
  8
001
370
    50
100
AcDbVertex
100
AcDb2dVertex
 10
438.723182
 20
78.736755
 30
0.0
  0
VERTEX
  5
3C5
330
3C1
100
AcDbEntity
  8
001
370
    50
100
AcDbVertex
100
AcDb2dVertex
 10
438.774267
 20
78.110895
 30
0.0
  0
VERTEX
  5
3C6
330
3C1
100
AcDbEntity
  8
001
370
    50
100
AcDbVertex
100
AcDb2dVertex
 10
438.973033
 20
75.608823
 30
0.0
  0
VERTEX
  5
3C7
330
3C1
100
AcDbEntity
  8
001
370
    50
100
AcDbVertex
100
AcDb2dVertex
 10
439.16167
 20
73.105972
 30
0.0
  0
VERTEX
  5
3C8
330
3C1
100
AcDbEntity
  8
001
370
    50
100
AcDbVertex
100
AcDb2dVertex
 10
439.338661
 20
70.602087
 30
0.0
  0
VERTEX
  5
3C9
330
3C1
100
AcDbEntity
  8
001
370
    50
100
AcDbVertex
100
AcDb2dVertex
 10
439.502674
 20
68.097289
 30
0.0
  0
VERTEX
  5
3CA
330
3C1
100
AcDbEntity
  8
001
370
    50
100
AcDbVertex
100
AcDb2dVertex
 10
439.651379
 20
65.590425
 30
0.0
  0
VERTEX
  5
3CB
330
3C1
100
AcDbEntity
  8
001
370
    50
100
AcDbVertex
100
AcDb2dVertex
 10
439.777792
 20
63.082415
 30
0.0
  0
VERTEX
  5
3CC
330
3C1
100
AcDbEntity
  8
001
370
    50
100
AcDbVertex
100
AcDb2dVertex
 10
439.874097
 20
60.674613
 30
0.0
  0
VERTEX
  5
3CD
330
3C1
100
AcDbEntity
  8
001
370
    50
100
AcDbVertex
100
AcDb2dVertex
 10
439.955868
 20
58.266185
 30
0.0
  0
SEQEND
  5
3C2
330
3C1
100
AcDbEntity
  8
001
370
    50
  0
LINE
  5
3CE
330
1F
100
AcDbEntity
  8
001
370
    50
100
AcDbLine
 10
462.650168
 20
19.072742
 30
0.0
 11
462.650168
 21
86.272742
 31
0.0
  0
LINE
  5
3CF
330
1F
100
AcDbEntity
  8
001
370
    50
100
AcDbLine
 10
438.648822
 20
87.072742
 30
0.0
 11
438.648822
 21
79.888569
 31
0.0
  0
LINE
  5
3D0
330
1F
100
AcDbEntity
  8
001
370
    50
100
AcDbLine
 10
470.650168
 20
36.672742
 30
0.0
 11
470.650168
 21
68.672742
 31
0.0
  0
LINE
  5
3D1
330
1F
100
AcDbEntity
  8
001
370
    50
100
AcDbLine
 10
470.650168
 20
68.172742
 30
0.0
 11
467.650168
 21
68.172742
 31
0.0
  0
LINE
  5
3D2
330
1F
100
AcDbEntity
  8
001
370
    50
100
AcDbLine
 10
467.650168
 20
37.172742
 30
0.0
 11
470.650168
 21
37.172742
 31
0.0
  0
LINE
  5
3D3
330
1F
100
AcDbEntity
  8
001
370
    50
100
AcDbLine
 10
437.948822
 20
57.672742
 30
0.0
 11
454.740617
 21
57.672742
 31
0.0
  0
POLYLINE
  5
3D4
330
1F
100
AcDbEntity
  8
001
370
    50
100
AcDb2dPolyline
 66
     1
 10
0.0
 20
0.0
 30
0.0
  0
VERTEX
  5
3D6
330
3D4
100
AcDbEntity
  8
001
370
    50
100
AcDbVertex
100
AcDb2dVertex
 10
453.901169
 20
57.472742
 30
0.0
  0
VERTEX
  5
3D7
330
3D4
100
AcDbEntity
  8
001
370
    50
100
AcDbVertex
100
AcDb2dVertex
 10
453.73448
 20
56.86886
 30
0.0
  0
VERTEX
  5
3D8
330
3D4
100
AcDbEntity
  8
001
370
    50
100
AcDbVertex
100
AcDb2dVertex
 10
453.492141
 20
55.985911
 30
0.0
  0
VERTEX
  5
3D9
330
3D4
100
AcDbEntity
  8
001
370
    50
100
AcDbVertex
100
AcDb2dVertex
 10
453.251586
 20
55.102453
 30
0.0
  0
VERTEX
  5
3DA
330
3D4
100
AcDbEntity
  8
001
370
    50
100
AcDbVertex
100
AcDb2dVertex
 10
453.087875
 20
54.497742
 30
0.0
  0
SEQEND
  5
3D5
330
3D4
100
AcDbEntity
  8
001
370
    50
  0
LINE
  5
3DB
330
1F
100
AcDbEntity
  8
001
370
    50
100
AcDbLine
 10
454.740617
 20
57.672742
 30
0.0
 11
454.687027
 21
57.472742
 31
0.0
  0
LINE
  5
3DC
330
1F
100
AcDbEntity
  8
001
370
    50
100
AcDbLine
 10
438.648822
 20
54.497742
 30
0.0
 11
453.087875
 21
54.497742
 31
0.0
  0
LINE
  5
3DD
330
1F
100
AcDbEntity
  8
001
370
    50
100
AcDbLine
 10
437.948822
 20
57.672742
 30
0.0
 11
438.648822
 21
54.497742
 31
0.0
  0
LINE
  5
3DE
330
1F
100
AcDbEntity
  8
001
370
    50
100
AcDbLine
 10
437.948822
 20
47.672742
 30
0.0
 11
438.648822
 21
50.847742
 31
0.0
  0
LINE
  5
3DF
330
1F
100
AcDbEntity
  8
001
370
    50
100
AcDbLine
 10
437.948822
 20
47.672742
 30
0.0
 11
438.648822
 21
47.672742
 31
0.0
  0
LINE
  5
3E0
330
1F
100
AcDbEntity
  8
001
370
    50
100
AcDbLine
 10
438.648822
 20
54.497742
 30
0.0
 11
438.648822
 21
31.672742
 31
0.0
  0
LINE
  5
3E1
330
1F
100
AcDbEntity
  8
001
370
    50
100
AcDbLine
 10
438.648822
 20
73.672742
 30
0.0
 11
438.648822
 21
57.672742
 31
0.0
  0
LINE
  5
3E2
330
1F
100
AcDbEntity
  8
001
370
    50
100
AcDbLine
 10
462.650168
 20
57.472742
 30
0.0
 11
453.901169
 21
57.472742
 31
0.0
  0
LINE
  5
3E3
330
1F
100
AcDbEntity
  8
001
370
    50
100
AcDbLine
 10
437.703592
 20
16.537235
 30
0.0
 11
438.134683
 21
21.895193
 31
0.0
  0
CIRCLE
  5
3E4
330
1F
100
AcDbEntity
  8
001
370
    50
100
AcDbCircle
 10
445.748298
 20
17.550877
 30
0.0
 40
3.0
  0
LINE
  5
3E5
330
1F
100
AcDbEntity
  8
001
370
    50
100
AcDbLine
 10
453.377178
 20
18.561616
 30
0.0
 11
452.946087
 21
13.203658
 31
0.0
  0
LINE
  5
3E6
330
1F
100
AcDbEntity
  8
001
370
    50
100
AcDbLine
 10
449.864018
 20
22.342227
 30
0.0
 11
438.530602
 21
22.263103
 31
0.0
  0
CIRCLE
  5
3E7
330
1F
100
AcDbEntity
  8
001
370
    50
100
AcDbCircle
 10
445.753286
 20
17.564143
 30
0.0
 40
2.5
  0
LINE
  5
3E8
330
1F
100
AcDbEntity
  8
001
370
    50
100
AcDbLine
 10
446.332855
 20
18.562858
 30
0.0
 11
446.016535
 21
19.113562
 31
0.0
  0
LINE
  5
3E9
330
1F
100
AcDbEntity
  8
001
370
    50
100
AcDbLine
 10
445.178158
 20
18.565422
 30
0.0
 11
445.496921
 21
19.114716
 31
0.0
  0
ARC
  5
3EA
330
1F
100
AcDbEntity
  8
001
370
    50
100
AcDbCircle
 10
445.756395
 20
18.964139
 30
0.0
 40
0.3
100
AcDbArc
 50
29.872778
 51
149.872778
  0
LINE
  5
3EB
330
1F
100
AcDbEntity
  8
001
370
    50
100
AcDbLine
 10
445.178158
 20
18.565422
 30
0.0
 11
444.543074
 21
18.566832
 31
0.0
  0
LINE
  5
3EC
330
1F
100
AcDbEntity
  8
001
370
    50
100
AcDbLine
 10
444.598588
 20
17.566707
 30
0.0
 11
444.282268
 21
18.11741
 31
0.0
  0
ARC
  5
3ED
330
1F
100
AcDbEntity
  8
001
370
    50
100
AcDbCircle
 10
444.542408
 20
18.266833
 30
0.0
 40
0.3
100
AcDbArc
 50
89.872778
 51
209.872778
  0
LINE
  5
3EE
330
1F
100
AcDbEntity
  8
001
370
    50
100
AcDbLine
 10
444.598588
 20
17.566707
 30
0.0
 11
444.279825
 21
17.017413
 31
0.0
  0
LINE
  5
3EF
330
1F
100
AcDbEntity
  8
001
370
    50
100
AcDbLine
 10
445.173717
 20
16.565427
 30
0.0
 11
444.538633
 21
16.566837
 31
0.0
  0
ARC
  5
3F0
330
1F
100
AcDbEntity
  8
001
370
    50
100
AcDbCircle
 10
444.539299
 20
16.866836
 30
0.0
 40
0.3
100
AcDbArc
 50
149.872778
 51
269.872778
  0
LINE
  5
3F1
330
1F
100
AcDbEntity
  8
001
370
    50
100
AcDbLine
 10
445.173717
 20
16.565427
 30
0.0
 11
445.490037
 21
16.014723
 31
0.0
  0
LINE
  5
3F2
330
1F
100
AcDbEntity
  8
001
370
    50
100
AcDbLine
 10
446.328414
 20
16.562863
 30
0.0
 11
446.009651
 21
16.01357
 31
0.0
  0
ARC
  5
3F3
330
1F
100
AcDbEntity
  8
001
370
    50
100
AcDbCircle
 10
445.750177
 20
16.164146
 30
0.0
 40
0.3
100
AcDbArc
 50
209.872778
 51
329.872778
  0
LINE
  5
3F4
330
1F
100
AcDbEntity
  8
001
370
    50
100
AcDbLine
 10
446.328414
 20
16.562863
 30
0.0
 11
446.963498
 21
16.561453
 31
0.0
  0
LINE
  5
3F5
330
1F
100
AcDbEntity
  8
001
370
    50
100
AcDbLine
 10
446.907984
 20
17.561579
 30
0.0
 11
447.224304
 21
17.010875
 31
0.0
  0
ARC
  5
3F6
330
1F
100
AcDbEntity
  8
001
370
    50
100
AcDbCircle
 10
446.964164
 20
16.861452
 30
0.0
 40
0.3
100
AcDbArc
 50
269.872778
 51
29.872778
  0
LINE
  5
3F7
330
1F
100
AcDbEntity
  8
001
370
    50
100
AcDbLine
 10
446.907984
 20
17.561579
 30
0.0
 11
447.226747
 21
18.110872
 31
0.0
  0
LINE
  5
3F8
330
1F
100
AcDbEntity
  8
001
370
    50
100
AcDbLine
 10
446.332855
 20
18.562858
 30
0.0
 11
446.967939
 21
18.561448
 31
0.0
  0
ARC
  5
3F9
330
1F
100
AcDbEntity
  8
001
370
    50
100
AcDbCircle
 10
446.967273
 20
18.261449
 30
0.0
 40
0.3
100
AcDbArc
 50
329.872778
 51
89.872778
  0
LINE
  5
3FA
330
1F
100
AcDbEntity
  8
001
370
    50
100
AcDbLine
 10
441.216753
 20
12.756624
 30
0.0
 11
452.550168
 21
12.835748
 31
0.0
  0
ARC
  5
3FB
330
1F
100
AcDbEntity
  8
001
370
    50
100
AcDbCircle
 10
451.905136
 20
20.611494
 30
0.0
 40
3.0
100
AcDbArc
 50
298.349498
 51
144.83356
  0
ARC
  5
3FC
330
1F
100
AcDbEntity
  8
001
370
    50
100
AcDbCircle
 10
438.533395
 20
21.863113
 30
0.0
 40
0.4
100
AcDbArc
 50
90.4
 51
175.4
  0
ARC
  5
3FD
330
1F
100
AcDbEntity
  8
001
370
    50
100
AcDbCircle
 10
452.547375
 20
13.235738
 30
0.0
 40
0.4
100
AcDbArc
 50
270.4
 51
355.4
  0
LINE
  5
3FE
330
1F
100
AcDbEntity
  8
001
  6
DASHED
370
    30
100
AcDbLine
 10
439.045095
 20
22.263139
 30
0.0
 11
440.139188
 21
32.672742
 31
0.0
  0
LINE
  5
3FF
330
1F
100
AcDbEntity
  8
001
370
    50
100
AcDbLine
 10
439.962562
 20
31.672742
 30
0.0
 11
438.991986
 21
22.259872
 31
0.0
  0
LINE
  5
400
330
1F
100
AcDbEntity
  8
001
370
    50
100
AcDbLine
 10
438.648822
 20
25.436515
 30
0.0
 11
438.648822
 21
22.263929
 31
0.0
  0
LINE
  5
401
330
1F
100
AcDbEntity
  8
001
370
    50
100
AcDbLine
 10
437.703592
 20
88.808248
 30
0.0
 11
438.134683
 21
83.450291
 31
0.0
  0
LINE
  5
402
330
1F
100
AcDbEntity
  8
001
370
    50
100
AcDbLine
 10
441.216753
 20
92.588859
 30
0.0
 11
452.738572
 21
92.508421
 31
0.0
  0
ARC
  5
403
330
1F
100
AcDbEntity
  8
001
370
    50
100
AcDbCircle
 10
452.73578
 20
92.10843
 30
0.0
 40
0.4
100
AcDbArc
 50
4.6
 51
89.6
  0
ARC
  5
404
330
1F
100
AcDbEntity
  8
001
370
    50
100
AcDbCircle
 10
438.533395
 20
83.482371
 30
0.0
 40
0.4
100
AcDbArc
 50
184.6
 51
269.6
  0
LINE
  5
405
330
1F
100
AcDbEntity
  8
001
370
    50
100
AcDbLine
 10
438.648822
 20
83.081555
 30
0.0
 11
438.530602
 21
83.08238
 31
0.0
  0
LINE
  5
406
330
1F
100
AcDbEntity
  8
001
370
    50
100
AcDbLine
 10
453.20431
 20
91.272742
 30
0.0
 11
453.134491
 21
92.14051
 31
0.0
  0
LINE
  5
407
330
1F
100
AcDbEntity
  8
001
370
     9
100
AcDbLine
 10
440.671112
 20
12.752815
 30
0.0
 11
421.420044
 21
12.752815
 31
0.0
  0
POLYLINE
  5
408
330
1F
100
AcDbEntity
  8
001
370
    50
100
AcDb2dPolyline
 66
     1
 10
0.0
 20
0.0
 30
0.0
  0
VERTEX
  5
40A
330
408
100
AcDbEntity
  8
001
370
    50
100
AcDbVertex
100
AcDb2dVertex
 10
453.025933
 20
14.196056
 30
0.0
  0
VERTEX
  5
40B
330
408
100
AcDbEntity
  8
001
370
    50
100
AcDbVertex
100
AcDb2dVertex
 10
453.11998
 20
14.194786
 30
0.0
  0
VERTEX
  5
40C
330
408
100
AcDbEntity
  8
001
370
    50
100
AcDbVertex
100
AcDb2dVertex
 10
453.214027
 20
14.193516
 30
0.0
  0
VERTEX
  5
40D
330
408
100
AcDbEntity
  8
001
370
    50
100
AcDbVertex
100
AcDb2dVertex
 10
453.470905
 20
14.190047
 30
0.0
  0
VERTEX
  5
40E
330
408
100
AcDbEntity
  8
001
370
    50
100
AcDbVertex
100
AcDb2dVertex
 10
453.727784
 20
14.186578
 30
0.0
  0
VERTEX
  5
40F
330
408
100
AcDbEntity
  8
001
370
    50
100
AcDbVertex
100
AcDb2dVertex
 10
454.529109
 20
14.175981
 30
0.0
  0
VERTEX
  5
410
330
408
100
AcDbEntity
  8
001
370
    50
100
AcDbVertex
100
AcDb2dVertex
 10
455.487064
 20
14.163937
 30
0.0
  0
VERTEX
  5
411
330
408
100
AcDbEntity
  8
001
370
    50
100
AcDbVertex
100
AcDb2dVertex
 10
456.771402
 20
14.149054
 30
0.0
  0
VERTEX
  5
412
330
408
100
AcDbEntity
  8
001
370
    50
100
AcDbVertex
100
AcDb2dVertex
 10
457.650168
 20
14.139569
 30
0.0
  0
SEQEND
  5
409
330
408
100
AcDbEntity
  8
001
370
    50
  0
LINE
  5
413
330
1F
100
AcDbEntity
  8
001
370
    50
100
AcDbLine
 10
453.016012
 20
14.072742
 30
0.0
 11
457.650168
 21
14.072742
 31
0.0
  0
LINE
  5
414
330
1F
100
AcDbEntity
  8
001
370
    50
100
AcDbLine
 10
479.158858
 20
68.672742
 30
0.0
 11
470.650168
 21
68.672742
 31
0.0
  0
LINE
  5
415
330
1F
100
AcDbEntity
  8
001
  6
CENTER
370
     9
100
AcDbLine
 10
486.353703
 20
52.672742
 30
0.0
 11
434.643726
 21
52.672742
 31
0.0
  0
LINE
  5
416
330
1F
100
AcDbEntity
  8
001
370
    50
100
AcDbLine
 10
479.158858
 20
36.672742
 30
0.0
 11
470.650168
 21
36.672742
 31
0.0
  0
LINE
  5
417
330
1F
100
AcDbEntity
  8
001
  6
DASHED
370
    30
100
AcDbLine
 10
440.139188
 20
184.868169
 30
0.0
 11
440.139188
 21
144.868169
 31
0.0
  0
LINE
  5
418
330
1F
100
AcDbEntity
  8
001
  6
DASHED
370
    30
100
AcDbLine
 10
440.139188
 20
184.868169
 30
0.0
 11
438.67183
 21
198.82915
 31
0.0
  0
POLYLINE
  5
419
330
1F
100
AcDbEntity
  8
001
370
    50
100
AcDb2dPolyline
 66
     1
 10
0.0
 20
0.0
 30
0.0
  0
VERTEX
  5
41B
330
419
100
AcDbEntity
  8
001
370
    50
100
AcDbVertex
100
AcDb2dVertex
 10
438.67183
 20
138.178318
 30
0.0
  0
VERTEX
  5
41C
330
419
100
AcDbEntity
  8
001
370
    50
100
AcDbVertex
100
AcDb2dVertex
 10
438.885977
 20
140.836564
 30
0.0
  0
VERTEX
  5
41D
330
419
100
AcDbEntity
  8
001
370
    50
100
AcDbVertex
100
AcDb2dVertex
 10
439.092013
 20
143.495433
 30
0.0
  0
VERTEX
  5
41E
330
419
100
AcDbEntity
  8
001
370
    50
100
AcDbVertex
100
AcDb2dVertex
 10
439.105939
 20
143.681732
 30
0.0
  0
VERTEX
  5
41F
330
419
100
AcDbEntity
  8
001
370
    50
100
AcDbVertex
100
AcDb2dVertex
 10
439.119826
 20
143.868034
 30
0.0
  0
SEQEND
  5
41A
330
419
100
AcDbEntity
  8
001
370
    50
  0
POLYLINE
  5
420
330
1F
100
AcDbEntity
  8
001
370
    50
100
AcDb2dPolyline
 66
     1
 10
0.0
 20
0.0
 30
0.0
  0
VERTEX
  5
422
330
420
100
AcDbEntity
  8
001
370
    50
100
AcDbVertex
100
AcDb2dVertex
 10
442.848822
 20
197.255821
 30
0.0
  0
VERTEX
  5
423
330
420
100
AcDbEntity
  8
001
370
    50
100
AcDbVertex
100
AcDb2dVertex
 10
442.555596
 20
197.238762
 30
0.0
  0
VERTEX
  5
424
330
420
100
AcDbEntity
  8
001
370
    50
100
AcDbVertex
100
AcDb2dVertex
 10
442.264354
 20
197.206696
 30
0.0
  0
VERTEX
  5
425
330
420
100
AcDbEntity
  8
001
370
    50
100
AcDbVertex
100
AcDb2dVertex
 10
441.97701
 20
197.147823
 30
0.0
  0
VERTEX
  5
426
330
420
100
AcDbEntity
  8
001
370
    50
100
AcDbVertex
100
AcDb2dVertex
 10
441.695526
 20
197.063236
 30
0.0
  0
VERTEX
  5
427
330
420
100
AcDbEntity
  8
001
370
    50
100
AcDbVertex
100
AcDb2dVertex
 10
441.333177
 20
196.916981
 30
0.0
  0
VERTEX
  5
428
330
420
100
AcDbEntity
  8
001
370
    50
100
AcDbVertex
100
AcDb2dVertex
 10
440.987483
 20
196.735183
 30
0.0
  0
VERTEX
  5
429
330
420
100
AcDbEntity
  8
001
370
    50
100
AcDbVertex
100
AcDb2dVertex
 10
440.660976
 20
196.520062
 30
0.0
  0
VERTEX
  5
42A
330
420
100
AcDbEntity
  8
001
370
    50
100
AcDbVertex
100
AcDb2dVertex
 10
440.356493
 20
196.274728
 30
0.0
  0
VERTEX
  5
42B
330
420
100
AcDbEntity
  8
001
370
    50
100
AcDbVertex
100
AcDb2dVertex
 10
440.078314
 20
196.004731
 30
0.0
  0
VERTEX
  5
42C
330
420
100
AcDbEntity
  8
001
370
    50
100
AcDbVertex
100
AcDb2dVertex
 10
439.824488
 20
195.711682
 30
0.0
  0
VERTEX
  5
42D
330
420
100
AcDbEntity
  8
001
370
    50
100
AcDbVertex
100
AcDb2dVertex
 10
439.595203
 20
195.398754
 30
0.0
  0
VERTEX
  5
42E
330
420
100
AcDbEntity
  8
001
370
    50
100
AcDbVertex
100
AcDb2dVertex
 10
439.391151
 20
195.068814
 30
0.0
  0
VERTEX
  5
42F
330
420
100
AcDbEntity
  8
001
370
    50
100
AcDbVertex
100
AcDb2dVertex
 10
439.177993
 20
194.649383
 30
0.0
  0
VERTEX
  5
430
330
420
100
AcDbEntity
  8
001
370
    50
100
AcDbVertex
100
AcDb2dVertex
 10
439.00196
 20
194.212968
 30
0.0
  0
VERTEX
  5
431
330
420
100
AcDbEntity
  8
001
370
    50
100
AcDbVertex
100
AcDb2dVertex
 10
438.862161
 20
193.763394
 30
0.0
  0
VERTEX
  5
432
330
420
100
AcDbEntity
  8
001
370
    50
100
AcDbVertex
100
AcDb2dVertex
 10
438.757636
 20
193.30426
 30
0.0
  0
VERTEX
  5
433
330
420
100
AcDbEntity
  8
001
370
    50
100
AcDbVertex
100
AcDb2dVertex
 10
438.691443
 20
192.870856
 30
0.0
  0
VERTEX
  5
434
330
420
100
AcDbEntity
  8
001
370
    50
100
AcDbVertex
100
AcDb2dVertex
 10
438.656621
 20
192.434113
 30
0.0
  0
VERTEX
  5
435
330
420
100
AcDbEntity
  8
001
370
    50
100
AcDbVertex
100
AcDb2dVertex
 10
438.651429
 20
192.259094
 30
0.0
  0
VERTEX
  5
436
330
420
100
AcDbEntity
  8
001
370
    50
100
AcDbVertex
100
AcDb2dVertex
 10
438.648891
 20
192.083997
 30
0.0
  0
SEQEND
  5
421
330
420
100
AcDbEntity
  8
001
370
    50
  0
LINE
  5
437
330
1F
100
AcDbEntity
  8
001
370
    50
100
AcDbLine
 10
457.650168
 20
197.255821
 30
0.0
 11
442.848822
 21
197.255821
 31
0.0
  0
POLYLINE
  5
438
330
1F
100
AcDbEntity
  8
001
370
    50
100
AcDb2dPolyline
 66
     1
 10
0.0
 20
0.0
 30
0.0
  0
VERTEX
  5
43A
330
438
100
AcDbEntity
  8
001
370
    50
100
AcDbVertex
100
AcDb2dVertex
 10
462.650168
 20
191.097161
 30
0.0
  0
VERTEX
  5
43B
330
438
100
AcDbEntity
  8
001
370
    50
100
AcDbVertex
100
AcDb2dVertex
 10
462.646476
 20
191.304371
 30
0.0
  0
VERTEX
  5
43C
330
438
100
AcDbEntity
  8
001
370
    50
100
AcDbVertex
100
AcDb2dVertex
 10
462.639633
 20
191.51147
 30
0.0
  0
VERTEX
  5
43D
330
438
100
AcDbEntity
  8
001
370
    50
100
AcDbVertex
100
AcDb2dVertex
 10
462.601957
 20
191.983714
 30
0.0
  0
VERTEX
  5
43E
330
438
100
AcDbEntity
  8
001
370
    50
100
AcDbVertex
100
AcDb2dVertex
 10
462.53396
 20
192.452842
 30
0.0
  0
VERTEX
  5
43F
330
438
100
AcDbEntity
  8
001
370
    50
100
AcDbVertex
100
AcDb2dVertex
 10
462.437172
 20
192.918543
 30
0.0
  0
VERTEX
  5
440
330
438
100
AcDbEntity
  8
001
370
    50
100
AcDbVertex
100
AcDb2dVertex
 10
462.311001
 20
193.377031
 30
0.0
  0
VERTEX
  5
441
330
438
100
AcDbEntity
  8
001
370
    50
100
AcDbVertex
100
AcDb2dVertex
 10
462.154968
 20
193.823801
 30
0.0
  0
VERTEX
  5
442
330
438
100
AcDbEntity
  8
001
370
    50
100
AcDbVertex
100
AcDb2dVertex
 10
461.967633
 20
194.258385
 30
0.0
  0
VERTEX
  5
443
330
438
100
AcDbEntity
  8
001
370
    50
100
AcDbVertex
100
AcDb2dVertex
 10
461.746635
 20
194.680952
 30
0.0
  0
VERTEX
  5
444
330
438
100
AcDbEntity
  8
001
370
    50
100
AcDbVertex
100
AcDb2dVertex
 10
461.493476
 20
195.085146
 30
0.0
  0
VERTEX
  5
445
330
438
100
AcDbEntity
  8
001
370
    50
100
AcDbVertex
100
AcDb2dVertex
 10
461.20874
 20
195.467373
 30
0.0
  0
VERTEX
  5
446
330
438
100
AcDbEntity
  8
001
370
    50
100
AcDbVertex
100
AcDb2dVertex
 10
460.892269
 20
195.823617
 30
0.0
  0
VERTEX
  5
447
330
438
100
AcDbEntity
  8
001
370
    50
100
AcDbVertex
100
AcDb2dVertex
 10
460.541242
 20
196.152177
 30
0.0
  0
VERTEX
  5
448
330
438
100
AcDbEntity
  8
001
370
    50
100
AcDbVertex
100
AcDb2dVertex
 10
460.160473
 20
196.446062
 30
0.0
  0
VERTEX
  5
449
330
438
100
AcDbEntity
  8
001
370
    50
100
AcDbVertex
100
AcDb2dVertex
 10
459.753107
 20
196.701138
 30
0.0
  0
VERTEX
  5
44A
330
438
100
AcDbEntity
  8
001
370
    50
100
AcDbVertex
100
AcDb2dVertex
 10
459.321766
 20
196.912393
 30
0.0
  0
VERTEX
  5
44B
330
438
100
AcDbEntity
  8
001
370
    50
100
AcDbVertex
100
AcDb2dVertex
 10
458.937838
 20
197.054053
 30
0.0
  0
VERTEX
  5
44C
330
438
100
AcDbEntity
  8
001
370
    50
100
AcDbVertex
100
AcDb2dVertex
 10
458.54213
 20
197.159296
 30
0.0
  0
VERTEX
  5
44D
330
438
100
AcDbEntity
  8
001
370
    50
100
AcDbVertex
100
AcDb2dVertex
 10
458.138297
 20
197.227209
 30
0.0
  0
VERTEX
  5
44E
330
438
100
AcDbEntity
  8
001
370
    50
100
AcDbVertex
100
AcDb2dVertex
 10
457.730263
 20
197.255057
 30
0.0
  0
VERTEX
  5
44F
330
438
100
AcDbEntity
  8
001
370
    50
100
AcDbVertex
100
AcDb2dVertex
 10
457.690216
 20
197.255543
 30
0.0
  0
VERTEX
  5
450
330
438
100
AcDbEntity
  8
001
370
    50
100
AcDbVertex
100
AcDb2dVertex
 10
457.650168
 20
197.255821
 30
0.0
  0
SEQEND
  5
439
330
438
100
AcDbEntity
  8
001
370
    50
  0
LINE
  5
451
330
1F
100
AcDbEntity
  8
001
370
    50
100
AcDbLine
 10
438.648891
 20
192.083997
 30
0.0
 11
438.67183
 21
191.558021
 31
0.0
  0
ARC
  5
452
330
1F
100
AcDbEntity
  8
001
370
    50
100
AcDbCircle
 10
442.848822
 20
199.268169
 30
0.0
 40
4.200000000000002
100
AcDbArc
 50
90.0
 51
180.0
  0
ARC
  5
453
330
1F
100
AcDbEntity
  8
001
  6
DASHED
370
    30
100
AcDbCircle
 10
442.848822
 20
199.268169
 30
0.0
 40
4.200000000000002
100
AcDbArc
 50
180.0
 51
186.0
  0
LINE
  5
454
330
1F
100
AcDbEntity
  8
001
370
    50
100
AcDbLine
 10
457.650168
 20
203.468169
 30
0.0
 11
442.848822
 21
203.468169
 31
0.0
  0
LINE
  5
455
330
1F
100
AcDbEntity
  8
001
370
    50
100
AcDbLine
 10
467.650168
 20
180.868169
 30
0.0
 11
467.650168
 21
148.868169
 31
0.0
  0
ARC
  5
456
330
1F
100
AcDbEntity
  8
001
370
    50
100
AcDbCircle
 10
467.650168
 20
185.868169
 30
0.0
 40
5.000000000000001
100
AcDbArc
 50
180.0
 51
270.0
  0
ARC
  5
457
330
1F
100
AcDbEntity
  8
001
370
    50
100
AcDbCircle
 10
467.650168
 20
143.868169
 30
0.0
 40
5.000000000000001
100
AcDbArc
 50
90.0
 51
180.0
  0
ARC
  5
458
330
1F
100
AcDbEntity
  8
001
370
    50
100
AcDbCircle
 10
457.650168
 20
198.468169
 30
0.0
 40
5.000000000000001
100
AcDbArc
 50
0.0
 51
90.0
  0
POLYLINE
  5
459
330
1F
100
AcDbEntity
  8
001
370
    50
100
AcDb2dPolyline
 66
     1
 10
0.0
 20
0.0
 30
0.0
  0
VERTEX
  5
45B
330
459
100
AcDbEntity
  8
001
370
    50
100
AcDbVertex
100
AcDb2dVertex
 10
457.650168
 20
126.334997
 30
0.0
  0
VERTEX
  5
45C
330
459
100
AcDbEntity
  8
001
370
    50
100
AcDbVertex
100
AcDb2dVertex
 10
458.072031
 20
126.355514
 30
0.0
  0
VERTEX
  5
45D
330
459
100
AcDbEntity
  8
001
370
    50
100
AcDbVertex
100
AcDb2dVertex
 10
458.49114
 20
126.398391
 30
0.0
  0
VERTEX
  5
45E
330
459
100
AcDbEntity
  8
001
370
    50
100
AcDbVertex
100
AcDb2dVertex
 10
458.904961
 20
126.481306
 30
0.0
  0
VERTEX
  5
45F
330
459
100
AcDbEntity
  8
001
370
    50
100
AcDbVertex
100
AcDb2dVertex
 10
459.310003
 20
126.602788
 30
0.0
  0
VERTEX
  5
460
330
459
100
AcDbEntity
  8
001
370
    50
100
AcDbVertex
100
AcDb2dVertex
 10
459.703998
 20
126.757995
 30
0.0
  0
VERTEX
  5
461
330
459
100
AcDbEntity
  8
001
370
    50
100
AcDbVertex
100
AcDb2dVertex
 10
460.083375
 20
126.945435
 30
0.0
  0
VERTEX
  5
462
330
459
100
AcDbEntity
  8
001
370
    50
100
AcDbVertex
100
AcDb2dVertex
 10
460.446262
 20
127.165131
 30
0.0
  0
VERTEX
  5
463
330
459
100
AcDbEntity
  8
001
370
    50
100
AcDbVertex
100
AcDb2dVertex
 10
460.788849
 20
127.415373
 30
0.0
  0
VERTEX
  5
464
330
459
100
AcDbEntity
  8
001
370
    50
100
AcDbVertex
100
AcDb2dVertex
 10
461.10618
 20
127.692402
 30
0.0
  0
VERTEX
  5
465
330
459
100
AcDbEntity
  8
001
370
    50
100
AcDbVertex
100
AcDb2dVertex
 10
461.398899
 20
127.995446
 30
0.0
  0
VERTEX
  5
466
330
459
100
AcDbEntity
  8
001
370
    50
100
AcDbVertex
100
AcDb2dVertex
 10
461.66587
 20
128.322871
 30
0.0
  0
VERTEX
  5
467
330
459
100
AcDbEntity
  8
001
370
    50
100
AcDbVertex
100
AcDb2dVertex
 10
461.903646
 20
128.671793
 30
0.0
  0
VERTEX
  5
468
330
459
100
AcDbEntity
  8
001
370
    50
100
AcDbVertex
100
AcDb2dVertex
 10
462.107944
 20
129.035921
 30
0.0
  0
VERTEX
  5
469
330
459
100
AcDbEntity
  8
001
370
    50
100
AcDbVertex
100
AcDb2dVertex
 10
462.281923
 20
129.416033
 30
0.0
  0
VERTEX
  5
46A
330
459
100
AcDbEntity
  8
001
370
    50
100
AcDbVertex
100
AcDb2dVertex
 10
462.425397
 20
129.809897
 30
0.0
  0
VERTEX
  5
46B
330
459
100
AcDbEntity
  8
001
370
    50
100
AcDbVertex
100
AcDb2dVertex
 10
462.531563
 20
130.214249
 30
0.0
  0
VERTEX
  5
46C
330
459
100
AcDbEntity
  8
001
370
    50
100
AcDbVertex
100
AcDb2dVertex
 10
462.610064
 20
130.752183
 30
0.0
  0
VERTEX
  5
46D
330
459
100
AcDbEntity
  8
001
370
    50
100
AcDbVertex
100
AcDb2dVertex
 10
462.650168
 20
131.296881
 30
0.0
  0
SEQEND
  5
45A
330
459
100
AcDbEntity
  8
001
370
    50
  0
LINE
  5
46E
330
1F
100
AcDbEntity
  8
001
370
    50
100
AcDbLine
 10
438.648878
 20
137.649421
 30
0.0
 11
438.67183
 21
138.178318
 31
0.0
  0
ARC
  5
46F
330
1F
100
AcDbEntity
  8
001
370
    50
100
AcDbCircle
 10
457.650168
 20
131.268169
 30
0.0
 40
5.000000000000001
100
AcDbArc
 50
270.0
 51
0.0
  0
LINE
  5
470
330
1F
100
AcDbEntity
  8
001
370
    50
100
AcDbLine
 10
462.650168
 20
143.868169
 30
0.0
 11
438.648822
 21
143.868169
 31
0.0
  0
LINE
  5
471
330
1F
100
AcDbEntity
  8
001
370
    50
100
AcDbLine
 10
438.648822
 20
185.868169
 30
0.0
 11
439.119932
 21
185.868169
 31
0.0
  0
POLYLINE
  5
472
330
1F
100
AcDbEntity
  8
001
370
    50
100
AcDb2dPolyline
 66
     1
 10
0.0
 20
0.0
 30
0.0
  0
VERTEX
  5
474
330
472
100
AcDbEntity
  8
001
370
    50
100
AcDbVertex
100
AcDb2dVertex
 10
438.67183
 20
191.558021
 30
0.0
  0
VERTEX
  5
475
330
472
100
AcDbEntity
  8
001
370
    50
100
AcDbVertex
100
AcDb2dVertex
 10
438.723182
 20
190.932183
 30
0.0
  0
VERTEX
  5
476
330
472
100
AcDbEntity
  8
001
370
    50
100
AcDbVertex
100
AcDb2dVertex
 10
438.774267
 20
190.306322
 30
0.0
  0
VERTEX
  5
477
330
472
100
AcDbEntity
  8
001
370
    50
100
AcDbVertex
100
AcDb2dVertex
 10
438.973033
 20
187.80425
 30
0.0
  0
VERTEX
  5
478
330
472
100
AcDbEntity
  8
001
370
    50
100
AcDbVertex
100
AcDb2dVertex
 10
439.16167
 20
185.3014
 30
0.0
  0
VERTEX
  5
479
330
472
100
AcDbEntity
  8
001
370
    50
100
AcDbVertex
100
AcDb2dVertex
 10
439.338661
 20
182.797515
 30
0.0
  0
VERTEX
  5
47A
330
472
100
AcDbEntity
  8
001
370
    50
100
AcDbVertex
100
AcDb2dVertex
 10
439.502674
 20
180.292717
 30
0.0
  0
VERTEX
  5
47B
330
472
100
AcDbEntity
  8
001
370
    50
100
AcDbVertex
100
AcDb2dVertex
 10
439.651379
 20
177.785852
 30
0.0
  0
VERTEX
  5
47C
330
472
100
AcDbEntity
  8
001
370
    50
100
AcDbVertex
100
AcDb2dVertex
 10
439.777792
 20
175.277842
 30
0.0
  0
VERTEX
  5
47D
330
472
100
AcDbEntity
  8
001
370
    50
100
AcDbVertex
100
AcDb2dVertex
 10
439.874097
 20
172.87004
 30
0.0
  0
VERTEX
  5
47E
330
472
100
AcDbEntity
  8
001
370
    50
100
AcDbVertex
100
AcDb2dVertex
 10
439.955868
 20
170.461612
 30
0.0
  0
SEQEND
  5
473
330
472
100
AcDbEntity
  8
001
370
    50
  0
LINE
  5
47F
330
1F
100
AcDbEntity
  8
001
370
    50
100
AcDbLine
 10
462.650168
 20
131.268169
 30
0.0
 11
462.650168
 21
198.468169
 31
0.0
  0
LINE
  5
480
330
1F
100
AcDbEntity
  8
001
370
    50
100
AcDbLine
 10
438.648822
 20
199.268169
 30
0.0
 11
438.648822
 21
192.083997
 31
0.0
  0
LINE
  5
481
330
1F
100
AcDbEntity
  8
001
370
    50
100
AcDbLine
 10
470.650168
 20
148.868169
 30
0.0
 11
470.650168
 21
180.868169
 31
0.0
  0
LINE
  5
482
330
1F
100
AcDbEntity
  8
001
370
    50
100
AcDbLine
 10
470.650168
 20
180.368169
 30
0.0
 11
467.650168
 21
180.368169
 31
0.0
  0
LINE
  5
483
330
1F
100
AcDbEntity
  8
001
370
    50
100
AcDbLine
 10
467.650168
 20
149.368169
 30
0.0
 11
470.650168
 21
149.368169
 31
0.0
  0
LINE
  5
484
330
1F
100
AcDbEntity
  8
001
370
    50
100
AcDbLine
 10
437.948822
 20
169.868169
 30
0.0
 11
454.740617
 21
169.868169
 31
0.0
  0
POLYLINE
  5
485
330
1F
100
AcDbEntity
  8
001
370
    50
100
AcDb2dPolyline
 66
     1
 10
0.0
 20
0.0
 30
0.0
  0
VERTEX
  5
487
330
485
100
AcDbEntity
  8
001
370
    50
100
AcDbVertex
100
AcDb2dVertex
 10
453.901169
 20
169.668169
 30
0.0
  0
VERTEX
  5
488
330
485
100
AcDbEntity
  8
001
370
    50
100
AcDbVertex
100
AcDb2dVertex
 10
453.73448
 20
169.064287
 30
0.0
  0
VERTEX
  5
489
330
485
100
AcDbEntity
  8
001
370
    50
100
AcDbVertex
100
AcDb2dVertex
 10
453.492141
 20
168.181338
 30
0.0
  0
VERTEX
  5
48A
330
485
100
AcDbEntity
  8
001
370
    50
100
AcDbVertex
100
AcDb2dVertex
 10
453.251586
 20
167.29788
 30
0.0
  0
VERTEX
  5
48B
330
485
100
AcDbEntity
  8
001
370
    50
100
AcDbVertex
100
AcDb2dVertex
 10
453.087875
 20
166.693169
 30
0.0
  0
SEQEND
  5
486
330
485
100
AcDbEntity
  8
001
370
    50
  0
LINE
  5
48C
330
1F
100
AcDbEntity
  8
001
370
    50
100
AcDbLine
 10
454.740617
 20
169.868169
 30
0.0
 11
454.687027
 21
169.668169
 31
0.0
  0
LINE
  5
48D
330
1F
100
AcDbEntity
  8
001
370
    50
100
AcDbLine
 10
438.648822
 20
166.693169
 30
0.0
 11
453.087875
 21
166.693169
 31
0.0
  0
LINE
  5
48E
330
1F
100
AcDbEntity
  8
001
370
    50
100
AcDbLine
 10
437.948822
 20
169.868169
 30
0.0
 11
438.648822
 21
166.693169
 31
0.0
  0
LINE
  5
48F
330
1F
100
AcDbEntity
  8
001
370
    50
100
AcDbLine
 10
437.948822
 20
159.868169
 30
0.0
 11
438.648822
 21
163.043169
 31
0.0
  0
LINE
  5
490
330
1F
100
AcDbEntity
  8
001
370
    50
100
AcDbLine
 10
437.948822
 20
159.868169
 30
0.0
 11
438.648822
 21
159.868169
 31
0.0
  0
LINE
  5
491
330
1F
100
AcDbEntity
  8
001
370
    50
100
AcDbLine
 10
438.648822
 20
166.693169
 30
0.0
 11
438.648822
 21
143.868169
 31
0.0
  0
LINE
  5
492
330
1F
100
AcDbEntity
  8
001
370
    50
100
AcDbLine
 10
438.648822
 20
185.868169
 30
0.0
 11
438.648822
 21
169.868169
 31
0.0
  0
LINE
  5
493
330
1F
100
AcDbEntity
  8
001
370
    50
100
AcDbLine
 10
462.650168
 20
169.668169
 30
0.0
 11
453.901169
 21
169.668169
 31
0.0
  0
LINE
  5
494
330
1F
100
AcDbEntity
  8
001
370
    50
100
AcDbLine
 10
437.747353
 20
129.276559
 30
0.0
 11
438.134683
 21
134.09062
 31
0.0
  0
CIRCLE
  5
495
330
1F
100
AcDbEntity
  8
001
370
    50
100
AcDbCircle
 10
445.748298
 20
129.746305
 30
0.0
 40
3.0
  0
LINE
  5
496
330
1F
100
AcDbEntity
  8
001
370
    50
100
AcDbLine
 10
453.333417
 20
130.213147
 30
0.0
 11
452.946087
 21
125.399086
 31
0.0
  0
LINE
  5
497
330
1F
100
AcDbEntity
  8
001
370
    50
100
AcDbLine
 10
449.318377
 20
134.533845
 30
0.0
 11
438.530602
 21
134.458531
 31
0.0
  0
CIRCLE
  5
498
330
1F
100
AcDbEntity
  8
001
370
    50
100
AcDbCircle
 10
445.753286
 20
129.75957
 30
0.0
 40
2.5
  0
LINE
  5
499
330
1F
100
AcDbEntity
  8
001
370
    50
100
AcDbLine
 10
446.332855
 20
130.758286
 30
0.0
 11
446.016535
 21
131.30899
 31
0.0
  0
LINE
  5
49A
330
1F
100
AcDbEntity
  8
001
370
    50
100
AcDbLine
 10
445.178158
 20
130.76085
 30
0.0
 11
445.496921
 21
131.310143
 31
0.0
  0
ARC
  5
49B
330
1F
100
AcDbEntity
  8
001
370
    50
100
AcDbCircle
 10
445.756395
 20
131.159567
 30
0.0
 40
0.3
100
AcDbArc
 50
29.872778
 51
149.872778
  0
LINE
  5
49C
330
1F
100
AcDbEntity
  8
001
370
    50
100
AcDbLine
 10
445.178158
 20
130.76085
 30
0.0
 11
444.543074
 21
130.76226
 31
0.0
  0
LINE
  5
49D
330
1F
100
AcDbEntity
  8
001
370
    50
100
AcDbLine
 10
444.598588
 20
129.762134
 30
0.0
 11
444.282268
 21
130.312838
 31
0.0
  0
ARC
  5
49E
330
1F
100
AcDbEntity
  8
001
370
    50
100
AcDbCircle
 10
444.542408
 20
130.462261
 30
0.0
 40
0.3
100
AcDbArc
 50
89.872778
 51
209.872778
  0
LINE
  5
49F
330
1F
100
AcDbEntity
  8
001
370
    50
100
AcDbLine
 10
444.598588
 20
129.762134
 30
0.0
 11
444.279825
 21
129.212841
 31
0.0
  0
LINE
  5
4A0
330
1F
100
AcDbEntity
  8
001
370
    50
100
AcDbLine
 10
445.173717
 20
128.760855
 30
0.0
 11
444.538633
 21
128.762265
 31
0.0
  0
ARC
  5
4A1
330
1F
100
AcDbEntity
  8
001
370
    50
100
AcDbCircle
 10
444.539299
 20
129.062264
 30
0.0
 40
0.3
100
AcDbArc
 50
149.872778
 51
269.872778
  0
LINE
  5
4A2
330
1F
100
AcDbEntity
  8
001
370
    50
100
AcDbLine
 10
445.173717
 20
128.760855
 30
0.0
 11
445.490037
 21
128.210151
 31
0.0
  0
LINE
  5
4A3
330
1F
100
AcDbEntity
  8
001
370
    50
100
AcDbLine
 10
446.328414
 20
128.758291
 30
0.0
 11
446.009651
 21
128.208997
 31
0.0
  0
ARC
  5
4A4
330
1F
100
AcDbEntity
  8
001
370
    50
100
AcDbCircle
 10
445.750177
 20
128.359574
 30
0.0
 40
0.3
100
AcDbArc
 50
209.872778
 51
329.872778
  0
LINE
  5
4A5
330
1F
100
AcDbEntity
  8
001
370
    50
100
AcDbLine
 10
446.328414
 20
128.758291
 30
0.0
 11
446.963498
 21
128.756881
 31
0.0
  0
LINE
  5
4A6
330
1F
100
AcDbEntity
  8
001
370
    50
100
AcDbLine
 10
446.907984
 20
129.757006
 30
0.0
 11
447.224304
 21
129.206303
 31
0.0
  0
ARC
  5
4A7
330
1F
100
AcDbEntity
  8
001
370
    50
100
AcDbCircle
 10
446.964164
 20
129.05688
 30
0.0
 40
0.3
100
AcDbArc
 50
269.872778
 51
29.872778
  0
LINE
  5
4A8
330
1F
100
AcDbEntity
  8
001
370
    50
100
AcDbLine
 10
446.907984
 20
129.757006
 30
0.0
 11
447.226747
 21
130.3063
 31
0.0
  0
LINE
  5
4A9
330
1F
100
AcDbEntity
  8
001
370
    50
100
AcDbLine
 10
446.332855
 20
130.758286
 30
0.0
 11
446.967939
 21
130.756876
 31
0.0
  0
ARC
  5
4AA
330
1F
100
AcDbEntity
  8
001
370
    50
100
AcDbCircle
 10
446.967273
 20
130.456876
 30
0.0
 40
0.3
100
AcDbArc
 50
329.872778
 51
89.872778
  0
LINE
  5
4AB
330
1F
100
AcDbEntity
  8
001
370
    50
100
AcDbLine
 10
441.762394
 20
124.955861
 30
0.0
 11
452.550168
 21
125.031175
 31
0.0
  0
ARC
  5
4AC
330
1F
100
AcDbEntity
  8
001
370
    50
100
AcDbCircle
 10
451.905136
 20
132.806922
 30
0.0
 40
3.0
100
AcDbArc
 50
298.349498
 51
144.83356
  0
ARC
  5
4AD
330
1F
100
AcDbEntity
  8
001
370
    50
100
AcDbCircle
 10
438.533395
 20
134.058541
 30
0.0
 40
0.4
100
AcDbArc
 50
90.4
 51
175.4
  0
ARC
  5
4AE
330
1F
100
AcDbEntity
  8
001
370
    50
100
AcDbCircle
 10
452.547375
 20
125.431166
 30
0.0
 40
0.4
100
AcDbArc
 50
270.4
 51
355.4
  0
LINE
  5
4AF
330
1F
100
AcDbEntity
  8
001
  6
DASHED
370
    30
100
AcDbLine
 10
439.045095
 20
134.458566
 30
0.0
 11
440.139188
 21
144.868169
 31
0.0
  0
LINE
  5
4B0
330
1F
100
AcDbEntity
  8
001
370
    50
100
AcDbLine
 10
439.962562
 20
143.868169
 30
0.0
 11
438.991986
 21
134.4553
 31
0.0
  0
LINE
  5
4B1
330
1F
100
AcDbEntity
  8
001
370
    50
100
AcDbLine
 10
438.648822
 20
137.631943
 30
0.0
 11
438.648822
 21
134.459356
 31
0.0
  0
LINE
  5
4B2
330
1F
100
AcDbEntity
  8
001
370
    50
100
AcDbLine
 10
437.747353
 20
200.459779
 30
0.0
 11
438.134683
 21
195.645719
 31
0.0
  0
LINE
  5
4B3
330
1F
100
AcDbEntity
  8
001
370
    50
100
AcDbLine
 10
441.762394
 20
204.780478
 30
0.0
 11
452.738572
 21
204.703848
 31
0.0
  0
ARC
  5
4B4
330
1F
100
AcDbEntity
  8
001
370
    50
100
AcDbCircle
 10
452.73578
 20
204.303858
 30
0.0
 40
0.4
100
AcDbArc
 50
4.6
 51
89.6
  0
ARC
  5
4B5
330
1F
100
AcDbEntity
  8
001
370
    50
100
AcDbCircle
 10
438.533395
 20
195.677798
 30
0.0
 40
0.4
100
AcDbArc
 50
184.6
 51
269.6
  0
LINE
  5
4B6
330
1F
100
AcDbEntity
  8
001
370
    50
100
AcDbLine
 10
438.648822
 20
195.276983
 30
0.0
 11
438.530602
 21
195.277808
 31
0.0
  0
LINE
  5
4B7
330
1F
100
AcDbEntity
  8
001
370
    50
100
AcDbLine
 10
453.20431
 20
203.468169
 30
0.0
 11
453.134491
 21
204.335938
 31
0.0
  0
LINE
  5
4B8
330
1F
100
AcDbEntity
  8
001
370
     9
100
AcDbLine
 10
440.671112
 20
124.948243
 30
0.0
 11
421.420044
 21
124.948243
 31
0.0
  0
POLYLINE
  5
4B9
330
1F
100
AcDbEntity
  8
001
370
    50
100
AcDb2dPolyline
 66
     1
 10
0.0
 20
0.0
 30
0.0
  0
VERTEX
  5
4BB
330
4B9
100
AcDbEntity
  8
001
370
    50
100
AcDbVertex
100
AcDb2dVertex
 10
453.025933
 20
126.391483
 30
0.0
  0
VERTEX
  5
4BC
330
4B9
100
AcDbEntity
  8
001
370
    50
100
AcDbVertex
100
AcDb2dVertex
 10
453.11998
 20
126.390213
 30
0.0
  0
VERTEX
  5
4BD
330
4B9
100
AcDbEntity
  8
001
370
    50
100
AcDbVertex
100
AcDb2dVertex
 10
453.214027
 20
126.388943
 30
0.0
  0
VERTEX
  5
4BE
330
4B9
100
AcDbEntity
  8
001
370
    50
100
AcDbVertex
100
AcDb2dVertex
 10
453.470905
 20
126.385475
 30
0.0
  0
VERTEX
  5
4BF
330
4B9
100
AcDbEntity
  8
001
370
    50
100
AcDbVertex
100
AcDb2dVertex
 10
453.727784
 20
126.382006
 30
0.0
  0
VERTEX
  5
4C0
330
4B9
100
AcDbEntity
  8
001
370
    50
100
AcDbVertex
100
AcDb2dVertex
 10
454.529109
 20
126.371408
 30
0.0
  0
VERTEX
  5
4C1
330
4B9
100
AcDbEntity
  8
001
370
    50
100
AcDbVertex
100
AcDb2dVertex
 10
455.487064
 20
126.359365
 30
0.0
  0
VERTEX
  5
4C2
330
4B9
100
AcDbEntity
  8
001
370
    50
100
AcDbVertex
100
AcDb2dVertex
 10
456.771402
 20
126.344482
 30
0.0
  0
VERTEX
  5
4C3
330
4B9
100
AcDbEntity
  8
001
370
    50
100
AcDbVertex
100
AcDb2dVertex
 10
457.650168
 20
126.334997
 30
0.0
  0
SEQEND
  5
4BA
330
4B9
100
AcDbEntity
  8
001
370
    50
  0
LINE
  5
4C4
330
1F
100
AcDbEntity
  8
001
370
    50
100
AcDbLine
 10
453.016012
 20
126.268169
 30
0.0
 11
457.650168
 21
126.268169
 31
0.0
  0
LINE
  5
4C5
330
1F
100
AcDbEntity
  8
001
370
    50
100
AcDbLine
 10
479.158858
 20
180.868169
 30
0.0
 11
470.650168
 21
180.868169
 31
0.0
  0
LINE
  5
4C6
330
1F
100
AcDbEntity
  8
001
  6
CENTER
370
     9
100
AcDbLine
 10
486.353703
 20
164.868169
 30
0.0
 11
434.643726
 21
164.868169
 31
0.0
  0
LINE
  5
4C7
330
1F
100
AcDbEntity
  8
001
370
    50
100
AcDbLine
 10
479.158858
 20
148.868169
 30
0.0
 11
470.650168
 21
148.868169
 31
0.0
  0
ARC
  5
4C8
330
1F
100
AcDbEntity
  8
001
370
    50
100
AcDbCircle
 10
441.192318
 20
16.256539
 30
0.0
 40
3.5
100
AcDbArc
 50
175.4
 51
270.4
  0
ARC
  5
4C9
330
1F
100
AcDbEntity
  8
001
370
    50
100
AcDbCircle
 10
449.888452
 20
18.842312
 30
0.0
 40
3.5
100
AcDbArc
 50
355.4
 51
90.4
  0
ARC
  5
4CA
330
1F
100
AcDbEntity
  8
001
370
    50
100
AcDbCircle
 10
441.192318
 20
89.088945
 30
0.0
 40
3.5
100
AcDbArc
 50
89.6
 51
184.6
  0
ARC
  5
4CB
330
1F
100
AcDbEntity
  8
001
370
    50
100
AcDbCircle
 10
449.346302
 20
130.533942
 30
0.0
 40
4.0
100
AcDbArc
 50
355.4
 51
90.4
  0
ARC
  5
4CC
330
1F
100
AcDbEntity
  8
001
370
    50
100
AcDbCircle
 10
441.734469
 20
128.955764
 30
0.0
 40
4.0
100
AcDbArc
 50
175.4
 51
270.4
  0
ARC
  5
4CD
330
1F
100
AcDbEntity
  8
001
370
    50
100
AcDbCircle
 10
441.734469
 20
200.780575
 30
0.0
 40
4.0
100
AcDbArc
 50
89.6
 51
184.6
  0
LINE
  5
4CE
330
1F
100
AcDbEntity
  8
001
  6
DASHED
370
    30
100
AcDbLine
 10
440.139188
 20
299.566382
 30
0.0
 11
440.139188
 21
259.566382
 31
0.0
  0
LINE
  5
4CF
330
1F
100
AcDbEntity
  8
001
  6
DASHED
370
    30
100
AcDbLine
 10
440.139188
 20
299.566382
 30
0.0
 11
438.67183
 21
313.527362
 31
0.0
  0
POLYLINE
  5
4D0
330
1F
100
AcDbEntity
  8
001
370
    50
100
AcDb2dPolyline
 66
     1
 10
0.0
 20
0.0
 30
0.0
  0
VERTEX
  5
4D2
330
4D0
100
AcDbEntity
  8
001
370
    50
100
AcDbVertex
100
AcDb2dVertex
 10
438.67183
 20
252.87653
 30
0.0
  0
VERTEX
  5
4D3
330
4D0
100
AcDbEntity
  8
001
370
    50
100
AcDbVertex
100
AcDb2dVertex
 10
438.885977
 20
255.534776
 30
0.0
  0
VERTEX
  5
4D4
330
4D0
100
AcDbEntity
  8
001
370
    50
100
AcDbVertex
100
AcDb2dVertex
 10
439.092013
 20
258.193645
 30
0.0
  0
VERTEX
  5
4D5
330
4D0
100
AcDbEntity
  8
001
370
    50
100
AcDbVertex
100
AcDb2dVertex
 10
439.105939
 20
258.379944
 30
0.0
  0
VERTEX
  5
4D6
330
4D0
100
AcDbEntity
  8
001
370
    50
100
AcDbVertex
100
AcDb2dVertex
 10
439.119826
 20
258.566247
 30
0.0
  0
SEQEND
  5
4D1
330
4D0
100
AcDbEntity
  8
001
370
    50
  0
POLYLINE
  5
4D7
330
1F
100
AcDbEntity
  8
001
370
    50
100
AcDb2dPolyline
 66
     1
 10
0.0
 20
0.0
 30
0.0
  0
VERTEX
  5
4D9
330
4D7
100
AcDbEntity
  8
001
370
    50
100
AcDbVertex
100
AcDb2dVertex
 10
442.848822
 20
311.954034
 30
0.0
  0
VERTEX
  5
4DA
330
4D7
100
AcDbEntity
  8
001
370
    50
100
AcDbVertex
100
AcDb2dVertex
 10
442.555596
 20
311.936974
 30
0.0
  0
VERTEX
  5
4DB
330
4D7
100
AcDbEntity
  8
001
370
    50
100
AcDbVertex
100
AcDb2dVertex
 10
442.264354
 20
311.904908
 30
0.0
  0
VERTEX
  5
4DC
330
4D7
100
AcDbEntity
  8
001
370
    50
100
AcDbVertex
100
AcDb2dVertex
 10
441.97701
 20
311.846035
 30
0.0
  0
VERTEX
  5
4DD
330
4D7
100
AcDbEntity
  8
001
370
    50
100
AcDbVertex
100
AcDb2dVertex
 10
441.695526
 20
311.761449
 30
0.0
  0
VERTEX
  5
4DE
330
4D7
100
AcDbEntity
  8
001
370
    50
100
AcDbVertex
100
AcDb2dVertex
 10
441.333177
 20
311.615193
 30
0.0
  0
VERTEX
  5
4DF
330
4D7
100
AcDbEntity
  8
001
370
    50
100
AcDbVertex
100
AcDb2dVertex
 10
440.987483
 20
311.433395
 30
0.0
  0
VERTEX
  5
4E0
330
4D7
100
AcDbEntity
  8
001
370
    50
100
AcDbVertex
100
AcDb2dVertex
 10
440.660976
 20
311.218274
 30
0.0
  0
VERTEX
  5
4E1
330
4D7
100
AcDbEntity
  8
001
370
    50
100
AcDbVertex
100
AcDb2dVertex
 10
440.356493
 20
310.972941
 30
0.0
  0
VERTEX
  5
4E2
330
4D7
100
AcDbEntity
  8
001
370
    50
100
AcDbVertex
100
AcDb2dVertex
 10
440.078314
 20
310.702943
 30
0.0
  0
VERTEX
  5
4E3
330
4D7
100
AcDbEntity
  8
001
370
    50
100
AcDbVertex
100
AcDb2dVertex
 10
439.824488
 20
310.409895
 30
0.0
  0
VERTEX
  5
4E4
330
4D7
100
AcDbEntity
  8
001
370
    50
100
AcDbVertex
100
AcDb2dVertex
 10
439.595203
 20
310.096966
 30
0.0
  0
VERTEX
  5
4E5
330
4D7
100
AcDbEntity
  8
001
370
    50
100
AcDbVertex
100
AcDb2dVertex
 10
439.391151
 20
309.767026
 30
0.0
  0
VERTEX
  5
4E6
330
4D7
100
AcDbEntity
  8
001
370
    50
100
AcDbVertex
100
AcDb2dVertex
 10
439.177993
 20
309.347596
 30
0.0
  0
VERTEX
  5
4E7
330
4D7
100
AcDbEntity
  8
001
370
    50
100
AcDbVertex
100
AcDb2dVertex
 10
439.00196
 20
308.91118
 30
0.0
  0
VERTEX
  5
4E8
330
4D7
100
AcDbEntity
  8
001
370
    50
100
AcDbVertex
100
AcDb2dVertex
 10
438.862161
 20
308.461606
 30
0.0
  0
VERTEX
  5
4E9
330
4D7
100
AcDbEntity
  8
001
370
    50
100
AcDbVertex
100
AcDb2dVertex
 10
438.757636
 20
308.002472
 30
0.0
  0
VERTEX
  5
4EA
330
4D7
100
AcDbEntity
  8
001
370
    50
100
AcDbVertex
100
AcDb2dVertex
 10
438.691443
 20
307.569069
 30
0.0
  0
VERTEX
  5
4EB
330
4D7
100
AcDbEntity
  8
001
370
    50
100
AcDbVertex
100
AcDb2dVertex
 10
438.656621
 20
307.132326
 30
0.0
  0
VERTEX
  5
4EC
330
4D7
100
AcDbEntity
  8
001
370
    50
100
AcDbVertex
100
AcDb2dVertex
 10
438.651429
 20
306.957307
 30
0.0
  0
VERTEX
  5
4ED
330
4D7
100
AcDbEntity
  8
001
370
    50
100
AcDbVertex
100
AcDb2dVertex
 10
438.648891
 20
306.782209
 30
0.0
  0
SEQEND
  5
4D8
330
4D7
100
AcDbEntity
  8
001
370
    50
  0
LINE
  5
4EE
330
1F
100
AcDbEntity
  8
001
370
    50
100
AcDbLine
 10
457.650168
 20
311.954034
 30
0.0
 11
442.848822
 21
311.954034
 31
0.0
  0
POLYLINE
  5
4EF
330
1F
100
AcDbEntity
  8
001
370
    50
100
AcDb2dPolyline
 66
     1
 10
0.0
 20
0.0
 30
0.0
  0
VERTEX
  5
4F1
330
4EF
100
AcDbEntity
  8
001
370
    50
100
AcDbVertex
100
AcDb2dVertex
 10
462.650168
 20
305.795373
 30
0.0
  0
VERTEX
  5
4F2
330
4EF
100
AcDbEntity
  8
001
370
    50
100
AcDbVertex
100
AcDb2dVertex
 10
462.646476
 20
306.002584
 30
0.0
  0
VERTEX
  5
4F3
330
4EF
100
AcDbEntity
  8
001
370
    50
100
AcDbVertex
100
AcDb2dVertex
 10
462.639633
 20
306.209683
 30
0.0
  0
VERTEX
  5
4F4
330
4EF
100
AcDbEntity
  8
001
370
    50
100
AcDbVertex
100
AcDb2dVertex
 10
462.601957
 20
306.681927
 30
0.0
  0
VERTEX
  5
4F5
330
4EF
100
AcDbEntity
  8
001
370
    50
100
AcDbVertex
100
AcDb2dVertex
 10
462.53396
 20
307.151055
 30
0.0
  0
VERTEX
  5
4F6
330
4EF
100
AcDbEntity
  8
001
370
    50
100
AcDbVertex
100
AcDb2dVertex
 10
462.437172
 20
307.616755
 30
0.0
  0
VERTEX
  5
4F7
330
4EF
100
AcDbEntity
  8
001
370
    50
100
AcDbVertex
100
AcDb2dVertex
 10
462.311001
 20
308.075244
 30
0.0
  0
VERTEX
  5
4F8
330
4EF
100
AcDbEntity
  8
001
370
    50
100
AcDbVertex
100
AcDb2dVertex
 10
462.154968
 20
308.522014
 30
0.0
  0
VERTEX
  5
4F9
330
4EF
100
AcDbEntity
  8
001
370
    50
100
AcDbVertex
100
AcDb2dVertex
 10
461.967633
 20
308.956597
 30
0.0
  0
VERTEX
  5
4FA
330
4EF
100
AcDbEntity
  8
001
370
    50
100
AcDbVertex
100
AcDb2dVertex
 10
461.746635
 20
309.379165
 30
0.0
  0
VERTEX
  5
4FB
330
4EF
100
AcDbEntity
  8
001
370
    50
100
AcDbVertex
100
AcDb2dVertex
 10
461.493476
 20
309.783358
 30
0.0
  0
VERTEX
  5
4FC
330
4EF
100
AcDbEntity
  8
001
370
    50
100
AcDbVertex
100
AcDb2dVertex
 10
461.20874
 20
310.165586
 30
0.0
  0
VERTEX
  5
4FD
330
4EF
100
AcDbEntity
  8
001
370
    50
100
AcDbVertex
100
AcDb2dVertex
 10
460.892269
 20
310.521829
 30
0.0
  0
VERTEX
  5
4FE
330
4EF
100
AcDbEntity
  8
001
370
    50
100
AcDbVertex
100
AcDb2dVertex
 10
460.541242
 20
310.85039
 30
0.0
  0
VERTEX
  5
4FF
330
4EF
100
AcDbEntity
  8
001
370
    50
100
AcDbVertex
100
AcDb2dVertex
 10
460.160473
 20
311.144274
 30
0.0
  0
VERTEX
  5
500
330
4EF
100
AcDbEntity
  8
001
370
    50
100
AcDbVertex
100
AcDb2dVertex
 10
459.753107
 20
311.399351
 30
0.0
  0
VERTEX
  5
501
330
4EF
100
AcDbEntity
  8
001
370
    50
100
AcDbVertex
100
AcDb2dVertex
 10
459.321766
 20
311.610605
 30
0.0
  0
VERTEX
  5
502
330
4EF
100
AcDbEntity
  8
001
370
    50
100
AcDbVertex
100
AcDb2dVertex
 10
458.937838
 20
311.752265
 30
0.0
  0
VERTEX
  5
503
330
4EF
100
AcDbEntity
  8
001
370
    50
100
AcDbVertex
100
AcDb2dVertex
 10
458.54213
 20
311.857508
 30
0.0
  0
VERTEX
  5
504
330
4EF
100
AcDbEntity
  8
001
370
    50
100
AcDbVertex
100
AcDb2dVertex
 10
458.138297
 20
311.925421
 30
0.0
  0
VERTEX
  5
505
330
4EF
100
AcDbEntity
  8
001
370
    50
100
AcDbVertex
100
AcDb2dVertex
 10
457.730263
 20
311.953269
 30
0.0
  0
VERTEX
  5
506
330
4EF
100
AcDbEntity
  8
001
370
    50
100
AcDbVertex
100
AcDb2dVertex
 10
457.690216
 20
311.953755
 30
0.0
  0
VERTEX
  5
507
330
4EF
100
AcDbEntity
  8
001
370
    50
100
AcDbVertex
100
AcDb2dVertex
 10
457.650168
 20
311.954034
 30
0.0
  0
SEQEND
  5
4F0
330
4EF
100
AcDbEntity
  8
001
370
    50
  0
LINE
  5
508
330
1F
100
AcDbEntity
  8
001
370
    50
100
AcDbLine
 10
438.648891
 20
306.782209
 30
0.0
 11
438.67183
 21
306.256234
 31
0.0
  0
ARC
  5
509
330
1F
100
AcDbEntity
  8
001
370
    50
100
AcDbCircle
 10
442.848822
 20
313.966382
 30
0.0
 40
4.200000000000002
100
AcDbArc
 50
90.0
 51
180.0
  0
ARC
  5
50A
330
1F
100
AcDbEntity
  8
001
  6
DASHED
370
    30
100
AcDbCircle
 10
442.848822
 20
313.966382
 30
0.0
 40
4.200000000000002
100
AcDbArc
 50
180.0
 51
186.0
  0
LINE
  5
50B
330
1F
100
AcDbEntity
  8
001
370
    50
100
AcDbLine
 10
457.650168
 20
318.166382
 30
0.0
 11
442.848822
 21
318.166382
 31
0.0
  0
LINE
  5
50C
330
1F
100
AcDbEntity
  8
001
370
    50
100
AcDbLine
 10
467.650168
 20
295.566382
 30
0.0
 11
467.650168
 21
263.566382
 31
0.0
  0
ARC
  5
50D
330
1F
100
AcDbEntity
  8
001
370
    50
100
AcDbCircle
 10
467.650168
 20
300.566382
 30
0.0
 40
5.000000000000001
100
AcDbArc
 50
180.0
 51
270.0
  0
ARC
  5
50E
330
1F
100
AcDbEntity
  8
001
370
    50
100
AcDbCircle
 10
467.650168
 20
258.566382
 30
0.0
 40
5.000000000000001
100
AcDbArc
 50
90.0
 51
180.0
  0
ARC
  5
50F
330
1F
100
AcDbEntity
  8
001
370
    50
100
AcDbCircle
 10
457.650168
 20
313.166382
 30
0.0
 40
5.000000000000001
100
AcDbArc
 50
0.0
 51
90.0
  0
POLYLINE
  5
510
330
1F
100
AcDbEntity
  8
001
370
    50
100
AcDb2dPolyline
 66
     1
 10
0.0
 20
0.0
 30
0.0
  0
VERTEX
  5
512
330
510
100
AcDbEntity
  8
001
370
    50
100
AcDbVertex
100
AcDb2dVertex
 10
457.650168
 20
241.033209
 30
0.0
  0
VERTEX
  5
513
330
510
100
AcDbEntity
  8
001
370
    50
100
AcDbVertex
100
AcDb2dVertex
 10
458.072031
 20
241.053726
 30
0.0
  0
VERTEX
  5
514
330
510
100
AcDbEntity
  8
001
370
    50
100
AcDbVertex
100
AcDb2dVertex
 10
458.49114
 20
241.096604
 30
0.0
  0
VERTEX
  5
515
330
510
100
AcDbEntity
  8
001
370
    50
100
AcDbVertex
100
AcDb2dVertex
 10
458.904961
 20
241.179518
 30
0.0
  0
VERTEX
  5
516
330
510
100
AcDbEntity
  8
001
370
    50
100
AcDbVertex
100
AcDb2dVertex
 10
459.310003
 20
241.301
 30
0.0
  0
VERTEX
  5
517
330
510
100
AcDbEntity
  8
001
370
    50
100
AcDbVertex
100
AcDb2dVertex
 10
459.703998
 20
241.456207
 30
0.0
  0
VERTEX
  5
518
330
510
100
AcDbEntity
  8
001
370
    50
100
AcDbVertex
100
AcDb2dVertex
 10
460.083375
 20
241.643648
 30
0.0
  0
VERTEX
  5
519
330
510
100
AcDbEntity
  8
001
370
    50
100
AcDbVertex
100
AcDb2dVertex
 10
460.446262
 20
241.863343
 30
0.0
  0
VERTEX
  5
51A
330
510
100
AcDbEntity
  8
001
370
    50
100
AcDbVertex
100
AcDb2dVertex
 10
460.788849
 20
242.113585
 30
0.0
  0
VERTEX
  5
51B
330
510
100
AcDbEntity
  8
001
370
    50
100
AcDbVertex
100
AcDb2dVertex
 10
461.10618
 20
242.390614
 30
0.0
  0
VERTEX
  5
51C
330
510
100
AcDbEntity
  8
001
370
    50
100
AcDbVertex
100
AcDb2dVertex
 10
461.398899
 20
242.693658
 30
0.0
  0
VERTEX
  5
51D
330
510
100
AcDbEntity
  8
001
370
    50
100
AcDbVertex
100
AcDb2dVertex
 10
461.66587
 20
243.021083
 30
0.0
  0
VERTEX
  5
51E
330
510
100
AcDbEntity
  8
001
370
    50
100
AcDbVertex
100
AcDb2dVertex
 10
461.903646
 20
243.370005
 30
0.0
  0
VERTEX
  5
51F
330
510
100
AcDbEntity
  8
001
370
    50
100
AcDbVertex
100
AcDb2dVertex
 10
462.107944
 20
243.734133
 30
0.0
  0
VERTEX
  5
520
330
510
100
AcDbEntity
  8
001
370
    50
100
AcDbVertex
100
AcDb2dVertex
 10
462.281923
 20
244.114246
 30
0.0
  0
VERTEX
  5
521
330
510
100
AcDbEntity
  8
001
370
    50
100
AcDbVertex
100
AcDb2dVertex
 10
462.425397
 20
244.508109
 30
0.0
  0
VERTEX
  5
522
330
510
100
AcDbEntity
  8
001
370
    50
100
AcDbVertex
100
AcDb2dVertex
 10
462.531563
 20
244.912461
 30
0.0
  0
VERTEX
  5
523
330
510
100
AcDbEntity
  8
001
370
    50
100
AcDbVertex
100
AcDb2dVertex
 10
462.610064
 20
245.450395
 30
0.0
  0
VERTEX
  5
524
330
510
100
AcDbEntity
  8
001
370
    50
100
AcDbVertex
100
AcDb2dVertex
 10
462.650168
 20
245.995093
 30
0.0
  0
SEQEND
  5
511
330
510
100
AcDbEntity
  8
001
370
    50
  0
LINE
  5
525
330
1F
100
AcDbEntity
  8
001
370
    50
100
AcDbLine
 10
438.648878
 20
252.347634
 30
0.0
 11
438.67183
 21
252.87653
 31
0.0
  0
ARC
  5
526
330
1F
100
AcDbEntity
  8
001
370
    50
100
AcDbCircle
 10
457.650168
 20
245.966382
 30
0.0
 40
5.000000000000001
100
AcDbArc
 50
270.0
 51
0.0
  0
LINE
  5
527
330
1F
100
AcDbEntity
  8
001
370
    50
100
AcDbLine
 10
462.650168
 20
258.566382
 30
0.0
 11
438.648822
 21
258.566382
 31
0.0
  0
LINE
  5
528
330
1F
100
AcDbEntity
  8
001
370
    50
100
AcDbLine
 10
438.648822
 20
300.566382
 30
0.0
 11
439.119932
 21
300.566382
 31
0.0
  0
POLYLINE
  5
529
330
1F
100
AcDbEntity
  8
001
370
    50
100
AcDb2dPolyline
 66
     1
 10
0.0
 20
0.0
 30
0.0
  0
VERTEX
  5
52B
330
529
100
AcDbEntity
  8
001
370
    50
100
AcDbVertex
100
AcDb2dVertex
 10
438.67183
 20
306.256234
 30
0.0
  0
VERTEX
  5
52C
330
529
100
AcDbEntity
  8
001
370
    50
100
AcDbVertex
100
AcDb2dVertex
 10
438.723182
 20
305.630395
 30
0.0
  0
VERTEX
  5
52D
330
529
100
AcDbEntity
  8
001
370
    50
100
AcDbVertex
100
AcDb2dVertex
 10
438.774267
 20
305.004535
 30
0.0
  0
VERTEX
  5
52E
330
529
100
AcDbEntity
  8
001
370
    50
100
AcDbVertex
100
AcDb2dVertex
 10
438.973033
 20
302.502463
 30
0.0
  0
VERTEX
  5
52F
330
529
100
AcDbEntity
  8
001
370
    50
100
AcDbVertex
100
AcDb2dVertex
 10
439.16167
 20
299.999612
 30
0.0
  0
VERTEX
  5
530
330
529
100
AcDbEntity
  8
001
370
    50
100
AcDbVertex
100
AcDb2dVertex
 10
439.338661
 20
297.495727
 30
0.0
  0
VERTEX
  5
531
330
529
100
AcDbEntity
  8
001
370
    50
100
AcDbVertex
100
AcDb2dVertex
 10
439.502674
 20
294.990929
 30
0.0
  0
VERTEX
  5
532
330
529
100
AcDbEntity
  8
001
370
    50
100
AcDbVertex
100
AcDb2dVertex
 10
439.651379
 20
292.484065
 30
0.0
  0
VERTEX
  5
533
330
529
100
AcDbEntity
  8
001
370
    50
100
AcDbVertex
100
AcDb2dVertex
 10
439.777792
 20
289.976055
 30
0.0
  0
VERTEX
  5
534
330
529
100
AcDbEntity
  8
001
370
    50
100
AcDbVertex
100
AcDb2dVertex
 10
439.874097
 20
287.568253
 30
0.0
  0
VERTEX
  5
535
330
529
100
AcDbEntity
  8
001
370
    50
100
AcDbVertex
100
AcDb2dVertex
 10
439.955868
 20
285.159825
 30
0.0
  0
SEQEND
  5
52A
330
529
100
AcDbEntity
  8
001
370
    50
  0
LINE
  5
536
330
1F
100
AcDbEntity
  8
001
370
    50
100
AcDbLine
 10
462.650168
 20
245.966382
 30
0.0
 11
462.650168
 21
313.166382
 31
0.0
  0
LINE
  5
537
330
1F
100
AcDbEntity
  8
001
370
    50
100
AcDbLine
 10
438.648822
 20
313.966382
 30
0.0
 11
438.648822
 21
306.782209
 31
0.0
  0
LINE
  5
538
330
1F
100
AcDbEntity
  8
001
370
    50
100
AcDbLine
 10
470.650168
 20
263.566382
 30
0.0
 11
470.650168
 21
295.566382
 31
0.0
  0
LINE
  5
539
330
1F
100
AcDbEntity
  8
001
370
    50
100
AcDbLine
 10
470.650168
 20
295.066382
 30
0.0
 11
467.650168
 21
295.066382
 31
0.0
  0
LINE
  5
53A
330
1F
100
AcDbEntity
  8
001
370
    50
100
AcDbLine
 10
467.650168
 20
264.066382
 30
0.0
 11
470.650168
 21
264.066382
 31
0.0
  0
LINE
  5
53B
330
1F
100
AcDbEntity
  8
001
370
    50
100
AcDbLine
 10
437.948822
 20
284.566382
 30
0.0
 11
454.740617
 21
284.566382
 31
0.0
  0
POLYLINE
  5
53C
330
1F
100
AcDbEntity
  8
001
370
    50
100
AcDb2dPolyline
 66
     1
 10
0.0
 20
0.0
 30
0.0
  0
VERTEX
  5
53E
330
53C
100
AcDbEntity
  8
001
370
    50
100
AcDbVertex
100
AcDb2dVertex
 10
453.901169
 20
284.366382
 30
0.0
  0
VERTEX
  5
53F
330
53C
100
AcDbEntity
  8
001
370
    50
100
AcDbVertex
100
AcDb2dVertex
 10
453.73448
 20
283.7625
 30
0.0
  0
VERTEX
  5
540
330
53C
100
AcDbEntity
  8
001
370
    50
100
AcDbVertex
100
AcDb2dVertex
 10
453.492141
 20
282.879551
 30
0.0
  0
VERTEX
  5
541
330
53C
100
AcDbEntity
  8
001
370
    50
100
AcDbVertex
100
AcDb2dVertex
 10
453.251586
 20
281.996093
 30
0.0
  0
VERTEX
  5
542
330
53C
100
AcDbEntity
  8
001
370
    50
100
AcDbVertex
100
AcDb2dVertex
 10
453.087875
 20
281.391382
 30
0.0
  0
SEQEND
  5
53D
330
53C
100
AcDbEntity
  8
001
370
    50
  0
LINE
  5
543
330
1F
100
AcDbEntity
  8
001
370
    50
100
AcDbLine
 10
454.740617
 20
284.566382
 30
0.0
 11
454.687027
 21
284.366382
 31
0.0
  0
LINE
  5
544
330
1F
100
AcDbEntity
  8
001
370
    50
100
AcDbLine
 10
438.648822
 20
281.391382
 30
0.0
 11
453.087875
 21
281.391382
 31
0.0
  0
LINE
  5
545
330
1F
100
AcDbEntity
  8
001
370
    50
100
AcDbLine
 10
437.948822
 20
284.566382
 30
0.0
 11
438.648822
 21
281.391382
 31
0.0
  0
LINE
  5
546
330
1F
100
AcDbEntity
  8
001
370
    50
100
AcDbLine
 10
437.948822
 20
274.566382
 30
0.0
 11
438.648822
 21
277.741382
 31
0.0
  0
LINE
  5
547
330
1F
100
AcDbEntity
  8
001
370
    50
100
AcDbLine
 10
437.948822
 20
274.566382
 30
0.0
 11
438.648822
 21
274.566382
 31
0.0
  0
LINE
  5
548
330
1F
100
AcDbEntity
  8
001
370
    50
100
AcDbLine
 10
438.648822
 20
281.391382
 30
0.0
 11
438.648822
 21
258.566382
 31
0.0
  0
LINE
  5
549
330
1F
100
AcDbEntity
  8
001
370
    50
100
AcDbLine
 10
438.648822
 20
300.566382
 30
0.0
 11
438.648822
 21
284.566382
 31
0.0
  0
LINE
  5
54A
330
1F
100
AcDbEntity
  8
001
370
    50
100
AcDbLine
 10
462.650168
 20
284.366382
 30
0.0
 11
453.901169
 21
284.366382
 31
0.0
  0
LINE
  5
54B
330
1F
100
AcDbEntity
  8
001
370
    50
100
AcDbLine
 10
437.791114
 20
244.518668
 30
0.0
 11
438.134683
 21
248.788833
 31
0.0
  0
CIRCLE
  5
54C
330
1F
100
AcDbEntity
  8
001
370
    50
100
AcDbCircle
 10
445.748298
 20
244.444517
 30
0.0
 40
3.0
  0
LINE
  5
54D
330
1F
100
AcDbEntity
  8
001
370
    50
100
AcDbLine
 10
453.289656
 20
244.367462
 30
0.0
 11
452.946087
 21
240.097298
 31
0.0
  0
LINE
  5
54E
330
1F
100
AcDbEntity
  8
001
370
    50
100
AcDbLine
 10
448.772736
 20
249.228248
 30
0.0
 11
438.530602
 21
249.156743
 31
0.0
  0
CIRCLE
  5
54F
330
1F
100
AcDbEntity
  8
001
370
    50
100
AcDbCircle
 10
445.753286
 20
244.457783
 30
0.0
 40
2.5
  0
LINE
  5
550
330
1F
100
AcDbEntity
  8
001
370
    50
100
AcDbLine
 10
446.332855
 20
245.456498
 30
0.0
 11
446.016535
 21
246.007202
 31
0.0
  0
LINE
  5
551
330
1F
100
AcDbEntity
  8
001
370
    50
100
AcDbLine
 10
445.178158
 20
245.459062
 30
0.0
 11
445.496921
 21
246.008356
 31
0.0
  0
ARC
  5
552
330
1F
100
AcDbEntity
  8
001
370
    50
100
AcDbCircle
 10
445.756395
 20
245.857779
 30
0.0
 40
0.3
100
AcDbArc
 50
29.872778
 51
149.872778
  0
LINE
  5
553
330
1F
100
AcDbEntity
  8
001
370
    50
100
AcDbLine
 10
445.178158
 20
245.459062
 30
0.0
 11
444.543074
 21
245.460472
 31
0.0
  0
LINE
  5
554
330
1F
100
AcDbEntity
  8
001
370
    50
100
AcDbLine
 10
444.598588
 20
244.460347
 30
0.0
 11
444.282268
 21
245.01105
 31
0.0
  0
ARC
  5
555
330
1F
100
AcDbEntity
  8
001
370
    50
100
AcDbCircle
 10
444.542408
 20
245.160473
 30
0.0
 40
0.3
100
AcDbArc
 50
89.872778
 51
209.872778
  0
LINE
  5
556
330
1F
100
AcDbEntity
  8
001
370
    50
100
AcDbLine
 10
444.598588
 20
244.460347
 30
0.0
 11
444.279825
 21
243.911053
 31
0.0
  0
LINE
  5
557
330
1F
100
AcDbEntity
  8
001
370
    50
100
AcDbLine
 10
445.173717
 20
243.459067
 30
0.0
 11
444.538633
 21
243.460477
 31
0.0
  0
ARC
  5
558
330
1F
100
AcDbEntity
  8
001
370
    50
100
AcDbCircle
 10
444.539299
 20
243.760476
 30
0.0
 40
0.3
100
AcDbArc
 50
149.872778
 51
269.872778
  0
LINE
  5
559
330
1F
100
AcDbEntity
  8
001
370
    50
100
AcDbLine
 10
445.173717
 20
243.459067
 30
0.0
 11
445.490037
 21
242.908363
 31
0.0
  0
LINE
  5
55A
330
1F
100
AcDbEntity
  8
001
370
    50
100
AcDbLine
 10
446.328414
 20
243.456503
 30
0.0
 11
446.009651
 21
242.90721
 31
0.0
  0
ARC
  5
55B
330
1F
100
AcDbEntity
  8
001
370
    50
100
AcDbCircle
 10
445.750177
 20
243.057786
 30
0.0
 40
0.3
100
AcDbArc
 50
209.872778
 51
329.872778
  0
LINE
  5
55C
330
1F
100
AcDbEntity
  8
001
370
    50
100
AcDbLine
 10
446.328414
 20
243.456503
 30
0.0
 11
446.963498
 21
243.455093
 31
0.0
  0
LINE
  5
55D
330
1F
100
AcDbEntity
  8
001
370
    50
100
AcDbLine
 10
446.907984
 20
244.455219
 30
0.0
 11
447.224304
 21
243.904515
 31
0.0
  0
ARC
  5
55E
330
1F
100
AcDbEntity
  8
001
370
    50
100
AcDbCircle
 10
446.964164
 20
243.755092
 30
0.0
 40
0.3
100
AcDbArc
 50
269.872778
 51
29.872778
  0
LINE
  5
55F
330
1F
100
AcDbEntity
  8
001
370
    50
100
AcDbLine
 10
446.907984
 20
244.455219
 30
0.0
 11
447.226747
 21
245.004512
 31
0.0
  0
LINE
  5
560
330
1F
100
AcDbEntity
  8
001
370
    50
100
AcDbLine
 10
446.332855
 20
245.456498
 30
0.0
 11
446.967939
 21
245.455088
 31
0.0
  0
ARC
  5
561
330
1F
100
AcDbEntity
  8
001
370
    50
100
AcDbCircle
 10
446.967273
 20
245.155089
 30
0.0
 40
0.3
100
AcDbArc
 50
329.872778
 51
89.872778
  0
LINE
  5
562
330
1F
100
AcDbEntity
  8
001
370
    50
100
AcDbLine
 10
442.308035
 20
239.657883
 30
0.0
 11
452.550168
 21
239.729388
 31
0.0
  0
ARC
  5
563
330
1F
100
AcDbEntity
  8
001
370
    50
100
AcDbCircle
 10
451.905136
 20
247.505134
 30
0.0
 40
3.0
100
AcDbArc
 50
298.349498
 51
144.83356
  0
ARC
  5
564
330
1F
100
AcDbEntity
  8
001
370
    50
100
AcDbCircle
 10
438.533395
 20
248.756753
 30
0.0
 40
0.4
100
AcDbArc
 50
90.4
 51
175.4
  0
ARC
  5
565
330
1F
100
AcDbEntity
  8
001
370
    50
100
AcDbCircle
 10
452.547375
 20
240.129378
 30
0.0
 40
0.4
100
AcDbArc
 50
270.4
 51
355.4
  0
LINE
  5
566
330
1F
100
AcDbEntity
  8
001
  6
DASHED
370
    30
100
AcDbLine
 10
439.045095
 20
249.156779
 30
0.0
 11
440.139188
 21
259.566382
 31
0.0
  0
LINE
  5
567
330
1F
100
AcDbEntity
  8
001
370
    50
100
AcDbLine
 10
439.962562
 20
258.566382
 30
0.0
 11
438.991986
 21
249.153512
 31
0.0
  0
LINE
  5
568
330
1F
100
AcDbEntity
  8
001
370
    50
100
AcDbLine
 10
438.648822
 20
252.330155
 30
0.0
 11
438.648822
 21
249.157569
 31
0.0
  0
LINE
  5
569
330
1F
100
AcDbEntity
  8
001
370
    50
100
AcDbLine
 10
437.791114
 20
314.614095
 30
0.0
 11
438.134683
 21
310.343931
 31
0.0
  0
LINE
  5
56A
330
1F
100
AcDbEntity
  8
001
370
    50
100
AcDbLine
 10
442.308035
 20
319.474881
 30
0.0
 11
452.738572
 21
319.402061
 31
0.0
  0
ARC
  5
56B
330
1F
100
AcDbEntity
  8
001
370
    50
100
AcDbCircle
 10
452.73578
 20
319.00207
 30
0.0
 40
0.4
100
AcDbArc
 50
4.6
 51
89.6
  0
ARC
  5
56C
330
1F
100
AcDbEntity
  8
001
370
    50
100
AcDbCircle
 10
438.533395
 20
310.376011
 30
0.0
 40
0.4
100
AcDbArc
 50
184.6
 51
269.6
  0
LINE
  5
56D
330
1F
100
AcDbEntity
  8
001
370
    50
100
AcDbLine
 10
438.648822
 20
309.975195
 30
0.0
 11
438.530602
 21
309.97602
 31
0.0
  0
LINE
  5
56E
330
1F
100
AcDbEntity
  8
001
370
    50
100
AcDbLine
 10
453.20431
 20
318.166382
 30
0.0
 11
453.134491
 21
319.03415
 31
0.0
  0
LINE
  5
56F
330
1F
100
AcDbEntity
  8
001
370
     9
100
AcDbLine
 10
442.308035
 20
239.657883
 30
0.0
 11
423.056967
 21
239.657883
 31
0.0
  0
POLYLINE
  5
570
330
1F
100
AcDbEntity
  8
001
370
    50
100
AcDb2dPolyline
 66
     1
 10
0.0
 20
0.0
 30
0.0
  0
VERTEX
  5
572
330
570
100
AcDbEntity
  8
001
370
    50
100
AcDbVertex
100
AcDb2dVertex
 10
453.025933
 20
241.089696
 30
0.0
  0
VERTEX
  5
573
330
570
100
AcDbEntity
  8
001
370
    50
100
AcDbVertex
100
AcDb2dVertex
 10
453.11998
 20
241.088426
 30
0.0
  0
VERTEX
  5
574
330
570
100
AcDbEntity
  8
001
370
    50
100
AcDbVertex
100
AcDb2dVertex
 10
453.214027
 20
241.087156
 30
0.0
  0
VERTEX
  5
575
330
570
100
AcDbEntity
  8
001
370
    50
100
AcDbVertex
100
AcDb2dVertex
 10
453.470905
 20
241.083687
 30
0.0
  0
VERTEX
  5
576
330
570
100
AcDbEntity
  8
001
370
    50
100
AcDbVertex
100
AcDb2dVertex
 10
453.727784
 20
241.080218
 30
0.0
  0
VERTEX
  5
577
330
570
100
AcDbEntity
  8
001
370
    50
100
AcDbVertex
100
AcDb2dVertex
 10
454.529109
 20
241.069621
 30
0.0
  0
VERTEX
  5
578
330
570
100
AcDbEntity
  8
001
370
    50
100
AcDbVertex
100
AcDb2dVertex
 10
455.487064
 20
241.057577
 30
0.0
  0
VERTEX
  5
579
330
570
100
AcDbEntity
  8
001
370
    50
100
AcDbVertex
100
AcDb2dVertex
 10
456.771402
 20
241.042694
 30
0.0
  0
VERTEX
  5
57A
330
570
100
AcDbEntity
  8
001
370
    50
100
AcDbVertex
100
AcDb2dVertex
 10
457.650168
 20
241.033209
 30
0.0
  0
SEQEND
  5
571
330
570
100
AcDbEntity
  8
001
370
    50
  0
LINE
  5
57B
330
1F
100
AcDbEntity
  8
001
370
    50
100
AcDbLine
 10
453.016012
 20
240.966382
 30
0.0
 11
457.650168
 21
240.966382
 31
0.0
  0
LINE
  5
57C
330
1F
100
AcDbEntity
  8
001
370
    50
100
AcDbLine
 10
479.158858
 20
295.566382
 30
0.0
 11
470.650168
 21
295.566382
 31
0.0
  0
LINE
  5
57D
330
1F
100
AcDbEntity
  8
001
  6
CENTER
370
     9
100
AcDbLine
 10
486.353703
 20
279.566382
 30
0.0
 11
434.643726
 21
279.566382
 31
0.0
  0
LINE
  5
57E
330
1F
100
AcDbEntity
  8
001
370
    50
100
AcDbLine
 10
479.158858
 20
263.566382
 30
0.0
 11
470.650168
 21
263.566382
 31
0.0
  0
ARC
  5
57F
330
1F
100
AcDbEntity
  8
001
370
    50
100
AcDbCircle
 10
442.276619
 20
244.157773
 30
0.0
 40
4.5
100
AcDbArc
 50
175.4
 51
270.4
  0
ARC
  5
580
330
1F
100
AcDbEntity
  8
001
370
    50
100
AcDbCircle
 10
448.804151
 20
244.728358
 30
0.0
 40
4.5
100
AcDbArc
 50
355.4
 51
90.4
  0
ARC
  5
581
330
1F
100
AcDbEntity
  8
001
370
    50
100
AcDbCircle
 10
442.276619
 20
314.97499
 30
0.0
 40
4.5
100
AcDbArc
 50
89.6
 51
184.6
  0
LINE
  5
582
330
1F
100
AcDbEntity
  8
001
  6
DASHED
370
    30
100
AcDbLine
 10
440.139188
 20
414.112677
 30
0.0
 11
440.139188
 21
374.112677
 31
0.0
  0
LINE
  5
583
330
1F
100
AcDbEntity
  8
001
  6
DASHED
370
    30
100
AcDbLine
 10
440.139188
 20
414.112677
 30
0.0
 11
438.67183
 21
428.073658
 31
0.0
  0
POLYLINE
  5
584
330
1F
100
AcDbEntity
  8
001
370
    50
100
AcDb2dPolyline
 66
     1
 10
0.0
 20
0.0
 30
0.0
  0
VERTEX
  5
586
330
584
100
AcDbEntity
  8
001
370
    50
100
AcDbVertex
100
AcDb2dVertex
 10
438.67183
 20
367.422826
 30
0.0
  0
VERTEX
  5
587
330
584
100
AcDbEntity
  8
001
370
    50
100
AcDbVertex
100
AcDb2dVertex
 10
438.885977
 20
370.081072
 30
0.0
  0
VERTEX
  5
588
330
584
100
AcDbEntity
  8
001
370
    50
100
AcDbVertex
100
AcDb2dVertex
 10
439.092013
 20
372.739941
 30
0.0
  0
VERTEX
  5
589
330
584
100
AcDbEntity
  8
001
370
    50
100
AcDbVertex
100
AcDb2dVertex
 10
439.105939
 20
372.92624
 30
0.0
  0
VERTEX
  5
58A
330
584
100
AcDbEntity
  8
001
370
    50
100
AcDbVertex
100
AcDb2dVertex
 10
439.119826
 20
373.112542
 30
0.0
  0
SEQEND
  5
585
330
584
100
AcDbEntity
  8
001
370
    50
  0
POLYLINE
  5
58B
330
1F
100
AcDbEntity
  8
001
370
    50
100
AcDb2dPolyline
 66
     1
 10
0.0
 20
0.0
 30
0.0
  0
VERTEX
  5
58D
330
58B
100
AcDbEntity
  8
001
370
    50
100
AcDbVertex
100
AcDb2dVertex
 10
442.848822
 20
426.500329
 30
0.0
  0
VERTEX
  5
58E
330
58B
100
AcDbEntity
  8
001
370
    50
100
AcDbVertex
100
AcDb2dVertex
 10
442.555596
 20
426.48327
 30
0.0
  0
VERTEX
  5
58F
330
58B
100
AcDbEntity
  8
001
370
    50
100
AcDbVertex
100
AcDb2dVertex
 10
442.264354
 20
426.451204
 30
0.0
  0
VERTEX
  5
590
330
58B
100
AcDbEntity
  8
001
370
    50
100
AcDbVertex
100
AcDb2dVertex
 10
441.97701
 20
426.392331
 30
0.0
  0
VERTEX
  5
591
330
58B
100
AcDbEntity
  8
001
370
    50
100
AcDbVertex
100
AcDb2dVertex
 10
441.695526
 20
426.307744
 30
0.0
  0
VERTEX
  5
592
330
58B
100
AcDbEntity
  8
001
370
    50
100
AcDbVertex
100
AcDb2dVertex
 10
441.333177
 20
426.161489
 30
0.0
  0
VERTEX
  5
593
330
58B
100
AcDbEntity
  8
001
370
    50
100
AcDbVertex
100
AcDb2dVertex
 10
440.987483
 20
425.979691
 30
0.0
  0
VERTEX
  5
594
330
58B
100
AcDbEntity
  8
001
370
    50
100
AcDbVertex
100
AcDb2dVertex
 10
440.660976
 20
425.76457
 30
0.0
  0
VERTEX
  5
595
330
58B
100
AcDbEntity
  8
001
370
    50
100
AcDbVertex
100
AcDb2dVertex
 10
440.356493
 20
425.519236
 30
0.0
  0
VERTEX
  5
596
330
58B
100
AcDbEntity
  8
001
370
    50
100
AcDbVertex
100
AcDb2dVertex
 10
440.078314
 20
425.249239
 30
0.0
  0
VERTEX
  5
597
330
58B
100
AcDbEntity
  8
001
370
    50
100
AcDbVertex
100
AcDb2dVertex
 10
439.824488
 20
424.95619
 30
0.0
  0
VERTEX
  5
598
330
58B
100
AcDbEntity
  8
001
370
    50
100
AcDbVertex
100
AcDb2dVertex
 10
439.595203
 20
424.643262
 30
0.0
  0
VERTEX
  5
599
330
58B
100
AcDbEntity
  8
001
370
    50
100
AcDbVertex
100
AcDb2dVertex
 10
439.391151
 20
424.313322
 30
0.0
  0
VERTEX
  5
59A
330
58B
100
AcDbEntity
  8
001
370
    50
100
AcDbVertex
100
AcDb2dVertex
 10
439.177993
 20
423.893891
 30
0.0
  0
VERTEX
  5
59B
330
58B
100
AcDbEntity
  8
001
370
    50
100
AcDbVertex
100
AcDb2dVertex
 10
439.00196
 20
423.457476
 30
0.0
  0
VERTEX
  5
59C
330
58B
100
AcDbEntity
  8
001
370
    50
100
AcDbVertex
100
AcDb2dVertex
 10
438.862161
 20
423.007902
 30
0.0
  0
VERTEX
  5
59D
330
58B
100
AcDbEntity
  8
001
370
    50
100
AcDbVertex
100
AcDb2dVertex
 10
438.757636
 20
422.548768
 30
0.0
  0
VERTEX
  5
59E
330
58B
100
AcDbEntity
  8
001
370
    50
100
AcDbVertex
100
AcDb2dVertex
 10
438.691443
 20
422.115364
 30
0.0
  0
VERTEX
  5
59F
330
58B
100
AcDbEntity
  8
001
370
    50
100
AcDbVertex
100
AcDb2dVertex
 10
438.656621
 20
421.678621
 30
0.0
  0
VERTEX
  5
5A0
330
58B
100
AcDbEntity
  8
001
370
    50
100
AcDbVertex
100
AcDb2dVertex
 10
438.651429
 20
421.503602
 30
0.0
  0
VERTEX
  5
5A1
330
58B
100
AcDbEntity
  8
001
370
    50
100
AcDbVertex
100
AcDb2dVertex
 10
438.648891
 20
421.328505
 30
0.0
  0
SEQEND
  5
58C
330
58B
100
AcDbEntity
  8
001
370
    50
  0
LINE
  5
5A2
330
1F
100
AcDbEntity
  8
001
370
    50
100
AcDbLine
 10
457.650168
 20
426.500329
 30
0.0
 11
442.848822
 21
426.500329
 31
0.0
  0
POLYLINE
  5
5A3
330
1F
100
AcDbEntity
  8
001
370
    50
100
AcDb2dPolyline
 66
     1
 10
0.0
 20
0.0
 30
0.0
  0
VERTEX
  5
5A5
330
5A3
100
AcDbEntity
  8
001
370
    50
100
AcDbVertex
100
AcDb2dVertex
 10
462.650168
 20
420.341669
 30
0.0
  0
VERTEX
  5
5A6
330
5A3
100
AcDbEntity
  8
001
370
    50
100
AcDbVertex
100
AcDb2dVertex
 10
462.646476
 20
420.548879
 30
0.0
  0
VERTEX
  5
5A7
330
5A3
100
AcDbEntity
  8
001
370
    50
100
AcDbVertex
100
AcDb2dVertex
 10
462.639633
 20
420.755978
 30
0.0
  0
VERTEX
  5
5A8
330
5A3
100
AcDbEntity
  8
001
370
    50
100
AcDbVertex
100
AcDb2dVertex
 10
462.601957
 20
421.228222
 30
0.0
  0
VERTEX
  5
5A9
330
5A3
100
AcDbEntity
  8
001
370
    50
100
AcDbVertex
100
AcDb2dVertex
 10
462.53396
 20
421.69735
 30
0.0
  0
VERTEX
  5
5AA
330
5A3
100
AcDbEntity
  8
001
370
    50
100
AcDbVertex
100
AcDb2dVertex
 10
462.437172
 20
422.163051
 30
0.0
  0
VERTEX
  5
5AB
330
5A3
100
AcDbEntity
  8
001
370
    50
100
AcDbVertex
100
AcDb2dVertex
 10
462.311001
 20
422.621539
 30
0.0
  0
VERTEX
  5
5AC
330
5A3
100
AcDbEntity
  8
001
370
    50
100
AcDbVertex
100
AcDb2dVertex
 10
462.154968
 20
423.068309
 30
0.0
  0
VERTEX
  5
5AD
330
5A3
100
AcDbEntity
  8
001
370
    50
100
AcDbVertex
100
AcDb2dVertex
 10
461.967633
 20
423.502893
 30
0.0
  0
VERTEX
  5
5AE
330
5A3
100
AcDbEntity
  8
001
370
    50
100
AcDbVertex
100
AcDb2dVertex
 10
461.746635
 20
423.92546
 30
0.0
  0
VERTEX
  5
5AF
330
5A3
100
AcDbEntity
  8
001
370
    50
100
AcDbVertex
100
AcDb2dVertex
 10
461.493476
 20
424.329654
 30
0.0
  0
VERTEX
  5
5B0
330
5A3
100
AcDbEntity
  8
001
370
    50
100
AcDbVertex
100
AcDb2dVertex
 10
461.20874
 20
424.711881
 30
0.0
  0
VERTEX
  5
5B1
330
5A3
100
AcDbEntity
  8
001
370
    50
100
AcDbVertex
100
AcDb2dVertex
 10
460.892269
 20
425.068125
 30
0.0
  0
VERTEX
  5
5B2
330
5A3
100
AcDbEntity
  8
001
370
    50
100
AcDbVertex
100
AcDb2dVertex
 10
460.541242
 20
425.396685
 30
0.0
  0
VERTEX
  5
5B3
330
5A3
100
AcDbEntity
  8
001
370
    50
100
AcDbVertex
100
AcDb2dVertex
 10
460.160473
 20
425.69057
 30
0.0
  0
VERTEX
  5
5B4
330
5A3
100
AcDbEntity
  8
001
370
    50
100
AcDbVertex
100
AcDb2dVertex
 10
459.753107
 20
425.945646
 30
0.0
  0
VERTEX
  5
5B5
330
5A3
100
AcDbEntity
  8
001
370
    50
100
AcDbVertex
100
AcDb2dVertex
 10
459.321766
 20
426.156901
 30
0.0
  0
VERTEX
  5
5B6
330
5A3
100
AcDbEntity
  8
001
370
    50
100
AcDbVertex
100
AcDb2dVertex
 10
458.937838
 20
426.298561
 30
0.0
  0
VERTEX
  5
5B7
330
5A3
100
AcDbEntity
  8
001
370
    50
100
AcDbVertex
100
AcDb2dVertex
 10
458.54213
 20
426.403804
 30
0.0
  0
VERTEX
  5
5B8
330
5A3
100
AcDbEntity
  8
001
370
    50
100
AcDbVertex
100
AcDb2dVertex
 10
458.138297
 20
426.471717
 30
0.0
  0
VERTEX
  5
5B9
330
5A3
100
AcDbEntity
  8
001
370
    50
100
AcDbVertex
100
AcDb2dVertex
 10
457.730263
 20
426.499565
 30
0.0
  0
VERTEX
  5
5BA
330
5A3
100
AcDbEntity
  8
001
370
    50
100
AcDbVertex
100
AcDb2dVertex
 10
457.690216
 20
426.500051
 30
0.0
  0
VERTEX
  5
5BB
330
5A3
100
AcDbEntity
  8
001
370
    50
100
AcDbVertex
100
AcDb2dVertex
 10
457.650168
 20
426.500329
 30
0.0
  0
SEQEND
  5
5A4
330
5A3
100
AcDbEntity
  8
001
370
    50
  0
LINE
  5
5BC
330
1F
100
AcDbEntity
  8
001
370
    50
100
AcDbLine
 10
438.648891
 20
421.328505
 30
0.0
 11
438.67183
 21
420.802529
 31
0.0
  0
ARC
  5
5BD
330
1F
100
AcDbEntity
  8
001
370
    50
100
AcDbCircle
 10
442.848822
 20
428.512677
 30
0.0
 40
4.200000000000002
100
AcDbArc
 50
90.0
 51
180.0
  0
ARC
  5
5BE
330
1F
100
AcDbEntity
  8
001
  6
DASHED
370
    30
100
AcDbCircle
 10
442.848822
 20
428.512677
 30
0.0
 40
4.200000000000002
100
AcDbArc
 50
180.0
 51
186.0
  0
LINE
  5
5BF
330
1F
100
AcDbEntity
  8
001
370
    50
100
AcDbLine
 10
457.650168
 20
432.712677
 30
0.0
 11
442.848822
 21
432.712677
 31
0.0
  0
LINE
  5
5C0
330
1F
100
AcDbEntity
  8
001
370
    50
100
AcDbLine
 10
467.650168
 20
410.112677
 30
0.0
 11
467.650168
 21
378.112677
 31
0.0
  0
ARC
  5
5C1
330
1F
100
AcDbEntity
  8
001
370
    50
100
AcDbCircle
 10
467.650168
 20
415.112677
 30
0.0
 40
5.000000000000001
100
AcDbArc
 50
180.0
 51
270.0
  0
ARC
  5
5C2
330
1F
100
AcDbEntity
  8
001
370
    50
100
AcDbCircle
 10
467.650168
 20
373.112677
 30
0.0
 40
5.000000000000001
100
AcDbArc
 50
90.0
 51
180.0
  0
ARC
  5
5C3
330
1F
100
AcDbEntity
  8
001
370
    50
100
AcDbCircle
 10
457.650168
 20
427.712677
 30
0.0
 40
5.000000000000001
100
AcDbArc
 50
0.0
 51
90.0
  0
POLYLINE
  5
5C4
330
1F
100
AcDbEntity
  8
001
370
    50
100
AcDb2dPolyline
 66
     1
 10
0.0
 20
0.0
 30
0.0
  0
VERTEX
  5
5C6
330
5C4
100
AcDbEntity
  8
001
370
    50
100
AcDbVertex
100
AcDb2dVertex
 10
457.650168
 20
355.579505
 30
0.0
  0
VERTEX
  5
5C7
330
5C4
100
AcDbEntity
  8
001
370
    50
100
AcDbVertex
100
AcDb2dVertex
 10
458.072031
 20
355.600022
 30
0.0
  0
VERTEX
  5
5C8
330
5C4
100
AcDbEntity
  8
001
370
    50
100
AcDbVertex
100
AcDb2dVertex
 10
458.49114
 20
355.642899
 30
0.0
  0
VERTEX
  5
5C9
330
5C4
100
AcDbEntity
  8
001
370
    50
100
AcDbVertex
100
AcDb2dVertex
 10
458.904961
 20
355.725814
 30
0.0
  0
VERTEX
  5
5CA
330
5C4
100
AcDbEntity
  8
001
370
    50
100
AcDbVertex
100
AcDb2dVertex
 10
459.310003
 20
355.847296
 30
0.0
  0
VERTEX
  5
5CB
330
5C4
100
AcDbEntity
  8
001
370
    50
100
AcDbVertex
100
AcDb2dVertex
 10
459.703998
 20
356.002503
 30
0.0
  0
VERTEX
  5
5CC
330
5C4
100
AcDbEntity
  8
001
370
    50
100
AcDbVertex
100
AcDb2dVertex
 10
460.083375
 20
356.189943
 30
0.0
  0
VERTEX
  5
5CD
330
5C4
100
AcDbEntity
  8
001
370
    50
100
AcDbVertex
100
AcDb2dVertex
 10
460.446262
 20
356.409639
 30
0.0
  0
VERTEX
  5
5CE
330
5C4
100
AcDbEntity
  8
001
370
    50
100
AcDbVertex
100
AcDb2dVertex
 10
460.788849
 20
356.659881
 30
0.0
  0
VERTEX
  5
5CF
330
5C4
100
AcDbEntity
  8
001
370
    50
100
AcDbVertex
100
AcDb2dVertex
 10
461.10618
 20
356.93691
 30
0.0
  0
VERTEX
  5
5D0
330
5C4
100
AcDbEntity
  8
001
370
    50
100
AcDbVertex
100
AcDb2dVertex
 10
461.398899
 20
357.239954
 30
0.0
  0
VERTEX
  5
5D1
330
5C4
100
AcDbEntity
  8
001
370
    50
100
AcDbVertex
100
AcDb2dVertex
 10
461.66587
 20
357.567379
 30
0.0
  0
VERTEX
  5
5D2
330
5C4
100
AcDbEntity
  8
001
370
    50
100
AcDbVertex
100
AcDb2dVertex
 10
461.903646
 20
357.916301
 30
0.0
  0
VERTEX
  5
5D3
330
5C4
100
AcDbEntity
  8
001
370
    50
100
AcDbVertex
100
AcDb2dVertex
 10
462.107944
 20
358.280429
 30
0.0
  0
VERTEX
  5
5D4
330
5C4
100
AcDbEntity
  8
001
370
    50
100
AcDbVertex
100
AcDb2dVertex
 10
462.281923
 20
358.660541
 30
0.0
  0
VERTEX
  5
5D5
330
5C4
100
AcDbEntity
  8
001
370
    50
100
AcDbVertex
100
AcDb2dVertex
 10
462.425397
 20
359.054405
 30
0.0
  0
VERTEX
  5
5D6
330
5C4
100
AcDbEntity
  8
001
370
    50
100
AcDbVertex
100
AcDb2dVertex
 10
462.531563
 20
359.458757
 30
0.0
  0
VERTEX
  5
5D7
330
5C4
100
AcDbEntity
  8
001
370
    50
100
AcDbVertex
100
AcDb2dVertex
 10
462.610064
 20
359.996691
 30
0.0
  0
VERTEX
  5
5D8
330
5C4
100
AcDbEntity
  8
001
370
    50
100
AcDbVertex
100
AcDb2dVertex
 10
462.650168
 20
360.541389
 30
0.0
  0
SEQEND
  5
5C5
330
5C4
100
AcDbEntity
  8
001
370
    50
  0
LINE
  5
5D9
330
1F
100
AcDbEntity
  8
001
370
    50
100
AcDbLine
 10
438.648878
 20
366.893929
 30
0.0
 11
438.67183
 21
367.422826
 31
0.0
  0
ARC
  5
5DA
330
1F
100
AcDbEntity
  8
001
370
    50
100
AcDbCircle
 10
457.650168
 20
360.512677
 30
0.0
 40
5.000000000000001
100
AcDbArc
 50
270.0
 51
0.0
  0
LINE
  5
5DB
330
1F
100
AcDbEntity
  8
001
370
    50
100
AcDbLine
 10
462.650168
 20
373.112677
 30
0.0
 11
438.648822
 21
373.112677
 31
0.0
  0
LINE
  5
5DC
330
1F
100
AcDbEntity
  8
001
370
    50
100
AcDbLine
 10
438.648822
 20
415.112677
 30
0.0
 11
439.119932
 21
415.112677
 31
0.0
  0
POLYLINE
  5
5DD
330
1F
100
AcDbEntity
  8
001
370
    50
100
AcDb2dPolyline
 66
     1
 10
0.0
 20
0.0
 30
0.0
  0
VERTEX
  5
5DF
330
5DD
100
AcDbEntity
  8
001
370
    50
100
AcDbVertex
100
AcDb2dVertex
 10
438.67183
 20
420.802529
 30
0.0
  0
VERTEX
  5
5E0
330
5DD
100
AcDbEntity
  8
001
370
    50
100
AcDbVertex
100
AcDb2dVertex
 10
438.723182
 20
420.176691
 30
0.0
  0
VERTEX
  5
5E1
330
5DD
100
AcDbEntity
  8
001
370
    50
100
AcDbVertex
100
AcDb2dVertex
 10
438.774267
 20
419.55083
 30
0.0
  0
VERTEX
  5
5E2
330
5DD
100
AcDbEntity
  8
001
370
    50
100
AcDbVertex
100
AcDb2dVertex
 10
438.973033
 20
417.048758
 30
0.0
  0
VERTEX
  5
5E3
330
5DD
100
AcDbEntity
  8
001
370
    50
100
AcDbVertex
100
AcDb2dVertex
 10
439.16167
 20
414.545908
 30
0.0
  0
VERTEX
  5
5E4
330
5DD
100
AcDbEntity
  8
001
370
    50
100
AcDbVertex
100
AcDb2dVertex
 10
439.338661
 20
412.042023
 30
0.0
  0
VERTEX
  5
5E5
330
5DD
100
AcDbEntity
  8
001
370
    50
100
AcDbVertex
100
AcDb2dVertex
 10
439.502674
 20
409.537225
 30
0.0
  0
VERTEX
  5
5E6
330
5DD
100
AcDbEntity
  8
001
370
    50
100
AcDbVertex
100
AcDb2dVertex
 10
439.651379
 20
407.03036
 30
0.0
  0
VERTEX
  5
5E7
330
5DD
100
AcDbEntity
  8
001
370
    50
100
AcDbVertex
100
AcDb2dVertex
 10
439.777792
 20
404.52235
 30
0.0
  0
VERTEX
  5
5E8
330
5DD
100
AcDbEntity
  8
001
370
    50
100
AcDbVertex
100
AcDb2dVertex
 10
439.874097
 20
402.114548
 30
0.0
  0
VERTEX
  5
5E9
330
5DD
100
AcDbEntity
  8
001
370
    50
100
AcDbVertex
100
AcDb2dVertex
 10
439.955868
 20
399.70612
 30
0.0
  0
SEQEND
  5
5DE
330
5DD
100
AcDbEntity
  8
001
370
    50
  0
LINE
  5
5EA
330
1F
100
AcDbEntity
  8
001
370
    50
100
AcDbLine
 10
462.650168
 20
360.512677
 30
0.0
 11
462.650168
 21
427.712677
 31
0.0
  0
LINE
  5
5EB
330
1F
100
AcDbEntity
  8
001
370
    50
100
AcDbLine
 10
438.648822
 20
428.512677
 30
0.0
 11
438.648822
 21
421.328505
 31
0.0
  0
LINE
  5
5EC
330
1F
100
AcDbEntity
  8
001
370
    50
100
AcDbLine
 10
470.650168
 20
378.112677
 30
0.0
 11
470.650168
 21
410.112677
 31
0.0
  0
LINE
  5
5ED
330
1F
100
AcDbEntity
  8
001
370
    50
100
AcDbLine
 10
470.650168
 20
409.612677
 30
0.0
 11
467.650168
 21
409.612677
 31
0.0
  0
LINE
  5
5EE
330
1F
100
AcDbEntity
  8
001
370
    50
100
AcDbLine
 10
467.650168
 20
378.612677
 30
0.0
 11
470.650168
 21
378.612677
 31
0.0
  0
LINE
  5
5EF
330
1F
100
AcDbEntity
  8
001
370
    50
100
AcDbLine
 10
437.948822
 20
399.112677
 30
0.0
 11
454.740617
 21
399.112677
 31
0.0
  0
POLYLINE
  5
5F0
330
1F
100
AcDbEntity
  8
001
370
    50
100
AcDb2dPolyline
 66
     1
 10
0.0
 20
0.0
 30
0.0
  0
VERTEX
  5
5F2
330
5F0
100
AcDbEntity
  8
001
370
    50
100
AcDbVertex
100
AcDb2dVertex
 10
453.901169
 20
398.912677
 30
0.0
  0
VERTEX
  5
5F3
330
5F0
100
AcDbEntity
  8
001
370
    50
100
AcDbVertex
100
AcDb2dVertex
 10
453.73448
 20
398.308795
 30
0.0
  0
VERTEX
  5
5F4
330
5F0
100
AcDbEntity
  8
001
370
    50
100
AcDbVertex
100
AcDb2dVertex
 10
453.492141
 20
397.425846
 30
0.0
  0
VERTEX
  5
5F5
330
5F0
100
AcDbEntity
  8
001
370
    50
100
AcDbVertex
100
AcDb2dVertex
 10
453.251586
 20
396.542388
 30
0.0
  0
VERTEX
  5
5F6
330
5F0
100
AcDbEntity
  8
001
370
    50
100
AcDbVertex
100
AcDb2dVertex
 10
453.087875
 20
395.937677
 30
0.0
  0
SEQEND
  5
5F1
330
5F0
100
AcDbEntity
  8
001
370
    50
  0
LINE
  5
5F7
330
1F
100
AcDbEntity
  8
001
370
    50
100
AcDbLine
 10
454.740617
 20
399.112677
 30
0.0
 11
454.687027
 21
398.912677
 31
0.0
  0
LINE
  5
5F8
330
1F
100
AcDbEntity
  8
001
370
    50
100
AcDbLine
 10
438.648822
 20
395.937677
 30
0.0
 11
453.087875
 21
395.937677
 31
0.0
  0
LINE
  5
5F9
330
1F
100
AcDbEntity
  8
001
370
    50
100
AcDbLine
 10
437.948822
 20
399.112677
 30
0.0
 11
438.648822
 21
395.937677
 31
0.0
  0
LINE
  5
5FA
330
1F
100
AcDbEntity
  8
001
370
    50
100
AcDbLine
 10
437.948822
 20
389.112677
 30
0.0
 11
438.648822
 21
392.287677
 31
0.0
  0
LINE
  5
5FB
330
1F
100
AcDbEntity
  8
001
370
    50
100
AcDbLine
 10
437.948822
 20
389.112677
 30
0.0
 11
438.648822
 21
389.112677
 31
0.0
  0
LINE
  5
5FC
330
1F
100
AcDbEntity
  8
001
370
    50
100
AcDbLine
 10
438.648822
 20
395.937677
 30
0.0
 11
438.648822
 21
373.112677
 31
0.0
  0
LINE
  5
5FD
330
1F
100
AcDbEntity
  8
001
370
    50
100
AcDbLine
 10
438.648822
 20
415.112677
 30
0.0
 11
438.648822
 21
399.112677
 31
0.0
  0
LINE
  5
5FE
330
1F
100
AcDbEntity
  8
001
370
    50
100
AcDbLine
 10
462.650168
 20
398.912677
 30
0.0
 11
453.901169
 21
398.912677
 31
0.0
  0
LINE
  5
5FF
330
1F
100
AcDbEntity
  8
001
370
    50
100
AcDbLine
 10
437.834875
 20
359.608861
 30
0.0
 11
438.134683
 21
363.335128
 31
0.0
  0
CIRCLE
  5
600
330
1F
100
AcDbEntity
  8
001
370
    50
100
AcDbCircle
 10
445.748298
 20
358.990813
 30
0.0
 40
3.0
  0
LINE
  5
601
330
1F
100
AcDbEntity
  8
001
370
    50
100
AcDbLine
 10
453.245895
 20
358.369861
 30
0.0
 11
452.946087
 21
354.643594
 31
0.0
  0
LINE
  5
602
330
1F
100
AcDbEntity
  8
001
370
    50
100
AcDbLine
 10
448.227095
 20
363.770734
 30
0.0
 11
438.530602
 21
363.703039
 31
0.0
  0
CIRCLE
  5
603
330
1F
100
AcDbEntity
  8
001
370
    50
100
AcDbCircle
 10
445.753286
 20
359.004078
 30
0.0
 40
2.5
  0
LINE
  5
604
330
1F
100
AcDbEntity
  8
001
370
    50
100
AcDbLine
 10
446.332855
 20
360.002794
 30
0.0
 11
446.016535
 21
360.553498
 31
0.0
  0
LINE
  5
605
330
1F
100
AcDbEntity
  8
001
370
    50
100
AcDbLine
 10
445.178158
 20
360.005358
 30
0.0
 11
445.496921
 21
360.554651
 31
0.0
  0
ARC
  5
606
330
1F
100
AcDbEntity
  8
001
370
    50
100
AcDbCircle
 10
445.756395
 20
360.404075
 30
0.0
 40
0.3
100
AcDbArc
 50
29.872778
 51
149.872778
  0
LINE
  5
607
330
1F
100
AcDbEntity
  8
001
370
    50
100
AcDbLine
 10
445.178158
 20
360.005358
 30
0.0
 11
444.543074
 21
360.006768
 31
0.0
  0
LINE
  5
608
330
1F
100
AcDbEntity
  8
001
370
    50
100
AcDbLine
 10
444.598588
 20
359.006642
 30
0.0
 11
444.282268
 21
359.557346
 31
0.0
  0
ARC
  5
609
330
1F
100
AcDbEntity
  8
001
370
    50
100
AcDbCircle
 10
444.542408
 20
359.706769
 30
0.0
 40
0.3
100
AcDbArc
 50
89.872778
 51
209.872778
  0
LINE
  5
60A
330
1F
100
AcDbEntity
  8
001
370
    50
100
AcDbLine
 10
444.598588
 20
359.006642
 30
0.0
 11
444.279825
 21
358.457349
 31
0.0
  0
LINE
  5
60B
330
1F
100
AcDbEntity
  8
001
370
    50
100
AcDbLine
 10
445.173717
 20
358.005363
 30
0.0
 11
444.538633
 21
358.006773
 31
0.0
  0
ARC
  5
60C
330
1F
100
AcDbEntity
  8
001
370
    50
100
AcDbCircle
 10
444.539299
 20
358.306772
 30
0.0
 40
0.3
100
AcDbArc
 50
149.872778
 51
269.872778
  0
LINE
  5
60D
330
1F
100
AcDbEntity
  8
001
370
    50
100
AcDbLine
 10
445.173717
 20
358.005363
 30
0.0
 11
445.490037
 21
357.454659
 31
0.0
  0
LINE
  5
60E
330
1F
100
AcDbEntity
  8
001
370
    50
100
AcDbLine
 10
446.328414
 20
358.002799
 30
0.0
 11
446.009651
 21
357.453505
 31
0.0
  0
ARC
  5
60F
330
1F
100
AcDbEntity
  8
001
370
    50
100
AcDbCircle
 10
445.750177
 20
357.604082
 30
0.0
 40
0.3
100
AcDbArc
 50
209.872778
 51
329.872778
  0
LINE
  5
610
330
1F
100
AcDbEntity
  8
001
370
    50
100
AcDbLine
 10
446.328414
 20
358.002799
 30
0.0
 11
446.963498
 21
358.001389
 31
0.0
  0
LINE
  5
611
330
1F
100
AcDbEntity
  8
001
370
    50
100
AcDbLine
 10
446.907984
 20
359.001514
 30
0.0
 11
447.224304
 21
358.450811
 31
0.0
  0
ARC
  5
612
330
1F
100
AcDbEntity
  8
001
370
    50
100
AcDbCircle
 10
446.964164
 20
358.301388
 30
0.0
 40
0.3
100
AcDbArc
 50
269.872778
 51
29.872778
  0
LINE
  5
613
330
1F
100
AcDbEntity
  8
001
370
    50
100
AcDbLine
 10
446.907984
 20
359.001514
 30
0.0
 11
447.226747
 21
359.550808
 31
0.0
  0
LINE
  5
614
330
1F
100
AcDbEntity
  8
001
370
    50
100
AcDbLine
 10
446.332855
 20
360.002794
 30
0.0
 11
446.967939
 21
360.001384
 31
0.0
  0
ARC
  5
615
330
1F
100
AcDbEntity
  8
001
370
    50
100
AcDbCircle
 10
446.967273
 20
359.701384
 30
0.0
 40
0.3
100
AcDbArc
 50
329.872778
 51
89.872778
  0
LINE
  5
616
330
1F
100
AcDbEntity
  8
001
370
    50
100
AcDbLine
 10
442.853676
 20
354.207988
 30
0.0
 11
452.550168
 21
354.275683
 31
0.0
  0
ARC
  5
617
330
1F
100
AcDbEntity
  8
001
370
    50
100
AcDbCircle
 10
451.905136
 20
362.05143
 30
0.0
 40
3.0
100
AcDbArc
 50
298.349498
 51
144.83356
  0
ARC
  5
618
330
1F
100
AcDbEntity
  8
001
370
    50
100
AcDbCircle
 10
438.533395
 20
363.303049
 30
0.0
 40
0.4
100
AcDbArc
 50
90.4
 51
175.4
  0
ARC
  5
619
330
1F
100
AcDbEntity
  8
001
370
    50
100
AcDbCircle
 10
452.547375
 20
354.675674
 30
0.0
 40
0.4
100
AcDbArc
 50
270.4
 51
355.4
  0
LINE
  5
61A
330
1F
100
AcDbEntity
  8
001
  6
DASHED
370
    30
100
AcDbLine
 10
439.045095
 20
363.703074
 30
0.0
 11
440.139188
 21
374.112677
 31
0.0
  0
LINE
  5
61B
330
1F
100
AcDbEntity
  8
001
370
    50
100
AcDbLine
 10
439.962562
 20
373.112677
 30
0.0
 11
438.991986
 21
363.699808
 31
0.0
  0
LINE
  5
61C
330
1F
100
AcDbEntity
  8
001
370
    50
100
AcDbLine
 10
438.648822
 20
366.876451
 30
0.0
 11
438.648822
 21
363.703864
 31
0.0
  0
LINE
  5
61D
330
1F
100
AcDbEntity
  8
001
370
    50
100
AcDbLine
 10
437.834875
 20
428.616494
 30
0.0
 11
438.134683
 21
424.890227
 31
0.0
  0
LINE
  5
61E
330
1F
100
AcDbEntity
  8
001
370
    50
100
AcDbLine
 10
442.853676
 20
434.017367
 30
0.0
 11
452.738572
 21
433.948356
 31
0.0
  0
ARC
  5
61F
330
1F
100
AcDbEntity
  8
001
370
    50
100
AcDbCircle
 10
452.73578
 20
433.548366
 30
0.0
 40
0.4
100
AcDbArc
 50
4.6
 51
89.6
  0
ARC
  5
620
330
1F
100
AcDbEntity
  8
001
370
    50
100
AcDbCircle
 10
438.533395
 20
424.922306
 30
0.0
 40
0.4
100
AcDbArc
 50
184.6
 51
269.6
  0
LINE
  5
621
330
1F
100
AcDbEntity
  8
001
370
    50
100
AcDbLine
 10
438.648822
 20
424.521491
 30
0.0
 11
438.530602
 21
424.522316
 31
0.0
  0
LINE
  5
622
330
1F
100
AcDbEntity
  8
001
370
    50
100
AcDbLine
 10
453.20431
 20
432.712677
 30
0.0
 11
453.134491
 21
433.580446
 31
0.0
  0
LINE
  5
623
330
1F
100
AcDbEntity
  8
001
370
     9
100
AcDbLine
 10
442.853676
 20
354.207988
 30
0.0
 11
423.602608
 21
354.207988
 31
0.0
  0
POLYLINE
  5
624
330
1F
100
AcDbEntity
  8
001
370
    50
100
AcDb2dPolyline
 66
     1
 10
0.0
 20
0.0
 30
0.0
  0
VERTEX
  5
626
330
624
100
AcDbEntity
  8
001
370
    50
100
AcDbVertex
100
AcDb2dVertex
 10
453.025933
 20
355.635991
 30
0.0
  0
VERTEX
  5
627
330
624
100
AcDbEntity
  8
001
370
    50
100
AcDbVertex
100
AcDb2dVertex
 10
453.11998
 20
355.634721
 30
0.0
  0
VERTEX
  5
628
330
624
100
AcDbEntity
  8
001
370
    50
100
AcDbVertex
100
AcDb2dVertex
 10
453.214027
 20
355.633451
 30
0.0
  0
VERTEX
  5
629
330
624
100
AcDbEntity
  8
001
370
    50
100
AcDbVertex
100
AcDb2dVertex
 10
453.470905
 20
355.629983
 30
0.0
  0
VERTEX
  5
62A
330
624
100
AcDbEntity
  8
001
370
    50
100
AcDbVertex
100
AcDb2dVertex
 10
453.727784
 20
355.626514
 30
0.0
  0
VERTEX
  5
62B
330
624
100
AcDbEntity
  8
001
370
    50
100
AcDbVertex
100
AcDb2dVertex
 10
454.529109
 20
355.615916
 30
0.0
  0
VERTEX
  5
62C
330
624
100
AcDbEntity
  8
001
370
    50
100
AcDbVertex
100
AcDb2dVertex
 10
455.487064
 20
355.603873
 30
0.0
  0
VERTEX
  5
62D
330
624
100
AcDbEntity
  8
001
370
    50
100
AcDbVertex
100
AcDb2dVertex
 10
456.771402
 20
355.58899
 30
0.0
  0
VERTEX
  5
62E
330
624
100
AcDbEntity
  8
001
370
    50
100
AcDbVertex
100
AcDb2dVertex
 10
457.650168
 20
355.579505
 30
0.0
  0
SEQEND
  5
625
330
624
100
AcDbEntity
  8
001
370
    50
  0
LINE
  5
62F
330
1F
100
AcDbEntity
  8
001
370
    50
100
AcDbLine
 10
453.016012
 20
355.512677
 30
0.0
 11
457.650168
 21
355.512677
 31
0.0
  0
LINE
  5
630
330
1F
100
AcDbEntity
  8
001
370
    50
100
AcDbLine
 10
479.158858
 20
410.112677
 30
0.0
 11
470.650168
 21
410.112677
 31
0.0
  0
LINE
  5
631
330
1F
100
AcDbEntity
  8
001
  6
CENTER
370
     9
100
AcDbLine
 10
486.353703
 20
394.112677
 30
0.0
 11
434.643726
 21
394.112677
 31
0.0
  0
LINE
  5
632
330
1F
100
AcDbEntity
  8
001
370
    50
100
AcDbLine
 10
479.158858
 20
378.112677
 30
0.0
 11
470.650168
 21
378.112677
 31
0.0
  0
ARC
  5
633
330
1F
100
AcDbEntity
  8
001
370
    50
100
AcDbCircle
 10
442.818769
 20
429.017489
 30
0.0
 40
5.0
100
AcDbArc
 50
89.6
 51
184.6
  0
ARC
  5
634
330
1F
100
AcDbEntity
  8
001
370
    50
100
AcDbCircle
 10
442.818769
 20
359.207866
 30
0.0
 40
5.0
100
AcDbArc
 50
175.4
 51
270.4
  0
ARC
  5
635
330
1F
100
AcDbEntity
  8
001
370
    50
100
AcDbCircle
 10
448.262001
 20
358.770856
 30
0.0
 40
5.0
100
AcDbArc
 50
355.4
 51
90.4
  0
ENDSEC
  0
SECTION
  2
OBJECTS
  0
DICTIONARY
  5
C
330
0
100
AcDbDictionary
281
     1
  3
ACAD_GROUP
350
D
  3
ACAD_LAYOUT
350
1A
  3
ACAD_MLEADERSTYLE
350
639
  3
ACAD_MLINESTYLE
350
17
  3
ACAD_PLOTSETTINGS
350
19
  3
ACAD_PLOTSTYLENAME
350
E
  3
ACAD_SCALELIST
350
3B
  3
ACAD_TABLESTYLE
350
638
  3
ACAD_VISUALSTYLE
350
2A
  3
AcDbVariableDictionary
350
636
  0
DICTIONARY
  5
D
102
{ACAD_REACTORS
330
C
102
}
330
C
100
AcDbDictionary
281
     1
  0
DICTIONARY
  5
1A
102
{ACAD_REACTORS
330
C
102
}
330
C
100
AcDbDictionary
281
     1
  3
Layout1
350
1E
  3
Layout2
350
26
  3
Model
350
22
  0
DICTIONARY
  5
639
102
{ACAD_REACTORS
330
C
102
}
330
C
100
AcDbDictionary
281
     1
  0
DICTIONARY
  5
17
102
{ACAD_REACTORS
330
C
102
}
330
C
100
AcDbDictionary
281
     1
  3
Standard
350
18
  0
DICTIONARY
  5
19
102
{ACAD_REACTORS
330
C
102
}
330
C
100
AcDbDictionary
281
     1
  0
ACDBDICTIONARYWDFLT
  5
E
102
{ACAD_REACTORS
330
C
102
}
330
C
100
AcDbDictionary
281
     1
  3
Normal
350
F
100
AcDbDictionaryWithDefault
340
F
  0
DICTIONARY
  5
3B
102
{ACAD_REACTORS
330
C
102
}
330
C
100
AcDbDictionary
281
     1
  3
A0
350
3C
  3
A1
350
3D
  3
A2
350
3E
  3
A3
350
3F
  3
A4
350
40
  3
A5
350
41
  3
A6
350
42
  3
A7
350
43
  3
A8
350
44
  3
A9
350
45
  3
B0
350
46
  3
B1
350
47
  3
B2
350
48
  3
B3
350
49
  3
B4
350
4A
  3
B5
350
4B
  3
B6
350
4C
  3
B7
350
4D
  3
B8
350
4E
  3
B9
350
4F
  3
C0
350
50
  3
C1
350
51
  3
C2
350
52
  3
C3
350
53
  3
C4
350
54
  3
C5
350
55
  3
C6
350
56
  3
C7
350
57
  3
C8
350
58
  3
C9
350
59
  3
D0
350
5A
  3
D1
350
5B
  3
D2
350
5C
  0
DICTIONARY
  5
638
102
{ACAD_REACTORS
330
C
102
}
330
C
100
AcDbDictionary
281
     1
  0
DICTIONARY
  5
2A
102
{ACAD_REACTORS
330
C
102
}
330
C
100
AcDbDictionary
281
     1
  3
2dWireframe
350
2F
  3
3D Hidden
350
31
  3
3dWireframe
350
30
  3
Basic
350
32
  3
Brighten
350
36
  3
ColorChange
350
3A
  3
Conceptual
350
34
  3
Dim
350
35
  3
Facepattern
350
39
  3
Flat
350
2B
  3
FlatWithEdges
350
2C
  3
Gouraud
350
2D
  3
GouraudWithEdges
350
2E
  3
Linepattern
350
38
  3
Realistic
350
33
  3
Thicken
350
37
  0
DICTIONARY
  5
636
102
{ACAD_REACTORS
330
C
102
}
330
C
100
AcDbDictionary
281
     1
  3
CANNOSCALE
350
637
  3
PSOLHEIGHT
350
63B
  3
PSOLWIDTH
350
63A
  0
LAYOUT
  5
1E
102
{ACAD_REACTORS
330
1A
102
}
330
1A
100
AcDbPlotSettings
  1

  2
none_device
  4

  6

 40
0.0
 41
0.0
 42
0.0
 43
0.0
 44
0.0
 45
0.0
 46
0.0
 47
0.0
 48
0.0
 49
0.0
140
0.0
141
0.0
142
1.0
143
1.0
 70
   688
 72
     0
 73
     0
 74
     5
  7

 75
    16
147
1.0
148
0.0
149
0.0
100
AcDbLayout
  1
Layout1
 70
     1
 71
     1
 10
0.0
 20
0.0
 11
12.0
 21
9.0
 12
0.0
 22
0.0
 32
0.0
 14
1.000000E+20
 24
1.000000E+20
 34
0.0
 15
-1.000000E+20
 25
-1.000000E+20
 35
0.0
146
0.0
 13
0.0
 23
0.0
 33
0.0
 16
1.0
 26
0.0
 36
0.0
 17
0.0
 27
1.0
 37
0.0
 76
     0
330
1B
  0
LAYOUT
  5
26
102
{ACAD_REACTORS
330
1A
102
}
330
1A
100
AcDbPlotSettings
  1

  2
none_device
  4

  6

 40
0.0
 41
0.0
 42
0.0
 43
0.0
 44
0.0
 45
0.0
 46
0.0
 47
0.0
 48
0.0
 49
0.0
140
0.0
141
0.0
142
1.0
143
1.0
 70
   688
 72
     0
 73
     0
 74
     5
  7

 75
    16
147
1.0
148
0.0
149
0.0
100
AcDbLayout
  1
Layout2
 70
     1
 71
     2
 10
0.0
 20
0.0
 11
0.0
 21
0.0
 12
0.0
 22
0.0
 32
0.0
 14
0.0
 24
0.0
 34
0.0
 15
0.0
 25
0.0
 35
0.0
146
0.0
 13
0.0
 23
0.0
 33
0.0
 16
1.0
 26
0.0
 36
0.0
 17
0.0
 27
1.0
 37
0.0
 76
     0
330
23
  0
LAYOUT
  5
22
102
{ACAD_REACTORS
330
1A
102
}
330
1A
100
AcDbPlotSettings
  1

  2
none_device
  4

  6

 40
0.0
 41
0.0
 42
0.0
 43
0.0
 44
0.0
 45
0.0
 46
0.0
 47
0.0
 48
0.0
 49
0.0
140
0.0
141
0.0
142
1.0
143
1.0
 70
  1712
 72
     0
 73
     0
 74
     0
  7

 75
     0
147
1.0
148
0.0
149
0.0
100
AcDbLayout
  1
Model
 70
     1
 71
     0
 10
0.0
 20
0.0
 11
12.0
 21
9.0
 12
0.0
 22
0.0
 32
0.0
 14
50.049194
 24
1.707245
 34
0.0
 15
486.353699
 25
434.207977
 35
0.0
146
0.0
 13
0.0
 23
0.0
 33
0.0
 16
1.0
 26
0.0
 36
0.0
 17
0.0
 27
1.0
 37
0.0
 76
     0
330
1F
331
29
  0
MLINESTYLE
  5
18
102
{ACAD_REACTORS
330
17
102
}
330
17
100
AcDbMlineStyle
  2
Standard
 70
     0
  3

 62
   256
 51
90.0
 52
90.0
 71
     2
 49
0.5
 62
   256
  6
BYLAYER
 49
-0.5
 62
   256
  6
BYLAYER
  0
ACDBPLACEHOLDER
  5
F
102
{ACAD_REACTORS
330
E
102
}
330
E
  0
SCALE
  5
3C
102
{ACAD_REACTORS
330
3B
102
}
330
3B
100
AcDbScale
 70
     0
300
1:1
140
1.0
141
1.0
290
     1
  0
SCALE
  5
3D
102
{ACAD_REACTORS
330
3B
102
}
330
3B
100
AcDbScale
 70
     0
300
1:2
140
1.0
141
2.0
290
     0
  0
SCALE
  5
3E
102
{ACAD_REACTORS
330
3B
102
}
330
3B
100
AcDbScale
 70
     0
300
1:4
140
1.0
141
4.0
290
     0
  0
SCALE
  5
3F
102
{ACAD_REACTORS
330
3B
102
}
330
3B
100
AcDbScale
 70
     0
300
1:5
140
1.0
141
5.0
290
     0
  0
SCALE
  5
40
102
{ACAD_REACTORS
330
3B
102
}
330
3B
100
AcDbScale
 70
     0
300
1:8
140
1.0
141
8.0
290
     0
  0
SCALE
  5
41
102
{ACAD_REACTORS
330
3B
102
}
330
3B
100
AcDbScale
 70
     0
300
1:10
140
1.0
141
10.0
290
     0
  0
SCALE
  5
42
102
{ACAD_REACTORS
330
3B
102
}
330
3B
100
AcDbScale
 70
     0
300
1:16
140
1.0
141
16.0
290
     0
  0
SCALE
  5
43
102
{ACAD_REACTORS
330
3B
102
}
330
3B
100
AcDbScale
 70
     0
300
1:20
140
1.0
141
20.0
290
     0
  0
SCALE
  5
44
102
{ACAD_REACTORS
330
3B
102
}
330
3B
100
AcDbScale
 70
     0
300
1:30
140
1.0
141
30.0
290
     0
  0
SCALE
  5
45
102
{ACAD_REACTORS
330
3B
102
}
330
3B
100
AcDbScale
 70
     0
300
1:40
140
1.0
141
40.0
290
     0
  0
SCALE
  5
46
102
{ACAD_REACTORS
330
3B
102
}
330
3B
100
AcDbScale
 70
     0
300
1:50
140
1.0
141
50.0
290
     0
  0
SCALE
  5
47
102
{ACAD_REACTORS
330
3B
102
}
330
3B
100
AcDbScale
 70
     0
300
1:100
140
1.0
141
100.0
290
     0
  0
SCALE
  5
48
102
{ACAD_REACTORS
330
3B
102
}
330
3B
100
AcDbScale
 70
     0
300
2:1
140
2.0
141
1.0
290
     0
  0
SCALE
  5
49
102
{ACAD_REACTORS
330
3B
102
}
330
3B
100
AcDbScale
 70
     0
300
4:1
140
4.0
141
1.0
290
     0
  0
SCALE
  5
4A
102
{ACAD_REACTORS
330
3B
102
}
330
3B
100
AcDbScale
 70
     0
300
8:1
140
8.0
141
1.0
290
     0
  0
SCALE
  5
4B
102
{ACAD_REACTORS
330
3B
102
}
330
3B
100
AcDbScale
 70
     0
300
10:1
140
10.0
141
1.0
290
     0
  0
SCALE
  5
4C
102
{ACAD_REACTORS
330
3B
102
}
330
3B
100
AcDbScale
 70
     0
300
100:1
140
100.0
141
1.0
290
     0
  0
SCALE
  5
4D
102
{ACAD_REACTORS
330
3B
102
}
330
3B
100
AcDbScale
 70
     0
300
1/128" = 1'-0"
140
0.007812
141
12.0
290
     0
  0
SCALE
  5
4E
102
{ACAD_REACTORS
330
3B
102
}
330
3B
100
AcDbScale
 70
     0
300
1/64" = 1'-0"
140
0.015625
141
12.0
290
     0
  0
SCALE
  5
4F
102
{ACAD_REACTORS
330
3B
102
}
330
3B
100
AcDbScale
 70
     0
300
1/32" = 1'-0"
140
0.03125
141
12.0
290
     0
  0
SCALE
  5
50
102
{ACAD_REACTORS
330
3B
102
}
330
3B
100
AcDbScale
 70
     0
300
1/16" = 1'-0"
140
0.0625
141
12.0
290
     0
  0
SCALE
  5
51
102
{ACAD_REACTORS
330
3B
102
}
330
3B
100
AcDbScale
 70
     0
300
3/32" = 1'-0"
140
0.09375
141
12.0
290
     0
  0
SCALE
  5
52
102
{ACAD_REACTORS
330
3B
102
}
330
3B
100
AcDbScale
 70
     0
300
1/8" = 1'-0"
140
0.125
141
12.0
290
     0
  0
SCALE
  5
53
102
{ACAD_REACTORS
330
3B
102
}
330
3B
100
AcDbScale
 70
     0
300
3/16" = 1'-0"
140
0.1875
141
12.0
290
     0
  0
SCALE
  5
54
102
{ACAD_REACTORS
330
3B
102
}
330
3B
100
AcDbScale
 70
     0
300
1/4" = 1'-0"
140
0.25
141
12.0
290
     0
  0
SCALE
  5
55
102
{ACAD_REACTORS
330
3B
102
}
330
3B
100
AcDbScale
 70
     0
300
3/8" = 1'-0"
140
0.375
141
12.0
290
     0
  0
SCALE
  5
56
102
{ACAD_REACTORS
330
3B
102
}
330
3B
100
AcDbScale
 70
     0
300
1/2" = 1'-0"
140
0.5
141
12.0
290
     0
  0
SCALE
  5
57
102
{ACAD_REACTORS
330
3B
102
}
330
3B
100
AcDbScale
 70
     0
300
3/4" = 1'-0"
140
0.75
141
12.0
290
     0
  0
SCALE
  5
58
102
{ACAD_REACTORS
330
3B
102
}
330
3B
100
AcDbScale
 70
     0
300
1" = 1'-0"
140
1.0
141
12.0
290
     0
  0
SCALE
  5
59
102
{ACAD_REACTORS
330
3B
102
}
330
3B
100
AcDbScale
 70
     0
300
1-1/2" = 1'-0"
140
1.5
141
12.0
290
     0
  0
SCALE
  5
5A
102
{ACAD_REACTORS
330
3B
102
}
330
3B
100
AcDbScale
 70
     0
300
3" = 1'-0"
140
3.0
141
12.0
290
     0
  0
SCALE
  5
5B
102
{ACAD_REACTORS
330
3B
102
}
330
3B
100
AcDbScale
 70
     0
300
6" = 1'-0"
140
6.0
141
12.0
290
     0
  0
SCALE
  5
5C
102
{ACAD_REACTORS
330
3B
102
}
330
3B
100
AcDbScale
 70
     0
300
1'-0" = 1'-0"
140
12.0
141
12.0
290
     0
  0
VISUALSTYLE
  5
2F
102
{ACAD_REACTORS
330
2A
102
}
330
2A
100
AcDbVisualStyle
  2
2dWireframe
 70
     4
 71
     0
 72
     2
 73
     0
 90
        0
 40
-0.6
 41
-30.0
 62
     5
 63
     7
 74
     1
 91
        4
 64
     7
 65
   257
 75
     1
175
     1
 42
1.0
 92
        0
 66
   257
 43
1.0
 76
     1
 77
     6
 78
     2
 67
     7
 79
     5
170
     0
171
     0
290
     0
174
     0
 93
        1
 44
0.0
173
     0
291
     0
 45
0.0
1001
ACAD
1000
AcDbSavedByObjectVersion
1070
     0
  0
VISUALSTYLE
  5
31
102
{ACAD_REACTORS
330
2A
102
}
330
2A
100
AcDbVisualStyle
  2
3D Hidden
 70
     6
 71
     1
 72
     2
 73
     2
 90
        0
 40
-0.6
 41
-30.0
 62
     5
 63
     7
 74
     2
 91
        2
 64
     7
 65
   257
 75
     2
175
     1
 42
40.0
 92
        0
 66
   257
 43
1.0
 76
     1
 77
     6
 78
     2
 67
     7
 79
     3
170
     0
171
     0
290
     0
174
     0
 93
        1
 44
0.0
173
     0
291
     0
 45
0.0
1001
ACAD
1000
AcDbSavedByObjectVersion
1070
     0
  0
VISUALSTYLE
  5
30
102
{ACAD_REACTORS
330
2A
102
}
330
2A
100
AcDbVisualStyle
  2
3dWireframe
 70
     5
 71
     0
 72
     2
 73
     0
 90
        0
 40
-0.6
 41
-30.0
 62
     5
 63
     7
 74
     1
 91
        4
 64
     7
 65
   257
 75
     1
175
     1
 42
1.0
 92
        0
 66
   257
 43
1.0
 76
     1
 77
     6
 78
     2
 67
     7
 79
     5
170
     0
171
     0
290
     0
174
     0
 93
        1
 44
0.0
173
     0
291
     0
 45
0.0
1001
ACAD
1000
AcDbSavedByObjectVersion
1070
     0
  0
VISUALSTYLE
  5
32
102
{ACAD_REACTORS
330
2A
102
}
330
2A
100
AcDbVisualStyle
  2
Basic
 70
     7
 71
     1
 72
     0
 73
     1
 90
        0
 40
-0.6
 41
-30.0
 62
     5
 63
     7
 74
     0
 91
        4
 64
     7
 65
   257
 75
     1
175
     1
 42
1.0
 92
        8
 66
     7
 43
1.0
 76
     1
 77
     6
 78
     2
 67
     7
 79
     5
170
     0
171
     0
290
     0
174
     0
 93
        1
 44
0.0
173
     0
291
     1
 45
0.0
1001
ACAD
1000
AcDbSavedByObjectVersion
1070
     0
  0
VISUALSTYLE
  5
36
102
{ACAD_REACTORS
330
2A
102
}
330
2A
100
AcDbVisualStyle
  2
Brighten
 70
    12
 71
     2
 72
     2
 73
     0
 90
        0
 40
-0.6
 41
-30.0
 62
     5
 63
     7
 74
     1
 91
        4
 64
     7
 65
   257
 75
     1
175
     1
 42
1.0
 92
        8
 66
     7
 43
1.0
 76
     1
 77
     6
 78
     2
 67
     7
 79
     5
170
     0
171
     0
290
     0
174
     0
 93
        1
 44
50.0
173
     0
291
     1
 45
0.0
1001
ACAD
1000
AcDbSavedByObjectVersion
1070
     0
  0
VISUALSTYLE
  5
3A
102
{ACAD_REACTORS
330
2A
102
}
330
2A
100
AcDbVisualStyle
  2
ColorChange
 70
    16
 71
     2
 72
     2
 73
     3
 90
        0
 40
-0.6
 41
-30.0
 62
     5
 63
     8
 74
     1
 91
        4
 64
     7
 65
   257
 75
     1
175
     1
 42
1.0
 92
        8
 66
     8
 43
1.0
 76
     1
 77
     6
 78
     2
 67
     7
 79
     5
170
     0
171
     0
290
     0
174
     0
 93
        1
 44
0.0
173
     0
291
     1
 45
0.0
1001
ACAD
1000
AcDbSavedByObjectVersion
1070
     0
  0
VISUALSTYLE
  5
34
102
{ACAD_REACTORS
330
2A
102
}
330
2A
100
AcDbVisualStyle
  2
Conceptual
 70
     9
 71
     3
 72
     2
 73
     0
 90
        0
 40
-0.6
 41
-30.0
 62
     5
 63
     7
 74
     2
 91
        2
 64
     7
 65
   257
 75
     1
175
     1
 42
40.0
 92
        8
 66
     7
 43
1.0
 76
     1
 77
     6
 78
     2
 67
     7
 79
     3
170
     0
171
     0
290
     0
174
     0
 93
        1
 44
0.0
173
     0
291
     0
 45
0.0
1001
ACAD
1000
AcDbSavedByObjectVersion
1070
     0
  0
VISUALSTYLE
  5
35
102
{ACAD_REACTORS
330
2A
102
}
330
2A
100
AcDbVisualStyle
  2
Dim
 70
    11
 71
     2
 72
     2
 73
     0
 90
        0
 40
-0.6
 41
-30.0
 62
     5
 63
     7
 74
     1
 91
        4
 64
     7
 65
   257
 75
     1
175
     1
 42
1.0
 92
        8
 66
     7
 43
1.0
 76
     1
 77
     6
 78
     2
 67
     7
 79
     5
170
     0
171
     0
290
     0
174
     0
 93
        1
 44
-50.0
173
     0
291
     1
 45
0.0
1001
ACAD
1000
AcDbSavedByObjectVersion
1070
     0
  0
VISUALSTYLE
  5
39
102
{ACAD_REACTORS
330
2A
102
}
330
2A
100
AcDbVisualStyle
  2
Facepattern
 70
    15
 71
     2
 72
     2
 73
     0
 90
        0
 40
-0.6
 41
-30.0
 62
     5
 63
     7
 74
     1
 91
        4
 64
     7
 65
   257
 75
     1
175
     1
 42
1.0
 92
        8
 66
     7
 43
1.0
 76
     1
 77
     6
 78
     2
 67
     7
 79
     5
170
     0
171
     0
290
     0
174
     0
 93
        1
 44
0.0
173
     0
291
     1
 45
0.0
1001
ACAD
1000
AcDbSavedByObjectVersion
1070
     0
  0
VISUALSTYLE
  5
2B
102
{ACAD_REACTORS
330
2A
102
}
330
2A
100
AcDbVisualStyle
  2
Flat
 70
     0
 71
     2
 72
     1
 73
     1
 90
        2
 40
-0.6
 41
30.0
 62
     5
 63
     7
 74
     0
 91
        4
 64
     7
 65
   257
 75
     1
175
     1
 42
1.0
 92
        8
 66
     7
 43
1.0
 76
     1
 77
     6
 78
     2
 67
     7
 79
     5
170
     0
171
     0
290
     0
174
     0
 93
       13
 44
0.0
173
     0
291
     1
 45
0.0
1001
ACAD
1000
AcDbSavedByObjectVersion
1070
     0
  0
VISUALSTYLE
  5
2C
102
{ACAD_REACTORS
330
2A
102
}
330
2A
100
AcDbVisualStyle
  2
FlatWithEdges
 70
     1
 71
     2
 72
     1
 73
     1
 90
        2
 40
-0.6
 41
30.0
 62
     5
 63
     7
 74
     1
 91
        4
 64
     7
 65
   257
 75
     1
175
     1
 42
1.0
 92
        0
 66
   257
 43
1.0
 76
     1
 77
     6
 78
     2
 67
     7
 79
     5
170
     0
171
     0
290
     0
174
     0
 93
       13
 44
0.0
173
     0
291
     1
 45
0.0
1001
ACAD
1000
AcDbSavedByObjectVersion
1070
     0
  0
VISUALSTYLE
  5
2D
102
{ACAD_REACTORS
330
2A
102
}
330
2A
100
AcDbVisualStyle
  2
Gouraud
 70
     2
 71
     2
 72
     2
 73
     1
 90
        2
 40
-0.6
 41
30.0
 62
     5
 63
     7
 74
     0
 91
        4
 64
     7
 65
   257
 75
     1
175
     1
 42
1.0
 92
        0
 66
     7
 43
1.0
 76
     1
 77
     6
 78
     2
 67
     7
 79
     5
170
     0
171
     0
290
     0
174
     0
 93
       13
 44
0.0
173
     0
291
     1
 45
0.0
1001
ACAD
1000
AcDbSavedByObjectVersion
1070
     0
  0
VISUALSTYLE
  5
2E
102
{ACAD_REACTORS
330
2A
102
}
330
2A
100
AcDbVisualStyle
  2
GouraudWithEdges
 70
     3
 71
     2
 72
     2
 73
     1
 90
        2
 40
-0.6
 41
30.0
 62
     5
 63
     7
 74
     1
 91
        4
 64
     7
 65
   257
 75
     1
175
     1
 42
1.0
 92
        0
 66
   257
 43
1.0
 76
     1
 77
     6
 78
     2
 67
     7
 79
     5
170
     0
171
     0
290
     0
174
     0
 93
       13
 44
0.0
173
     0
291
     1
 45
0.0
1001
ACAD
1000
AcDbSavedByObjectVersion
1070
     0
  0
VISUALSTYLE
  5
38
102
{ACAD_REACTORS
330
2A
102
}
330
2A
100
AcDbVisualStyle
  2
Linepattern
 70
    14
 71
     2
 72
     2
 73
     0
 90
        0
 40
-0.6
 41
-30.0
 62
     5
 63
     7
 74
     1
 91
        4
 64
     7
 65
   257
 75
     7
175
     7
 42
1.0
 92
        8
 66
     7
 43
1.0
 76
     1
 77
     6
 78
     2
 67
     7
 79
     5
170
     0
171
     0
290
     0
174
     0
 93
        1
 44
0.0
173
     0
291
     1
 45
0.0
1001
ACAD
1000
AcDbSavedByObjectVersion
1070
     0
  0
VISUALSTYLE
  5
33
102
{ACAD_REACTORS
330
2A
102
}
330
2A
100
AcDbVisualStyle
  2
Realistic
 70
     8
 71
     2
 72
     2
 73
     0
 90
        0
 40
-0.6
 41
-30.0
 62
     5
 63
     7
 74
     1
 91
        0
 64
     7
 65
   257
 75
     1
175
     1
 42
1.0
 92
        8
 66
     8
 43
1.0
 76
     1
 77
     6
 78
     2
 67
     7
 79
     5
170
     0
171
     0
290
     0
174
     0
 93
       13
 44
0.0
173
     0
291
     0
 45
0.0
1001
ACAD
1000
AcDbSavedByObjectVersion
1070
     0
  0
VISUALSTYLE
  5
37
102
{ACAD_REACTORS
330
2A
102
}
330
2A
100
AcDbVisualStyle
  2
Thicken
 70
    13
 71
     2
 72
     2
 73
     0
 90
        0
 40
-0.6
 41
-30.0
 62
     5
 63
     7
 74
     1
 91
        4
 64
     7
 65
   257
 75
     1
175
     1
 42
1.0
 92
       12
 66
     7
 43
1.0
 76
     1
 77
     6
 78
     2
 67
     7
 79
     5
170
     0
171
     0
290
     0
174
     0
 93
        1
 44
0.0
173
     0
291
     1
 45
0.0
1001
ACAD
1000
AcDbSavedByObjectVersion
1070
     0
  0
DICTIONARYVAR
  5
637
102
{ACAD_REACTORS
330
636
102
}
330
636
100
DictionaryVariables
280
     0
  1
1:1
  0
DICTIONARYVAR
  5
63B
102
{ACAD_REACTORS
330
636
102
}
330
636
100
DictionaryVariables
280
     0
  1
80.000000
  0
DICTIONARYVAR
  5
63A
102
{ACAD_REACTORS
330
636
102
}
330
636
100
DictionaryVariables
280
     0
  1
5.000000
  0
ENDSEC
  0
EOF
