  0
SECTION
  2
HEADER
  9
$ACADVER
  1
AC1015
  9
$ACADMAINTVER
 70
     6
  9
$DWGCODEPAGE
  3
ANSI_932
  9
$INSBASE
 10
0.0
 20
0.0
 30
0.0
  9
$EXTMIN
 10
50.049225
 20
12.670288
 30
0.0
  9
$EXTMAX
 10
446.329498
 20
467.084351
 30
0.0
  9
$LIMMIN
 10
0.0
 20
0.0
  9
$LIMMAX
 10
12.0
 20
9.0
  9
$ORTHOMODE
 70
     0
  9
$REGENMODE
 70
     1
  9
$FILLMODE
 70
     1
  9
$QTEXTMODE
 70
     0
  9
$MIRRTEXT
 70
     1
  9
$LTSCALE
 40
6.029347
  9
$ATTMODE
 70
     1
  9
$TEXTSIZE
 40
3.2
  9
$TRACEWID
 40
1.0
  9
$TEXTSTYLE
  7
Standard
  9
$CLAYER
  8
0
  9
$CELTYPE
  6
ByLayer
  9
$CECOLOR
 62
   256
  9
$CELTSCALE
 40
1.0
  9
$DISPSILH
 70
     0
  9
$DIMSCALE
 40
1.0
  9
$DIMASZ
 40
2.5
  9
$DIMEXO
 40
0.625
  9
$DIMDLI
 40
3.75
  9
$DIMRND
 40
0.0
  9
$DIMDLE
 40
0.0
  9
$DIMEXE
 40
1.25
  9
$DIMTP
 40
0.0
  9
$DIMTM
 40
0.0
  9
$DIMTXT
 40
2.5
  9
$DIMCEN
 40
0.09
  9
$DIMTSZ
 40
0.0
  9
$DIMTOL
 70
     0
  9
$DIMLIM
 70
     0
  9
$DIMTIH
 70
     0
  9
$DIMTOH
 70
     0
  9
$DIMSE1
 70
     0
  9
$DIMSE2
 70
     0
  9
$DIMTAD
 70
     0
  9
$DIMZIN
 70
     8
  9
$DIMBLK
  1

  9
$DIMASO
 70
     1
  9
$DIMSHO
 70
     0
  9
$DIMPOST
  1

  9
$DIMAPOST
  1

  9
$DIMALT
 70
     0
  9
$DIMALTD
 70
     3
  9
$DIMALTF
 40
0.03937
  9
$DIMLFAC
 40
1.0
  9
$DIMTOFL
 70
     1
  9
$DIMTVP
 40
0.0
  9
$DIMTIX
 70
     0
  9
$DIMSOXD
 70
     0
  9
$DIMSAH
 70
     0
  9
$DIMBLK1
  1

  9
$DIMBLK2
  1

  9
$DIMSTYLE
  2
ISO-25
  9
$DIMCLRD
 70
     0
  9
$DIMCLRE
 70
     0
  9
$DIMCLRT
 70
     0
  9
$DIMTFAC
 40
1.0
  9
$DIMGAP
 40
0.625
  9
$DIMJUST
 70
     0
  9
$DIMSD1
 70
     0
  9
$DIMSD2
 70
     0
  9
$DIMTOLJ
 70
     0
  9
$DIMTZIN
 70
     8
  9
$DIMALTZ
 70
     0
  9
$DIMALTTZ
 70
     0
  9
$DIMUPT
 70
     0
  9
$DIMDEC
 70
     2
  9
$DIMTDEC
 70
     2
  9
$DIMALTU
 70
     2
  9
$DIMALTTD
 70
     3
  9
$DIMTXSTY
  7
Standard
  9
$DIMAUNIT
 70
     0
  9
$DIMADEC
 70
     0
  9
$DIMALTRND
 40
0.0
  9
$DIMAZIN
 70
     0
  9
$DIMDSEP
 70
    44
  9
$DIMATFIT
 70
     3
  9
$DIMFRAC
 70
     0
  9
$DIMLDRBLK
  1

  9
$DIMLUNIT
 70
     2
  9
$DIMLWD
 70
    -2
  9
$DIMLWE
 70
    -2
  9
$DIMTMOVE
 70
     0
  9
$LUNITS
 70
     2
  9
$LUPREC
 70
     4
  9
$SKETCHINC
 40
1.0
  9
$FILLETRAD
 40
0.0
  9
$AUNITS
 70
     0
  9
$AUPREC
 70
     0
  9
$MENU
  1
.
  9
$ELEVATION
 40
0.0
  9
$PELEVATION
 40
0.0
  9
$THICKNESS
 40
0.0
  9
$LIMCHECK
 70
     0
  9
$CHAMFERA
 40
10.0
  9
$CHAMFERB
 40
10.0
  9
$CHAMFERC
 40
20.0
  9
$CHAMFERD
 40
0.0
  9
$SKPOLY
 70
     0
  9
$TDCREATE
 40
2454847.678542928
  9
$TDUCREATE
 40
2454847.303542928
  9
$TDUPDATE
 40
2454847.67854294
  9
$TDUUPDATE
 40
2454847.30354294
  9
$TDINDWG
 40
0.0000000116
  9
$TDUSRTIMER
 40
0.0000000116
  9
$USRTIMER
 70
     1
  9
$ANGBASE
 50
0.0
  9
$ANGDIR
 70
     0
  9
$PDMODE
 70
     0
  9
$PDSIZE
 40
0.0
  9
$PLINEWID
 40
0.0
  9
$SPLFRAME
 70
     0
  9
$SPLINETYPE
 70
     6
  9
$SPLINESEGS
 70
     8
  9
$HANDSEED
  5
602
  9
$SURFTAB1
 70
     6
  9
$SURFTAB2
 70
     6
  9
$SURFTYPE
 70
     6
  9
$SURFU
 70
     6
  9
$SURFV
 70
     6
  9
$UCSBASE
  2

  9
$UCSNAME
  2

  9
$UCSORG
 10
0.0
 20
0.0
 30
0.0
  9
$UCSXDIR
 10
1.0
 20
0.0
 30
0.0
  9
$UCSYDIR
 10
0.0
 20
1.0
 30
0.0
  9
$UCSORTHOREF
  2

  9
$UCSORTHOVIEW
 70
     0
  9
$UCSORGTOP
 10
0.0
 20
0.0
 30
0.0
  9
$UCSORGBOTTOM
 10
0.0
 20
0.0
 30
0.0
  9
$UCSORGLEFT
 10
0.0
 20
0.0
 30
0.0
  9
$UCSORGRIGHT
 10
0.0
 20
0.0
 30
0.0
  9
$UCSORGFRONT
 10
0.0
 20
0.0
 30
0.0
  9
$UCSORGBACK
 10
0.0
 20
0.0
 30
0.0
  9
$PUCSBASE
  2

  9
$PUCSNAME
  2

  9
$PUCSORG
 10
0.0
 20
0.0
 30
0.0
  9
$PUCSXDIR
 10
1.0
 20
0.0
 30
0.0
  9
$PUCSYDIR
 10
0.0
 20
1.0
 30
0.0
  9
$PUCSORTHOREF
  2

  9
$PUCSORTHOVIEW
 70
     0
  9
$PUCSORGTOP
 10
0.0
 20
0.0
 30
0.0
  9
$PUCSORGBOTTOM
 10
0.0
 20
0.0
 30
0.0
  9
$PUCSORGLEFT
 10
0.0
 20
0.0
 30
0.0
  9
$PUCSORGRIGHT
 10
0.0
 20
0.0
 30
0.0
  9
$PUCSORGFRONT
 10
0.0
 20
0.0
 30
0.0
  9
$PUCSORGBACK
 10
0.0
 20
0.0
 30
0.0
  9
$USERI1
 70
     0
  9
$USERI2
 70
     0
  9
$USERI3
 70
     0
  9
$USERI4
 70
     0
  9
$USERI5
 70
     0
  9
$USERR1
 40
0.0
  9
$USERR2
 40
0.0
  9
$USERR3
 40
0.0
  9
$USERR4
 40
0.0
  9
$USERR5
 40
0.0
  9
$WORLDVIEW
 70
     1
  9
$SHADEDGE
 70
     3
  9
$SHADEDIF
 70
    70
  9
$TILEMODE
 70
     1
  9
$MAXACTVP
 70
    64
  9
$PINSBASE
 10
0.0
 20
0.0
 30
0.0
  9
$PLIMCHECK
 70
     0
  9
$PEXTMIN
 10
1.000000E+20
 20
1.000000E+20
 30
0.0
  9
$PEXTMAX
 10
-1.000000E+20
 20
-1.000000E+20
 30
0.0
  9
$PLIMMIN
 10
0.0
 20
0.0
  9
$PLIMMAX
 10
12.0
 20
9.0
  9
$UNITMODE
 70
     0
  9
$VISRETAIN
 70
     1
  9
$PLINEGEN
 70
     0
  9
$PSLTSCALE
 70
     1
  9
$TREEDEPTH
 70
  3020
  9
$CMLSTYLE
  2
Standard
  9
$CMLJUST
 70
     0
  9
$CMLSCALE
 40
20.0
  9
$PROXYGRAPHICS
 70
     1
  9
$MEASUREMENT
 70
     1
  9
$CELWEIGHT
370
    -1
  9
$ENDCAPS
280
     0
  9
$JOINSTYLE
280
     0
  9
$LWDISPLAY
290
     0
  9
$INSUNITS
 70
     4
  9
$HYPERLINKBASE
  1

  9
$STYLESHEET
  1

  9
$XEDIT
290
     1
  9
$CEPSNTYPE
380
     0
  9
$PSTYLEMODE
290
     1
  9
$FINGERPRINTGUID
  2
{81DD365A-9F11-4953-B854-AD723806D070}
  9
$VERSIONGUID
  2
{FAEB1C32-E019-11D5-929B-00C0DF256EC4}
  9
$EXTNAMES
290
     1
  9
$PSVPSCALE
 40
0.0
  9
$OLESTARTUP
290
     0
  0
ENDSEC
  0
SECTION
  2
CLASSES
  0
CLASS
  1
ACDBDICTIONARYWDFLT
  2
AcDbDictionaryWithDefault
  3
ObjectDBX Classes
 90
        0
280
     0
281
     0
  0
CLASS
  1
VISUALSTYLE
  2
AcDbVisualStyle
  3
ObjectDBX Classes
 90
     4095
280
     0
281
     0
  0
CLASS
  1
SCALE
  2
AcDbScale
  3
ObjectDBX Classes
 90
     1153
280
     0
281
     0
  0
CLASS
  1
DICTIONARYVAR
  2
AcDbDictionaryVar
  3
ObjectDBX Classes
 90
        0
280
     0
281
     0
  0
CLASS
  1
ACDBPLACEHOLDER
  2
AcDbPlaceHolder
  3
ObjectDBX Classes
 90
        0
280
     0
281
     0
  0
CLASS
  1
LAYOUT
  2
AcDbLayout
  3
ObjectDBX Classes
 90
        0
280
     0
281
     0
  0
ENDSEC
  0
SECTION
  2
TABLES
  0
TABLE
  2
VPORT
  5
8
330
0
100
AcDbSymbolTable
 70
     1
  0
VPORT
  5
29
330
8
100
AcDbSymbolTableRecord
100
AcDbViewportTableRecord
  2
*Active
 70
     0
 10
0.0
 20
0.0
 11
1.0
 21
1.0
 12
248.189362
 22
239.877319
 13
0.0
 23
0.0
 14
1.0
 24
1.0
 15
0.0
 25
0.0
 16
0.0
 26
0.0
 36
1.0
 17
0.0
 27
0.0
 37
0.0
 40
458.958203
 41
1.691288
 42
50.0
 43
0.0
 44
0.0
 50
0.0
 51
0.0
 71
     0
 72
   100
 73
     1
 74
     3
 75
     0
 76
     0
 77
     0
 78
     0
281
     0
 65
     1
110
0.0
120
0.0
130
0.0
111
1.0
121
0.0
131
0.0
112
0.0
122
1.0
132
0.0
 79
     0
146
0.0
  0
ENDTAB
  0
TABLE
  2
LTYPE
  5
5
330
0
100
AcDbSymbolTable
 70
     5
  0
LTYPE
  5
14
330
5
100
AcDbSymbolTableRecord
100
AcDbLinetypeTableRecord
  2
ByBlock
 70
     0
  3

 72
    65
 73
     0
 40
0.0
  0
LTYPE
  5
15
330
5
100
AcDbSymbolTableRecord
100
AcDbLinetypeTableRecord
  2
ByLayer
 70
     0
  3

 72
    65
 73
     0
 40
0.0
  0
LTYPE
  5
16
330
5
100
AcDbSymbolTableRecord
100
AcDbLinetypeTableRecord
  2
Continuous
 70
     0
  3
Solid line
 72
    65
 73
     0
 40
0.0
  0
LTYPE
  5
5D
330
5
100
AcDbSymbolTableRecord
100
AcDbLinetypeTableRecord
  2
DASHED
 70
     0
  3
DASHED
 72
    83
 73
     2
 40
0.75
 49
0.5
 74
     0
 49
-0.25
 74
     0
  0
LTYPE
  5
5E
330
5
100
AcDbSymbolTableRecord
100
AcDbLinetypeTableRecord
  2
HIDDEN
 70
     0
  3
HIDDEN
 72
    83
 73
     2
 40
0.375
 49
0.25
 74
     0
 49
-0.125
 74
     0
  0
LTYPE
  5
5F
330
5
100
AcDbSymbolTableRecord
100
AcDbLinetypeTableRecord
  2
CENTER
 70
     0
  3
CENTER
 72
    83
 73
     4
 40
2.0
 49
1.25
 74
     0
 49
-0.25
 74
     0
 49
0.25
 74
     0
 49
-0.25
 74
     0
  0
LTYPE
  5
60
330
5
100
AcDbSymbolTableRecord
100
AcDbLinetypeTableRecord
  2
PHANTOM
 70
     0
  3
PHANTOM
 72
    83
 73
     6
 40
2.5
 49
1.25
 74
     0
 49
-0.25
 74
     0
 49
0.25
 74
     0
 49
-0.25
 74
     0
 49
0.25
 74
     0
 49
-0.25
 74
     0
  0
ENDTAB
  0
TABLE
  2
LAYER
  5
2
330
0
100
AcDbSymbolTable
 70
     2
  0
LAYER
  5
10
330
2
100
AcDbSymbolTableRecord
100
AcDbLayerTableRecord
  2
0
 70
     0
 62
     7
  6
Continuous
370
    -3
390
F
  0
LAYER
  5
61
330
2
100
AcDbSymbolTableRecord
100
AcDbLayerTableRecord
  2
001
 70
     0
 62
     7
  6
Continuous
370
    -3
390
F
  0
ENDTAB
  0
TABLE
  2
STYLE
  5
3
330
0
100
AcDbSymbolTable
 70
     2
  0
STYLE
  5
11
330
3
100
AcDbSymbolTableRecord
100
AcDbTextStyleTableRecord
  2
Standard
 70
     0
 40
0.0
 41
1.0
 50
0.0
 71
     0
 42
0.2
  3
TXT
  4
BIGFONT
  0
STYLE
  5
62
330
3
100
AcDbSymbolTableRecord
100
AcDbTextStyleTableRecord
  2
TATEGAKI
 70
     4
 40
1.0
 41
1.0
 50
0.0
 71
     0
 42
0.2
  3
TXT
  4
BIGFONT
  0
ENDTAB
  0
TABLE
  2
VIEW
  5
6
330
0
100
AcDbSymbolTable
 70
     0
  0
ENDTAB
  0
TABLE
  2
UCS
  5
7
330
0
100
AcDbSymbolTable
 70
     0
  0
ENDTAB
  0
TABLE
  2
APPID
  5
9
330
0
100
AcDbSymbolTable
 70
     1
  0
APPID
  5
12
330
9
100
AcDbSymbolTableRecord
100
AcDbRegAppTableRecord
  2
ACAD
 70
     0
  0
ENDTAB
  0
TABLE
  2
DIMSTYLE
  5
A
330
0
100
AcDbSymbolTable
 70
     2
100
AcDbDimStyleTable
  0
DIMSTYLE
105
27
330
A
100
AcDbSymbolTableRecord
100
AcDbDimStyleTableRecord
  2
ISO-25
 70
     0
 41
2.5
 42
0.625
 43
3.75
 44
1.25
 73
     0
 74
     0
 77
     1
 78
     8
140
2.5
141
2.5
143
0.03937
147
0.625
171
     3
172
     1
271
     2
272
     2
274
     3
278
    44
283
     0
284
     8
340
11
  0
DIMSTYLE
105
63
102
{ACAD_REACTORS
330
164
330
165
330
166
330
167
330
168
330
169
330
181
330
182
330
183
330
184
330
190
330
191
102
}
330
A
100
AcDbSymbolTableRecord
100
AcDbDimStyleTableRecord
  2
Standard
 70
     0
 41
1.5
 42
0.0
 44
2.75
 73
     0
 74
     0
 77
     1
 78
     8
 79
     2
140
4.0
146
0.8
147
1.0
172
     1
179
     1
271
     1
340
11
  0
ENDTAB
  0
TABLE
  2
BLOCK_RECORD
  5
1
330
0
100
AcDbSymbolTable
 70
    13
  0
BLOCK_RECORD
  5
1F
330
1
100
AcDbSymbolTableRecord
100
AcDbBlockTableRecord
  2
*Model_Space
340
22
  0
BLOCK_RECORD
  5
1B
330
1
100
AcDbSymbolTableRecord
100
AcDbBlockTableRecord
  2
*Paper_Space
340
1E
  0
BLOCK_RECORD
  5
23
330
1
100
AcDbSymbolTableRecord
100
AcDbBlockTableRecord
  2
*Paper_Space0
340
26
  0
BLOCK_RECORD
  5
64
330
1
100
AcDbSymbolTableRecord
100
AcDbBlockTableRecord
  2
*D1
340
0
  0
BLOCK_RECORD
  5
78
330
1
100
AcDbSymbolTableRecord
100
AcDbBlockTableRecord
  2
*D2
340
0
  0
BLOCK_RECORD
  5
8C
330
1
100
AcDbSymbolTableRecord
100
AcDbBlockTableRecord
  2
*D3
340
0
  0
BLOCK_RECORD
  5
A0
330
1
100
AcDbSymbolTableRecord
100
AcDbBlockTableRecord
  2
*D4
340
0
  0
BLOCK_RECORD
  5
B6
330
1
100
AcDbSymbolTableRecord
100
AcDbBlockTableRecord
  2
*D5
340
0
  0
BLOCK_RECORD
  5
CA
330
1
100
AcDbSymbolTableRecord
100
AcDbBlockTableRecord
  2
*D6
340
0
  0
BLOCK_RECORD
  5
DE
330
1
100
AcDbSymbolTableRecord
100
AcDbBlockTableRecord
  2
*D7
340
0
  0
BLOCK_RECORD
  5
F2
330
1
100
AcDbSymbolTableRecord
100
AcDbBlockTableRecord
  2
*D8
340
0
  0
BLOCK_RECORD
  5
108
330
1
100
AcDbSymbolTableRecord
100
AcDbBlockTableRecord
  2
*D9
340
0
  0
BLOCK_RECORD
  5
11C
330
1
100
AcDbSymbolTableRecord
100
AcDbBlockTableRecord
  2
*D10
340
0
  0
BLOCK_RECORD
  5
130
330
1
100
AcDbSymbolTableRecord
100
AcDbBlockTableRecord
  2
*D11
340
0
  0
BLOCK_RECORD
  5
144
330
1
100
AcDbSymbolTableRecord
100
AcDbBlockTableRecord
  2
*D12
340
0
  0
ENDTAB
  0
ENDSEC
  0
SECTION
  2
BLOCKS
  0
BLOCK
  5
20
330
1F
100
AcDbEntity
  8
0
100
AcDbBlockBegin
  2
*Model_Space
 70
     0
 10
0.0
 20
0.0
 30
0.0
  3
*Model_Space
  1

  0
ENDBLK
  5
21
330
1F
100
AcDbEntity
  8
0
100
AcDbBlockEnd
  0
BLOCK
  5
1C
330
1B
100
AcDbEntity
 67
     1
  8
0
100
AcDbBlockBegin
  2
*Paper_Space
 70
     0
 10
0.0
 20
0.0
 30
0.0
  3
*Paper_Space
  1

  0
ENDBLK
  5
1D
330
1B
100
AcDbEntity
 67
     1
  8
0
100
AcDbBlockEnd
  0
BLOCK
  5
24
330
23
100
AcDbEntity
  8
0
100
AcDbBlockBegin
  2
*Paper_Space0
 70
     0
 10
0.0
 20
0.0
 30
0.0
  3
*Paper_Space0
  1

  0
ENDBLK
  5
25
330
23
100
AcDbEntity
  8
0
100
AcDbBlockEnd
  0
BLOCK
  5
65
330
64
100
AcDbEntity
  8
0
100
AcDbBlockBegin
  2
*D1
 70
     1
 10
0.0
 20
0.0
 30
0.0
  3
*D1
  1

  0
LINE
  5
67
330
64
100
AcDbEntity
  8
001
370
     9
100
AcDbLine
 10
130.513818
 20
72.809079
 30
0.0
 11
130.513818
 21
24.597403
 31
0.0
  0
LINE
  5
68
330
64
100
AcDbEntity
  8
001
370
     9
100
AcDbLine
 10
105.513818
 20
46.135226
 30
0.0
 11
105.513818
 21
24.597403
 31
0.0
  0
LINE
  5
69
330
64
100
AcDbEntity
  8
001
370
     9
100
AcDbLine
 10
130.513818
 20
27.347403
 30
0.0
 11
105.513818
 21
27.347403
 31
0.0
  0
POLYLINE
  5
6A
330
64
100
AcDbEntity
  8
001
370
     9
100
AcDb2dPolyline
 66
     1
 10
0.0
 20
0.0
 30
0.0
  0
VERTEX
  5
6C
330
6A
100
AcDbEntity
  8
001
370
     9
100
AcDbVertex
100
AcDb2dVertex
 10
129.013818
 20
27.749326
 30
0.0
  0
VERTEX
  5
6D
330
6A
100
AcDbEntity
  8
001
370
     9
100
AcDbVertex
100
AcDb2dVertex
 10
130.513818
 20
27.347403
 30
0.0
  0
VERTEX
  5
6E
330
6A
100
AcDbEntity
  8
001
370
     9
100
AcDbVertex
100
AcDb2dVertex
 10
129.013818
 20
26.945479
 30
0.0
  0
SEQEND
  5
6B
330
6A
100
AcDbEntity
  8
001
370
     9
  0
POLYLINE
  5
6F
330
64
100
AcDbEntity
  8
001
370
     9
100
AcDb2dPolyline
 66
     1
 10
0.0
 20
0.0
 30
0.0
  0
VERTEX
  5
71
330
6F
100
AcDbEntity
  8
001
370
     9
100
AcDbVertex
100
AcDb2dVertex
 10
107.013818
 20
26.945479
 30
0.0
  0
VERTEX
  5
72
330
6F
100
AcDbEntity
  8
001
370
     9
100
AcDbVertex
100
AcDb2dVertex
 10
105.513818
 20
27.347403
 30
0.0
  0
VERTEX
  5
73
330
6F
100
AcDbEntity
  8
001
370
     9
100
AcDbVertex
100
AcDb2dVertex
 10
107.013818
 20
27.749326
 30
0.0
  0
SEQEND
  5
70
330
6F
100
AcDbEntity
  8
001
370
     9
  0
TEXT
  5
74
330
64
100
AcDbEntity
  8
001
370
    30
100
AcDbText
 10
114.013818
 20
28.347403
 30
0.0
 40
4.0
  1
２５
 41
0.833333
100
AcDbText
  0
POINT
  5
75
330
64
100
AcDbEntity
  8
001
370
     9
100
AcDbPoint
 10
130.513818
 20
72.809079
 30
0.0
  0
POINT
  5
76
330
64
100
AcDbEntity
  8
001
370
     9
100
AcDbPoint
 10
105.513818
 20
46.135226
 30
0.0
  0
POINT
  5
77
330
64
100
AcDbEntity
  8
001
370
     9
100
AcDbPoint
 10
105.513818
 20
27.347403
 30
0.0
  0
ENDBLK
  5
66
330
64
100
AcDbEntity
  8
0
100
AcDbBlockEnd
  0
BLOCK
  5
79
330
78
100
AcDbEntity
  8
0
100
AcDbBlockBegin
  2
*D2
 70
     1
 10
0.0
 20
0.0
 30
0.0
  3
*D2
  1

  0
LINE
  5
7B
330
78
100
AcDbEntity
  8
001
370
     9
100
AcDbLine
 10
210.513818
 20
96.409079
 30
0.0
 11
210.513818
 21
24.597403
 31
0.0
  0
LINE
  5
7C
330
78
100
AcDbEntity
  8
001
370
     9
100
AcDbLine
 10
130.513818
 20
72.809079
 30
0.0
 11
130.513818
 21
24.597403
 31
0.0
  0
LINE
  5
7D
330
78
100
AcDbEntity
  8
001
370
     9
100
AcDbLine
 10
210.513818
 20
27.347403
 30
0.0
 11
130.513818
 21
27.347403
 31
0.0
  0
POLYLINE
  5
7E
330
78
100
AcDbEntity
  8
001
370
     9
100
AcDb2dPolyline
 66
     1
 10
0.0
 20
0.0
 30
0.0
  0
VERTEX
  5
80
330
7E
100
AcDbEntity
  8
001
370
     9
100
AcDbVertex
100
AcDb2dVertex
 10
209.013818
 20
27.749326
 30
0.0
  0
VERTEX
  5
81
330
7E
100
AcDbEntity
  8
001
370
     9
100
AcDbVertex
100
AcDb2dVertex
 10
210.513818
 20
27.347403
 30
0.0
  0
VERTEX
  5
82
330
7E
100
AcDbEntity
  8
001
370
     9
100
AcDbVertex
100
AcDb2dVertex
 10
209.013818
 20
26.945479
 30
0.0
  0
SEQEND
  5
7F
330
7E
100
AcDbEntity
  8
001
370
     9
  0
POLYLINE
  5
83
330
78
100
AcDbEntity
  8
001
370
     9
100
AcDb2dPolyline
 66
     1
 10
0.0
 20
0.0
 30
0.0
  0
VERTEX
  5
85
330
83
100
AcDbEntity
  8
001
370
     9
100
AcDbVertex
100
AcDb2dVertex
 10
132.013818
 20
26.945479
 30
0.0
  0
VERTEX
  5
86
330
83
100
AcDbEntity
  8
001
370
     9
100
AcDbVertex
100
AcDb2dVertex
 10
130.513818
 20
27.347403
 30
0.0
  0
VERTEX
  5
87
330
83
100
AcDbEntity
  8
001
370
     9
100
AcDbVertex
100
AcDb2dVertex
 10
132.013818
 20
27.749326
 30
0.0
  0
SEQEND
  5
84
330
83
100
AcDbEntity
  8
001
370
     9
  0
TEXT
  5
88
330
78
100
AcDbEntity
  8
001
370
    30
100
AcDbText
 10
166.513818
 20
28.347403
 30
0.0
 40
4.0
  1
８０
 41
0.833333
100
AcDbText
  0
POINT
  5
89
330
78
100
AcDbEntity
  8
001
370
     9
100
AcDbPoint
 10
210.513818
 20
96.409079
 30
0.0
  0
POINT
  5
8A
330
78
100
AcDbEntity
  8
001
370
     9
100
AcDbPoint
 10
130.513818
 20
72.809079
 30
0.0
  0
POINT
  5
8B
330
78
100
AcDbEntity
  8
001
370
     9
100
AcDbPoint
 10
130.513818
 20
27.347403
 30
0.0
  0
ENDBLK
  5
7A
330
78
100
AcDbEntity
  8
0
100
AcDbBlockEnd
  0
BLOCK
  5
8D
330
8C
100
AcDbEntity
  8
0
100
AcDbBlockBegin
  2
*D3
 70
     1
 10
0.0
 20
0.0
 30
0.0
  3
*D3
  1

  0
LINE
  5
8F
330
8C
100
AcDbEntity
  8
001
370
     9
100
AcDbLine
 10
105.513818
 20
46.135226
 30
0.0
 11
105.513818
 21
12.670303
 31
0.0
  0
LINE
  5
90
330
8C
100
AcDbEntity
  8
001
370
     9
100
AcDbLine
 10
210.513818
 20
96.409079
 30
0.0
 11
210.513818
 21
12.670303
 31
0.0
  0
LINE
  5
91
330
8C
100
AcDbEntity
  8
001
370
     9
100
AcDbLine
 10
105.513818
 20
15.420303
 30
0.0
 11
210.513818
 21
15.420303
 31
0.0
  0
POLYLINE
  5
92
330
8C
100
AcDbEntity
  8
001
370
     9
100
AcDb2dPolyline
 66
     1
 10
0.0
 20
0.0
 30
0.0
  0
VERTEX
  5
94
330
92
100
AcDbEntity
  8
001
370
     9
100
AcDbVertex
100
AcDb2dVertex
 10
107.013818
 20
15.018379
 30
0.0
  0
VERTEX
  5
95
330
92
100
AcDbEntity
  8
001
370
     9
100
AcDbVertex
100
AcDb2dVertex
 10
105.513818
 20
15.420303
 30
0.0
  0
VERTEX
  5
96
330
92
100
AcDbEntity
  8
001
370
     9
100
AcDbVertex
100
AcDb2dVertex
 10
107.013818
 20
15.822227
 30
0.0
  0
SEQEND
  5
93
330
92
100
AcDbEntity
  8
001
370
     9
  0
POLYLINE
  5
97
330
8C
100
AcDbEntity
  8
001
370
     9
100
AcDb2dPolyline
 66
     1
 10
0.0
 20
0.0
 30
0.0
  0
VERTEX
  5
99
330
97
100
AcDbEntity
  8
001
370
     9
100
AcDbVertex
100
AcDb2dVertex
 10
209.013818
 20
15.822227
 30
0.0
  0
VERTEX
  5
9A
330
97
100
AcDbEntity
  8
001
370
     9
100
AcDbVertex
100
AcDb2dVertex
 10
210.513818
 20
15.420303
 30
0.0
  0
VERTEX
  5
9B
330
97
100
AcDbEntity
  8
001
370
     9
100
AcDbVertex
100
AcDb2dVertex
 10
209.013818
 20
15.018379
 30
0.0
  0
SEQEND
  5
98
330
97
100
AcDbEntity
  8
001
370
     9
  0
TEXT
  5
9C
330
8C
100
AcDbEntity
  8
001
370
    30
100
AcDbText
 10
152.013818
 20
16.420303
 30
0.0
 40
4.0
  1
１０５
 41
0.833333
100
AcDbText
  0
POINT
  5
9D
330
8C
100
AcDbEntity
  8
001
370
     9
100
AcDbPoint
 10
105.513818
 20
46.135226
 30
0.0
  0
POINT
  5
9E
330
8C
100
AcDbEntity
  8
001
370
     9
100
AcDbPoint
 10
210.513818
 20
96.409079
 30
0.0
  0
POINT
  5
9F
330
8C
100
AcDbEntity
  8
001
370
     9
100
AcDbPoint
 10
210.513818
 20
15.420303
 30
0.0
  0
ENDBLK
  5
8E
330
8C
100
AcDbEntity
  8
0
100
AcDbBlockEnd
  0
BLOCK
  5
A1
330
A0
100
AcDbEntity
  8
0
100
AcDbBlockBegin
  2
*D4
 70
     1
 10
0.0
 20
0.0
 30
0.0
  3
*D4
  1

  0
LINE
  5
A3
330
A0
100
AcDbEntity
  8
001
370
     9
100
AcDbLine
 10
120.812974
 20
66.512386
 30
0.0
 11
120.812974
 21
36.156642
 31
0.0
  0
LINE
  5
A4
330
A0
100
AcDbEntity
  8
001
370
     9
100
AcDbLine
 10
105.513818
 20
46.135226
 30
0.0
 11
105.513818
 21
36.156642
 31
0.0
  0
LINE
  5
A5
330
A0
100
AcDbEntity
  8
001
370
     9
100
AcDbLine
 10
120.812974
 20
38.906642
 30
0.0
 11
105.513818
 21
38.906642
 31
0.0
  0
POLYLINE
  5
A6
330
A0
100
AcDbEntity
  8
001
370
     9
100
AcDb2dPolyline
 66
     1
 10
0.0
 20
0.0
 30
0.0
  0
VERTEX
  5
A8
330
A6
100
AcDbEntity
  8
001
370
     9
100
AcDbVertex
100
AcDb2dVertex
 10
122.312974
 20
38.504718
 30
0.0
  0
VERTEX
  5
A9
330
A6
100
AcDbEntity
  8
001
370
     9
100
AcDbVertex
100
AcDb2dVertex
 10
120.812974
 20
38.906642
 30
0.0
  0
VERTEX
  5
AA
330
A6
100
AcDbEntity
  8
001
370
     9
100
AcDbVertex
100
AcDb2dVertex
 10
122.312974
 20
39.308566
 30
0.0
  0
SEQEND
  5
A7
330
A6
100
AcDbEntity
  8
001
370
     9
  0
POLYLINE
  5
AB
330
A0
100
AcDbEntity
  8
001
370
     9
100
AcDb2dPolyline
 66
     1
 10
0.0
 20
0.0
 30
0.0
  0
VERTEX
  5
AD
330
AB
100
AcDbEntity
  8
001
370
     9
100
AcDbVertex
100
AcDb2dVertex
 10
104.013818
 20
39.308566
 30
0.0
  0
VERTEX
  5
AE
330
AB
100
AcDbEntity
  8
001
370
     9
100
AcDbVertex
100
AcDb2dVertex
 10
105.513818
 20
38.906642
 30
0.0
  0
VERTEX
  5
AF
330
AB
100
AcDbEntity
  8
001
370
     9
100
AcDbVertex
100
AcDb2dVertex
 10
104.013818
 20
38.504718
 30
0.0
  0
SEQEND
  5
AC
330
AB
100
AcDbEntity
  8
001
370
     9
  0
TEXT
  5
B0
330
A0
100
AcDbEntity
  8
001
370
    30
100
AcDbText
 10
78.013818
 20
39.906642
 30
0.0
 40
4.0
  1
（１５．３）
 41
0.833333
100
AcDbText
  0
POINT
  5
B1
330
A0
100
AcDbEntity
  8
001
370
     9
100
AcDbPoint
 10
120.812974
 20
66.512386
 30
0.0
  0
POINT
  5
B2
330
A0
100
AcDbEntity
  8
001
370
     9
100
AcDbPoint
 10
105.513818
 20
46.135226
 30
0.0
  0
POINT
  5
B3
330
A0
100
AcDbEntity
  8
001
370
     9
100
AcDbPoint
 10
105.513818
 20
38.906642
 30
0.0
  0
LINE
  5
B4
330
A0
100
AcDbEntity
  8
001
370
     9
100
AcDbLine
 10
120.812974
 20
38.906642
 30
0.0
 11
123.312974
 21
38.906642
 31
0.0
  0
LINE
  5
B5
330
A0
100
AcDbEntity
  8
001
370
     9
100
AcDbLine
 10
105.513818
 20
38.906642
 30
0.0
 11
75.013818
 21
38.906642
 31
0.0
  0
ENDBLK
  5
A2
330
A0
100
AcDbEntity
  8
0
100
AcDbBlockEnd
  0
BLOCK
  5
B7
330
B6
100
AcDbEntity
  8
0
100
AcDbBlockBegin
  2
*D5
 70
     1
 10
0.0
 20
0.0
 30
0.0
  3
*D5
  1

  0
LINE
  5
B9
330
B6
100
AcDbEntity
  8
001
370
     9
100
AcDbLine
 10
91.741775
 20
66.409079
 30
0.0
 11
85.552896
 21
66.409079
 31
0.0
  0
ARC
  5
BA
330
B6
100
AcDbEntity
  8
001
370
     9
100
AcDbCircle
 10
105.513818
 20
66.409079
 30
0.0
 40
17.21092174739346
100
AcDbArc
 50
180.0
 51
270.0
  0
POLYLINE
  5
BB
330
B6
100
AcDbEntity
  8
001
370
     9
100
AcDb2dPolyline
 66
     1
 10
0.0
 20
0.0
 30
0.0
  0
VERTEX
  5
BD
330
BB
100
AcDbEntity
  8
001
370
     9
100
AcDbVertex
100
AcDb2dVertex
 10
104.032751
 20
49.665044
 30
0.0
  0
VERTEX
  5
BE
330
BB
100
AcDbEntity
  8
001
370
     9
100
AcDbVertex
100
AcDb2dVertex
 10
105.513818
 20
49.198157
 30
0.0
  0
VERTEX
  5
BF
330
BB
100
AcDbEntity
  8
001
370
     9
100
AcDbVertex
100
AcDb2dVertex
 10
103.997733
 20
48.86196
 30
0.0
  0
SEQEND
  5
BC
330
BB
100
AcDbEntity
  8
001
370
     9
  0
POLYLINE
  5
C0
330
B6
100
AcDbEntity
  8
001
370
     9
100
AcDb2dPolyline
 66
     1
 10
0.0
 20
0.0
 30
0.0
  0
VERTEX
  5
C2
330
C0
100
AcDbEntity
  8
001
370
     9
100
AcDbVertex
100
AcDb2dVertex
 10
87.966699
 20
64.892994
 30
0.0
  0
VERTEX
  5
C3
330
C0
100
AcDbEntity
  8
001
370
     9
100
AcDbVertex
100
AcDb2dVertex
 10
88.302896
 20
66.409079
 30
0.0
  0
VERTEX
  5
C4
330
C0
100
AcDbEntity
  8
001
370
     9
100
AcDbVertex
100
AcDb2dVertex
 10
88.769783
 20
64.928012
 30
0.0
  0
SEQEND
  5
C1
330
C0
100
AcDbEntity
  8
001
370
     9
  0
TEXT
  5
C5
330
B6
100
AcDbEntity
  8
001
370
    30
100
AcDbText
 10
89.808325
 20
59.188867
 30
0.0
 40
4.0
  1
９０%%d
 50
314.999992
 41
0.978261
100
AcDbText
  0
POINT
  5
C6
330
B6
100
AcDbEntity
  8
001
370
     9
100
AcDbPoint
 10
105.513818
 20
51.948157
 30
0.0
  0
POINT
  5
C7
330
B6
100
AcDbEntity
  8
001
370
     9
100
AcDbPoint
 10
105.513818
 20
66.409079
 30
0.0
  0
POINT
  5
C8
330
B6
100
AcDbEntity
  8
001
370
     9
100
AcDbPoint
 10
105.513818
 20
66.409079
 30
0.0
  0
POINT
  5
C9
330
B6
100
AcDbEntity
  8
001
370
     9
100
AcDbPoint
 10
91.741775
 20
66.409079
 30
0.0
  0
ENDBLK
  5
B8
330
B6
100
AcDbEntity
  8
0
100
AcDbBlockEnd
  0
BLOCK
  5
CB
330
CA
100
AcDbEntity
  8
0
100
AcDbBlockBegin
  2
*D6
 70
     1
 10
0.0
 20
0.0
 30
0.0
  3
*D6
  1

  0
LINE
  5
CD
330
CA
100
AcDbEntity
  8
001
370
     9
100
AcDbLine
 10
204.513818
 20
122.409079
 30
0.0
 11
240.394509
 21
122.409079
 31
0.0
  0
LINE
  5
CE
330
CA
100
AcDbEntity
  8
001
370
     9
100
AcDbLine
 10
204.513818
 20
90.409079
 30
0.0
 11
240.394509
 21
90.409079
 31
0.0
  0
LINE
  5
CF
330
CA
100
AcDbEntity
  8
001
370
     9
100
AcDbLine
 10
237.644509
 20
122.409079
 30
0.0
 11
237.644509
 21
90.409079
 31
0.0
  0
POLYLINE
  5
D0
330
CA
100
AcDbEntity
  8
001
370
     9
100
AcDb2dPolyline
 66
     1
 10
0.0
 20
0.0
 30
0.0
  0
VERTEX
  5
D2
330
D0
100
AcDbEntity
  8
001
370
     9
100
AcDbVertex
100
AcDb2dVertex
 10
237.242585
 20
120.909079
 30
0.0
  0
VERTEX
  5
D3
330
D0
100
AcDbEntity
  8
001
370
     9
100
AcDbVertex
100
AcDb2dVertex
 10
237.644509
 20
122.409079
 30
0.0
  0
VERTEX
  5
D4
330
D0
100
AcDbEntity
  8
001
370
     9
100
AcDbVertex
100
AcDb2dVertex
 10
238.046433
 20
120.909079
 30
0.0
  0
SEQEND
  5
D1
330
D0
100
AcDbEntity
  8
001
370
     9
  0
POLYLINE
  5
D5
330
CA
100
AcDbEntity
  8
001
370
     9
100
AcDb2dPolyline
 66
     1
 10
0.0
 20
0.0
 30
0.0
  0
VERTEX
  5
D7
330
D5
100
AcDbEntity
  8
001
370
     9
100
AcDbVertex
100
AcDb2dVertex
 10
238.046433
 20
91.909079
 30
0.0
  0
VERTEX
  5
D8
330
D5
100
AcDbEntity
  8
001
370
     9
100
AcDbVertex
100
AcDb2dVertex
 10
237.644509
 20
90.409079
 30
0.0
  0
VERTEX
  5
D9
330
D5
100
AcDbEntity
  8
001
370
     9
100
AcDbVertex
100
AcDb2dVertex
 10
237.242585
 20
91.909079
 30
0.0
  0
SEQEND
  5
D6
330
D5
100
AcDbEntity
  8
001
370
     9
  0
TEXT
  5
DA
330
CA
100
AcDbEntity
  8
001
370
    30
100
AcDbText
 10
236.644509
 20
100.409079
 30
0.0
 40
4.0
  1
%%c３２
 50
90.000003
 41
0.882353
100
AcDbText
  0
POINT
  5
DB
330
CA
100
AcDbEntity
  8
001
370
     9
100
AcDbPoint
 10
204.513818
 20
122.409079
 30
0.0
  0
POINT
  5
DC
330
CA
100
AcDbEntity
  8
001
370
     9
100
AcDbPoint
 10
204.513818
 20
90.409079
 30
0.0
  0
POINT
  5
DD
330
CA
100
AcDbEntity
  8
001
370
     9
100
AcDbPoint
 10
237.644509
 20
90.409079
 30
0.0
  0
ENDBLK
  5
CC
330
CA
100
AcDbEntity
  8
0
100
AcDbBlockEnd
  0
BLOCK
  5
DF
330
DE
100
AcDbEntity
  8
0
100
AcDbBlockBegin
  2
*D7
 70
     1
 10
0.0
 20
0.0
 30
0.0
  3
*D7
  1

  0
LINE
  5
E1
330
DE
100
AcDbEntity
  8
001
370
     9
100
AcDbLine
 10
130.513818
 20
289.26277
 30
0.0
 11
130.513818
 21
241.051093
 31
0.0
  0
LINE
  5
E2
330
DE
100
AcDbEntity
  8
001
370
     9
100
AcDbLine
 10
105.513818
 20
262.588916
 30
0.0
 11
105.513818
 21
241.051093
 31
0.0
  0
LINE
  5
E3
330
DE
100
AcDbEntity
  8
001
370
     9
100
AcDbLine
 10
130.513818
 20
243.801093
 30
0.0
 11
105.513818
 21
243.801093
 31
0.0
  0
POLYLINE
  5
E4
330
DE
100
AcDbEntity
  8
001
370
     9
100
AcDb2dPolyline
 66
     1
 10
0.0
 20
0.0
 30
0.0
  0
VERTEX
  5
E6
330
E4
100
AcDbEntity
  8
001
370
     9
100
AcDbVertex
100
AcDb2dVertex
 10
129.013818
 20
244.203017
 30
0.0
  0
VERTEX
  5
E7
330
E4
100
AcDbEntity
  8
001
370
     9
100
AcDbVertex
100
AcDb2dVertex
 10
130.513818
 20
243.801093
 30
0.0
  0
VERTEX
  5
E8
330
E4
100
AcDbEntity
  8
001
370
     9
100
AcDbVertex
100
AcDb2dVertex
 10
129.013818
 20
243.399169
 30
0.0
  0
SEQEND
  5
E5
330
E4
100
AcDbEntity
  8
001
370
     9
  0
POLYLINE
  5
E9
330
DE
100
AcDbEntity
  8
001
370
     9
100
AcDb2dPolyline
 66
     1
 10
0.0
 20
0.0
 30
0.0
  0
VERTEX
  5
EB
330
E9
100
AcDbEntity
  8
001
370
     9
100
AcDbVertex
100
AcDb2dVertex
 10
107.013818
 20
243.399169
 30
0.0
  0
VERTEX
  5
EC
330
E9
100
AcDbEntity
  8
001
370
     9
100
AcDbVertex
100
AcDb2dVertex
 10
105.513818
 20
243.801093
 30
0.0
  0
VERTEX
  5
ED
330
E9
100
AcDbEntity
  8
001
370
     9
100
AcDbVertex
100
AcDb2dVertex
 10
107.013818
 20
244.203017
 30
0.0
  0
SEQEND
  5
EA
330
E9
100
AcDbEntity
  8
001
370
     9
  0
TEXT
  5
EE
330
DE
100
AcDbEntity
  8
001
370
    30
100
AcDbText
 10
114.013818
 20
244.801093
 30
0.0
 40
4.0
  1
２５
 41
0.833333
100
AcDbText
  0
POINT
  5
EF
330
DE
100
AcDbEntity
  8
001
370
     9
100
AcDbPoint
 10
130.513818
 20
289.26277
 30
0.0
  0
POINT
  5
F0
330
DE
100
AcDbEntity
  8
001
370
     9
100
AcDbPoint
 10
105.513818
 20
262.588916
 30
0.0
  0
POINT
  5
F1
330
DE
100
AcDbEntity
  8
001
370
     9
100
AcDbPoint
 10
105.513818
 20
243.801093
 30
0.0
  0
ENDBLK
  5
E0
330
DE
100
AcDbEntity
  8
0
100
AcDbBlockEnd
  0
BLOCK
  5
F3
330
F2
100
AcDbEntity
  8
0
100
AcDbBlockBegin
  2
*D8
 70
     1
 10
0.0
 20
0.0
 30
0.0
  3
*D8
  1

  0
LINE
  5
F5
330
F2
100
AcDbEntity
  8
001
370
     9
100
AcDbLine
 10
120.812974
 20
282.966077
 30
0.0
 11
120.812974
 21
252.610333
 31
0.0
  0
LINE
  5
F6
330
F2
100
AcDbEntity
  8
001
370
     9
100
AcDbLine
 10
105.513818
 20
262.588916
 30
0.0
 11
105.513818
 21
252.610333
 31
0.0
  0
LINE
  5
F7
330
F2
100
AcDbEntity
  8
001
370
     9
100
AcDbLine
 10
120.812974
 20
255.360333
 30
0.0
 11
105.513818
 21
255.360333
 31
0.0
  0
POLYLINE
  5
F8
330
F2
100
AcDbEntity
  8
001
370
     9
100
AcDb2dPolyline
 66
     1
 10
0.0
 20
0.0
 30
0.0
  0
VERTEX
  5
FA
330
F8
100
AcDbEntity
  8
001
370
     9
100
AcDbVertex
100
AcDb2dVertex
 10
122.312974
 20
254.958409
 30
0.0
  0
VERTEX
  5
FB
330
F8
100
AcDbEntity
  8
001
370
     9
100
AcDbVertex
100
AcDb2dVertex
 10
120.812974
 20
255.360333
 30
0.0
  0
VERTEX
  5
FC
330
F8
100
AcDbEntity
  8
001
370
     9
100
AcDbVertex
100
AcDb2dVertex
 10
122.312974
 20
255.762257
 30
0.0
  0
SEQEND
  5
F9
330
F8
100
AcDbEntity
  8
001
370
     9
  0
POLYLINE
  5
FD
330
F2
100
AcDbEntity
  8
001
370
     9
100
AcDb2dPolyline
 66
     1
 10
0.0
 20
0.0
 30
0.0
  0
VERTEX
  5
FF
330
FD
100
AcDbEntity
  8
001
370
     9
100
AcDbVertex
100
AcDb2dVertex
 10
104.013818
 20
255.762257
 30
0.0
  0
VERTEX
  5
100
330
FD
100
AcDbEntity
  8
001
370
     9
100
AcDbVertex
100
AcDb2dVertex
 10
105.513818
 20
255.360333
 30
0.0
  0
VERTEX
  5
101
330
FD
100
AcDbEntity
  8
001
370
     9
100
AcDbVertex
100
AcDb2dVertex
 10
104.013818
 20
254.958409
 30
0.0
  0
SEQEND
  5
FE
330
FD
100
AcDbEntity
  8
001
370
     9
  0
TEXT
  5
102
330
F2
100
AcDbEntity
  8
001
370
    30
100
AcDbText
 10
78.013818
 20
256.360333
 30
0.0
 40
4.0
  1
（１５．３）
 41
0.833333
100
AcDbText
  0
POINT
  5
103
330
F2
100
AcDbEntity
  8
001
370
     9
100
AcDbPoint
 10
120.812974
 20
282.966077
 30
0.0
  0
POINT
  5
104
330
F2
100
AcDbEntity
  8
001
370
     9
100
AcDbPoint
 10
105.513818
 20
262.588916
 30
0.0
  0
POINT
  5
105
330
F2
100
AcDbEntity
  8
001
370
     9
100
AcDbPoint
 10
105.513818
 20
255.360333
 30
0.0
  0
LINE
  5
106
330
F2
100
AcDbEntity
  8
001
370
     9
100
AcDbLine
 10
120.812974
 20
255.360333
 30
0.0
 11
123.312974
 21
255.360333
 31
0.0
  0
LINE
  5
107
330
F2
100
AcDbEntity
  8
001
370
     9
100
AcDbLine
 10
105.513818
 20
255.360333
 30
0.0
 11
75.013818
 21
255.360333
 31
0.0
  0
ENDBLK
  5
F4
330
F2
100
AcDbEntity
  8
0
100
AcDbBlockEnd
  0
BLOCK
  5
109
330
108
100
AcDbEntity
  8
0
100
AcDbBlockBegin
  2
*D9
 70
     1
 10
0.0
 20
0.0
 30
0.0
  3
*D9
  1

  0
LINE
  5
10B
330
108
100
AcDbEntity
  8
001
370
     9
100
AcDbLine
 10
91.741775
 20
282.86277
 30
0.0
 11
85.552896
 21
282.86277
 31
0.0
  0
ARC
  5
10C
330
108
100
AcDbEntity
  8
001
370
     9
100
AcDbCircle
 10
105.513818
 20
282.86277
 30
0.0
 40
17.21092174739346
100
AcDbArc
 50
180.0
 51
270.0
  0
POLYLINE
  5
10D
330
108
100
AcDbEntity
  8
001
370
     9
100
AcDb2dPolyline
 66
     1
 10
0.0
 20
0.0
 30
0.0
  0
VERTEX
  5
10F
330
10D
100
AcDbEntity
  8
001
370
     9
100
AcDbVertex
100
AcDb2dVertex
 10
104.032751
 20
266.118735
 30
0.0
  0
VERTEX
  5
110
330
10D
100
AcDbEntity
  8
001
370
     9
100
AcDbVertex
100
AcDb2dVertex
 10
105.513818
 20
265.651848
 30
0.0
  0
VERTEX
  5
111
330
10D
100
AcDbEntity
  8
001
370
     9
100
AcDbVertex
100
AcDb2dVertex
 10
103.997733
 20
265.315651
 30
0.0
  0
SEQEND
  5
10E
330
10D
100
AcDbEntity
  8
001
370
     9
  0
POLYLINE
  5
112
330
108
100
AcDbEntity
  8
001
370
     9
100
AcDb2dPolyline
 66
     1
 10
0.0
 20
0.0
 30
0.0
  0
VERTEX
  5
114
330
112
100
AcDbEntity
  8
001
370
     9
100
AcDbVertex
100
AcDb2dVertex
 10
87.966699
 20
281.346685
 30
0.0
  0
VERTEX
  5
115
330
112
100
AcDbEntity
  8
001
370
     9
100
AcDbVertex
100
AcDb2dVertex
 10
88.302896
 20
282.86277
 30
0.0
  0
VERTEX
  5
116
330
112
100
AcDbEntity
  8
001
370
     9
100
AcDbVertex
100
AcDb2dVertex
 10
88.769783
 20
281.381703
 30
0.0
  0
SEQEND
  5
113
330
112
100
AcDbEntity
  8
001
370
     9
  0
TEXT
  5
117
330
108
100
AcDbEntity
  8
001
370
    30
100
AcDbText
 10
89.808325
 20
275.642558
 30
0.0
 40
4.0
  1
９０%%d
 50
314.999992
 41
0.978261
100
AcDbText
  0
POINT
  5
118
330
108
100
AcDbEntity
  8
001
370
     9
100
AcDbPoint
 10
105.513818
 20
268.401848
 30
0.0
  0
POINT
  5
119
330
108
100
AcDbEntity
  8
001
370
     9
100
AcDbPoint
 10
105.513818
 20
282.86277
 30
0.0
  0
POINT
  5
11A
330
108
100
AcDbEntity
  8
001
370
     9
100
AcDbPoint
 10
105.513818
 20
282.86277
 30
0.0
  0
POINT
  5
11B
330
108
100
AcDbEntity
  8
001
370
     9
100
AcDbPoint
 10
91.741775
 20
282.86277
 30
0.0
  0
ENDBLK
  5
10A
330
108
100
AcDbEntity
  8
0
100
AcDbBlockEnd
  0
BLOCK
  5
11D
330
11C
100
AcDbEntity
  8
0
100
AcDbBlockBegin
  2
*D10
 70
     1
 10
0.0
 20
0.0
 30
0.0
  3
*D10
  1

  0
LINE
  5
11F
330
11C
100
AcDbEntity
  8
001
370
     9
100
AcDbLine
 10
274.513818
 20
338.86277
 30
0.0
 11
310.394509
 21
338.86277
 31
0.0
  0
LINE
  5
120
330
11C
100
AcDbEntity
  8
001
370
     9
100
AcDbLine
 10
274.513818
 20
306.86277
 30
0.0
 11
310.394509
 21
306.86277
 31
0.0
  0
LINE
  5
121
330
11C
100
AcDbEntity
  8
001
370
     9
100
AcDbLine
 10
307.644509
 20
338.86277
 30
0.0
 11
307.644509
 21
306.86277
 31
0.0
  0
POLYLINE
  5
122
330
11C
100
AcDbEntity
  8
001
370
     9
100
AcDb2dPolyline
 66
     1
 10
0.0
 20
0.0
 30
0.0
  0
VERTEX
  5
124
330
122
100
AcDbEntity
  8
001
370
     9
100
AcDbVertex
100
AcDb2dVertex
 10
307.242585
 20
337.36277
 30
0.0
  0
VERTEX
  5
125
330
122
100
AcDbEntity
  8
001
370
     9
100
AcDbVertex
100
AcDb2dVertex
 10
307.644509
 20
338.86277
 30
0.0
  0
VERTEX
  5
126
330
122
100
AcDbEntity
  8
001
370
     9
100
AcDbVertex
100
AcDb2dVertex
 10
308.046433
 20
337.36277
 30
0.0
  0
SEQEND
  5
123
330
122
100
AcDbEntity
  8
001
370
     9
  0
POLYLINE
  5
127
330
11C
100
AcDbEntity
  8
001
370
     9
100
AcDb2dPolyline
 66
     1
 10
0.0
 20
0.0
 30
0.0
  0
VERTEX
  5
129
330
127
100
AcDbEntity
  8
001
370
     9
100
AcDbVertex
100
AcDb2dVertex
 10
308.046433
 20
308.36277
 30
0.0
  0
VERTEX
  5
12A
330
127
100
AcDbEntity
  8
001
370
     9
100
AcDbVertex
100
AcDb2dVertex
 10
307.644509
 20
306.86277
 30
0.0
  0
VERTEX
  5
12B
330
127
100
AcDbEntity
  8
001
370
     9
100
AcDbVertex
100
AcDb2dVertex
 10
307.242585
 20
308.36277
 30
0.0
  0
SEQEND
  5
128
330
127
100
AcDbEntity
  8
001
370
     9
  0
TEXT
  5
12C
330
11C
100
AcDbEntity
  8
001
370
    30
100
AcDbText
 10
306.644509
 20
316.86277
 30
0.0
 40
4.0
  1
%%c３２
 50
90.000003
 41
0.882353
100
AcDbText
  0
POINT
  5
12D
330
11C
100
AcDbEntity
  8
001
370
     9
100
AcDbPoint
 10
274.513818
 20
338.86277
 30
0.0
  0
POINT
  5
12E
330
11C
100
AcDbEntity
  8
001
370
     9
100
AcDbPoint
 10
274.513818
 20
306.86277
 30
0.0
  0
POINT
  5
12F
330
11C
100
AcDbEntity
  8
001
370
     9
100
AcDbPoint
 10
307.644509
 20
306.86277
 30
0.0
  0
ENDBLK
  5
11E
330
11C
100
AcDbEntity
  8
0
100
AcDbBlockEnd
  0
BLOCK
  5
131
330
130
100
AcDbEntity
  8
0
100
AcDbBlockBegin
  2
*D11
 70
     1
 10
0.0
 20
0.0
 30
0.0
  3
*D11
  1

  0
LINE
  5
133
330
130
100
AcDbEntity
  8
001
370
     9
100
AcDbLine
 10
105.513818
 20
262.588916
 30
0.0
 11
105.513818
 21
229.123994
 31
0.0
  0
LINE
  5
134
330
130
100
AcDbEntity
  8
001
370
     9
100
AcDbLine
 10
280.513818
 20
312.86277
 30
0.0
 11
280.513818
 21
229.123994
 31
0.0
  0
LINE
  5
135
330
130
100
AcDbEntity
  8
001
370
     9
100
AcDbLine
 10
105.513818
 20
231.873994
 30
0.0
 11
280.513818
 21
231.873994
 31
0.0
  0
POLYLINE
  5
136
330
130
100
AcDbEntity
  8
001
370
     9
100
AcDb2dPolyline
 66
     1
 10
0.0
 20
0.0
 30
0.0
  0
VERTEX
  5
138
330
136
100
AcDbEntity
  8
001
370
     9
100
AcDbVertex
100
AcDb2dVertex
 10
107.013818
 20
231.47207
 30
0.0
  0
VERTEX
  5
139
330
136
100
AcDbEntity
  8
001
370
     9
100
AcDbVertex
100
AcDb2dVertex
 10
105.513818
 20
231.873994
 30
0.0
  0
VERTEX
  5
13A
330
136
100
AcDbEntity
  8
001
370
     9
100
AcDbVertex
100
AcDb2dVertex
 10
107.013818
 20
232.275918
 30
0.0
  0
SEQEND
  5
137
330
136
100
AcDbEntity
  8
001
370
     9
  0
POLYLINE
  5
13B
330
130
100
AcDbEntity
  8
001
370
     9
100
AcDb2dPolyline
 66
     1
 10
0.0
 20
0.0
 30
0.0
  0
VERTEX
  5
13D
330
13B
100
AcDbEntity
  8
001
370
     9
100
AcDbVertex
100
AcDb2dVertex
 10
279.013818
 20
232.275918
 30
0.0
  0
VERTEX
  5
13E
330
13B
100
AcDbEntity
  8
001
370
     9
100
AcDbVertex
100
AcDb2dVertex
 10
280.513818
 20
231.873994
 30
0.0
  0
VERTEX
  5
13F
330
13B
100
AcDbEntity
  8
001
370
     9
100
AcDbVertex
100
AcDb2dVertex
 10
279.013818
 20
231.47207
 30
0.0
  0
SEQEND
  5
13C
330
13B
100
AcDbEntity
  8
001
370
     9
  0
TEXT
  5
140
330
130
100
AcDbEntity
  8
001
370
    30
100
AcDbText
 10
187.013818
 20
232.873994
 30
0.0
 40
4.0
  1
１７５
 41
0.833333
100
AcDbText
  0
POINT
  5
141
330
130
100
AcDbEntity
  8
001
370
     9
100
AcDbPoint
 10
105.513818
 20
262.588916
 30
0.0
  0
POINT
  5
142
330
130
100
AcDbEntity
  8
001
370
     9
100
AcDbPoint
 10
280.513818
 20
312.86277
 30
0.0
  0
POINT
  5
143
330
130
100
AcDbEntity
  8
001
370
     9
100
AcDbPoint
 10
280.513818
 20
231.873994
 30
0.0
  0
ENDBLK
  5
132
330
130
100
AcDbEntity
  8
0
100
AcDbBlockEnd
  0
BLOCK
  5
145
330
144
100
AcDbEntity
  8
0
100
AcDbBlockBegin
  2
*D12
 70
     1
 10
0.0
 20
0.0
 30
0.0
  3
*D12
  1

  0
LINE
  5
147
330
144
100
AcDbEntity
  8
001
370
     9
100
AcDbLine
 10
280.513818
 20
312.86277
 30
0.0
 11
280.513818
 21
241.051093
 31
0.0
  0
LINE
  5
148
330
144
100
AcDbEntity
  8
001
370
     9
100
AcDbLine
 10
130.513818
 20
289.26277
 30
0.0
 11
130.513818
 21
241.051093
 31
0.0
  0
LINE
  5
149
330
144
100
AcDbEntity
  8
001
370
     9
100
AcDbLine
 10
280.513818
 20
243.801093
 30
0.0
 11
130.513818
 21
243.801093
 31
0.0
  0
POLYLINE
  5
14A
330
144
100
AcDbEntity
  8
001
370
     9
100
AcDb2dPolyline
 66
     1
 10
0.0
 20
0.0
 30
0.0
  0
VERTEX
  5
14C
330
14A
100
AcDbEntity
  8
001
370
     9
100
AcDbVertex
100
AcDb2dVertex
 10
279.013818
 20
244.203017
 30
0.0
  0
VERTEX
  5
14D
330
14A
100
AcDbEntity
  8
001
370
     9
100
AcDbVertex
100
AcDb2dVertex
 10
280.513818
 20
243.801093
 30
0.0
  0
VERTEX
  5
14E
330
14A
100
AcDbEntity
  8
001
370
     9
100
AcDbVertex
100
AcDb2dVertex
 10
279.013818
 20
243.399169
 30
0.0
  0
SEQEND
  5
14B
330
14A
100
AcDbEntity
  8
001
370
     9
  0
POLYLINE
  5
14F
330
144
100
AcDbEntity
  8
001
370
     9
100
AcDb2dPolyline
 66
     1
 10
0.0
 20
0.0
 30
0.0
  0
VERTEX
  5
151
330
14F
100
AcDbEntity
  8
001
370
     9
100
AcDbVertex
100
AcDb2dVertex
 10
132.013818
 20
243.399169
 30
0.0
  0
VERTEX
  5
152
330
14F
100
AcDbEntity
  8
001
370
     9
100
AcDbVertex
100
AcDb2dVertex
 10
130.513818
 20
243.801093
 30
0.0
  0
VERTEX
  5
153
330
14F
100
AcDbEntity
  8
001
370
     9
100
AcDbVertex
100
AcDb2dVertex
 10
132.013818
 20
244.203017
 30
0.0
  0
SEQEND
  5
150
330
14F
100
AcDbEntity
  8
001
370
     9
  0
TEXT
  5
154
330
144
100
AcDbEntity
  8
001
370
    30
100
AcDbText
 10
199.513818
 20
244.801093
 30
0.0
 40
4.0
  1
１５０
 41
0.833333
100
AcDbText
  0
POINT
  5
155
330
144
100
AcDbEntity
  8
001
370
     9
100
AcDbPoint
 10
280.513818
 20
312.86277
 30
0.0
  0
POINT
  5
156
330
144
100
AcDbEntity
  8
001
370
     9
100
AcDbPoint
 10
130.513818
 20
289.26277
 30
0.0
  0
POINT
  5
157
330
144
100
AcDbEntity
  8
001
370
     9
100
AcDbPoint
 10
130.513818
 20
243.801093
 30
0.0
  0
ENDBLK
  5
146
330
144
100
AcDbEntity
  8
0
100
AcDbBlockEnd
  0
ENDSEC
  0
SECTION
  2
ENTITIES
  0
TEXT
  5
158
330
1F
100
AcDbEntity
  8
001
370
    30
100
AcDbText
 10
78.317236
 20
100.409079
 30
0.0
 40
4.0
  1
%%c８０
 50
90.000003
 41
0.882353
100
AcDbText
  0
POLYLINE
  5
159
330
1F
100
AcDbEntity
  8
001
370
     9
100
AcDb2dPolyline
 66
     1
 10
0.0
 20
0.0
 30
0.0
  0
VERTEX
  5
15B
330
159
100
AcDbEntity
  8
001
370
     9
100
AcDbVertex
100
AcDb2dVertex
 10
79.719159
 20
67.909079
 30
0.0
  0
VERTEX
  5
15C
330
159
100
AcDbEntity
  8
001
370
     9
100
AcDbVertex
100
AcDb2dVertex
 10
79.317236
 20
66.409079
 30
0.0
  0
VERTEX
  5
15D
330
159
100
AcDbEntity
  8
001
370
     9
100
AcDbVertex
100
AcDb2dVertex
 10
78.915312
 20
67.909079
 30
0.0
  0
SEQEND
  5
15A
330
159
100
AcDbEntity
  8
001
370
     9
  0
LINE
  5
15E
330
1F
100
AcDbEntity
  8
001
370
     9
100
AcDbLine
 10
79.317236
 20
146.409079
 30
0.0
 11
79.317236
 21
66.409079
 31
0.0
  0
POLYLINE
  5
15F
330
1F
100
AcDbEntity
  8
001
370
     9
100
AcDb2dPolyline
 66
     1
 10
0.0
 20
0.0
 30
0.0
  0
VERTEX
  5
161
330
15F
100
AcDbEntity
  8
001
370
     9
100
AcDbVertex
100
AcDb2dVertex
 10
91.741775
 20
66.409079
 30
0.0
  0
VERTEX
  5
162
330
15F
100
AcDbEntity
  8
001
370
     9
100
AcDbVertex
100
AcDb2dVertex
 10
79.317236
 20
66.409079
 30
0.0
  0
VERTEX
  5
163
330
15F
100
AcDbEntity
  8
001
370
     9
100
AcDbVertex
100
AcDb2dVertex
 10
76.567236
 20
66.409079
 30
0.0
  0
SEQEND
  5
160
330
15F
100
AcDbEntity
  8
001
370
     9
  0
DIMENSION
  5
164
330
1F
100
AcDbEntity
  8
001
370
     9
100
AcDbDimension
  2
*D1
 10
105.513818
 20
27.347403
 30
0.0
 11
118.013818
 21
30.347403
 31
0.0
 70
   160
 71
     5
 42
-1.0
  3
Standard
100
AcDbAlignedDimension
 13
130.513818
 23
72.809079
 33
0.0
 14
105.513818
 24
46.135226
 34
0.0
 50
180.0
100
AcDbRotatedDimension
  0
DIMENSION
  5
165
330
1F
100
AcDbEntity
  8
001
370
     9
100
AcDbDimension
  2
*D2
 10
130.513818
 20
27.347403
 30
0.0
 11
170.513818
 21
30.347403
 31
0.0
 70
   160
 71
     5
 42
-1.0
  3
Standard
100
AcDbAlignedDimension
 13
210.513818
 23
96.409079
 33
0.0
 14
130.513818
 24
72.809079
 34
0.0
 50
180.0
100
AcDbRotatedDimension
  0
DIMENSION
  5
166
330
1F
100
AcDbEntity
  8
001
370
     9
100
AcDbDimension
  2
*D3
 10
210.513818
 20
15.420303
 30
0.0
 11
158.013818
 21
18.420303
 31
0.0
 70
   160
 71
     5
 42
-1.0
  3
Standard
100
AcDbAlignedDimension
 13
105.513818
 23
46.135226
 33
0.0
 14
210.513818
 24
96.409079
 34
0.0
100
AcDbRotatedDimension
  0
DIMENSION
  5
167
330
1F
100
AcDbEntity
  8
001
370
     9
100
AcDbDimension
  2
*D4
 10
105.513818
 20
38.906642
 30
0.0
 11
90.013818
 21
41.906642
 31
0.0
 70
   160
 71
     5
 42
-1.0
  3
Standard
100
AcDbAlignedDimension
 13
120.812974
 23
66.512386
 33
0.0
 14
105.513818
 24
46.135226
 34
0.0
 50
180.0
100
AcDbRotatedDimension
  0
DIMENSION
  5
168
330
1F
100
AcDbEntity
  8
001
370
     9
100
AcDbDimension
  2
*D5
 10
105.513818
 20
66.409079
 30
0.0
 11
95.465179
 21
56.360439
 31
0.0
 70
    34
 71
     5
 42
-1.0
  3
Standard
100
AcDb2LineAngularDimension
 13
105.513818
 23
51.948157
 33
0.0
 14
105.513818
 24
66.409079
 34
0.0
 15
91.741775
 25
66.409079
 35
0.0
 16
93.343859
 26
54.23912
 36
0.0
  0
DIMENSION
  5
169
330
1F
100
AcDbEntity
  8
001
370
     9
100
AcDbDimension
  2
*D6
 10
237.644509
 20
90.409079
 30
0.0
 11
234.644509
 21
106.409079
 31
0.0
 70
   160
 71
     5
 42
-1.0
  3
Standard
100
AcDbAlignedDimension
 13
204.513818
 23
122.409079
 33
0.0
 14
204.513818
 24
90.409079
 34
0.0
 50
270.0
100
AcDbRotatedDimension
  0
TEXT
  5
16A
330
1F
100
AcDbEntity
  8
001
370
    30
100
AcDbText
 10
60.297433
 20
57.361252
 30
0.0
 40
4.0
  1
Ｒ０．５
 41
0.833333
100
AcDbText
  0
POLYLINE
  5
16B
330
1F
100
AcDbEntity
  8
001
370
     9
100
AcDb2dPolyline
 66
     1
 10
0.0
 20
0.0
 30
0.0
  0
VERTEX
  5
16D
330
16B
100
AcDbEntity
  8
001
370
     9
100
AcDbVertex
100
AcDb2dVertex
 10
104.001645
 20
66.573366
 30
0.0
  0
VERTEX
  5
16E
330
16B
100
AcDbEntity
  8
001
370
     9
100
AcDbVertex
100
AcDb2dVertex
 10
105.546514
 20
66.731241
 30
0.0
  0
VERTEX
  5
16F
330
16B
100
AcDbEntity
  8
001
370
     9
100
AcDbVertex
100
AcDb2dVertex
 10
104.287556
 20
65.822083
 30
0.0
  0
SEQEND
  5
16C
330
16B
100
AcDbEntity
  8
001
370
     9
  0
POLYLINE
  5
170
330
1F
100
AcDbEntity
  8
001
370
     9
100
AcDb2dPolyline
 66
     1
 10
0.0
 20
0.0
 30
0.0
  0
VERTEX
  5
172
330
170
100
AcDbEntity
  8
001
370
     9
100
AcDbVertex
100
AcDb2dVertex
 10
105.546514
 20
66.731241
 30
0.0
  0
VERTEX
  5
173
330
170
100
AcDbEntity
  8
001
370
     9
100
AcDbVertex
100
AcDb2dVertex
 10
78.297433
 20
56.361252
 30
0.0
  0
VERTEX
  5
174
330
170
100
AcDbEntity
  8
001
370
     9
100
AcDbVertex
100
AcDb2dVertex
 10
58.297433
 20
56.361252
 30
0.0
  0
SEQEND
  5
171
330
170
100
AcDbEntity
  8
001
370
     9
  0
TEXT
  5
175
330
1F
100
AcDbEntity
  8
001
370
    30
100
AcDbText
 10
78.317236
 20
316.86277
 30
0.0
 40
4.0
  1
%%c８０
 50
90.000003
 41
0.882353
100
AcDbText
  0
POLYLINE
  5
176
330
1F
100
AcDbEntity
  8
001
370
     9
100
AcDb2dPolyline
 66
     1
 10
0.0
 20
0.0
 30
0.0
  0
VERTEX
  5
178
330
176
100
AcDbEntity
  8
001
370
     9
100
AcDbVertex
100
AcDb2dVertex
 10
79.719159
 20
284.36277
 30
0.0
  0
VERTEX
  5
179
330
176
100
AcDbEntity
  8
001
370
     9
100
AcDbVertex
100
AcDb2dVertex
 10
79.317236
 20
282.86277
 30
0.0
  0
VERTEX
  5
17A
330
176
100
AcDbEntity
  8
001
370
     9
100
AcDbVertex
100
AcDb2dVertex
 10
78.915312
 20
284.36277
 30
0.0
  0
SEQEND
  5
177
330
176
100
AcDbEntity
  8
001
370
     9
  0
LINE
  5
17B
330
1F
100
AcDbEntity
  8
001
370
     9
100
AcDbLine
 10
79.317236
 20
362.86277
 30
0.0
 11
79.317236
 21
282.86277
 31
0.0
  0
POLYLINE
  5
17C
330
1F
100
AcDbEntity
  8
001
370
     9
100
AcDb2dPolyline
 66
     1
 10
0.0
 20
0.0
 30
0.0
  0
VERTEX
  5
17E
330
17C
100
AcDbEntity
  8
001
370
     9
100
AcDbVertex
100
AcDb2dVertex
 10
91.741775
 20
282.86277
 30
0.0
  0
VERTEX
  5
17F
330
17C
100
AcDbEntity
  8
001
370
     9
100
AcDbVertex
100
AcDb2dVertex
 10
79.317236
 20
282.86277
 30
0.0
  0
VERTEX
  5
180
330
17C
100
AcDbEntity
  8
001
370
     9
100
AcDbVertex
100
AcDb2dVertex
 10
76.567236
 20
282.86277
 30
0.0
  0
SEQEND
  5
17D
330
17C
100
AcDbEntity
  8
001
370
     9
  0
DIMENSION
  5
181
330
1F
100
AcDbEntity
  8
001
370
     9
100
AcDbDimension
  2
*D7
 10
105.513818
 20
243.801093
 30
0.0
 11
118.013818
 21
246.801093
 31
0.0
 70
   160
 71
     5
 42
-1.0
  3
Standard
100
AcDbAlignedDimension
 13
130.513818
 23
289.26277
 33
0.0
 14
105.513818
 24
262.588916
 34
0.0
 50
180.0
100
AcDbRotatedDimension
  0
DIMENSION
  5
182
330
1F
100
AcDbEntity
  8
001
370
     9
100
AcDbDimension
  2
*D8
 10
105.513818
 20
255.360333
 30
0.0
 11
90.013818
 21
258.360333
 31
0.0
 70
   160
 71
     5
 42
-1.0
  3
Standard
100
AcDbAlignedDimension
 13
120.812974
 23
282.966077
 33
0.0
 14
105.513818
 24
262.588916
 34
0.0
 50
180.0
100
AcDbRotatedDimension
  0
DIMENSION
  5
183
330
1F
100
AcDbEntity
  8
001
370
     9
100
AcDbDimension
  2
*D9
 10
105.513818
 20
282.86277
 30
0.0
 11
95.465179
 21
272.81413
 31
0.0
 70
    34
 71
     5
 42
-1.0
  3
Standard
100
AcDb2LineAngularDimension
 13
105.513818
 23
268.401848
 33
0.0
 14
105.513818
 24
282.86277
 34
0.0
 15
91.741775
 25
282.86277
 35
0.0
 16
93.343859
 26
270.69281
 36
0.0
  0
DIMENSION
  5
184
330
1F
100
AcDbEntity
  8
001
370
     9
100
AcDbDimension
  2
*D10
 10
307.644509
 20
306.86277
 30
0.0
 11
304.644509
 21
322.86277
 31
0.0
 70
   160
 71
     5
 42
-1.0
  3
Standard
100
AcDbAlignedDimension
 13
274.513818
 23
338.86277
 33
0.0
 14
274.513818
 24
306.86277
 34
0.0
 50
270.0
100
AcDbRotatedDimension
  0
TEXT
  5
185
330
1F
100
AcDbEntity
  8
001
370
    30
100
AcDbText
 10
60.297433
 20
273.814943
 30
0.0
 40
4.0
  1
Ｒ０．５
 41
0.833333
100
AcDbText
  0
POLYLINE
  5
186
330
1F
100
AcDbEntity
  8
001
370
     9
100
AcDb2dPolyline
 66
     1
 10
0.0
 20
0.0
 30
0.0
  0
VERTEX
  5
188
330
186
100
AcDbEntity
  8
001
370
     9
100
AcDbVertex
100
AcDb2dVertex
 10
104.001645
 20
283.027056
 30
0.0
  0
VERTEX
  5
189
330
186
100
AcDbEntity
  8
001
370
     9
100
AcDbVertex
100
AcDb2dVertex
 10
105.546514
 20
283.184931
 30
0.0
  0
VERTEX
  5
18A
330
186
100
AcDbEntity
  8
001
370
     9
100
AcDbVertex
100
AcDb2dVertex
 10
104.287556
 20
282.275773
 30
0.0
  0
SEQEND
  5
187
330
186
100
AcDbEntity
  8
001
370
     9
  0
POLYLINE
  5
18B
330
1F
100
AcDbEntity
  8
001
370
     9
100
AcDb2dPolyline
 66
     1
 10
0.0
 20
0.0
 30
0.0
  0
VERTEX
  5
18D
330
18B
100
AcDbEntity
  8
001
370
     9
100
AcDbVertex
100
AcDb2dVertex
 10
105.546514
 20
283.184931
 30
0.0
  0
VERTEX
  5
18E
330
18B
100
AcDbEntity
  8
001
370
     9
100
AcDbVertex
100
AcDb2dVertex
 10
78.297433
 20
272.814943
 30
0.0
  0
VERTEX
  5
18F
330
18B
100
AcDbEntity
  8
001
370
     9
100
AcDbVertex
100
AcDb2dVertex
 10
58.297433
 20
272.814943
 30
0.0
  0
SEQEND
  5
18C
330
18B
100
AcDbEntity
  8
001
370
     9
  0
DIMENSION
  5
190
330
1F
100
AcDbEntity
  8
001
370
     9
100
AcDbDimension
  2
*D11
 10
280.513818
 20
231.873994
 30
0.0
 11
193.013818
 21
234.873994
 31
0.0
 70
   160
 71
     5
 42
-1.0
  3
Standard
100
AcDbAlignedDimension
 13
105.513818
 23
262.588916
 33
0.0
 14
280.513818
 24
312.86277
 34
0.0
100
AcDbRotatedDimension
  0
DIMENSION
  5
191
330
1F
100
AcDbEntity
  8
001
370
     9
100
AcDbDimension
  2
*D12
 10
130.513818
 20
243.801093
 30
0.0
 11
205.513818
 21
246.801093
 31
0.0
 70
   160
 71
     5
 42
-1.0
  3
Standard
100
AcDbAlignedDimension
 13
280.513818
 23
312.86277
 33
0.0
 14
130.513818
 24
289.26277
 34
0.0
 50
180.0
100
AcDbRotatedDimension
  0
TEXT
  5
192
330
1F
100
AcDbEntity
  8
001
370
    30
100
AcDbText
 10
367.62833
 20
75.933879
 30
0.0
 40
4.0
  1
%%c８０
 50
90.000003
 41
0.882353
100
AcDbText
  0
POLYLINE
  5
193
330
1F
100
AcDbEntity
  8
001
370
     9
100
AcDb2dPolyline
 66
     1
 10
0.0
 20
0.0
 30
0.0
  0
VERTEX
  5
195
330
193
100
AcDbEntity
  8
001
370
     9
100
AcDbVertex
100
AcDb2dVertex
 10
369.030254
 20
43.433879
 30
0.0
  0
VERTEX
  5
196
330
193
100
AcDbEntity
  8
001
370
     9
100
AcDbVertex
100
AcDb2dVertex
 10
368.62833
 20
41.933879
 30
0.0
  0
VERTEX
  5
197
330
193
100
AcDbEntity
  8
001
370
     9
100
AcDbVertex
100
AcDb2dVertex
 10
368.226406
 20
43.433879
 30
0.0
  0
SEQEND
  5
194
330
193
100
AcDbEntity
  8
001
370
     9
  0
LINE
  5
198
330
1F
100
AcDbEntity
  8
001
370
     9
100
AcDbLine
 10
368.62833
 20
121.933879
 30
0.0
 11
368.62833
 21
41.933879
 31
0.0
  0
POLYLINE
  5
199
330
1F
100
AcDbEntity
  8
001
370
     9
100
AcDb2dPolyline
 66
     1
 10
0.0
 20
0.0
 30
0.0
  0
VERTEX
  5
19B
330
199
100
AcDbEntity
  8
001
370
     9
100
AcDbVertex
100
AcDb2dVertex
 10
381.05287
 20
41.933879
 30
0.0
  0
VERTEX
  5
19C
330
199
100
AcDbEntity
  8
001
370
     9
100
AcDbVertex
100
AcDb2dVertex
 10
368.62833
 20
41.933879
 30
0.0
  0
VERTEX
  5
19D
330
199
100
AcDbEntity
  8
001
370
     9
100
AcDbVertex
100
AcDb2dVertex
 10
365.87833
 20
41.933879
 30
0.0
  0
SEQEND
  5
19A
330
199
100
AcDbEntity
  8
001
370
     9
  0
TEXT
  5
19E
330
1F
100
AcDbEntity
  8
001
370
    30
100
AcDbText
 10
378.258422
 20
31.943569
 30
0.0
 40
4.0
  1
Ｒ１
 41
0.833333
100
AcDbText
  0
POLYLINE
  5
19F
330
1F
100
AcDbEntity
  8
001
370
     9
100
AcDb2dPolyline
 66
     1
 10
0.0
 20
0.0
 30
0.0
  0
VERTEX
  5
1A1
330
19F
100
AcDbEntity
  8
001
370
     9
100
AcDbVertex
100
AcDb2dVertex
 10
398.248565
 20
41.455032
 30
0.0
  0
VERTEX
  5
1A2
330
19F
100
AcDbEntity
  8
001
370
     9
100
AcDbVertex
100
AcDb2dVertex
 10
399.595208
 20
42.228398
 30
0.0
  0
VERTEX
  5
1A3
330
19F
100
AcDbEntity
  8
001
370
     9
100
AcDbVertex
100
AcDb2dVertex
 10
398.815664
 20
40.885322
 30
0.0
  0
SEQEND
  5
1A0
330
19F
100
AcDbEntity
  8
001
370
     9
  0
POLYLINE
  5
1A4
330
1F
100
AcDbEntity
  8
001
370
     9
100
AcDb2dPolyline
 66
     1
 10
0.0
 20
0.0
 30
0.0
  0
VERTEX
  5
1A6
330
1A4
100
AcDbEntity
  8
001
370
     9
100
AcDbVertex
100
AcDb2dVertex
 10
399.595208
 20
42.228398
 30
0.0
  0
VERTEX
  5
1A7
330
1A4
100
AcDbEntity
  8
001
370
     9
100
AcDbVertex
100
AcDb2dVertex
 10
388.258422
 20
30.943569
 30
0.0
  0
VERTEX
  5
1A8
330
1A4
100
AcDbEntity
  8
001
370
     9
100
AcDbVertex
100
AcDb2dVertex
 10
376.258422
 20
30.943569
 30
0.0
  0
SEQEND
  5
1A5
330
1A4
100
AcDbEntity
  8
001
370
     9
  0
TEXT
  5
1A9
330
1F
100
AcDbEntity
  8
001
370
    30
100
AcDbText
 10
368.180952
 20
189.401574
 30
0.0
 40
4.0
  1
%%c８０
 50
90.000003
 41
0.882353
100
AcDbText
  0
POLYLINE
  5
1AA
330
1F
100
AcDbEntity
  8
001
370
     9
100
AcDb2dPolyline
 66
     1
 10
0.0
 20
0.0
 30
0.0
  0
VERTEX
  5
1AC
330
1AA
100
AcDbEntity
  8
001
370
     9
100
AcDbVertex
100
AcDb2dVertex
 10
369.582876
 20
156.901574
 30
0.0
  0
VERTEX
  5
1AD
330
1AA
100
AcDbEntity
  8
001
370
     9
100
AcDbVertex
100
AcDb2dVertex
 10
369.180952
 20
155.401574
 30
0.0
  0
VERTEX
  5
1AE
330
1AA
100
AcDbEntity
  8
001
370
     9
100
AcDbVertex
100
AcDb2dVertex
 10
368.779029
 20
156.901574
 30
0.0
  0
SEQEND
  5
1AB
330
1AA
100
AcDbEntity
  8
001
370
     9
  0
LINE
  5
1AF
330
1F
100
AcDbEntity
  8
001
370
     9
100
AcDbLine
 10
369.180952
 20
235.401574
 30
0.0
 11
369.180952
 21
155.401574
 31
0.0
  0
POLYLINE
  5
1B0
330
1F
100
AcDbEntity
  8
001
370
     9
100
AcDb2dPolyline
 66
     1
 10
0.0
 20
0.0
 30
0.0
  0
VERTEX
  5
1B2
330
1B0
100
AcDbEntity
  8
001
370
     9
100
AcDbVertex
100
AcDb2dVertex
 10
381.605492
 20
155.401574
 30
0.0
  0
VERTEX
  5
1B3
330
1B0
100
AcDbEntity
  8
001
370
     9
100
AcDbVertex
100
AcDb2dVertex
 10
369.180952
 20
155.401574
 30
0.0
  0
VERTEX
  5
1B4
330
1B0
100
AcDbEntity
  8
001
370
     9
100
AcDbVertex
100
AcDb2dVertex
 10
366.430952
 20
155.401574
 30
0.0
  0
SEQEND
  5
1B1
330
1B0
100
AcDbEntity
  8
001
370
     9
  0
TEXT
  5
1B5
330
1F
100
AcDbEntity
  8
001
370
    30
100
AcDbText
 10
368.726593
 20
304.768222
 30
0.0
 40
4.0
  1
%%c８０
 50
90.000003
 41
0.882353
100
AcDbText
  0
POLYLINE
  5
1B6
330
1F
100
AcDbEntity
  8
001
370
     9
100
AcDb2dPolyline
 66
     1
 10
0.0
 20
0.0
 30
0.0
  0
VERTEX
  5
1B8
330
1B6
100
AcDbEntity
  8
001
370
     9
100
AcDbVertex
100
AcDb2dVertex
 10
370.128517
 20
272.268222
 30
0.0
  0
VERTEX
  5
1B9
330
1B6
100
AcDbEntity
  8
001
370
     9
100
AcDbVertex
100
AcDb2dVertex
 10
369.726593
 20
270.768222
 30
0.0
  0
VERTEX
  5
1BA
330
1B6
100
AcDbEntity
  8
001
370
     9
100
AcDbVertex
100
AcDb2dVertex
 10
369.32467
 20
272.268222
 30
0.0
  0
SEQEND
  5
1B7
330
1B6
100
AcDbEntity
  8
001
370
     9
  0
LINE
  5
1BB
330
1F
100
AcDbEntity
  8
001
370
     9
100
AcDbLine
 10
369.726593
 20
350.768222
 30
0.0
 11
369.726593
 21
270.768222
 31
0.0
  0
POLYLINE
  5
1BC
330
1F
100
AcDbEntity
  8
001
370
     9
100
AcDb2dPolyline
 66
     1
 10
0.0
 20
0.0
 30
0.0
  0
VERTEX
  5
1BE
330
1BC
100
AcDbEntity
  8
001
370
     9
100
AcDbVertex
100
AcDb2dVertex
 10
382.151133
 20
270.768222
 30
0.0
  0
VERTEX
  5
1BF
330
1BC
100
AcDbEntity
  8
001
370
     9
100
AcDbVertex
100
AcDb2dVertex
 10
369.726593
 20
270.768222
 30
0.0
  0
VERTEX
  5
1C0
330
1BC
100
AcDbEntity
  8
001
370
     9
100
AcDbVertex
100
AcDb2dVertex
 10
366.976593
 20
270.768222
 30
0.0
  0
SEQEND
  5
1BD
330
1BC
100
AcDbEntity
  8
001
370
     9
  0
TEXT
  5
1C1
330
1F
100
AcDbEntity
  8
001
370
    30
100
AcDbText
 10
369.272234
 20
421.08436
 30
0.0
 40
4.0
  1
%%c８０
 50
90.000003
 41
0.882353
100
AcDbText
  0
POLYLINE
  5
1C2
330
1F
100
AcDbEntity
  8
001
370
     9
100
AcDb2dPolyline
 66
     1
 10
0.0
 20
0.0
 30
0.0
  0
VERTEX
  5
1C4
330
1C2
100
AcDbEntity
  8
001
370
     9
100
AcDbVertex
100
AcDb2dVertex
 10
370.674158
 20
388.58436
 30
0.0
  0
VERTEX
  5
1C5
330
1C2
100
AcDbEntity
  8
001
370
     9
100
AcDbVertex
100
AcDb2dVertex
 10
370.272234
 20
387.08436
 30
0.0
  0
VERTEX
  5
1C6
330
1C2
100
AcDbEntity
  8
001
370
     9
100
AcDbVertex
100
AcDb2dVertex
 10
369.870311
 20
388.58436
 30
0.0
  0
SEQEND
  5
1C3
330
1C2
100
AcDbEntity
  8
001
370
     9
  0
LINE
  5
1C7
330
1F
100
AcDbEntity
  8
001
370
     9
100
AcDbLine
 10
370.272234
 20
467.08436
 30
0.0
 11
370.272234
 21
387.08436
 31
0.0
  0
POLYLINE
  5
1C8
330
1F
100
AcDbEntity
  8
001
370
     9
100
AcDb2dPolyline
 66
     1
 10
0.0
 20
0.0
 30
0.0
  0
VERTEX
  5
1CA
330
1C8
100
AcDbEntity
  8
001
370
     9
100
AcDbVertex
100
AcDb2dVertex
 10
382.696774
 20
387.08436
 30
0.0
  0
VERTEX
  5
1CB
330
1C8
100
AcDbEntity
  8
001
370
     9
100
AcDbVertex
100
AcDb2dVertex
 10
370.272234
 20
387.08436
 30
0.0
  0
VERTEX
  5
1CC
330
1C8
100
AcDbEntity
  8
001
370
     9
100
AcDbVertex
100
AcDb2dVertex
 10
367.522234
 20
387.08436
 30
0.0
  0
SEQEND
  5
1C9
330
1C8
100
AcDbEntity
  8
001
370
     9
  0
TEXT
  5
1CD
330
1F
100
AcDbEntity
  8
001
370
    30
100
AcDbText
 10
378.387742
 20
263.830012
 30
0.0
 40
4.0
  1
Ｒ２
 41
0.833333
100
AcDbText
  0
POLYLINE
  5
1CE
330
1F
100
AcDbEntity
  8
001
370
     9
100
AcDb2dPolyline
 66
     1
 10
0.0
 20
0.0
 30
0.0
  0
VERTEX
  5
1D0
330
1CE
100
AcDbEntity
  8
001
370
     9
100
AcDbVertex
100
AcDb2dVertex
 10
398.363539
 20
270.961867
 30
0.0
  0
VERTEX
  5
1D1
330
1CE
100
AcDbEntity
  8
001
370
     9
100
AcDbVertex
100
AcDb2dVertex
 10
399.799322
 20
271.553535
 30
0.0
  0
VERTEX
  5
1D2
330
1CE
100
AcDbEntity
  8
001
370
     9
100
AcDbVertex
100
AcDb2dVertex
 10
398.851731
 20
270.323244
 30
0.0
  0
SEQEND
  5
1CF
330
1CE
100
AcDbEntity
  8
001
370
     9
  0
POLYLINE
  5
1D3
330
1F
100
AcDbEntity
  8
001
370
     9
100
AcDb2dPolyline
 66
     1
 10
0.0
 20
0.0
 30
0.0
  0
VERTEX
  5
1D5
330
1D3
100
AcDbEntity
  8
001
370
     9
100
AcDbVertex
100
AcDb2dVertex
 10
399.799322
 20
271.553535
 30
0.0
  0
VERTEX
  5
1D6
330
1D3
100
AcDbEntity
  8
001
370
     9
100
AcDbVertex
100
AcDb2dVertex
 10
388.387742
 20
262.830012
 30
0.0
  0
VERTEX
  5
1D7
330
1D3
100
AcDbEntity
  8
001
370
     9
100
AcDbVertex
100
AcDb2dVertex
 10
376.387742
 20
262.830012
 30
0.0
  0
SEQEND
  5
1D4
330
1D3
100
AcDbEntity
  8
001
370
     9
  0
TEXT
  5
1D8
330
1F
100
AcDbEntity
  8
001
370
    30
100
AcDbText
 10
371.775384
 20
147.878695
 30
0.0
 40
4.0
  1
Ｒ１．５
 41
0.833333
100
AcDbText
  0
POLYLINE
  5
1D9
330
1F
100
AcDbEntity
  8
001
370
     9
100
AcDb2dPolyline
 66
     1
 10
0.0
 20
0.0
 30
0.0
  0
VERTEX
  5
1DB
330
1D9
100
AcDbEntity
  8
001
370
     9
100
AcDbVertex
100
AcDb2dVertex
 10
398.352377
 20
155.186035
 30
0.0
  0
VERTEX
  5
1DC
330
1D9
100
AcDbEntity
  8
001
370
     9
100
AcDbVertex
100
AcDb2dVertex
 10
399.734108
 20
155.894809
 30
0.0
  0
VERTEX
  5
1DD
330
1D9
100
AcDbEntity
  8
001
370
     9
100
AcDbVertex
100
AcDb2dVertex
 10
398.891881
 20
154.590127
 30
0.0
  0
SEQEND
  5
1DA
330
1D9
100
AcDbEntity
  8
001
370
     9
  0
POLYLINE
  5
1DE
330
1F
100
AcDbEntity
  8
001
370
     9
100
AcDb2dPolyline
 66
     1
 10
0.0
 20
0.0
 30
0.0
  0
VERTEX
  5
1E0
330
1DE
100
AcDbEntity
  8
001
370
     9
100
AcDbVertex
100
AcDb2dVertex
 10
399.734108
 20
155.894809
 30
0.0
  0
VERTEX
  5
1E1
330
1DE
100
AcDbEntity
  8
001
370
     9
100
AcDbVertex
100
AcDb2dVertex
 10
389.775384
 20
146.878695
 30
0.0
  0
VERTEX
  5
1E2
330
1DE
100
AcDbEntity
  8
001
370
     9
100
AcDbVertex
100
AcDb2dVertex
 10
369.775384
 20
146.878695
 30
0.0
  0
SEQEND
  5
1DF
330
1DE
100
AcDbEntity
  8
001
370
     9
  0
TEXT
  5
1E3
330
1F
100
AcDbEntity
  8
001
370
    30
100
AcDbText
 10
370.134002
 20
377.704496
 30
0.0
 40
4.0
  1
Ｒ２．５
 41
0.833333
100
AcDbText
  0
POLYLINE
  5
1E4
330
1F
100
AcDbEntity
  8
001
370
     9
100
AcDb2dPolyline
 66
     1
 10
0.0
 20
0.0
 30
0.0
  0
VERTEX
  5
1E6
330
1E4
100
AcDbEntity
  8
001
370
     9
100
AcDbVertex
100
AcDb2dVertex
 10
398.732227
 20
387.148461
 30
0.0
  0
VERTEX
  5
1E7
330
1E4
100
AcDbEntity
  8
001
370
     9
100
AcDbVertex
100
AcDb2dVertex
 10
400.10296
 20
387.878278
 30
0.0
  0
VERTEX
  5
1E8
330
1E4
100
AcDbEntity
  8
001
370
     9
100
AcDbVertex
100
AcDb2dVertex
 10
399.280779
 20
386.560871
 30
0.0
  0
SEQEND
  5
1E5
330
1E4
100
AcDbEntity
  8
001
370
     9
  0
POLYLINE
  5
1E9
330
1F
100
AcDbEntity
  8
001
370
     9
100
AcDb2dPolyline
 66
     1
 10
0.0
 20
0.0
 30
0.0
  0
VERTEX
  5
1EB
330
1E9
100
AcDbEntity
  8
001
370
     9
100
AcDbVertex
100
AcDb2dVertex
 10
400.10296
 20
387.878278
 30
0.0
  0
VERTEX
  5
1EC
330
1E9
100
AcDbEntity
  8
001
370
     9
100
AcDbVertex
100
AcDb2dVertex
 10
388.134002
 20
376.704496
 30
0.0
  0
VERTEX
  5
1ED
330
1E9
100
AcDbEntity
  8
001
370
     9
100
AcDbVertex
100
AcDb2dVertex
 10
368.134002
 20
376.704496
 30
0.0
  0
SEQEND
  5
1EA
330
1E9
100
AcDbEntity
  8
001
370
     9
  0
TEXT
  5
1EE
330
1F
100
AcDbEntity
  8
001
370
    30
100
AcDbText
 10
50.04921
 20
378.253271
 30
0.0
 40
10.0
  1
すみっこ　ＳＫ３２－８０ＡＳＲＬ　（４枚刃）
 41
0.833333
100
AcDbText
  0
TEXT
  5
1EF
330
1F
100
AcDbEntity
  8
001
370
    30
100
AcDbText
 10
55.04921
 20
191.13729
 30
0.0
 40
10.0
  1
すみっこ　ＳＫ３２－８０ＡＳＲ　（４枚刃）
 41
0.833333
100
AcDbText
  0
LINE
  5
1F0
330
1F
100
AcDbEntity
  8
001
  6
DASHED
370
    30
100
AcDbLine
 10
108.002838
 20
126.409079
 30
0.0
 11
108.002838
 21
86.409079
 31
0.0
  0
LINE
  5
1F1
330
1F
100
AcDbEntity
  8
001
  6
DASHED
370
    30
100
AcDbLine
 10
108.002838
 20
126.409079
 30
0.0
 11
106.222035
 21
143.352287
 31
0.0
  0
LINE
  5
1F2
330
1F
100
AcDbEntity
  8
001
  6
DASHED
370
    50
100
AcDbLine
 10
106.222035
 20
109.060222
 30
0.0
 11
106.222035
 21
109.061567
 31
0.0
  0
POLYLINE
  5
1F3
330
1F
100
AcDbEntity
  8
001
370
    50
100
AcDb2dPolyline
 66
     1
 10
0.0
 20
0.0
 30
0.0
  0
VERTEX
  5
1F5
330
1F3
100
AcDbEntity
  8
001
370
    50
100
AcDbVertex
100
AcDb2dVertex
 10
106.222035
 20
76.014992
 30
0.0
  0
VERTEX
  5
1F6
330
1F3
100
AcDbEntity
  8
001
370
    50
100
AcDbVertex
100
AcDb2dVertex
 10
106.398826
 20
78.095031
 30
0.0
  0
VERTEX
  5
1F7
330
1F3
100
AcDbEntity
  8
001
370
    50
100
AcDbVertex
100
AcDb2dVertex
 10
106.57276
 20
80.175299
 30
0.0
  0
VERTEX
  5
1F8
330
1F3
100
AcDbEntity
  8
001
370
    50
100
AcDbVertex
100
AcDb2dVertex
 10
106.74098
 20
82.256024
 30
0.0
  0
VERTEX
  5
1F9
330
1F3
100
AcDbEntity
  8
001
370
    50
100
AcDbVertex
100
AcDb2dVertex
 10
106.863438
 20
83.832134
 30
0.0
  0
VERTEX
  5
1FA
330
1F3
100
AcDbEntity
  8
001
370
    50
100
AcDbVertex
100
AcDb2dVertex
 10
106.983439
 20
85.40844
 30
0.0
  0
SEQEND
  5
1F4
330
1F3
100
AcDbEntity
  8
001
370
    50
  0
POLYLINE
  5
1FB
330
1F
100
AcDbEntity
  8
001
370
    50
100
AcDb2dPolyline
 66
     1
 10
0.0
 20
0.0
 30
0.0
  0
VERTEX
  5
1FD
330
1FB
100
AcDbEntity
  8
001
370
    50
100
AcDbVertex
100
AcDb2dVertex
 10
107.713818
 20
138.796731
 30
0.0
  0
VERTEX
  5
1FE
330
1FB
100
AcDbEntity
  8
001
370
    50
100
AcDbVertex
100
AcDb2dVertex
 10
107.646257
 20
138.79414
 30
0.0
  0
VERTEX
  5
1FF
330
1FB
100
AcDbEntity
  8
001
370
    50
100
AcDbVertex
100
AcDb2dVertex
 10
107.578837
 20
138.789478
 30
0.0
  0
VERTEX
  5
200
330
1FB
100
AcDbEntity
  8
001
370
    50
100
AcDbVertex
100
AcDb2dVertex
 10
107.334668
 20
138.739412
 30
0.0
  0
VERTEX
  5
201
330
1FB
100
AcDbEntity
  8
001
370
    50
100
AcDbVertex
100
AcDb2dVertex
 10
107.103773
 20
138.642097
 30
0.0
  0
VERTEX
  5
202
330
1FB
100
AcDbEntity
  8
001
370
    50
100
AcDbVertex
100
AcDb2dVertex
 10
106.895398
 20
138.506581
 30
0.0
  0
VERTEX
  5
203
330
1FB
100
AcDbEntity
  8
001
370
    50
100
AcDbVertex
100
AcDb2dVertex
 10
106.712302
 20
138.338914
 30
0.0
  0
VERTEX
  5
204
330
1FB
100
AcDbEntity
  8
001
370
    50
100
AcDbVertex
100
AcDb2dVertex
 10
106.531693
 20
138.107374
 30
0.0
  0
VERTEX
  5
205
330
1FB
100
AcDbEntity
  8
001
370
    50
100
AcDbVertex
100
AcDb2dVertex
 10
106.391667
 20
137.849177
 30
0.0
  0
VERTEX
  5
206
330
1FB
100
AcDbEntity
  8
001
370
    50
100
AcDbVertex
100
AcDb2dVertex
 10
106.324486
 20
137.676446
 30
0.0
  0
VERTEX
  5
207
330
1FB
100
AcDbEntity
  8
001
370
    50
100
AcDbVertex
100
AcDb2dVertex
 10
106.273192
 20
137.498423
 30
0.0
  0
VERTEX
  5
208
330
1FB
100
AcDbEntity
  8
001
370
    50
100
AcDbVertex
100
AcDb2dVertex
 10
106.237301
 20
137.316403
 30
0.0
  0
VERTEX
  5
209
330
1FB
100
AcDbEntity
  8
001
370
    50
100
AcDbVertex
100
AcDb2dVertex
 10
106.218177
 20
137.132067
 30
0.0
  0
VERTEX
  5
20A
330
1FB
100
AcDbEntity
  8
001
370
    50
100
AcDbVertex
100
AcDb2dVertex
 10
106.21512
 20
137.045528
 30
0.0
  0
VERTEX
  5
20B
330
1FB
100
AcDbEntity
  8
001
370
    50
100
AcDbVertex
100
AcDb2dVertex
 10
106.21409
 20
136.958912
 30
0.0
  0
SEQEND
  5
1FC
330
1FB
100
AcDbEntity
  8
001
370
    50
  0
LINE
  5
20C
330
1F
100
AcDbEntity
  8
001
370
    50
100
AcDbLine
 10
125.513818
 20
138.796731
 30
0.0
 11
107.713818
 21
138.796731
 31
0.0
  0
POLYLINE
  5
20D
330
1F
100
AcDbEntity
  8
001
370
    50
100
AcDb2dPolyline
 66
     1
 10
0.0
 20
0.0
 30
0.0
  0
VERTEX
  5
20F
330
20D
100
AcDbEntity
  8
001
370
    50
100
AcDbVertex
100
AcDb2dVertex
 10
130.513818
 20
132.638071
 30
0.0
  0
VERTEX
  5
210
330
20D
100
AcDbEntity
  8
001
370
    50
100
AcDbVertex
100
AcDb2dVertex
 10
130.510126
 20
132.845281
 30
0.0
  0
VERTEX
  5
211
330
20D
100
AcDbEntity
  8
001
370
    50
100
AcDbVertex
100
AcDb2dVertex
 10
130.503283
 20
133.05238
 30
0.0
  0
VERTEX
  5
212
330
20D
100
AcDbEntity
  8
001
370
    50
100
AcDbVertex
100
AcDb2dVertex
 10
130.465607
 20
133.524624
 30
0.0
  0
VERTEX
  5
213
330
20D
100
AcDbEntity
  8
001
370
    50
100
AcDbVertex
100
AcDb2dVertex
 10
130.39761
 20
133.993752
 30
0.0
  0
VERTEX
  5
214
330
20D
100
AcDbEntity
  8
001
370
    50
100
AcDbVertex
100
AcDb2dVertex
 10
130.300822
 20
134.459453
 30
0.0
  0
VERTEX
  5
215
330
20D
100
AcDbEntity
  8
001
370
    50
100
AcDbVertex
100
AcDb2dVertex
 10
130.174651
 20
134.917941
 30
0.0
  0
VERTEX
  5
216
330
20D
100
AcDbEntity
  8
001
370
    50
100
AcDbVertex
100
AcDb2dVertex
 10
130.018618
 20
135.364711
 30
0.0
  0
VERTEX
  5
217
330
20D
100
AcDbEntity
  8
001
370
    50
100
AcDbVertex
100
AcDb2dVertex
 10
129.831283
 20
135.799294
 30
0.0
  0
VERTEX
  5
218
330
20D
100
AcDbEntity
  8
001
370
    50
100
AcDbVertex
100
AcDb2dVertex
 10
129.610285
 20
136.221862
 30
0.0
  0
VERTEX
  5
219
330
20D
100
AcDbEntity
  8
001
370
    50
100
AcDbVertex
100
AcDb2dVertex
 10
129.357126
 20
136.626056
 30
0.0
  0
VERTEX
  5
21A
330
20D
100
AcDbEntity
  8
001
370
    50
100
AcDbVertex
100
AcDb2dVertex
 10
129.07239
 20
137.008283
 30
0.0
  0
VERTEX
  5
21B
330
20D
100
AcDbEntity
  8
001
370
    50
100
AcDbVertex
100
AcDb2dVertex
 10
128.75592
 20
137.364527
 30
0.0
  0
VERTEX
  5
21C
330
20D
100
AcDbEntity
  8
001
370
    50
100
AcDbVertex
100
AcDb2dVertex
 10
128.404892
 20
137.693087
 30
0.0
  0
VERTEX
  5
21D
330
20D
100
AcDbEntity
  8
001
370
    50
100
AcDbVertex
100
AcDb2dVertex
 10
128.024123
 20
137.986972
 30
0.0
  0
VERTEX
  5
21E
330
20D
100
AcDbEntity
  8
001
370
    50
100
AcDbVertex
100
AcDb2dVertex
 10
127.616757
 20
138.242048
 30
0.0
  0
VERTEX
  5
21F
330
20D
100
AcDbEntity
  8
001
370
    50
100
AcDbVertex
100
AcDb2dVertex
 10
127.185416
 20
138.453303
 30
0.0
  0
VERTEX
  5
220
330
20D
100
AcDbEntity
  8
001
370
    50
100
AcDbVertex
100
AcDb2dVertex
 10
126.801488
 20
138.594963
 30
0.0
  0
VERTEX
  5
221
330
20D
100
AcDbEntity
  8
001
370
    50
100
AcDbVertex
100
AcDb2dVertex
 10
126.40578
 20
138.700206
 30
0.0
  0
VERTEX
  5
222
330
20D
100
AcDbEntity
  8
001
370
    50
100
AcDbVertex
100
AcDb2dVertex
 10
126.001947
 20
138.768119
 30
0.0
  0
VERTEX
  5
223
330
20D
100
AcDbEntity
  8
001
370
    50
100
AcDbVertex
100
AcDb2dVertex
 10
125.593913
 20
138.795967
 30
0.0
  0
VERTEX
  5
224
330
20D
100
AcDbEntity
  8
001
370
    50
100
AcDbVertex
100
AcDb2dVertex
 10
125.553866
 20
138.796453
 30
0.0
  0
VERTEX
  5
225
330
20D
100
AcDbEntity
  8
001
370
    50
100
AcDbVertex
100
AcDb2dVertex
 10
125.513818
 20
138.796731
 30
0.0
  0
SEQEND
  5
20E
330
20D
100
AcDbEntity
  8
001
370
    50
  0
LINE
  5
226
330
1F
100
AcDbEntity
  8
001
370
    50
100
AcDbLine
 10
106.21409
 20
136.958912
 30
0.0
 11
106.222035
 21
136.803167
 31
0.0
  0
ARC
  5
227
330
1F
100
AcDbEntity
  8
001
370
    50
100
AcDbCircle
 10
107.713818
 20
143.509079
 30
0.0
 40
1.500000000000001
100
AcDbArc
 50
90.0
 51
180.0
  0
ARC
  5
228
330
1F
100
AcDbEntity
  8
001
  6
DASHED
370
    30
100
AcDbCircle
 10
107.713818
 20
143.509079
 30
0.0
 40
1.500000000000001
100
AcDbArc
 50
180.0
 51
186.0
  0
LINE
  5
229
330
1F
100
AcDbEntity
  8
001
370
    50
100
AcDbLine
 10
106.213818
 20
143.509079
 30
0.0
 11
106.213818
 21
136.982347
 31
0.0
  0
LINE
  5
22A
330
1F
100
AcDbEntity
  8
001
370
    50
100
AcDbLine
 10
125.513818
 20
145.009079
 30
0.0
 11
107.713818
 21
145.009079
 31
0.0
  0
ARC
  5
22B
330
1F
100
AcDbEntity
  8
001
370
    50
100
AcDbCircle
 10
125.513818
 20
140.009079
 30
0.0
 40
5.000000000000001
100
AcDbArc
 50
0.0
 51
90.0
  0
LINE
  5
22C
330
1F
100
AcDbEntity
  8
001
370
    50
100
AcDbLine
 10
135.513818
 20
122.409079
 30
0.0
 11
135.513818
 21
90.409079
 31
0.0
  0
ARC
  5
22D
330
1F
100
AcDbEntity
  8
001
370
    50
100
AcDbCircle
 10
135.513818
 20
127.409079
 30
0.0
 40
5.000000000000001
100
AcDbArc
 50
180.0
 51
270.0
  0
ARC
  5
22E
330
1F
100
AcDbEntity
  8
001
370
    50
100
AcDbCircle
 10
135.513818
 20
85.409079
 30
0.0
 40
5.000000000000001
100
AcDbArc
 50
90.0
 51
180.0
  0
LINE
  5
22F
330
1F
100
AcDbEntity
  8
001
370
    50
100
AcDbLine
 10
210.513818
 20
96.409079
 30
0.0
 11
210.513818
 21
116.409079
 31
0.0
  0
POLYLINE
  5
230
330
1F
100
AcDbEntity
  8
001
370
    50
100
AcDb2dPolyline
 66
     1
 10
0.0
 20
0.0
 30
0.0
  0
VERTEX
  5
232
330
230
100
AcDbEntity
  8
001
370
    50
100
AcDbVertex
100
AcDb2dVertex
 10
125.513818
 20
67.875907
 30
0.0
  0
VERTEX
  5
233
330
230
100
AcDbEntity
  8
001
370
    50
100
AcDbVertex
100
AcDb2dVertex
 10
125.935682
 20
67.896424
 30
0.0
  0
VERTEX
  5
234
330
230
100
AcDbEntity
  8
001
370
    50
100
AcDbVertex
100
AcDb2dVertex
 10
126.35479
 20
67.939301
 30
0.0
  0
VERTEX
  5
235
330
230
100
AcDbEntity
  8
001
370
    50
100
AcDbVertex
100
AcDb2dVertex
 10
126.768611
 20
68.022216
 30
0.0
  0
VERTEX
  5
236
330
230
100
AcDbEntity
  8
001
370
    50
100
AcDbVertex
100
AcDb2dVertex
 10
127.173653
 20
68.143698
 30
0.0
  0
VERTEX
  5
237
330
230
100
AcDbEntity
  8
001
370
    50
100
AcDbVertex
100
AcDb2dVertex
 10
127.567648
 20
68.298905
 30
0.0
  0
VERTEX
  5
238
330
230
100
AcDbEntity
  8
001
370
    50
100
AcDbVertex
100
AcDb2dVertex
 10
127.947025
 20
68.486345
 30
0.0
  0
VERTEX
  5
239
330
230
100
AcDbEntity
  8
001
370
    50
100
AcDbVertex
100
AcDb2dVertex
 10
128.309912
 20
68.70604
 30
0.0
  0
VERTEX
  5
23A
330
230
100
AcDbEntity
  8
001
370
    50
100
AcDbVertex
100
AcDb2dVertex
 10
128.652499
 20
68.956283
 30
0.0
  0
VERTEX
  5
23B
330
230
100
AcDbEntity
  8
001
370
    50
100
AcDbVertex
100
AcDb2dVertex
 10
128.96983
 20
69.233312
 30
0.0
  0
VERTEX
  5
23C
330
230
100
AcDbEntity
  8
001
370
    50
100
AcDbVertex
100
AcDb2dVertex
 10
129.262549
 20
69.536356
 30
0.0
  0
VERTEX
  5
23D
330
230
100
AcDbEntity
  8
001
370
    50
100
AcDbVertex
100
AcDb2dVertex
 10
129.529521
 20
69.86378
 30
0.0
  0
VERTEX
  5
23E
330
230
100
AcDbEntity
  8
001
370
    50
100
AcDbVertex
100
AcDb2dVertex
 10
129.767296
 20
70.212703
 30
0.0
  0
VERTEX
  5
23F
330
230
100
AcDbEntity
  8
001
370
    50
100
AcDbVertex
100
AcDb2dVertex
 10
129.971594
 20
70.57683
 30
0.0
  0
VERTEX
  5
240
330
230
100
AcDbEntity
  8
001
370
    50
100
AcDbVertex
100
AcDb2dVertex
 10
130.145574
 20
70.956943
 30
0.0
  0
VERTEX
  5
241
330
230
100
AcDbEntity
  8
001
370
    50
100
AcDbVertex
100
AcDb2dVertex
 10
130.289047
 20
71.350807
 30
0.0
  0
VERTEX
  5
242
330
230
100
AcDbEntity
  8
001
370
    50
100
AcDbVertex
100
AcDb2dVertex
 10
130.395214
 20
71.755158
 30
0.0
  0
VERTEX
  5
243
330
230
100
AcDbEntity
  8
001
370
    50
100
AcDbVertex
100
AcDb2dVertex
 10
130.473715
 20
72.293093
 30
0.0
  0
VERTEX
  5
244
330
230
100
AcDbEntity
  8
001
370
    50
100
AcDbVertex
100
AcDb2dVertex
 10
130.513818
 20
72.837791
 30
0.0
  0
SEQEND
  5
231
330
230
100
AcDbEntity
  8
001
370
    50
  0
ARC
  5
245
330
1F
100
AcDbEntity
  8
001
370
    50
100
AcDbCircle
 10
125.513818
 20
72.809079
 30
0.0
 40
5.000000000000001
100
AcDbArc
 50
270.0
 51
0.0
  0
LINE
  5
246
330
1F
100
AcDbEntity
  8
001
  6
DASHED
370
    50
100
AcDbLine
 10
106.213913
 20
127.409079
 30
0.0
 11
106.222035
 21
127.409079
 31
0.0
  0
LINE
  5
247
330
1F
100
AcDbEntity
  8
001
  6
DASHED
370
    50
100
AcDbLine
 10
106.213818
 20
109.063331
 30
0.0
 11
106.213818
 21
109.060841
 31
0.0
  0
LINE
  5
248
330
1F
100
AcDbEntity
  8
001
  6
CENTER
370
     9
100
AcDbLine
 10
214.670137
 20
106.409079
 30
0.0
 11
103.662025
 21
106.409079
 31
0.0
  0
LINE
  5
249
330
1F
100
AcDbEntity
  8
001
370
    50
100
AcDbLine
 10
130.513818
 20
85.409079
 30
0.0
 11
106.213818
 21
85.409079
 31
0.0
  0
LINE
  5
24A
330
1F
100
AcDbEntity
  8
001
370
    50
100
AcDbLine
 10
106.983537
 20
127.409079
 30
0.0
 11
106.213818
 21
127.409079
 31
0.0
  0
POLYLINE
  5
24B
330
1F
100
AcDbEntity
  8
001
370
    50
100
AcDb2dPolyline
 66
     1
 10
0.0
 20
0.0
 30
0.0
  0
VERTEX
  5
24D
330
24B
100
AcDbEntity
  8
001
370
    50
100
AcDbVertex
100
AcDb2dVertex
 10
106.222035
 20
136.803167
 30
0.0
  0
VERTEX
  5
24E
330
24B
100
AcDbEntity
  8
001
370
    50
100
AcDbVertex
100
AcDb2dVertex
 10
106.413525
 20
134.549992
 30
0.0
  0
VERTEX
  5
24F
330
24B
100
AcDbEntity
  8
001
370
    50
100
AcDbVertex
100
AcDb2dVertex
 10
106.601373
 20
132.296511
 30
0.0
  0
VERTEX
  5
250
330
24B
100
AcDbEntity
  8
001
370
    50
100
AcDbVertex
100
AcDb2dVertex
 10
106.806222
 20
129.738431
 30
0.0
  0
VERTEX
  5
251
330
24B
100
AcDbEntity
  8
001
370
    50
100
AcDbVertex
100
AcDb2dVertex
 10
107.000499
 20
127.179532
 30
0.0
  0
VERTEX
  5
252
330
24B
100
AcDbEntity
  8
001
370
    50
100
AcDbVertex
100
AcDb2dVertex
 10
107.182984
 20
124.619578
 30
0.0
  0
VERTEX
  5
253
330
24B
100
AcDbEntity
  8
001
370
    50
100
AcDbVertex
100
AcDb2dVertex
 10
107.352255
 20
122.058686
 30
0.0
  0
VERTEX
  5
254
330
24B
100
AcDbEntity
  8
001
370
    50
100
AcDbVertex
100
AcDb2dVertex
 10
107.505762
 20
119.495651
 30
0.0
  0
VERTEX
  5
255
330
24B
100
AcDbEntity
  8
001
370
    50
100
AcDbVertex
100
AcDb2dVertex
 10
107.63616
 20
116.931418
 30
0.0
  0
VERTEX
  5
256
330
24B
100
AcDbEntity
  8
001
370
    50
100
AcDbVertex
100
AcDb2dVertex
 10
107.735388
 20
114.467301
 30
0.0
  0
VERTEX
  5
257
330
24B
100
AcDbEntity
  8
001
370
    50
100
AcDbVertex
100
AcDb2dVertex
 10
107.819487
 20
112.002528
 30
0.0
  0
SEQEND
  5
24C
330
24B
100
AcDbEntity
  8
001
370
    50
  0
LINE
  5
258
330
1F
100
AcDbEntity
  8
001
370
    50
100
AcDbLine
 10
130.513818
 20
72.809079
 30
0.0
 11
130.513818
 21
140.009079
 31
0.0
  0
LINE
  5
259
330
1F
100
AcDbEntity
  8
001
370
    50
100
AcDbLine
 10
138.513818
 20
90.409079
 30
0.0
 11
138.513818
 21
122.409079
 31
0.0
  0
LINE
  5
25A
330
1F
100
AcDbEntity
  8
001
370
    50
100
AcDbLine
 10
138.513818
 20
121.909079
 30
0.0
 11
135.513818
 21
121.909079
 31
0.0
  0
LINE
  5
25B
330
1F
100
AcDbEntity
  8
001
370
    50
100
AcDbLine
 10
135.513818
 20
90.909079
 30
0.0
 11
138.513818
 21
90.909079
 31
0.0
  0
LINE
  5
25C
330
1F
100
AcDbEntity
  8
001
370
    50
100
AcDbLine
 10
204.513818
 20
122.409079
 30
0.0
 11
138.513818
 21
122.409079
 31
0.0
  0
LINE
  5
25D
330
1F
100
AcDbEntity
  8
001
370
    50
100
AcDbLine
 10
204.513818
 20
90.409079
 30
0.0
 11
138.513818
 21
90.409079
 31
0.0
  0
LINE
  5
25E
330
1F
100
AcDbEntity
  8
001
370
    50
100
AcDbLine
 10
210.513818
 20
106.409079
 30
0.0
 11
213.97792
 21
108.409079
 31
0.0
  0
LINE
  5
25F
330
1F
100
AcDbEntity
  8
001
370
    50
100
AcDbLine
 10
210.513818
 20
106.409079
 30
0.0
 11
213.97792
 21
104.409079
 31
0.0
  0
ARC
  5
260
330
1F
100
AcDbEntity
  8
001
370
    50
100
AcDbCircle
 10
204.513818
 20
116.409079
 30
0.0
 40
6.0
100
AcDbArc
 50
0.0
 51
90.0
  0
ARC
  5
261
330
1F
100
AcDbEntity
  8
001
370
    50
100
AcDbCircle
 10
204.513818
 20
96.409079
 30
0.0
 40
6.0
100
AcDbArc
 50
270.0
 51
0.0
  0
LINE
  5
262
330
1F
100
AcDbEntity
  8
001
370
    50
100
AcDbLine
 10
106.209085
 20
75.570516
 30
0.0
 11
105.515429
 21
66.949179
 31
0.0
  0
CIRCLE
  5
263
330
1F
100
AcDbEntity
  8
001
370
    50
100
AcDbCircle
 10
113.8227
 20
71.2262
 30
0.0
 40
3.0
  0
LINE
  5
264
330
1F
100
AcDbEntity
  8
001
370
    50
100
AcDbLine
 10
121.208893
 20
66.880297
 30
0.0
 11
121.902549
 21
75.501634
 31
0.0
  0
LINE
  5
265
330
1F
100
AcDbEntity
  8
001
370
    50
100
AcDbLine
 10
121.400669
 20
76.041721
 30
0.0
 11
106.605004
 21
75.938426
 31
0.0
  0
CIRCLE
  5
266
330
1F
100
AcDbEntity
  8
001
370
    50
100
AcDbCircle
 10
113.827688
 20
71.239466
 30
0.0
 40
2.5
  0
LINE
  5
267
330
1F
100
AcDbEntity
  8
001
370
    50
100
AcDbLine
 10
114.407257
 20
72.238181
 30
0.0
 11
114.090936
 21
72.788885
 31
0.0
  0
LINE
  5
268
330
1F
100
AcDbEntity
  8
001
370
    50
100
AcDbLine
 10
113.252559
 20
72.240745
 30
0.0
 11
113.571322
 21
72.790039
 31
0.0
  0
ARC
  5
269
330
1F
100
AcDbEntity
  8
001
370
    50
100
AcDbCircle
 10
113.830796
 20
72.639462
 30
0.0
 40
0.3
100
AcDbArc
 50
29.872778
 51
149.872778
  0
LINE
  5
26A
330
1F
100
AcDbEntity
  8
001
370
    50
100
AcDbLine
 10
113.252559
 20
72.240745
 30
0.0
 11
112.617476
 21
72.242156
 31
0.0
  0
LINE
  5
26B
330
1F
100
AcDbEntity
  8
001
370
    50
100
AcDbLine
 10
112.67299
 20
71.24203
 30
0.0
 11
112.356669
 21
71.792734
 31
0.0
  0
ARC
  5
26C
330
1F
100
AcDbEntity
  8
001
370
    50
100
AcDbCircle
 10
112.616809
 20
71.942156
 30
0.0
 40
0.3
100
AcDbArc
 50
89.872778
 51
209.872778
  0
LINE
  5
26D
330
1F
100
AcDbEntity
  8
001
370
    50
100
AcDbLine
 10
112.67299
 20
71.24203
 30
0.0
 11
112.354227
 21
70.692736
 31
0.0
  0
LINE
  5
26E
330
1F
100
AcDbEntity
  8
001
370
    50
100
AcDbLine
 10
113.248118
 20
70.24075
 30
0.0
 11
112.613035
 21
70.24216
 31
0.0
  0
ARC
  5
26F
330
1F
100
AcDbEntity
  8
001
370
    50
100
AcDbCircle
 10
112.613701
 20
70.54216
 30
0.0
 40
0.3
100
AcDbArc
 50
149.872778
 51
269.872778
  0
LINE
  5
270
330
1F
100
AcDbEntity
  8
001
370
    50
100
AcDbLine
 10
113.248118
 20
70.24075
 30
0.0
 11
113.564439
 21
69.690047
 31
0.0
  0
LINE
  5
271
330
1F
100
AcDbEntity
  8
001
370
    50
100
AcDbLine
 10
114.402816
 20
70.238186
 30
0.0
 11
114.084053
 21
69.688893
 31
0.0
  0
ARC
  5
272
330
1F
100
AcDbEntity
  8
001
370
    50
100
AcDbCircle
 10
113.824579
 20
69.839469
 30
0.0
 40
0.3
100
AcDbArc
 50
209.872778
 51
329.872778
  0
LINE
  5
273
330
1F
100
AcDbEntity
  8
001
370
    50
100
AcDbLine
 10
114.402816
 20
70.238186
 30
0.0
 11
115.0379
 21
70.236776
 31
0.0
  0
LINE
  5
274
330
1F
100
AcDbEntity
  8
001
370
    50
100
AcDbLine
 10
114.982385
 20
71.236902
 30
0.0
 11
115.298706
 21
70.686198
 31
0.0
  0
ARC
  5
275
330
1F
100
AcDbEntity
  8
001
370
    50
100
AcDbCircle
 10
115.038566
 20
70.536775
 30
0.0
 40
0.3
100
AcDbArc
 50
269.872778
 51
29.872778
  0
LINE
  5
276
330
1F
100
AcDbEntity
  8
001
370
    50
100
AcDbLine
 10
114.982385
 20
71.236902
 30
0.0
 11
115.301149
 21
71.786195
 31
0.0
  0
LINE
  5
277
330
1F
100
AcDbEntity
  8
001
370
    50
100
AcDbLine
 10
114.407257
 20
72.238181
 30
0.0
 11
115.042341
 21
72.236771
 31
0.0
  0
ARC
  5
278
330
1F
100
AcDbEntity
  8
001
370
    50
100
AcDbCircle
 10
115.041675
 20
71.936772
 30
0.0
 40
0.3
100
AcDbArc
 50
329.872778
 51
89.872778
  0
ARC
  5
279
330
1F
100
AcDbEntity
  8
001
370
    50
100
AcDbCircle
 10
106.013818
 20
66.909079
 30
0.0
 40
0.5
100
AcDbArc
 50
175.4
 51
270.4
  0
LINE
  5
27A
330
1F
100
AcDbEntity
  8
001
370
    50
100
AcDbLine
 10
120.812974
 20
66.512386
 30
0.0
 11
106.017309
 21
66.409091
 31
0.0
  0
ARC
  5
27B
330
1F
100
AcDbEntity
  8
001
370
    50
100
AcDbCircle
 10
121.40416
 20
75.541734
 30
0.0
 40
0.5
100
AcDbArc
 50
355.4
 51
90.4
  0
ARC
  5
27C
330
1F
100
AcDbEntity
  8
001
370
    50
100
AcDbCircle
 10
120.167941
 20
74.288133
 30
0.0
 40
3.0
100
AcDbArc
 50
298.349498
 51
144.83356
  0
ARC
  5
27D
330
1F
100
AcDbEntity
  8
001
370
    50
100
AcDbCircle
 10
106.607797
 20
75.538436
 30
0.0
 40
0.4
100
AcDbArc
 50
90.4
 51
175.4
  0
ARC
  5
27E
330
1F
100
AcDbEntity
  8
001
370
    50
100
AcDbCircle
 10
120.810181
 20
66.912377
 30
0.0
 40
0.4
100
AcDbArc
 50
270.4
 51
355.4
  0
LINE
  5
27F
330
1F
100
AcDbEntity
  8
001
370
     9
100
AcDbLine
 10
110.992842
 20
66.409079
 30
0.0
 11
91.741775
 21
66.409079
 31
0.0
  0
LINE
  5
280
330
1F
100
AcDbEntity
  8
001
370
    50
100
AcDbLine
 10
106.194156
 20
75.384964
 30
0.0
 11
106.222035
 21
76.014992
 31
0.0
  0
LINE
  5
281
330
1F
100
AcDbEntity
  8
001
370
    50
100
AcDbLine
 10
107.826213
 20
85.409079
 30
0.0
 11
106.849855
 21
75.940136
 31
0.0
  0
LINE
  5
282
330
1F
100
AcDbEntity
  8
001
  6
DASHED
370
    30
100
AcDbLine
 10
106.902547
 20
75.940504
 30
0.0
 11
108.002838
 21
86.409079
 31
0.0
  0
POLYLINE
  5
283
330
1F
100
AcDbEntity
  8
001
370
    50
100
AcDb2dPolyline
 66
     1
 10
0.0
 20
0.0
 30
0.0
  0
VERTEX
  5
285
330
283
100
AcDbEntity
  8
001
370
    50
100
AcDbVertex
100
AcDb2dVertex
 10
121.293107
 20
67.92698
 30
0.0
  0
VERTEX
  5
286
330
283
100
AcDbEntity
  8
001
370
    50
100
AcDbVertex
100
AcDb2dVertex
 10
122.166954
 20
67.91526
 30
0.0
  0
VERTEX
  5
287
330
283
100
AcDbEntity
  8
001
370
    50
100
AcDbVertex
100
AcDb2dVertex
 10
123.350714
 20
67.900275
 30
0.0
  0
VERTEX
  5
288
330
283
100
AcDbEntity
  8
001
370
    50
100
AcDbVertex
100
AcDb2dVertex
 10
124.635052
 20
67.885391
 30
0.0
  0
VERTEX
  5
289
330
283
100
AcDbEntity
  8
001
370
    50
100
AcDbVertex
100
AcDb2dVertex
 10
125.513818
 20
67.875907
 30
0.0
  0
SEQEND
  5
284
330
283
100
AcDbEntity
  8
001
370
    50
  0
LINE
  5
28A
330
1F
100
AcDbEntity
  8
001
370
    50
100
AcDbLine
 10
121.283621
 20
67.809079
 30
0.0
 11
125.513818
 21
67.809079
 31
0.0
  0
ARC
  5
28B
330
1F
100
AcDbEntity
  8
001
370
    50
100
AcDbCircle
 10
106.013818
 20
145.909079
 30
0.0
 40
0.5
100
AcDbArc
 50
89.6
 51
184.6
  0
LINE
  5
28C
330
1F
100
AcDbEntity
  8
001
370
    50
100
AcDbLine
 10
120.812974
 20
146.305772
 30
0.0
 11
106.017309
 21
146.409067
 31
0.0
  0
ARC
  5
28D
330
1F
100
AcDbEntity
  8
001
370
    50
100
AcDbCircle
 10
120.810181
 20
145.905782
 30
0.0
 40
0.4
100
AcDbArc
 50
4.6
 51
89.6
  0
LINE
  5
28E
330
1F
100
AcDbEntity
  8
001
370
    50
100
AcDbLine
 10
106.213818
 20
137.188815
 30
0.0
 11
105.515429
 21
145.86898
 31
0.0
  0
LINE
  5
28F
330
1F
100
AcDbEntity
  8
001
370
    50
100
AcDbLine
 10
121.208893
 20
145.937861
 30
0.0
 11
121.283621
 21
145.009079
 31
0.0
  0
LINE
  5
290
330
1F
100
AcDbEntity
  8
001
370
     9
100
AcDbLine
 10
105.513818
 20
46.135226
 30
0.0
 11
105.513818
 21
66.909079
 31
0.0
  0
LINE
  5
291
330
1F
100
AcDbEntity
  8
001
370
    50
100
AcDbLine
 10
105.513818
 20
327.86277
 30
0.0
 11
122.305613
 21
327.86277
 31
0.0
  0
POLYLINE
  5
292
330
1F
100
AcDbEntity
  8
001
370
    50
100
AcDb2dPolyline
 66
     1
 10
0.0
 20
0.0
 30
0.0
  0
VERTEX
  5
294
330
292
100
AcDbEntity
  8
001
370
    50
100
AcDbVertex
100
AcDb2dVertex
 10
121.466165
 20
327.66277
 30
0.0
  0
VERTEX
  5
295
330
292
100
AcDbEntity
  8
001
370
    50
100
AcDbVertex
100
AcDb2dVertex
 10
121.299476
 20
327.058888
 30
0.0
  0
VERTEX
  5
296
330
292
100
AcDbEntity
  8
001
370
    50
100
AcDbVertex
100
AcDb2dVertex
 10
121.057137
 20
326.175939
 30
0.0
  0
VERTEX
  5
297
330
292
100
AcDbEntity
  8
001
370
    50
100
AcDbVertex
100
AcDb2dVertex
 10
120.816582
 20
325.29248
 30
0.0
  0
VERTEX
  5
298
330
292
100
AcDbEntity
  8
001
370
    50
100
AcDbVertex
100
AcDb2dVertex
 10
120.652871
 20
324.68777
 30
0.0
  0
SEQEND
  5
293
330
292
100
AcDbEntity
  8
001
370
    50
  0
LINE
  5
299
330
1F
100
AcDbEntity
  8
001
  6
DASHED
370
    30
100
AcDbLine
 10
108.002838
 20
342.86277
 30
0.0
 11
108.002838
 21
302.86277
 31
0.0
  0
LINE
  5
29A
330
1F
100
AcDbEntity
  8
001
  6
DASHED
370
    30
100
AcDbLine
 10
108.002838
 20
342.86277
 30
0.0
 11
106.222035
 21
359.805977
 31
0.0
  0
POLYLINE
  5
29B
330
1F
100
AcDbEntity
  8
001
370
    50
100
AcDb2dPolyline
 66
     1
 10
0.0
 20
0.0
 30
0.0
  0
VERTEX
  5
29D
330
29B
100
AcDbEntity
  8
001
370
    50
100
AcDbVertex
100
AcDb2dVertex
 10
106.222035
 20
292.468682
 30
0.0
  0
VERTEX
  5
29E
330
29B
100
AcDbEntity
  8
001
370
    50
100
AcDbVertex
100
AcDb2dVertex
 10
106.398826
 20
294.548721
 30
0.0
  0
VERTEX
  5
29F
330
29B
100
AcDbEntity
  8
001
370
    50
100
AcDbVertex
100
AcDb2dVertex
 10
106.57276
 20
296.628989
 30
0.0
  0
VERTEX
  5
2A0
330
29B
100
AcDbEntity
  8
001
370
    50
100
AcDbVertex
100
AcDb2dVertex
 10
106.74098
 20
298.709715
 30
0.0
  0
VERTEX
  5
2A1
330
29B
100
AcDbEntity
  8
001
370
    50
100
AcDbVertex
100
AcDb2dVertex
 10
106.863438
 20
300.285824
 30
0.0
  0
VERTEX
  5
2A2
330
29B
100
AcDbEntity
  8
001
370
    50
100
AcDbVertex
100
AcDb2dVertex
 10
106.983439
 20
301.86213
 30
0.0
  0
SEQEND
  5
29C
330
29B
100
AcDbEntity
  8
001
370
    50
  0
POLYLINE
  5
2A3
330
1F
100
AcDbEntity
  8
001
370
    50
100
AcDb2dPolyline
 66
     1
 10
0.0
 20
0.0
 30
0.0
  0
VERTEX
  5
2A5
330
2A3
100
AcDbEntity
  8
001
370
    50
100
AcDbVertex
100
AcDb2dVertex
 10
107.713818
 20
355.250422
 30
0.0
  0
VERTEX
  5
2A6
330
2A3
100
AcDbEntity
  8
001
370
    50
100
AcDbVertex
100
AcDb2dVertex
 10
107.646257
 20
355.24783
 30
0.0
  0
VERTEX
  5
2A7
330
2A3
100
AcDbEntity
  8
001
370
    50
100
AcDbVertex
100
AcDb2dVertex
 10
107.578837
 20
355.243169
 30
0.0
  0
VERTEX
  5
2A8
330
2A3
100
AcDbEntity
  8
001
370
    50
100
AcDbVertex
100
AcDb2dVertex
 10
107.334668
 20
355.193102
 30
0.0
  0
VERTEX
  5
2A9
330
2A3
100
AcDbEntity
  8
001
370
    50
100
AcDbVertex
100
AcDb2dVertex
 10
107.103773
 20
355.095788
 30
0.0
  0
VERTEX
  5
2AA
330
2A3
100
AcDbEntity
  8
001
370
    50
100
AcDbVertex
100
AcDb2dVertex
 10
106.895398
 20
354.960271
 30
0.0
  0
VERTEX
  5
2AB
330
2A3
100
AcDbEntity
  8
001
370
    50
100
AcDbVertex
100
AcDb2dVertex
 10
106.712302
 20
354.792605
 30
0.0
  0
VERTEX
  5
2AC
330
2A3
100
AcDbEntity
  8
001
370
    50
100
AcDbVertex
100
AcDb2dVertex
 10
106.531693
 20
354.561065
 30
0.0
  0
VERTEX
  5
2AD
330
2A3
100
AcDbEntity
  8
001
370
    50
100
AcDbVertex
100
AcDb2dVertex
 10
106.391667
 20
354.302868
 30
0.0
  0
VERTEX
  5
2AE
330
2A3
100
AcDbEntity
  8
001
370
    50
100
AcDbVertex
100
AcDb2dVertex
 10
106.324486
 20
354.130137
 30
0.0
  0
VERTEX
  5
2AF
330
2A3
100
AcDbEntity
  8
001
370
    50
100
AcDbVertex
100
AcDb2dVertex
 10
106.273192
 20
353.952114
 30
0.0
  0
VERTEX
  5
2B0
330
2A3
100
AcDbEntity
  8
001
370
    50
100
AcDbVertex
100
AcDb2dVertex
 10
106.237301
 20
353.770094
 30
0.0
  0
VERTEX
  5
2B1
330
2A3
100
AcDbEntity
  8
001
370
    50
100
AcDbVertex
100
AcDb2dVertex
 10
106.218177
 20
353.585757
 30
0.0
  0
VERTEX
  5
2B2
330
2A3
100
AcDbEntity
  8
001
370
    50
100
AcDbVertex
100
AcDb2dVertex
 10
106.21512
 20
353.499219
 30
0.0
  0
VERTEX
  5
2B3
330
2A3
100
AcDbEntity
  8
001
370
    50
100
AcDbVertex
100
AcDb2dVertex
 10
106.21409
 20
353.412603
 30
0.0
  0
SEQEND
  5
2A4
330
2A3
100
AcDbEntity
  8
001
370
    50
  0
LINE
  5
2B4
330
1F
100
AcDbEntity
  8
001
370
    50
100
AcDbLine
 10
125.513818
 20
355.250422
 30
0.0
 11
107.713818
 21
355.250422
 31
0.0
  0
POLYLINE
  5
2B5
330
1F
100
AcDbEntity
  8
001
370
    50
100
AcDb2dPolyline
 66
     1
 10
0.0
 20
0.0
 30
0.0
  0
VERTEX
  5
2B7
330
2B5
100
AcDbEntity
  8
001
370
    50
100
AcDbVertex
100
AcDb2dVertex
 10
130.513818
 20
349.091761
 30
0.0
  0
VERTEX
  5
2B8
330
2B5
100
AcDbEntity
  8
001
370
    50
100
AcDbVertex
100
AcDb2dVertex
 10
130.510126
 20
349.298972
 30
0.0
  0
VERTEX
  5
2B9
330
2B5
100
AcDbEntity
  8
001
370
    50
100
AcDbVertex
100
AcDb2dVertex
 10
130.503283
 20
349.506071
 30
0.0
  0
VERTEX
  5
2BA
330
2B5
100
AcDbEntity
  8
001
370
    50
100
AcDbVertex
100
AcDb2dVertex
 10
130.465607
 20
349.978314
 30
0.0
  0
VERTEX
  5
2BB
330
2B5
100
AcDbEntity
  8
001
370
    50
100
AcDbVertex
100
AcDb2dVertex
 10
130.39761
 20
350.447443
 30
0.0
  0
VERTEX
  5
2BC
330
2B5
100
AcDbEntity
  8
001
370
    50
100
AcDbVertex
100
AcDb2dVertex
 10
130.300822
 20
350.913143
 30
0.0
  0
VERTEX
  5
2BD
330
2B5
100
AcDbEntity
  8
001
370
    50
100
AcDbVertex
100
AcDb2dVertex
 10
130.174651
 20
351.371632
 30
0.0
  0
VERTEX
  5
2BE
330
2B5
100
AcDbEntity
  8
001
370
    50
100
AcDbVertex
100
AcDb2dVertex
 10
130.018618
 20
351.818402
 30
0.0
  0
VERTEX
  5
2BF
330
2B5
100
AcDbEntity
  8
001
370
    50
100
AcDbVertex
100
AcDb2dVertex
 10
129.831283
 20
352.252985
 30
0.0
  0
VERTEX
  5
2C0
330
2B5
100
AcDbEntity
  8
001
370
    50
100
AcDbVertex
100
AcDb2dVertex
 10
129.610285
 20
352.675553
 30
0.0
  0
VERTEX
  5
2C1
330
2B5
100
AcDbEntity
  8
001
370
    50
100
AcDbVertex
100
AcDb2dVertex
 10
129.357126
 20
353.079746
 30
0.0
  0
VERTEX
  5
2C2
330
2B5
100
AcDbEntity
  8
001
370
    50
100
AcDbVertex
100
AcDb2dVertex
 10
129.07239
 20
353.461974
 30
0.0
  0
VERTEX
  5
2C3
330
2B5
100
AcDbEntity
  8
001
370
    50
100
AcDbVertex
100
AcDb2dVertex
 10
128.75592
 20
353.818217
 30
0.0
  0
VERTEX
  5
2C4
330
2B5
100
AcDbEntity
  8
001
370
    50
100
AcDbVertex
100
AcDb2dVertex
 10
128.404892
 20
354.146778
 30
0.0
  0
VERTEX
  5
2C5
330
2B5
100
AcDbEntity
  8
001
370
    50
100
AcDbVertex
100
AcDb2dVertex
 10
128.024123
 20
354.440662
 30
0.0
  0
VERTEX
  5
2C6
330
2B5
100
AcDbEntity
  8
001
370
    50
100
AcDbVertex
100
AcDb2dVertex
 10
127.616757
 20
354.695739
 30
0.0
  0
VERTEX
  5
2C7
330
2B5
100
AcDbEntity
  8
001
370
    50
100
AcDbVertex
100
AcDb2dVertex
 10
127.185416
 20
354.906993
 30
0.0
  0
VERTEX
  5
2C8
330
2B5
100
AcDbEntity
  8
001
370
    50
100
AcDbVertex
100
AcDb2dVertex
 10
126.801488
 20
355.048653
 30
0.0
  0
VERTEX
  5
2C9
330
2B5
100
AcDbEntity
  8
001
370
    50
100
AcDbVertex
100
AcDb2dVertex
 10
126.40578
 20
355.153896
 30
0.0
  0
VERTEX
  5
2CA
330
2B5
100
AcDbEntity
  8
001
370
    50
100
AcDbVertex
100
AcDb2dVertex
 10
126.001947
 20
355.221809
 30
0.0
  0
VERTEX
  5
2CB
330
2B5
100
AcDbEntity
  8
001
370
    50
100
AcDbVertex
100
AcDb2dVertex
 10
125.593913
 20
355.249657
 30
0.0
  0
VERTEX
  5
2CC
330
2B5
100
AcDbEntity
  8
001
370
    50
100
AcDbVertex
100
AcDb2dVertex
 10
125.553866
 20
355.250143
 30
0.0
  0
VERTEX
  5
2CD
330
2B5
100
AcDbEntity
  8
001
370
    50
100
AcDbVertex
100
AcDb2dVertex
 10
125.513818
 20
355.250422
 30
0.0
  0
SEQEND
  5
2B6
330
2B5
100
AcDbEntity
  8
001
370
    50
  0
LINE
  5
2CE
330
1F
100
AcDbEntity
  8
001
370
    50
100
AcDbLine
 10
106.21409
 20
353.412603
 30
0.0
 11
106.222035
 21
353.256857
 31
0.0
  0
ARC
  5
2CF
330
1F
100
AcDbEntity
  8
001
370
    50
100
AcDbCircle
 10
107.713818
 20
359.96277
 30
0.0
 40
1.500000000000001
100
AcDbArc
 50
90.0
 51
180.0
  0
ARC
  5
2D0
330
1F
100
AcDbEntity
  8
001
  6
DASHED
370
    30
100
AcDbCircle
 10
107.713818
 20
359.96277
 30
0.0
 40
1.500000000000001
100
AcDbArc
 50
180.0
 51
186.0
  0
LINE
  5
2D1
330
1F
100
AcDbEntity
  8
001
370
    50
100
AcDbLine
 10
106.213818
 20
359.96277
 30
0.0
 11
106.213818
 21
353.436038
 31
0.0
  0
LINE
  5
2D2
330
1F
100
AcDbEntity
  8
001
370
    50
100
AcDbLine
 10
125.513818
 20
361.46277
 30
0.0
 11
107.713818
 21
361.46277
 31
0.0
  0
ARC
  5
2D3
330
1F
100
AcDbEntity
  8
001
370
    50
100
AcDbCircle
 10
125.513818
 20
356.46277
 30
0.0
 40
5.000000000000001
100
AcDbArc
 50
0.0
 51
90.0
  0
LINE
  5
2D4
330
1F
100
AcDbEntity
  8
001
370
    50
100
AcDbLine
 10
135.513818
 20
338.86277
 30
0.0
 11
135.513818
 21
306.86277
 31
0.0
  0
ARC
  5
2D5
330
1F
100
AcDbEntity
  8
001
370
    50
100
AcDbCircle
 10
135.513818
 20
343.86277
 30
0.0
 40
5.000000000000001
100
AcDbArc
 50
180.0
 51
270.0
  0
ARC
  5
2D6
330
1F
100
AcDbEntity
  8
001
370
    50
100
AcDbCircle
 10
135.513818
 20
301.86277
 30
0.0
 40
5.000000000000001
100
AcDbArc
 50
90.0
 51
180.0
  0
LINE
  5
2D7
330
1F
100
AcDbEntity
  8
001
370
    50
100
AcDbLine
 10
280.513818
 20
312.86277
 30
0.0
 11
280.513818
 21
332.86277
 31
0.0
  0
POLYLINE
  5
2D8
330
1F
100
AcDbEntity
  8
001
370
    50
100
AcDb2dPolyline
 66
     1
 10
0.0
 20
0.0
 30
0.0
  0
VERTEX
  5
2DA
330
2D8
100
AcDbEntity
  8
001
370
    50
100
AcDbVertex
100
AcDb2dVertex
 10
125.513818
 20
284.329597
 30
0.0
  0
VERTEX
  5
2DB
330
2D8
100
AcDbEntity
  8
001
370
    50
100
AcDbVertex
100
AcDb2dVertex
 10
125.935682
 20
284.350114
 30
0.0
  0
VERTEX
  5
2DC
330
2D8
100
AcDbEntity
  8
001
370
    50
100
AcDbVertex
100
AcDb2dVertex
 10
126.35479
 20
284.392992
 30
0.0
  0
VERTEX
  5
2DD
330
2D8
100
AcDbEntity
  8
001
370
    50
100
AcDbVertex
100
AcDb2dVertex
 10
126.768611
 20
284.475906
 30
0.0
  0
VERTEX
  5
2DE
330
2D8
100
AcDbEntity
  8
001
370
    50
100
AcDbVertex
100
AcDb2dVertex
 10
127.173653
 20
284.597388
 30
0.0
  0
VERTEX
  5
2DF
330
2D8
100
AcDbEntity
  8
001
370
    50
100
AcDbVertex
100
AcDb2dVertex
 10
127.567648
 20
284.752595
 30
0.0
  0
VERTEX
  5
2E0
330
2D8
100
AcDbEntity
  8
001
370
    50
100
AcDbVertex
100
AcDb2dVertex
 10
127.947025
 20
284.940036
 30
0.0
  0
VERTEX
  5
2E1
330
2D8
100
AcDbEntity
  8
001
370
    50
100
AcDbVertex
100
AcDb2dVertex
 10
128.309912
 20
285.159731
 30
0.0
  0
VERTEX
  5
2E2
330
2D8
100
AcDbEntity
  8
001
370
    50
100
AcDbVertex
100
AcDb2dVertex
 10
128.652499
 20
285.409973
 30
0.0
  0
VERTEX
  5
2E3
330
2D8
100
AcDbEntity
  8
001
370
    50
100
AcDbVertex
100
AcDb2dVertex
 10
128.96983
 20
285.687002
 30
0.0
  0
VERTEX
  5
2E4
330
2D8
100
AcDbEntity
  8
001
370
    50
100
AcDbVertex
100
AcDb2dVertex
 10
129.262549
 20
285.990046
 30
0.0
  0
VERTEX
  5
2E5
330
2D8
100
AcDbEntity
  8
001
370
    50
100
AcDbVertex
100
AcDb2dVertex
 10
129.529521
 20
286.317471
 30
0.0
  0
VERTEX
  5
2E6
330
2D8
100
AcDbEntity
  8
001
370
    50
100
AcDbVertex
100
AcDb2dVertex
 10
129.767296
 20
286.666393
 30
0.0
  0
VERTEX
  5
2E7
330
2D8
100
AcDbEntity
  8
001
370
    50
100
AcDbVertex
100
AcDb2dVertex
 10
129.971594
 20
287.030521
 30
0.0
  0
VERTEX
  5
2E8
330
2D8
100
AcDbEntity
  8
001
370
    50
100
AcDbVertex
100
AcDb2dVertex
 10
130.145574
 20
287.410634
 30
0.0
  0
VERTEX
  5
2E9
330
2D8
100
AcDbEntity
  8
001
370
    50
100
AcDbVertex
100
AcDb2dVertex
 10
130.289047
 20
287.804497
 30
0.0
  0
VERTEX
  5
2EA
330
2D8
100
AcDbEntity
  8
001
370
    50
100
AcDbVertex
100
AcDb2dVertex
 10
130.395214
 20
288.208849
 30
0.0
  0
VERTEX
  5
2EB
330
2D8
100
AcDbEntity
  8
001
370
    50
100
AcDbVertex
100
AcDb2dVertex
 10
130.473715
 20
288.746783
 30
0.0
  0
VERTEX
  5
2EC
330
2D8
100
AcDbEntity
  8
001
370
    50
100
AcDbVertex
100
AcDb2dVertex
 10
130.513818
 20
289.291481
 30
0.0
  0
SEQEND
  5
2D9
330
2D8
100
AcDbEntity
  8
001
370
    50
  0
ARC
  5
2ED
330
1F
100
AcDbEntity
  8
001
370
    50
100
AcDbCircle
 10
125.513818
 20
289.26277
 30
0.0
 40
5.000000000000001
100
AcDbArc
 50
270.0
 51
0.0
  0
LINE
  5
2EE
330
1F
100
AcDbEntity
  8
001
  6
DASHED
370
    50
100
AcDbLine
 10
106.213913
 20
343.86277
 30
0.0
 11
106.222035
 21
343.86277
 31
0.0
  0
LINE
  5
2EF
330
1F
100
AcDbEntity
  8
001
370
    50
100
AcDbLine
 10
130.513818
 20
301.86277
 30
0.0
 11
106.213818
 21
301.86277
 31
0.0
  0
LINE
  5
2F0
330
1F
100
AcDbEntity
  8
001
370
    50
100
AcDbLine
 10
106.983537
 20
343.86277
 30
0.0
 11
106.213818
 21
343.86277
 31
0.0
  0
POLYLINE
  5
2F1
330
1F
100
AcDbEntity
  8
001
370
    50
100
AcDb2dPolyline
 66
     1
 10
0.0
 20
0.0
 30
0.0
  0
VERTEX
  5
2F3
330
2F1
100
AcDbEntity
  8
001
370
    50
100
AcDbVertex
100
AcDb2dVertex
 10
106.222035
 20
353.256857
 30
0.0
  0
VERTEX
  5
2F4
330
2F1
100
AcDbEntity
  8
001
370
    50
100
AcDbVertex
100
AcDb2dVertex
 10
106.413525
 20
351.003683
 30
0.0
  0
VERTEX
  5
2F5
330
2F1
100
AcDbEntity
  8
001
370
    50
100
AcDbVertex
100
AcDb2dVertex
 10
106.601373
 20
348.750202
 30
0.0
  0
VERTEX
  5
2F6
330
2F1
100
AcDbEntity
  8
001
370
    50
100
AcDbVertex
100
AcDb2dVertex
 10
106.806222
 20
346.192122
 30
0.0
  0
VERTEX
  5
2F7
330
2F1
100
AcDbEntity
  8
001
370
    50
100
AcDbVertex
100
AcDb2dVertex
 10
107.000499
 20
343.633222
 30
0.0
  0
VERTEX
  5
2F8
330
2F1
100
AcDbEntity
  8
001
370
    50
100
AcDbVertex
100
AcDb2dVertex
 10
107.182984
 20
341.073268
 30
0.0
  0
VERTEX
  5
2F9
330
2F1
100
AcDbEntity
  8
001
370
    50
100
AcDbVertex
100
AcDb2dVertex
 10
107.352255
 20
338.512376
 30
0.0
  0
VERTEX
  5
2FA
330
2F1
100
AcDbEntity
  8
001
370
    50
100
AcDbVertex
100
AcDb2dVertex
 10
107.505762
 20
335.949342
 30
0.0
  0
VERTEX
  5
2FB
330
2F1
100
AcDbEntity
  8
001
370
    50
100
AcDbVertex
100
AcDb2dVertex
 10
107.63616
 20
333.385109
 30
0.0
  0
VERTEX
  5
2FC
330
2F1
100
AcDbEntity
  8
001
370
    50
100
AcDbVertex
100
AcDb2dVertex
 10
107.735388
 20
330.920992
 30
0.0
  0
VERTEX
  5
2FD
330
2F1
100
AcDbEntity
  8
001
370
    50
100
AcDbVertex
100
AcDb2dVertex
 10
107.819487
 20
328.456218
 30
0.0
  0
SEQEND
  5
2F2
330
2F1
100
AcDbEntity
  8
001
370
    50
  0
LINE
  5
2FE
330
1F
100
AcDbEntity
  8
001
370
    50
100
AcDbLine
 10
122.305613
 20
327.86277
 30
0.0
 11
122.252023
 21
327.66277
 31
0.0
  0
LINE
  5
2FF
330
1F
100
AcDbEntity
  8
001
370
    50
100
AcDbLine
 10
106.213818
 20
324.68777
 30
0.0
 11
120.652871
 21
324.68777
 31
0.0
  0
LINE
  5
300
330
1F
100
AcDbEntity
  8
001
370
    50
100
AcDbLine
 10
130.513818
 20
289.26277
 30
0.0
 11
130.513818
 21
356.46277
 31
0.0
  0
LINE
  5
301
330
1F
100
AcDbEntity
  8
001
370
    50
100
AcDbLine
 10
138.513818
 20
306.86277
 30
0.0
 11
138.513818
 21
338.86277
 31
0.0
  0
LINE
  5
302
330
1F
100
AcDbEntity
  8
001
370
    50
100
AcDbLine
 10
138.513818
 20
338.36277
 30
0.0
 11
135.513818
 21
338.36277
 31
0.0
  0
LINE
  5
303
330
1F
100
AcDbEntity
  8
001
370
    50
100
AcDbLine
 10
135.513818
 20
307.36277
 30
0.0
 11
138.513818
 21
307.36277
 31
0.0
  0
LINE
  5
304
330
1F
100
AcDbEntity
  8
001
370
    50
100
AcDbLine
 10
274.513818
 20
338.86277
 30
0.0
 11
138.513818
 21
338.86277
 31
0.0
  0
LINE
  5
305
330
1F
100
AcDbEntity
  8
001
370
    50
100
AcDbLine
 10
274.513818
 20
306.86277
 30
0.0
 11
138.513818
 21
306.86277
 31
0.0
  0
LINE
  5
306
330
1F
100
AcDbEntity
  8
001
370
    50
100
AcDbLine
 10
280.513818
 20
322.86277
 30
0.0
 11
283.97792
 21
324.86277
 31
0.0
  0
LINE
  5
307
330
1F
100
AcDbEntity
  8
001
370
    50
100
AcDbLine
 10
280.513818
 20
322.86277
 30
0.0
 11
283.97792
 21
320.86277
 31
0.0
  0
ARC
  5
308
330
1F
100
AcDbEntity
  8
001
370
    50
100
AcDbCircle
 10
274.513818
 20
332.86277
 30
0.0
 40
6.0
100
AcDbArc
 50
0.0
 51
90.0
  0
ARC
  5
309
330
1F
100
AcDbEntity
  8
001
370
    50
100
AcDbCircle
 10
274.513818
 20
312.86277
 30
0.0
 40
6.0
100
AcDbArc
 50
270.0
 51
0.0
  0
LINE
  5
30A
330
1F
100
AcDbEntity
  8
001
370
    50
100
AcDbLine
 10
106.209085
 20
292.024206
 30
0.0
 11
105.515429
 21
283.402869
 31
0.0
  0
CIRCLE
  5
30B
330
1F
100
AcDbEntity
  8
001
370
    50
100
AcDbCircle
 10
113.8227
 20
287.679891
 30
0.0
 40
3.0
  0
LINE
  5
30C
330
1F
100
AcDbEntity
  8
001
370
    50
100
AcDbLine
 10
121.208893
 20
283.333988
 30
0.0
 11
121.902549
 21
291.955325
 31
0.0
  0
LINE
  5
30D
330
1F
100
AcDbEntity
  8
001
370
    50
100
AcDbLine
 10
121.400669
 20
292.495412
 30
0.0
 11
106.605004
 21
292.392117
 31
0.0
  0
CIRCLE
  5
30E
330
1F
100
AcDbEntity
  8
001
370
    50
100
AcDbCircle
 10
113.827688
 20
287.693156
 30
0.0
 40
2.5
  0
LINE
  5
30F
330
1F
100
AcDbEntity
  8
001
370
    50
100
AcDbLine
 10
114.407257
 20
288.691872
 30
0.0
 11
114.090936
 21
289.242576
 31
0.0
  0
LINE
  5
310
330
1F
100
AcDbEntity
  8
001
370
    50
100
AcDbLine
 10
113.252559
 20
288.694436
 30
0.0
 11
113.571322
 21
289.24373
 31
0.0
  0
ARC
  5
311
330
1F
100
AcDbEntity
  8
001
370
    50
100
AcDbCircle
 10
113.830796
 20
289.093153
 30
0.0
 40
0.3
100
AcDbArc
 50
29.872778
 51
149.872778
  0
LINE
  5
312
330
1F
100
AcDbEntity
  8
001
370
    50
100
AcDbLine
 10
113.252559
 20
288.694436
 30
0.0
 11
112.617476
 21
288.695846
 31
0.0
  0
LINE
  5
313
330
1F
100
AcDbEntity
  8
001
370
    50
100
AcDbLine
 10
112.67299
 20
287.69572
 30
0.0
 11
112.356669
 21
288.246424
 31
0.0
  0
ARC
  5
314
330
1F
100
AcDbEntity
  8
001
370
    50
100
AcDbCircle
 10
112.616809
 20
288.395847
 30
0.0
 40
0.3
100
AcDbArc
 50
89.872778
 51
209.872778
  0
LINE
  5
315
330
1F
100
AcDbEntity
  8
001
370
    50
100
AcDbLine
 10
112.67299
 20
287.69572
 30
0.0
 11
112.354227
 21
287.146427
 31
0.0
  0
LINE
  5
316
330
1F
100
AcDbEntity
  8
001
370
    50
100
AcDbLine
 10
113.248118
 20
286.694441
 30
0.0
 11
112.613035
 21
286.695851
 31
0.0
  0
ARC
  5
317
330
1F
100
AcDbEntity
  8
001
370
    50
100
AcDbCircle
 10
112.613701
 20
286.99585
 30
0.0
 40
0.3
100
AcDbArc
 50
149.872778
 51
269.872778
  0
LINE
  5
318
330
1F
100
AcDbEntity
  8
001
370
    50
100
AcDbLine
 10
113.248118
 20
286.694441
 30
0.0
 11
113.564439
 21
286.143737
 31
0.0
  0
LINE
  5
319
330
1F
100
AcDbEntity
  8
001
370
    50
100
AcDbLine
 10
114.402816
 20
286.691877
 30
0.0
 11
114.084053
 21
286.142583
 31
0.0
  0
ARC
  5
31A
330
1F
100
AcDbEntity
  8
001
370
    50
100
AcDbCircle
 10
113.824579
 20
286.29316
 30
0.0
 40
0.3
100
AcDbArc
 50
209.872778
 51
329.872778
  0
LINE
  5
31B
330
1F
100
AcDbEntity
  8
001
370
    50
100
AcDbLine
 10
114.402816
 20
286.691877
 30
0.0
 11
115.0379
 21
286.690467
 31
0.0
  0
LINE
  5
31C
330
1F
100
AcDbEntity
  8
001
370
    50
100
AcDbLine
 10
114.982385
 20
287.690593
 30
0.0
 11
115.298706
 21
287.139889
 31
0.0
  0
ARC
  5
31D
330
1F
100
AcDbEntity
  8
001
370
    50
100
AcDbCircle
 10
115.038566
 20
286.990466
 30
0.0
 40
0.3
100
AcDbArc
 50
269.872778
 51
29.872778
  0
LINE
  5
31E
330
1F
100
AcDbEntity
  8
001
370
    50
100
AcDbLine
 10
114.982385
 20
287.690593
 30
0.0
 11
115.301149
 21
288.239886
 31
0.0
  0
LINE
  5
31F
330
1F
100
AcDbEntity
  8
001
370
    50
100
AcDbLine
 10
114.407257
 20
288.691872
 30
0.0
 11
115.042341
 21
288.690462
 31
0.0
  0
ARC
  5
320
330
1F
100
AcDbEntity
  8
001
370
    50
100
AcDbCircle
 10
115.041675
 20
288.390463
 30
0.0
 40
0.3
100
AcDbArc
 50
329.872778
 51
89.872778
  0
ARC
  5
321
330
1F
100
AcDbEntity
  8
001
370
    50
100
AcDbCircle
 10
106.013818
 20
283.36277
 30
0.0
 40
0.5
100
AcDbArc
 50
175.4
 51
270.4
  0
LINE
  5
322
330
1F
100
AcDbEntity
  8
001
370
    50
100
AcDbLine
 10
120.812974
 20
282.966077
 30
0.0
 11
106.017309
 21
282.862782
 31
0.0
  0
ARC
  5
323
330
1F
100
AcDbEntity
  8
001
370
    50
100
AcDbCircle
 10
121.40416
 20
291.995424
 30
0.0
 40
0.5
100
AcDbArc
 50
355.4
 51
90.4
  0
ARC
  5
324
330
1F
100
AcDbEntity
  8
001
370
    50
100
AcDbCircle
 10
120.167941
 20
290.741823
 30
0.0
 40
3.0
100
AcDbArc
 50
298.349498
 51
144.83356
  0
ARC
  5
325
330
1F
100
AcDbEntity
  8
001
370
    50
100
AcDbCircle
 10
106.607797
 20
291.992127
 30
0.0
 40
0.4
100
AcDbArc
 50
90.4
 51
175.4
  0
ARC
  5
326
330
1F
100
AcDbEntity
  8
001
370
    50
100
AcDbCircle
 10
120.810181
 20
283.366067
 30
0.0
 40
0.4
100
AcDbArc
 50
270.4
 51
355.4
  0
LINE
  5
327
330
1F
100
AcDbEntity
  8
001
370
     9
100
AcDbLine
 10
110.992842
 20
282.86277
 30
0.0
 11
91.741775
 21
282.86277
 31
0.0
  0
LINE
  5
328
330
1F
100
AcDbEntity
  8
001
370
    50
100
AcDbLine
 10
106.194156
 20
291.838654
 30
0.0
 11
106.222035
 21
292.468682
 31
0.0
  0
LINE
  5
329
330
1F
100
AcDbEntity
  8
001
370
    50
100
AcDbLine
 10
107.826213
 20
301.86277
 30
0.0
 11
106.849855
 21
292.393826
 31
0.0
  0
LINE
  5
32A
330
1F
100
AcDbEntity
  8
001
  6
DASHED
370
    30
100
AcDbLine
 10
106.902547
 20
292.394194
 30
0.0
 11
108.002838
 21
302.86277
 31
0.0
  0
POLYLINE
  5
32B
330
1F
100
AcDbEntity
  8
001
370
    50
100
AcDb2dPolyline
 66
     1
 10
0.0
 20
0.0
 30
0.0
  0
VERTEX
  5
32D
330
32B
100
AcDbEntity
  8
001
370
    50
100
AcDbVertex
100
AcDb2dVertex
 10
121.293107
 20
284.380671
 30
0.0
  0
VERTEX
  5
32E
330
32B
100
AcDbEntity
  8
001
370
    50
100
AcDbVertex
100
AcDb2dVertex
 10
122.166954
 20
284.368951
 30
0.0
  0
VERTEX
  5
32F
330
32B
100
AcDbEntity
  8
001
370
    50
100
AcDbVertex
100
AcDb2dVertex
 10
123.350714
 20
284.353965
 30
0.0
  0
VERTEX
  5
330
330
32B
100
AcDbEntity
  8
001
370
    50
100
AcDbVertex
100
AcDb2dVertex
 10
124.635052
 20
284.339082
 30
0.0
  0
VERTEX
  5
331
330
32B
100
AcDbEntity
  8
001
370
    50
100
AcDbVertex
100
AcDb2dVertex
 10
125.513818
 20
284.329597
 30
0.0
  0
SEQEND
  5
32C
330
32B
100
AcDbEntity
  8
001
370
    50
  0
LINE
  5
332
330
1F
100
AcDbEntity
  8
001
370
    50
100
AcDbLine
 10
121.283621
 20
284.26277
 30
0.0
 11
125.513818
 21
284.26277
 31
0.0
  0
ARC
  5
333
330
1F
100
AcDbEntity
  8
001
370
    50
100
AcDbCircle
 10
106.013818
 20
362.36277
 30
0.0
 40
0.5
100
AcDbArc
 50
89.6
 51
184.6
  0
LINE
  5
334
330
1F
100
AcDbEntity
  8
001
370
    50
100
AcDbLine
 10
120.812974
 20
362.759463
 30
0.0
 11
106.017309
 21
362.862758
 31
0.0
  0
ARC
  5
335
330
1F
100
AcDbEntity
  8
001
370
    50
100
AcDbCircle
 10
120.810181
 20
362.359472
 30
0.0
 40
0.4
100
AcDbArc
 50
4.6
 51
89.6
  0
LINE
  5
336
330
1F
100
AcDbEntity
  8
001
370
    50
100
AcDbLine
 10
106.213818
 20
353.642506
 30
0.0
 11
105.515429
 21
362.32267
 31
0.0
  0
LINE
  5
337
330
1F
100
AcDbEntity
  8
001
370
    50
100
AcDbLine
 10
121.208893
 20
362.391552
 30
0.0
 11
121.283621
 21
361.46277
 31
0.0
  0
LINE
  5
338
330
1F
100
AcDbEntity
  8
001
370
     9
100
AcDbLine
 10
105.513818
 20
262.588916
 30
0.0
 11
105.513818
 21
283.36277
 31
0.0
  0
LINE
  5
339
330
1F
100
AcDbEntity
  8
001
  6
CENTER
370
     9
100
AcDbLine
 10
287.050866
 20
322.86277
 30
0.0
 11
103.662025
 21
322.86277
 31
0.0
  0
LINE
  5
33A
330
1F
100
AcDbEntity
  8
001
370
    50
100
AcDbLine
 10
105.513818
 20
327.86277
 30
0.0
 11
106.213818
 21
324.68777
 31
0.0
  0
LINE
  5
33B
330
1F
100
AcDbEntity
  8
001
370
    50
100
AcDbLine
 10
130.513818
 20
327.66277
 30
0.0
 11
121.466165
 21
327.66277
 31
0.0
  0
LINE
  5
33C
330
1F
100
AcDbEntity
  8
001
370
    50
100
AcDbLine
 10
106.213818
 20
343.86277
 30
0.0
 11
106.213818
 21
327.86277
 31
0.0
  0
LINE
  5
33D
330
1F
100
AcDbEntity
  8
001
370
    50
100
AcDbLine
 10
106.213818
 20
324.68777
 30
0.0
 11
106.213818
 21
301.86277
 31
0.0
  0
LINE
  5
33E
330
1F
100
AcDbEntity
  8
001
370
    50
100
AcDbLine
 10
105.513818
 20
317.86277
 30
0.0
 11
106.213818
 21
321.03777
 31
0.0
  0
LINE
  5
33F
330
1F
100
AcDbEntity
  8
001
370
    50
100
AcDbLine
 10
105.513818
 20
317.86277
 30
0.0
 11
106.213818
 21
317.86277
 31
0.0
  0
LINE
  5
340
330
1F
100
AcDbEntity
  8
001
370
    50
100
AcDbLine
 10
105.513818
 20
111.409079
 30
0.0
 11
122.305613
 21
111.409079
 31
0.0
  0
POLYLINE
  5
341
330
1F
100
AcDbEntity
  8
001
370
    50
100
AcDb2dPolyline
 66
     1
 10
0.0
 20
0.0
 30
0.0
  0
VERTEX
  5
343
330
341
100
AcDbEntity
  8
001
370
    50
100
AcDbVertex
100
AcDb2dVertex
 10
121.466165
 20
111.209079
 30
0.0
  0
VERTEX
  5
344
330
341
100
AcDbEntity
  8
001
370
    50
100
AcDbVertex
100
AcDb2dVertex
 10
121.299476
 20
110.605197
 30
0.0
  0
VERTEX
  5
345
330
341
100
AcDbEntity
  8
001
370
    50
100
AcDbVertex
100
AcDb2dVertex
 10
121.057137
 20
109.722248
 30
0.0
  0
VERTEX
  5
346
330
341
100
AcDbEntity
  8
001
370
    50
100
AcDbVertex
100
AcDb2dVertex
 10
120.816582
 20
108.83879
 30
0.0
  0
VERTEX
  5
347
330
341
100
AcDbEntity
  8
001
370
    50
100
AcDbVertex
100
AcDb2dVertex
 10
120.652871
 20
108.234079
 30
0.0
  0
SEQEND
  5
342
330
341
100
AcDbEntity
  8
001
370
    50
  0
LINE
  5
348
330
1F
100
AcDbEntity
  8
001
370
    50
100
AcDbLine
 10
122.305613
 20
111.409079
 30
0.0
 11
122.252023
 21
111.209079
 31
0.0
  0
LINE
  5
349
330
1F
100
AcDbEntity
  8
001
370
    50
100
AcDbLine
 10
106.213818
 20
108.234079
 30
0.0
 11
120.652871
 21
108.234079
 31
0.0
  0
LINE
  5
34A
330
1F
100
AcDbEntity
  8
001
370
    50
100
AcDbLine
 10
105.513818
 20
111.409079
 30
0.0
 11
106.213818
 21
108.234079
 31
0.0
  0
LINE
  5
34B
330
1F
100
AcDbEntity
  8
001
370
    50
100
AcDbLine
 10
130.513818
 20
111.209079
 30
0.0
 11
121.466165
 21
111.209079
 31
0.0
  0
LINE
  5
34C
330
1F
100
AcDbEntity
  8
001
370
    50
100
AcDbLine
 10
105.513818
 20
101.409079
 30
0.0
 11
106.213818
 21
104.584079
 31
0.0
  0
LINE
  5
34D
330
1F
100
AcDbEntity
  8
001
370
    50
100
AcDbLine
 10
105.513818
 20
101.409079
 30
0.0
 11
106.213818
 21
101.409079
 31
0.0
  0
LINE
  5
34E
330
1F
100
AcDbEntity
  8
001
370
    50
100
AcDbLine
 10
106.213818
 20
127.409079
 30
0.0
 11
106.213818
 21
111.409079
 31
0.0
  0
LINE
  5
34F
330
1F
100
AcDbEntity
  8
001
370
    50
100
AcDbLine
 10
106.213818
 20
108.234079
 30
0.0
 11
106.213818
 21
85.409079
 31
0.0
  0
LINE
  5
350
330
1F
100
AcDbEntity
  8
001
  6
DASHED
370
    30
100
AcDbLine
 10
401.750807
 20
101.930082
 30
0.0
 11
401.750807
 21
61.930082
 31
0.0
  0
LINE
  5
351
330
1F
100
AcDbEntity
  8
001
  6
DASHED
370
    30
100
AcDbLine
 10
401.750807
 20
101.930082
 30
0.0
 11
399.970004
 21
118.873289
 31
0.0
  0
LINE
  5
352
330
1F
100
AcDbEntity
  8
001
  6
DASHED
370
    50
100
AcDbLine
 10
399.970004
 20
84.581225
 30
0.0
 11
399.970004
 21
84.58257
 31
0.0
  0
POLYLINE
  5
353
330
1F
100
AcDbEntity
  8
001
370
    50
100
AcDb2dPolyline
 66
     1
 10
0.0
 20
0.0
 30
0.0
  0
VERTEX
  5
355
330
353
100
AcDbEntity
  8
001
370
    50
100
AcDbVertex
100
AcDb2dVertex
 10
399.970004
 20
51.535994
 30
0.0
  0
VERTEX
  5
356
330
353
100
AcDbEntity
  8
001
370
    50
100
AcDbVertex
100
AcDb2dVertex
 10
400.146795
 20
53.616033
 30
0.0
  0
VERTEX
  5
357
330
353
100
AcDbEntity
  8
001
370
    50
100
AcDbVertex
100
AcDb2dVertex
 10
400.320729
 20
55.696301
 30
0.0
  0
VERTEX
  5
358
330
353
100
AcDbEntity
  8
001
370
    50
100
AcDbVertex
100
AcDb2dVertex
 10
400.488948
 20
57.777027
 30
0.0
  0
VERTEX
  5
359
330
353
100
AcDbEntity
  8
001
370
    50
100
AcDbVertex
100
AcDb2dVertex
 10
400.611407
 20
59.353136
 30
0.0
  0
VERTEX
  5
35A
330
353
100
AcDbEntity
  8
001
370
    50
100
AcDbVertex
100
AcDb2dVertex
 10
400.731407
 20
60.929442
 30
0.0
  0
SEQEND
  5
354
330
353
100
AcDbEntity
  8
001
370
    50
  0
POLYLINE
  5
35B
330
1F
100
AcDbEntity
  8
001
370
    50
100
AcDb2dPolyline
 66
     1
 10
0.0
 20
0.0
 30
0.0
  0
VERTEX
  5
35D
330
35B
100
AcDbEntity
  8
001
370
    50
100
AcDbVertex
100
AcDb2dVertex
 10
401.461787
 20
114.317734
 30
0.0
  0
VERTEX
  5
35E
330
35B
100
AcDbEntity
  8
001
370
    50
100
AcDbVertex
100
AcDb2dVertex
 10
401.394226
 20
114.315142
 30
0.0
  0
VERTEX
  5
35F
330
35B
100
AcDbEntity
  8
001
370
    50
100
AcDbVertex
100
AcDb2dVertex
 10
401.326806
 20
114.310481
 30
0.0
  0
VERTEX
  5
360
330
35B
100
AcDbEntity
  8
001
370
    50
100
AcDbVertex
100
AcDb2dVertex
 10
401.082637
 20
114.260414
 30
0.0
  0
VERTEX
  5
361
330
35B
100
AcDbEntity
  8
001
370
    50
100
AcDbVertex
100
AcDb2dVertex
 10
400.851742
 20
114.1631
 30
0.0
  0
VERTEX
  5
362
330
35B
100
AcDbEntity
  8
001
370
    50
100
AcDbVertex
100
AcDb2dVertex
 10
400.643366
 20
114.027583
 30
0.0
  0
VERTEX
  5
363
330
35B
100
AcDbEntity
  8
001
370
    50
100
AcDbVertex
100
AcDb2dVertex
 10
400.460271
 20
113.859917
 30
0.0
  0
VERTEX
  5
364
330
35B
100
AcDbEntity
  8
001
370
    50
100
AcDbVertex
100
AcDb2dVertex
 10
400.279662
 20
113.628377
 30
0.0
  0
VERTEX
  5
365
330
35B
100
AcDbEntity
  8
001
370
    50
100
AcDbVertex
100
AcDb2dVertex
 10
400.139636
 20
113.37018
 30
0.0
  0
VERTEX
  5
366
330
35B
100
AcDbEntity
  8
001
370
    50
100
AcDbVertex
100
AcDb2dVertex
 10
400.072455
 20
113.197449
 30
0.0
  0
VERTEX
  5
367
330
35B
100
AcDbEntity
  8
001
370
    50
100
AcDbVertex
100
AcDb2dVertex
 10
400.02116
 20
113.019426
 30
0.0
  0
VERTEX
  5
368
330
35B
100
AcDbEntity
  8
001
370
    50
100
AcDbVertex
100
AcDb2dVertex
 10
399.98527
 20
112.837406
 30
0.0
  0
VERTEX
  5
369
330
35B
100
AcDbEntity
  8
001
370
    50
100
AcDbVertex
100
AcDb2dVertex
 10
399.966146
 20
112.653069
 30
0.0
  0
VERTEX
  5
36A
330
35B
100
AcDbEntity
  8
001
370
    50
100
AcDbVertex
100
AcDb2dVertex
 10
399.963089
 20
112.566531
 30
0.0
  0
VERTEX
  5
36B
330
35B
100
AcDbEntity
  8
001
370
    50
100
AcDbVertex
100
AcDb2dVertex
 10
399.962059
 20
112.479915
 30
0.0
  0
SEQEND
  5
35C
330
35B
100
AcDbEntity
  8
001
370
    50
  0
LINE
  5
36C
330
1F
100
AcDbEntity
  8
001
370
    50
100
AcDbLine
 10
419.261787
 20
114.317734
 30
0.0
 11
401.461787
 21
114.317734
 31
0.0
  0
POLYLINE
  5
36D
330
1F
100
AcDbEntity
  8
001
370
    50
100
AcDb2dPolyline
 66
     1
 10
0.0
 20
0.0
 30
0.0
  0
VERTEX
  5
36F
330
36D
100
AcDbEntity
  8
001
370
    50
100
AcDbVertex
100
AcDb2dVertex
 10
424.261787
 20
108.159073
 30
0.0
  0
VERTEX
  5
370
330
36D
100
AcDbEntity
  8
001
370
    50
100
AcDbVertex
100
AcDb2dVertex
 10
424.258095
 20
108.366284
 30
0.0
  0
VERTEX
  5
371
330
36D
100
AcDbEntity
  8
001
370
    50
100
AcDbVertex
100
AcDb2dVertex
 10
424.251252
 20
108.573383
 30
0.0
  0
VERTEX
  5
372
330
36D
100
AcDbEntity
  8
001
370
    50
100
AcDbVertex
100
AcDb2dVertex
 10
424.213576
 20
109.045627
 30
0.0
  0
VERTEX
  5
373
330
36D
100
AcDbEntity
  8
001
370
    50
100
AcDbVertex
100
AcDb2dVertex
 10
424.145578
 20
109.514755
 30
0.0
  0
VERTEX
  5
374
330
36D
100
AcDbEntity
  8
001
370
    50
100
AcDbVertex
100
AcDb2dVertex
 10
424.048791
 20
109.980455
 30
0.0
  0
VERTEX
  5
375
330
36D
100
AcDbEntity
  8
001
370
    50
100
AcDbVertex
100
AcDb2dVertex
 10
423.92262
 20
110.438944
 30
0.0
  0
VERTEX
  5
376
330
36D
100
AcDbEntity
  8
001
370
    50
100
AcDbVertex
100
AcDb2dVertex
 10
423.766587
 20
110.885714
 30
0.0
  0
VERTEX
  5
377
330
36D
100
AcDbEntity
  8
001
370
    50
100
AcDbVertex
100
AcDb2dVertex
 10
423.579252
 20
111.320297
 30
0.0
  0
VERTEX
  5
378
330
36D
100
AcDbEntity
  8
001
370
    50
100
AcDbVertex
100
AcDb2dVertex
 10
423.358253
 20
111.742865
 30
0.0
  0
VERTEX
  5
379
330
36D
100
AcDbEntity
  8
001
370
    50
100
AcDbVertex
100
AcDb2dVertex
 10
423.105095
 20
112.147058
 30
0.0
  0
VERTEX
  5
37A
330
36D
100
AcDbEntity
  8
001
370
    50
100
AcDbVertex
100
AcDb2dVertex
 10
422.820359
 20
112.529286
 30
0.0
  0
VERTEX
  5
37B
330
36D
100
AcDbEntity
  8
001
370
    50
100
AcDbVertex
100
AcDb2dVertex
 10
422.503888
 20
112.885529
 30
0.0
  0
VERTEX
  5
37C
330
36D
100
AcDbEntity
  8
001
370
    50
100
AcDbVertex
100
AcDb2dVertex
 10
422.152861
 20
113.21409
 30
0.0
  0
VERTEX
  5
37D
330
36D
100
AcDbEntity
  8
001
370
    50
100
AcDbVertex
100
AcDb2dVertex
 10
421.772092
 20
113.507974
 30
0.0
  0
VERTEX
  5
37E
330
36D
100
AcDbEntity
  8
001
370
    50
100
AcDbVertex
100
AcDb2dVertex
 10
421.364726
 20
113.763051
 30
0.0
  0
VERTEX
  5
37F
330
36D
100
AcDbEntity
  8
001
370
    50
100
AcDbVertex
100
AcDb2dVertex
 10
420.933384
 20
113.974305
 30
0.0
  0
VERTEX
  5
380
330
36D
100
AcDbEntity
  8
001
370
    50
100
AcDbVertex
100
AcDb2dVertex
 10
420.549457
 20
114.115965
 30
0.0
  0
VERTEX
  5
381
330
36D
100
AcDbEntity
  8
001
370
    50
100
AcDbVertex
100
AcDb2dVertex
 10
420.153749
 20
114.221208
 30
0.0
  0
VERTEX
  5
382
330
36D
100
AcDbEntity
  8
001
370
    50
100
AcDbVertex
100
AcDb2dVertex
 10
419.749916
 20
114.289121
 30
0.0
  0
VERTEX
  5
383
330
36D
100
AcDbEntity
  8
001
370
    50
100
AcDbVertex
100
AcDb2dVertex
 10
419.341882
 20
114.316969
 30
0.0
  0
VERTEX
  5
384
330
36D
100
AcDbEntity
  8
001
370
    50
100
AcDbVertex
100
AcDb2dVertex
 10
419.301834
 20
114.317455
 30
0.0
  0
VERTEX
  5
385
330
36D
100
AcDbEntity
  8
001
370
    50
100
AcDbVertex
100
AcDb2dVertex
 10
419.261787
 20
114.317734
 30
0.0
  0
SEQEND
  5
36E
330
36D
100
AcDbEntity
  8
001
370
    50
  0
LINE
  5
386
330
1F
100
AcDbEntity
  8
001
370
    50
100
AcDbLine
 10
399.962059
 20
112.479915
 30
0.0
 11
399.970004
 21
112.324169
 31
0.0
  0
ARC
  5
387
330
1F
100
AcDbEntity
  8
001
370
    50
100
AcDbCircle
 10
401.461787
 20
119.030082
 30
0.0
 40
1.500000000000001
100
AcDbArc
 50
90.0
 51
180.0
  0
ARC
  5
388
330
1F
100
AcDbEntity
  8
001
  6
DASHED
370
    30
100
AcDbCircle
 10
401.461787
 20
119.030082
 30
0.0
 40
1.500000000000001
100
AcDbArc
 50
180.0
 51
186.0
  0
LINE
  5
389
330
1F
100
AcDbEntity
  8
001
370
    50
100
AcDbLine
 10
399.961787
 20
119.030082
 30
0.0
 11
399.961787
 21
112.50335
 31
0.0
  0
LINE
  5
38A
330
1F
100
AcDbEntity
  8
001
370
    50
100
AcDbLine
 10
419.261787
 20
120.530082
 30
0.0
 11
401.461787
 21
120.530082
 31
0.0
  0
ARC
  5
38B
330
1F
100
AcDbEntity
  8
001
370
    50
100
AcDbCircle
 10
419.261787
 20
115.530082
 30
0.0
 40
5.000000000000001
100
AcDbArc
 50
0.0
 51
90.0
  0
LINE
  5
38C
330
1F
100
AcDbEntity
  8
001
370
    50
100
AcDbLine
 10
429.261787
 20
97.930082
 30
0.0
 11
429.261787
 21
65.930082
 31
0.0
  0
ARC
  5
38D
330
1F
100
AcDbEntity
  8
001
370
    50
100
AcDbCircle
 10
429.261787
 20
102.930082
 30
0.0
 40
5.000000000000001
100
AcDbArc
 50
180.0
 51
270.0
  0
ARC
  5
38E
330
1F
100
AcDbEntity
  8
001
370
    50
100
AcDbCircle
 10
429.261787
 20
60.930082
 30
0.0
 40
5.000000000000001
100
AcDbArc
 50
90.0
 51
180.0
  0
POLYLINE
  5
38F
330
1F
100
AcDbEntity
  8
001
370
    50
100
AcDb2dPolyline
 66
     1
 10
0.0
 20
0.0
 30
0.0
  0
VERTEX
  5
391
330
38F
100
AcDbEntity
  8
001
370
    50
100
AcDbVertex
100
AcDb2dVertex
 10
419.261787
 20
43.396909
 30
0.0
  0
VERTEX
  5
392
330
38F
100
AcDbEntity
  8
001
370
    50
100
AcDbVertex
100
AcDb2dVertex
 10
419.68365
 20
43.417426
 30
0.0
  0
VERTEX
  5
393
330
38F
100
AcDbEntity
  8
001
370
    50
100
AcDbVertex
100
AcDb2dVertex
 10
420.102759
 20
43.460304
 30
0.0
  0
VERTEX
  5
394
330
38F
100
AcDbEntity
  8
001
370
    50
100
AcDbVertex
100
AcDb2dVertex
 10
420.51658
 20
43.543218
 30
0.0
  0
VERTEX
  5
395
330
38F
100
AcDbEntity
  8
001
370
    50
100
AcDbVertex
100
AcDb2dVertex
 10
420.921622
 20
43.6647
 30
0.0
  0
VERTEX
  5
396
330
38F
100
AcDbEntity
  8
001
370
    50
100
AcDbVertex
100
AcDb2dVertex
 10
421.315617
 20
43.819907
 30
0.0
  0
VERTEX
  5
397
330
38F
100
AcDbEntity
  8
001
370
    50
100
AcDbVertex
100
AcDb2dVertex
 10
421.694994
 20
44.007348
 30
0.0
  0
VERTEX
  5
398
330
38F
100
AcDbEntity
  8
001
370
    50
100
AcDbVertex
100
AcDb2dVertex
 10
422.057881
 20
44.227043
 30
0.0
  0
VERTEX
  5
399
330
38F
100
AcDbEntity
  8
001
370
    50
100
AcDbVertex
100
AcDb2dVertex
 10
422.400468
 20
44.477285
 30
0.0
  0
VERTEX
  5
39A
330
38F
100
AcDbEntity
  8
001
370
    50
100
AcDbVertex
100
AcDb2dVertex
 10
422.717799
 20
44.754314
 30
0.0
  0
VERTEX
  5
39B
330
38F
100
AcDbEntity
  8
001
370
    50
100
AcDbVertex
100
AcDb2dVertex
 10
423.010518
 20
45.057358
 30
0.0
  0
VERTEX
  5
39C
330
38F
100
AcDbEntity
  8
001
370
    50
100
AcDbVertex
100
AcDb2dVertex
 10
423.277489
 20
45.384783
 30
0.0
  0
VERTEX
  5
39D
330
38F
100
AcDbEntity
  8
001
370
    50
100
AcDbVertex
100
AcDb2dVertex
 10
423.515265
 20
45.733705
 30
0.0
  0
VERTEX
  5
39E
330
38F
100
AcDbEntity
  8
001
370
    50
100
AcDbVertex
100
AcDb2dVertex
 10
423.719563
 20
46.097833
 30
0.0
  0
VERTEX
  5
39F
330
38F
100
AcDbEntity
  8
001
370
    50
100
AcDbVertex
100
AcDb2dVertex
 10
423.893542
 20
46.477946
 30
0.0
  0
VERTEX
  5
3A0
330
38F
100
AcDbEntity
  8
001
370
    50
100
AcDbVertex
100
AcDb2dVertex
 10
424.037016
 20
46.871809
 30
0.0
  0
VERTEX
  5
3A1
330
38F
100
AcDbEntity
  8
001
370
    50
100
AcDbVertex
100
AcDb2dVertex
 10
424.143182
 20
47.276161
 30
0.0
  0
VERTEX
  5
3A2
330
38F
100
AcDbEntity
  8
001
370
    50
100
AcDbVertex
100
AcDb2dVertex
 10
424.221683
 20
47.814095
 30
0.0
  0
VERTEX
  5
3A3
330
38F
100
AcDbEntity
  8
001
370
    50
100
AcDbVertex
100
AcDb2dVertex
 10
424.261787
 20
48.358793
 30
0.0
  0
SEQEND
  5
390
330
38F
100
AcDbEntity
  8
001
370
    50
  0
ARC
  5
3A4
330
1F
100
AcDbEntity
  8
001
370
    50
100
AcDbCircle
 10
419.261787
 20
48.330082
 30
0.0
 40
5.000000000000001
100
AcDbArc
 50
270.0
 51
0.0
  0
LINE
  5
3A5
330
1F
100
AcDbEntity
  8
001
  6
DASHED
370
    50
100
AcDbLine
 10
399.961882
 20
102.930082
 30
0.0
 11
399.970004
 21
102.930082
 31
0.0
  0
LINE
  5
3A6
330
1F
100
AcDbEntity
  8
001
  6
DASHED
370
    50
100
AcDbLine
 10
399.961787
 20
84.584334
 30
0.0
 11
399.961787
 21
84.581844
 31
0.0
  0
LINE
  5
3A7
330
1F
100
AcDbEntity
  8
001
370
    50
100
AcDbLine
 10
424.261787
 20
60.930082
 30
0.0
 11
399.961787
 21
60.930082
 31
0.0
  0
LINE
  5
3A8
330
1F
100
AcDbEntity
  8
001
370
    50
100
AcDbLine
 10
400.731505
 20
102.930082
 30
0.0
 11
399.961787
 21
102.930082
 31
0.0
  0
POLYLINE
  5
3A9
330
1F
100
AcDbEntity
  8
001
370
    50
100
AcDb2dPolyline
 66
     1
 10
0.0
 20
0.0
 30
0.0
  0
VERTEX
  5
3AB
330
3A9
100
AcDbEntity
  8
001
370
    50
100
AcDbVertex
100
AcDb2dVertex
 10
399.970004
 20
112.324169
 30
0.0
  0
VERTEX
  5
3AC
330
3A9
100
AcDbEntity
  8
001
370
    50
100
AcDbVertex
100
AcDb2dVertex
 10
400.161493
 20
110.070995
 30
0.0
  0
VERTEX
  5
3AD
330
3A9
100
AcDbEntity
  8
001
370
    50
100
AcDbVertex
100
AcDb2dVertex
 10
400.349341
 20
107.817514
 30
0.0
  0
VERTEX
  5
3AE
330
3A9
100
AcDbEntity
  8
001
370
    50
100
AcDbVertex
100
AcDb2dVertex
 10
400.554191
 20
105.259434
 30
0.0
  0
VERTEX
  5
3AF
330
3A9
100
AcDbEntity
  8
001
370
    50
100
AcDbVertex
100
AcDb2dVertex
 10
400.748468
 20
102.700534
 30
0.0
  0
VERTEX
  5
3B0
330
3A9
100
AcDbEntity
  8
001
370
    50
100
AcDbVertex
100
AcDb2dVertex
 10
400.930953
 20
100.14058
 30
0.0
  0
VERTEX
  5
3B1
330
3A9
100
AcDbEntity
  8
001
370
    50
100
AcDbVertex
100
AcDb2dVertex
 10
401.100223
 20
97.579688
 30
0.0
  0
VERTEX
  5
3B2
330
3A9
100
AcDbEntity
  8
001
370
    50
100
AcDbVertex
100
AcDb2dVertex
 10
401.25373
 20
95.016654
 30
0.0
  0
VERTEX
  5
3B3
330
3A9
100
AcDbEntity
  8
001
370
    50
100
AcDbVertex
100
AcDb2dVertex
 10
401.384128
 20
92.452421
 30
0.0
  0
VERTEX
  5
3B4
330
3A9
100
AcDbEntity
  8
001
370
    50
100
AcDbVertex
100
AcDb2dVertex
 10
401.483356
 20
89.988304
 30
0.0
  0
VERTEX
  5
3B5
330
3A9
100
AcDbEntity
  8
001
370
    50
100
AcDbVertex
100
AcDb2dVertex
 10
401.567455
 20
87.52353
 30
0.0
  0
SEQEND
  5
3AA
330
3A9
100
AcDbEntity
  8
001
370
    50
  0
LINE
  5
3B6
330
1F
100
AcDbEntity
  8
001
370
    50
100
AcDbLine
 10
424.261787
 20
48.330082
 30
0.0
 11
424.261787
 21
115.530082
 31
0.0
  0
LINE
  5
3B7
330
1F
100
AcDbEntity
  8
001
370
    50
100
AcDbLine
 10
432.261787
 20
65.930082
 30
0.0
 11
432.261787
 21
97.930082
 31
0.0
  0
LINE
  5
3B8
330
1F
100
AcDbEntity
  8
001
370
    50
100
AcDbLine
 10
432.261787
 20
97.430082
 30
0.0
 11
429.261787
 21
97.430082
 31
0.0
  0
LINE
  5
3B9
330
1F
100
AcDbEntity
  8
001
370
    50
100
AcDbLine
 10
429.261787
 20
66.430082
 30
0.0
 11
432.261787
 21
66.430082
 31
0.0
  0
LINE
  5
3BA
330
1F
100
AcDbEntity
  8
001
370
    50
100
AcDbLine
 10
399.307158
 20
43.014078
 30
0.0
 11
399.957054
 21
51.091518
 31
0.0
  0
CIRCLE
  5
3BB
330
1F
100
AcDbEntity
  8
001
370
    50
100
AcDbCircle
 10
407.570669
 20
46.747203
 30
0.0
 40
3.0
  0
LINE
  5
3BC
330
1F
100
AcDbEntity
  8
001
370
    50
100
AcDbLine
 10
415.606757
 20
50.47874
 30
0.0
 11
414.956862
 21
42.4013
 31
0.0
  0
LINE
  5
3BD
330
1F
100
AcDbEntity
  8
001
370
    50
100
AcDbLine
 10
414.602997
 20
51.558915
 30
0.0
 11
400.352973
 21
51.459429
 31
0.0
  0
CIRCLE
  5
3BE
330
1F
100
AcDbEntity
  8
001
370
    50
100
AcDbCircle
 10
407.575656
 20
46.760468
 30
0.0
 40
2.5
  0
LINE
  5
3BF
330
1F
100
AcDbEntity
  8
001
370
    50
100
AcDbLine
 10
408.155226
 20
47.759184
 30
0.0
 11
407.838905
 21
48.309888
 31
0.0
  0
LINE
  5
3C0
330
1F
100
AcDbEntity
  8
001
370
    50
100
AcDbLine
 10
407.000528
 20
47.761748
 30
0.0
 11
407.319291
 21
48.311042
 31
0.0
  0
ARC
  5
3C1
330
1F
100
AcDbEntity
  8
001
370
    50
100
AcDbCircle
 10
407.578765
 20
48.160465
 30
0.0
 40
0.3
100
AcDbArc
 50
29.872778
 51
149.872778
  0
LINE
  5
3C2
330
1F
100
AcDbEntity
  8
001
370
    50
100
AcDbLine
 10
407.000528
 20
47.761748
 30
0.0
 11
406.365444
 21
47.763158
 31
0.0
  0
LINE
  5
3C3
330
1F
100
AcDbEntity
  8
001
370
    50
100
AcDbLine
 10
406.420959
 20
46.763032
 30
0.0
 11
406.104638
 21
47.313736
 31
0.0
  0
ARC
  5
3C4
330
1F
100
AcDbEntity
  8
001
370
    50
100
AcDbCircle
 10
406.364778
 20
47.463159
 30
0.0
 40
0.3
100
AcDbArc
 50
89.872778
 51
209.872778
  0
LINE
  5
3C5
330
1F
100
AcDbEntity
  8
001
370
    50
100
AcDbLine
 10
406.420959
 20
46.763032
 30
0.0
 11
406.102196
 21
46.213739
 31
0.0
  0
LINE
  5
3C6
330
1F
100
AcDbEntity
  8
001
370
    50
100
AcDbLine
 10
406.996087
 20
45.761753
 30
0.0
 11
406.361003
 21
45.763163
 31
0.0
  0
ARC
  5
3C7
330
1F
100
AcDbEntity
  8
001
370
    50
100
AcDbCircle
 10
406.36167
 20
46.063162
 30
0.0
 40
0.3
100
AcDbArc
 50
149.872778
 51
269.872778
  0
LINE
  5
3C8
330
1F
100
AcDbEntity
  8
001
370
    50
100
AcDbLine
 10
406.996087
 20
45.761753
 30
0.0
 11
407.312408
 21
45.211049
 31
0.0
  0
LINE
  5
3C9
330
1F
100
AcDbEntity
  8
001
370
    50
100
AcDbLine
 10
408.150785
 20
45.759189
 30
0.0
 11
407.832022
 21
45.209895
 31
0.0
  0
ARC
  5
3CA
330
1F
100
AcDbEntity
  8
001
370
    50
100
AcDbCircle
 10
407.572548
 20
45.360472
 30
0.0
 40
0.3
100
AcDbArc
 50
209.872778
 51
329.872778
  0
LINE
  5
3CB
330
1F
100
AcDbEntity
  8
001
370
    50
100
AcDbLine
 10
408.150785
 20
45.759189
 30
0.0
 11
408.785869
 21
45.757779
 31
0.0
  0
LINE
  5
3CC
330
1F
100
AcDbEntity
  8
001
370
    50
100
AcDbLine
 10
408.730354
 20
46.757905
 30
0.0
 11
409.046675
 21
46.207201
 31
0.0
  0
ARC
  5
3CD
330
1F
100
AcDbEntity
  8
001
370
    50
100
AcDbCircle
 10
408.786535
 20
46.057778
 30
0.0
 40
0.3
100
AcDbArc
 50
269.872778
 51
29.872778
  0
LINE
  5
3CE
330
1F
100
AcDbEntity
  8
001
370
    50
100
AcDbLine
 10
408.730354
 20
46.757905
 30
0.0
 11
409.049117
 21
47.307198
 31
0.0
  0
LINE
  5
3CF
330
1F
100
AcDbEntity
  8
001
370
    50
100
AcDbLine
 10
408.155226
 20
47.759184
 30
0.0
 11
408.790309
 21
47.757774
 31
0.0
  0
ARC
  5
3D0
330
1F
100
AcDbEntity
  8
001
370
    50
100
AcDbCircle
 10
408.789643
 20
47.457775
 30
0.0
 40
0.3
100
AcDbArc
 50
329.872778
 51
89.872778
  0
LINE
  5
3D1
330
1F
100
AcDbEntity
  8
001
370
    50
100
AcDbLine
 10
400.310918
 20
41.933903
 30
0.0
 11
414.560942
 21
42.033389
 31
0.0
  0
ARC
  5
3D2
330
1F
100
AcDbEntity
  8
001
370
    50
100
AcDbCircle
 10
413.91591
 20
49.809135
 30
0.0
 40
3.0
100
AcDbArc
 50
298.349498
 51
144.83356
  0
ARC
  5
3D3
330
1F
100
AcDbEntity
  8
001
370
    50
100
AcDbCircle
 10
400.355765
 20
51.059439
 30
0.0
 40
0.4
100
AcDbArc
 50
90.4
 51
175.4
  0
ARC
  5
3D4
330
1F
100
AcDbEntity
  8
001
370
    50
100
AcDbCircle
 10
414.55815
 20
42.433379
 30
0.0
 40
0.4
100
AcDbArc
 50
270.4
 51
355.4
  0
LINE
  5
3D5
330
1F
100
AcDbEntity
  8
001
370
    50
100
AcDbLine
 10
399.942125
 20
50.905966
 30
0.0
 11
399.970004
 21
51.535994
 31
0.0
  0
LINE
  5
3D6
330
1F
100
AcDbEntity
  8
001
370
    50
100
AcDbLine
 10
401.574181
 20
60.930082
 30
0.0
 11
400.597823
 21
51.461138
 31
0.0
  0
LINE
  5
3D7
330
1F
100
AcDbEntity
  8
001
  6
DASHED
370
    30
100
AcDbLine
 10
400.650515
 20
51.461506
 30
0.0
 11
401.750807
 21
61.930082
 31
0.0
  0
POLYLINE
  5
3D8
330
1F
100
AcDbEntity
  8
001
370
    50
100
AcDb2dPolyline
 66
     1
 10
0.0
 20
0.0
 30
0.0
  0
VERTEX
  5
3DA
330
3D8
100
AcDbEntity
  8
001
370
    50
100
AcDbVertex
100
AcDb2dVertex
 10
415.041076
 20
43.447983
 30
0.0
  0
VERTEX
  5
3DB
330
3D8
100
AcDbEntity
  8
001
370
    50
100
AcDbVertex
100
AcDb2dVertex
 10
415.914922
 20
43.436263
 30
0.0
  0
VERTEX
  5
3DC
330
3D8
100
AcDbEntity
  8
001
370
    50
100
AcDbVertex
100
AcDb2dVertex
 10
417.098682
 20
43.421277
 30
0.0
  0
VERTEX
  5
3DD
330
3D8
100
AcDbEntity
  8
001
370
    50
100
AcDbVertex
100
AcDb2dVertex
 10
418.383021
 20
43.406394
 30
0.0
  0
VERTEX
  5
3DE
330
3D8
100
AcDbEntity
  8
001
370
    50
100
AcDbVertex
100
AcDb2dVertex
 10
419.261787
 20
43.396909
 30
0.0
  0
SEQEND
  5
3D9
330
3D8
100
AcDbEntity
  8
001
370
    50
  0
LINE
  5
3DF
330
1F
100
AcDbEntity
  8
001
370
    50
100
AcDbLine
 10
415.03159
 20
43.330082
 30
0.0
 11
419.261787
 21
43.330082
 31
0.0
  0
LINE
  5
3E0
330
1F
100
AcDbEntity
  8
001
370
    50
100
AcDbLine
 10
400.310918
 20
121.92626
 30
0.0
 11
414.560942
 21
121.826775
 31
0.0
  0
ARC
  5
3E1
330
1F
100
AcDbEntity
  8
001
370
    50
100
AcDbCircle
 10
414.55815
 20
121.426784
 30
0.0
 40
0.4
100
AcDbArc
 50
4.6
 51
89.6
  0
LINE
  5
3E2
330
1F
100
AcDbEntity
  8
001
370
    50
100
AcDbLine
 10
399.307158
 20
120.846086
 30
0.0
 11
399.961787
 21
112.709818
 31
0.0
  0
LINE
  5
3E3
330
1F
100
AcDbEntity
  8
001
370
    50
100
AcDbLine
 10
414.956862
 20
121.458864
 30
0.0
 11
415.03159
 21
120.530082
 31
0.0
  0
LINE
  5
3E4
330
1F
100
AcDbEntity
  8
001
370
    50
100
AcDbLine
 10
399.261787
 20
86.930082
 30
0.0
 11
416.053582
 21
86.930082
 31
0.0
  0
POLYLINE
  5
3E5
330
1F
100
AcDbEntity
  8
001
370
    50
100
AcDb2dPolyline
 66
     1
 10
0.0
 20
0.0
 30
0.0
  0
VERTEX
  5
3E7
330
3E5
100
AcDbEntity
  8
001
370
    50
100
AcDbVertex
100
AcDb2dVertex
 10
415.214134
 20
86.730082
 30
0.0
  0
VERTEX
  5
3E8
330
3E5
100
AcDbEntity
  8
001
370
    50
100
AcDbVertex
100
AcDb2dVertex
 10
415.047445
 20
86.1262
 30
0.0
  0
VERTEX
  5
3E9
330
3E5
100
AcDbEntity
  8
001
370
    50
100
AcDbVertex
100
AcDb2dVertex
 10
414.805106
 20
85.243251
 30
0.0
  0
VERTEX
  5
3EA
330
3E5
100
AcDbEntity
  8
001
370
    50
100
AcDbVertex
100
AcDb2dVertex
 10
414.564551
 20
84.359793
 30
0.0
  0
VERTEX
  5
3EB
330
3E5
100
AcDbEntity
  8
001
370
    50
100
AcDbVertex
100
AcDb2dVertex
 10
414.40084
 20
83.755082
 30
0.0
  0
SEQEND
  5
3E6
330
3E5
100
AcDbEntity
  8
001
370
    50
  0
LINE
  5
3EC
330
1F
100
AcDbEntity
  8
001
370
    50
100
AcDbLine
 10
416.053582
 20
86.930082
 30
0.0
 11
415.999992
 21
86.730082
 31
0.0
  0
LINE
  5
3ED
330
1F
100
AcDbEntity
  8
001
370
    50
100
AcDbLine
 10
399.961787
 20
83.755082
 30
0.0
 11
414.40084
 21
83.755082
 31
0.0
  0
LINE
  5
3EE
330
1F
100
AcDbEntity
  8
001
370
    50
100
AcDbLine
 10
399.261787
 20
86.930082
 30
0.0
 11
399.961787
 21
83.755082
 31
0.0
  0
LINE
  5
3EF
330
1F
100
AcDbEntity
  8
001
370
    50
100
AcDbLine
 10
424.261787
 20
86.730082
 30
0.0
 11
415.214134
 21
86.730082
 31
0.0
  0
LINE
  5
3F0
330
1F
100
AcDbEntity
  8
001
370
    50
100
AcDbLine
 10
399.261787
 20
76.930082
 30
0.0
 11
399.961787
 21
80.105082
 31
0.0
  0
LINE
  5
3F1
330
1F
100
AcDbEntity
  8
001
370
    50
100
AcDbLine
 10
399.261787
 20
76.930082
 30
0.0
 11
399.961787
 21
76.930082
 31
0.0
  0
LINE
  5
3F2
330
1F
100
AcDbEntity
  8
001
370
    50
100
AcDbLine
 10
399.961787
 20
102.930082
 30
0.0
 11
399.961787
 21
86.930082
 31
0.0
  0
LINE
  5
3F3
330
1F
100
AcDbEntity
  8
001
370
    50
100
AcDbLine
 10
399.961787
 20
83.755082
 30
0.0
 11
399.961787
 21
60.930082
 31
0.0
  0
LINE
  5
3F4
330
1F
100
AcDbEntity
  8
001
370
    50
100
AcDbLine
 10
442.829291
 20
97.930082
 30
0.0
 11
432.261787
 21
97.930082
 31
0.0
  0
LINE
  5
3F5
330
1F
100
AcDbEntity
  8
001
  6
CENTER
370
     9
100
AcDbLine
 10
446.329485
 20
81.930082
 30
0.0
 11
397.409994
 21
81.930082
 31
0.0
  0
LINE
  5
3F6
330
1F
100
AcDbEntity
  8
001
370
    50
100
AcDbLine
 10
442.829291
 20
65.930082
 30
0.0
 11
432.261787
 21
65.930082
 31
0.0
  0
ARC
  5
3F7
330
1F
100
AcDbEntity
  8
001
370
    50
100
AcDbCircle
 10
400.303937
 20
120.926285
 30
0.0
 40
1.0
100
AcDbArc
 50
89.6
 51
184.6
  0
ARC
  5
3F8
330
1F
100
AcDbEntity
  8
001
370
    50
100
AcDbCircle
 10
400.303937
 20
42.933879
 30
0.0
 40
1.0
100
AcDbArc
 50
175.4
 51
270.4
  0
ARC
  5
3F9
330
1F
100
AcDbEntity
  8
001
370
    50
100
AcDbCircle
 10
414.609978
 20
50.558939
 30
0.0
 40
1.0
100
AcDbArc
 50
355.4
 51
90.4
  0
LINE
  5
3FA
330
1F
100
AcDbEntity
  8
001
370
     9
100
AcDbLine
 10
400.303937
 20
41.933879
 30
0.0
 11
381.05287
 21
41.933879
 31
0.0
  0
LINE
  5
3FB
330
1F
100
AcDbEntity
  8
001
  6
DASHED
370
    30
100
AcDbLine
 10
401.750807
 20
215.393943
 30
0.0
 11
401.750807
 21
175.393943
 31
0.0
  0
LINE
  5
3FC
330
1F
100
AcDbEntity
  8
001
  6
DASHED
370
    30
100
AcDbLine
 10
401.750807
 20
215.393943
 30
0.0
 11
399.970004
 21
232.337151
 31
0.0
  0
LINE
  5
3FD
330
1F
100
AcDbEntity
  8
001
  6
DASHED
370
    50
100
AcDbLine
 10
399.970004
 20
198.045086
 30
0.0
 11
399.970004
 21
198.046431
 31
0.0
  0
POLYLINE
  5
3FE
330
1F
100
AcDbEntity
  8
001
370
    50
100
AcDb2dPolyline
 66
     1
 10
0.0
 20
0.0
 30
0.0
  0
VERTEX
  5
400
330
3FE
100
AcDbEntity
  8
001
370
    50
100
AcDbVertex
100
AcDb2dVertex
 10
399.970004
 20
164.999856
 30
0.0
  0
VERTEX
  5
401
330
3FE
100
AcDbEntity
  8
001
370
    50
100
AcDbVertex
100
AcDb2dVertex
 10
400.146795
 20
167.079895
 30
0.0
  0
VERTEX
  5
402
330
3FE
100
AcDbEntity
  8
001
370
    50
100
AcDbVertex
100
AcDb2dVertex
 10
400.320729
 20
169.160163
 30
0.0
  0
VERTEX
  5
403
330
3FE
100
AcDbEntity
  8
001
370
    50
100
AcDbVertex
100
AcDb2dVertex
 10
400.488948
 20
171.240888
 30
0.0
  0
VERTEX
  5
404
330
3FE
100
AcDbEntity
  8
001
370
    50
100
AcDbVertex
100
AcDb2dVertex
 10
400.611407
 20
172.816998
 30
0.0
  0
VERTEX
  5
405
330
3FE
100
AcDbEntity
  8
001
370
    50
100
AcDbVertex
100
AcDb2dVertex
 10
400.731407
 20
174.393304
 30
0.0
  0
SEQEND
  5
3FF
330
3FE
100
AcDbEntity
  8
001
370
    50
  0
POLYLINE
  5
406
330
1F
100
AcDbEntity
  8
001
370
    50
100
AcDb2dPolyline
 66
     1
 10
0.0
 20
0.0
 30
0.0
  0
VERTEX
  5
408
330
406
100
AcDbEntity
  8
001
370
    50
100
AcDbVertex
100
AcDb2dVertex
 10
401.461787
 20
227.781595
 30
0.0
  0
VERTEX
  5
409
330
406
100
AcDbEntity
  8
001
370
    50
100
AcDbVertex
100
AcDb2dVertex
 10
401.394226
 20
227.779004
 30
0.0
  0
VERTEX
  5
40A
330
406
100
AcDbEntity
  8
001
370
    50
100
AcDbVertex
100
AcDb2dVertex
 10
401.326806
 20
227.774342
 30
0.0
  0
VERTEX
  5
40B
330
406
100
AcDbEntity
  8
001
370
    50
100
AcDbVertex
100
AcDb2dVertex
 10
401.082637
 20
227.724276
 30
0.0
  0
VERTEX
  5
40C
330
406
100
AcDbEntity
  8
001
370
    50
100
AcDbVertex
100
AcDb2dVertex
 10
400.851742
 20
227.626961
 30
0.0
  0
VERTEX
  5
40D
330
406
100
AcDbEntity
  8
001
370
    50
100
AcDbVertex
100
AcDb2dVertex
 10
400.643366
 20
227.491445
 30
0.0
  0
VERTEX
  5
40E
330
406
100
AcDbEntity
  8
001
370
    50
100
AcDbVertex
100
AcDb2dVertex
 10
400.460271
 20
227.323778
 30
0.0
  0
VERTEX
  5
40F
330
406
100
AcDbEntity
  8
001
370
    50
100
AcDbVertex
100
AcDb2dVertex
 10
400.279662
 20
227.092238
 30
0.0
  0
VERTEX
  5
410
330
406
100
AcDbEntity
  8
001
370
    50
100
AcDbVertex
100
AcDb2dVertex
 10
400.139636
 20
226.834041
 30
0.0
  0
VERTEX
  5
411
330
406
100
AcDbEntity
  8
001
370
    50
100
AcDbVertex
100
AcDb2dVertex
 10
400.072455
 20
226.66131
 30
0.0
  0
VERTEX
  5
412
330
406
100
AcDbEntity
  8
001
370
    50
100
AcDbVertex
100
AcDb2dVertex
 10
400.02116
 20
226.483288
 30
0.0
  0
VERTEX
  5
413
330
406
100
AcDbEntity
  8
001
370
    50
100
AcDbVertex
100
AcDb2dVertex
 10
399.98527
 20
226.301267
 30
0.0
  0
VERTEX
  5
414
330
406
100
AcDbEntity
  8
001
370
    50
100
AcDbVertex
100
AcDb2dVertex
 10
399.966146
 20
226.116931
 30
0.0
  0
VERTEX
  5
415
330
406
100
AcDbEntity
  8
001
370
    50
100
AcDbVertex
100
AcDb2dVertex
 10
399.963089
 20
226.030392
 30
0.0
  0
VERTEX
  5
416
330
406
100
AcDbEntity
  8
001
370
    50
100
AcDbVertex
100
AcDb2dVertex
 10
399.962059
 20
225.943776
 30
0.0
  0
SEQEND
  5
407
330
406
100
AcDbEntity
  8
001
370
    50
  0
LINE
  5
417
330
1F
100
AcDbEntity
  8
001
370
    50
100
AcDbLine
 10
419.261787
 20
227.781595
 30
0.0
 11
401.461787
 21
227.781595
 31
0.0
  0
POLYLINE
  5
418
330
1F
100
AcDbEntity
  8
001
370
    50
100
AcDb2dPolyline
 66
     1
 10
0.0
 20
0.0
 30
0.0
  0
VERTEX
  5
41A
330
418
100
AcDbEntity
  8
001
370
    50
100
AcDbVertex
100
AcDb2dVertex
 10
424.261787
 20
221.622935
 30
0.0
  0
VERTEX
  5
41B
330
418
100
AcDbEntity
  8
001
370
    50
100
AcDbVertex
100
AcDb2dVertex
 10
424.258095
 20
221.830145
 30
0.0
  0
VERTEX
  5
41C
330
418
100
AcDbEntity
  8
001
370
    50
100
AcDbVertex
100
AcDb2dVertex
 10
424.251252
 20
222.037244
 30
0.0
  0
VERTEX
  5
41D
330
418
100
AcDbEntity
  8
001
370
    50
100
AcDbVertex
100
AcDb2dVertex
 10
424.213576
 20
222.509488
 30
0.0
  0
VERTEX
  5
41E
330
418
100
AcDbEntity
  8
001
370
    50
100
AcDbVertex
100
AcDb2dVertex
 10
424.145578
 20
222.978616
 30
0.0
  0
VERTEX
  5
41F
330
418
100
AcDbEntity
  8
001
370
    50
100
AcDbVertex
100
AcDb2dVertex
 10
424.048791
 20
223.444317
 30
0.0
  0
VERTEX
  5
420
330
418
100
AcDbEntity
  8
001
370
    50
100
AcDbVertex
100
AcDb2dVertex
 10
423.92262
 20
223.902805
 30
0.0
  0
VERTEX
  5
421
330
418
100
AcDbEntity
  8
001
370
    50
100
AcDbVertex
100
AcDb2dVertex
 10
423.766587
 20
224.349575
 30
0.0
  0
VERTEX
  5
422
330
418
100
AcDbEntity
  8
001
370
    50
100
AcDbVertex
100
AcDb2dVertex
 10
423.579252
 20
224.784158
 30
0.0
  0
VERTEX
  5
423
330
418
100
AcDbEntity
  8
001
370
    50
100
AcDbVertex
100
AcDb2dVertex
 10
423.358253
 20
225.206726
 30
0.0
  0
VERTEX
  5
424
330
418
100
AcDbEntity
  8
001
370
    50
100
AcDbVertex
100
AcDb2dVertex
 10
423.105095
 20
225.61092
 30
0.0
  0
VERTEX
  5
425
330
418
100
AcDbEntity
  8
001
370
    50
100
AcDbVertex
100
AcDb2dVertex
 10
422.820359
 20
225.993147
 30
0.0
  0
VERTEX
  5
426
330
418
100
AcDbEntity
  8
001
370
    50
100
AcDbVertex
100
AcDb2dVertex
 10
422.503888
 20
226.349391
 30
0.0
  0
VERTEX
  5
427
330
418
100
AcDbEntity
  8
001
370
    50
100
AcDbVertex
100
AcDb2dVertex
 10
422.152861
 20
226.677951
 30
0.0
  0
VERTEX
  5
428
330
418
100
AcDbEntity
  8
001
370
    50
100
AcDbVertex
100
AcDb2dVertex
 10
421.772092
 20
226.971836
 30
0.0
  0
VERTEX
  5
429
330
418
100
AcDbEntity
  8
001
370
    50
100
AcDbVertex
100
AcDb2dVertex
 10
421.364726
 20
227.226912
 30
0.0
  0
VERTEX
  5
42A
330
418
100
AcDbEntity
  8
001
370
    50
100
AcDbVertex
100
AcDb2dVertex
 10
420.933384
 20
227.438167
 30
0.0
  0
VERTEX
  5
42B
330
418
100
AcDbEntity
  8
001
370
    50
100
AcDbVertex
100
AcDb2dVertex
 10
420.549457
 20
227.579827
 30
0.0
  0
VERTEX
  5
42C
330
418
100
AcDbEntity
  8
001
370
    50
100
AcDbVertex
100
AcDb2dVertex
 10
420.153749
 20
227.68507
 30
0.0
  0
VERTEX
  5
42D
330
418
100
AcDbEntity
  8
001
370
    50
100
AcDbVertex
100
AcDb2dVertex
 10
419.749916
 20
227.752983
 30
0.0
  0
VERTEX
  5
42E
330
418
100
AcDbEntity
  8
001
370
    50
100
AcDbVertex
100
AcDb2dVertex
 10
419.341882
 20
227.780831
 30
0.0
  0
VERTEX
  5
42F
330
418
100
AcDbEntity
  8
001
370
    50
100
AcDbVertex
100
AcDb2dVertex
 10
419.301834
 20
227.781317
 30
0.0
  0
VERTEX
  5
430
330
418
100
AcDbEntity
  8
001
370
    50
100
AcDbVertex
100
AcDb2dVertex
 10
419.261787
 20
227.781595
 30
0.0
  0
SEQEND
  5
419
330
418
100
AcDbEntity
  8
001
370
    50
  0
LINE
  5
431
330
1F
100
AcDbEntity
  8
001
370
    50
100
AcDbLine
 10
399.962059
 20
225.943776
 30
0.0
 11
399.970004
 21
225.788031
 31
0.0
  0
ARC
  5
432
330
1F
100
AcDbEntity
  8
001
370
    50
100
AcDbCircle
 10
401.461787
 20
232.493943
 30
0.0
 40
1.500000000000001
100
AcDbArc
 50
90.0
 51
180.0
  0
ARC
  5
433
330
1F
100
AcDbEntity
  8
001
  6
DASHED
370
    30
100
AcDbCircle
 10
401.461787
 20
232.493943
 30
0.0
 40
1.500000000000001
100
AcDbArc
 50
180.0
 51
186.0
  0
LINE
  5
434
330
1F
100
AcDbEntity
  8
001
370
    50
100
AcDbLine
 10
399.961787
 20
232.493943
 30
0.0
 11
399.961787
 21
225.967211
 31
0.0
  0
LINE
  5
435
330
1F
100
AcDbEntity
  8
001
370
    50
100
AcDbLine
 10
419.261787
 20
233.993943
 30
0.0
 11
401.461787
 21
233.993943
 31
0.0
  0
ARC
  5
436
330
1F
100
AcDbEntity
  8
001
370
    50
100
AcDbCircle
 10
419.261787
 20
228.993943
 30
0.0
 40
5.000000000000001
100
AcDbArc
 50
0.0
 51
90.0
  0
LINE
  5
437
330
1F
100
AcDbEntity
  8
001
370
    50
100
AcDbLine
 10
429.261787
 20
211.393943
 30
0.0
 11
429.261787
 21
179.393943
 31
0.0
  0
ARC
  5
438
330
1F
100
AcDbEntity
  8
001
370
    50
100
AcDbCircle
 10
429.261787
 20
216.393943
 30
0.0
 40
5.000000000000001
100
AcDbArc
 50
180.0
 51
270.0
  0
ARC
  5
439
330
1F
100
AcDbEntity
  8
001
370
    50
100
AcDbCircle
 10
429.261787
 20
174.393943
 30
0.0
 40
5.000000000000001
100
AcDbArc
 50
90.0
 51
180.0
  0
POLYLINE
  5
43A
330
1F
100
AcDbEntity
  8
001
370
    50
100
AcDb2dPolyline
 66
     1
 10
0.0
 20
0.0
 30
0.0
  0
VERTEX
  5
43C
330
43A
100
AcDbEntity
  8
001
370
    50
100
AcDbVertex
100
AcDb2dVertex
 10
419.261787
 20
156.860771
 30
0.0
  0
VERTEX
  5
43D
330
43A
100
AcDbEntity
  8
001
370
    50
100
AcDbVertex
100
AcDb2dVertex
 10
419.68365
 20
156.881288
 30
0.0
  0
VERTEX
  5
43E
330
43A
100
AcDbEntity
  8
001
370
    50
100
AcDbVertex
100
AcDb2dVertex
 10
420.102759
 20
156.924165
 30
0.0
  0
VERTEX
  5
43F
330
43A
100
AcDbEntity
  8
001
370
    50
100
AcDbVertex
100
AcDb2dVertex
 10
420.51658
 20
157.00708
 30
0.0
  0
VERTEX
  5
440
330
43A
100
AcDbEntity
  8
001
370
    50
100
AcDbVertex
100
AcDb2dVertex
 10
420.921622
 20
157.128562
 30
0.0
  0
VERTEX
  5
441
330
43A
100
AcDbEntity
  8
001
370
    50
100
AcDbVertex
100
AcDb2dVertex
 10
421.315617
 20
157.283769
 30
0.0
  0
VERTEX
  5
442
330
43A
100
AcDbEntity
  8
001
370
    50
100
AcDbVertex
100
AcDb2dVertex
 10
421.694994
 20
157.471209
 30
0.0
  0
VERTEX
  5
443
330
43A
100
AcDbEntity
  8
001
370
    50
100
AcDbVertex
100
AcDb2dVertex
 10
422.057881
 20
157.690904
 30
0.0
  0
VERTEX
  5
444
330
43A
100
AcDbEntity
  8
001
370
    50
100
AcDbVertex
100
AcDb2dVertex
 10
422.400468
 20
157.941147
 30
0.0
  0
VERTEX
  5
445
330
43A
100
AcDbEntity
  8
001
370
    50
100
AcDbVertex
100
AcDb2dVertex
 10
422.717799
 20
158.218176
 30
0.0
  0
VERTEX
  5
446
330
43A
100
AcDbEntity
  8
001
370
    50
100
AcDbVertex
100
AcDb2dVertex
 10
423.010518
 20
158.52122
 30
0.0
  0
VERTEX
  5
447
330
43A
100
AcDbEntity
  8
001
370
    50
100
AcDbVertex
100
AcDb2dVertex
 10
423.277489
 20
158.848644
 30
0.0
  0
VERTEX
  5
448
330
43A
100
AcDbEntity
  8
001
370
    50
100
AcDbVertex
100
AcDb2dVertex
 10
423.515265
 20
159.197567
 30
0.0
  0
VERTEX
  5
449
330
43A
100
AcDbEntity
  8
001
370
    50
100
AcDbVertex
100
AcDb2dVertex
 10
423.719563
 20
159.561695
 30
0.0
  0
VERTEX
  5
44A
330
43A
100
AcDbEntity
  8
001
370
    50
100
AcDbVertex
100
AcDb2dVertex
 10
423.893542
 20
159.941807
 30
0.0
  0
VERTEX
  5
44B
330
43A
100
AcDbEntity
  8
001
370
    50
100
AcDbVertex
100
AcDb2dVertex
 10
424.037016
 20
160.335671
 30
0.0
  0
VERTEX
  5
44C
330
43A
100
AcDbEntity
  8
001
370
    50
100
AcDbVertex
100
AcDb2dVertex
 10
424.143182
 20
160.740022
 30
0.0
  0
VERTEX
  5
44D
330
43A
100
AcDbEntity
  8
001
370
    50
100
AcDbVertex
100
AcDb2dVertex
 10
424.221683
 20
161.277957
 30
0.0
  0
VERTEX
  5
44E
330
43A
100
AcDbEntity
  8
001
370
    50
100
AcDbVertex
100
AcDb2dVertex
 10
424.261787
 20
161.822655
 30
0.0
  0
SEQEND
  5
43B
330
43A
100
AcDbEntity
  8
001
370
    50
  0
ARC
  5
44F
330
1F
100
AcDbEntity
  8
001
370
    50
100
AcDbCircle
 10
419.261787
 20
161.793943
 30
0.0
 40
5.000000000000001
100
AcDbArc
 50
270.0
 51
0.0
  0
LINE
  5
450
330
1F
100
AcDbEntity
  8
001
  6
DASHED
370
    50
100
AcDbLine
 10
399.961882
 20
216.393943
 30
0.0
 11
399.970004
 21
216.393943
 31
0.0
  0
LINE
  5
451
330
1F
100
AcDbEntity
  8
001
  6
DASHED
370
    50
100
AcDbLine
 10
399.961787
 20
198.048195
 30
0.0
 11
399.961787
 21
198.045705
 31
0.0
  0
LINE
  5
452
330
1F
100
AcDbEntity
  8
001
370
    50
100
AcDbLine
 10
424.261787
 20
174.393943
 30
0.0
 11
399.961787
 21
174.393943
 31
0.0
  0
LINE
  5
453
330
1F
100
AcDbEntity
  8
001
370
    50
100
AcDbLine
 10
400.731505
 20
216.393943
 30
0.0
 11
399.961787
 21
216.393943
 31
0.0
  0
POLYLINE
  5
454
330
1F
100
AcDbEntity
  8
001
370
    50
100
AcDb2dPolyline
 66
     1
 10
0.0
 20
0.0
 30
0.0
  0
VERTEX
  5
456
330
454
100
AcDbEntity
  8
001
370
    50
100
AcDbVertex
100
AcDb2dVertex
 10
399.970004
 20
225.788031
 30
0.0
  0
VERTEX
  5
457
330
454
100
AcDbEntity
  8
001
370
    50
100
AcDbVertex
100
AcDb2dVertex
 10
400.161493
 20
223.534856
 30
0.0
  0
VERTEX
  5
458
330
454
100
AcDbEntity
  8
001
370
    50
100
AcDbVertex
100
AcDb2dVertex
 10
400.349341
 20
221.281375
 30
0.0
  0
VERTEX
  5
459
330
454
100
AcDbEntity
  8
001
370
    50
100
AcDbVertex
100
AcDb2dVertex
 10
400.554191
 20
218.723295
 30
0.0
  0
VERTEX
  5
45A
330
454
100
AcDbEntity
  8
001
370
    50
100
AcDbVertex
100
AcDb2dVertex
 10
400.748468
 20
216.164396
 30
0.0
  0
VERTEX
  5
45B
330
454
100
AcDbEntity
  8
001
370
    50
100
AcDbVertex
100
AcDb2dVertex
 10
400.930953
 20
213.604442
 30
0.0
  0
VERTEX
  5
45C
330
454
100
AcDbEntity
  8
001
370
    50
100
AcDbVertex
100
AcDb2dVertex
 10
401.100223
 20
211.04355
 30
0.0
  0
VERTEX
  5
45D
330
454
100
AcDbEntity
  8
001
370
    50
100
AcDbVertex
100
AcDb2dVertex
 10
401.25373
 20
208.480515
 30
0.0
  0
VERTEX
  5
45E
330
454
100
AcDbEntity
  8
001
370
    50
100
AcDbVertex
100
AcDb2dVertex
 10
401.384128
 20
205.916282
 30
0.0
  0
VERTEX
  5
45F
330
454
100
AcDbEntity
  8
001
370
    50
100
AcDbVertex
100
AcDb2dVertex
 10
401.483356
 20
203.452166
 30
0.0
  0
VERTEX
  5
460
330
454
100
AcDbEntity
  8
001
370
    50
100
AcDbVertex
100
AcDb2dVertex
 10
401.567455
 20
200.987392
 30
0.0
  0
SEQEND
  5
455
330
454
100
AcDbEntity
  8
001
370
    50
  0
LINE
  5
461
330
1F
100
AcDbEntity
  8
001
370
    50
100
AcDbLine
 10
424.261787
 20
161.793943
 30
0.0
 11
424.261787
 21
228.993943
 31
0.0
  0
LINE
  5
462
330
1F
100
AcDbEntity
  8
001
370
    50
100
AcDbLine
 10
432.261787
 20
179.393943
 30
0.0
 11
432.261787
 21
211.393943
 31
0.0
  0
LINE
  5
463
330
1F
100
AcDbEntity
  8
001
370
    50
100
AcDbLine
 10
432.261787
 20
210.893943
 30
0.0
 11
429.261787
 21
210.893943
 31
0.0
  0
LINE
  5
464
330
1F
100
AcDbEntity
  8
001
370
    50
100
AcDbLine
 10
429.261787
 20
179.893943
 30
0.0
 11
432.261787
 21
179.893943
 31
0.0
  0
LINE
  5
465
330
1F
100
AcDbEntity
  8
001
370
    50
100
AcDbLine
 10
399.350919
 20
157.021836
 30
0.0
 11
399.957054
 21
164.55538
 31
0.0
  0
CIRCLE
  5
466
330
1F
100
AcDbEntity
  8
001
370
    50
100
AcDbCircle
 10
407.570669
 20
160.211064
 30
0.0
 40
3.0
  0
LINE
  5
467
330
1F
100
AcDbEntity
  8
001
370
    50
100
AcDbLine
 10
415.606757
 20
163.942602
 30
0.0
 11
414.956862
 21
155.865161
 31
0.0
  0
LINE
  5
468
330
1F
100
AcDbEntity
  8
001
370
    50
100
AcDbLine
 10
414.602997
 20
165.022776
 30
0.0
 11
400.352973
 21
164.923291
 31
0.0
  0
CIRCLE
  5
469
330
1F
100
AcDbEntity
  8
001
370
    50
100
AcDbCircle
 10
407.575656
 20
160.22433
 30
0.0
 40
2.5
  0
LINE
  5
46A
330
1F
100
AcDbEntity
  8
001
370
    50
100
AcDbLine
 10
408.155226
 20
161.223046
 30
0.0
 11
407.838905
 21
161.773749
 31
0.0
  0
LINE
  5
46B
330
1F
100
AcDbEntity
  8
001
370
    50
100
AcDbLine
 10
407.000528
 20
161.225609
 30
0.0
 11
407.319291
 21
161.774903
 31
0.0
  0
ARC
  5
46C
330
1F
100
AcDbEntity
  8
001
370
    50
100
AcDbCircle
 10
407.578765
 20
161.624327
 30
0.0
 40
0.3
100
AcDbArc
 50
29.872778
 51
149.872778
  0
LINE
  5
46D
330
1F
100
AcDbEntity
  8
001
370
    50
100
AcDbLine
 10
407.000528
 20
161.225609
 30
0.0
 11
406.365444
 21
161.22702
 31
0.0
  0
LINE
  5
46E
330
1F
100
AcDbEntity
  8
001
370
    50
100
AcDbLine
 10
406.420959
 20
160.226894
 30
0.0
 11
406.104638
 21
160.777598
 31
0.0
  0
ARC
  5
46F
330
1F
100
AcDbEntity
  8
001
370
    50
100
AcDbCircle
 10
406.364778
 20
160.92702
 30
0.0
 40
0.3
100
AcDbArc
 50
89.872778
 51
209.872778
  0
LINE
  5
470
330
1F
100
AcDbEntity
  8
001
370
    50
100
AcDbLine
 10
406.420959
 20
160.226894
 30
0.0
 11
406.102196
 21
159.6776
 31
0.0
  0
LINE
  5
471
330
1F
100
AcDbEntity
  8
001
370
    50
100
AcDbLine
 10
406.996087
 20
159.225614
 30
0.0
 11
406.361003
 21
159.227025
 31
0.0
  0
ARC
  5
472
330
1F
100
AcDbEntity
  8
001
370
    50
100
AcDbCircle
 10
406.36167
 20
159.527024
 30
0.0
 40
0.3
100
AcDbArc
 50
149.872778
 51
269.872778
  0
LINE
  5
473
330
1F
100
AcDbEntity
  8
001
370
    50
100
AcDbLine
 10
406.996087
 20
159.225614
 30
0.0
 11
407.312408
 21
158.674911
 31
0.0
  0
LINE
  5
474
330
1F
100
AcDbEntity
  8
001
370
    50
100
AcDbLine
 10
408.150785
 20
159.22305
 30
0.0
 11
407.832022
 21
158.673757
 31
0.0
  0
ARC
  5
475
330
1F
100
AcDbEntity
  8
001
370
    50
100
AcDbCircle
 10
407.572548
 20
158.824333
 30
0.0
 40
0.3
100
AcDbArc
 50
209.872778
 51
329.872778
  0
LINE
  5
476
330
1F
100
AcDbEntity
  8
001
370
    50
100
AcDbLine
 10
408.150785
 20
159.22305
 30
0.0
 11
408.785869
 21
159.22164
 31
0.0
  0
LINE
  5
477
330
1F
100
AcDbEntity
  8
001
370
    50
100
AcDbLine
 10
408.730354
 20
160.221766
 30
0.0
 11
409.046675
 21
159.671062
 31
0.0
  0
ARC
  5
478
330
1F
100
AcDbEntity
  8
001
370
    50
100
AcDbCircle
 10
408.786535
 20
159.52164
 30
0.0
 40
0.3
100
AcDbArc
 50
269.872778
 51
29.872778
  0
LINE
  5
479
330
1F
100
AcDbEntity
  8
001
370
    50
100
AcDbLine
 10
408.730354
 20
160.221766
 30
0.0
 11
409.049117
 21
160.77106
 31
0.0
  0
LINE
  5
47A
330
1F
100
AcDbEntity
  8
001
370
    50
100
AcDbLine
 10
408.155226
 20
161.223046
 30
0.0
 11
408.790309
 21
161.221635
 31
0.0
  0
ARC
  5
47B
330
1F
100
AcDbEntity
  8
001
370
    50
100
AcDbCircle
 10
408.789643
 20
160.921636
 30
0.0
 40
0.3
100
AcDbArc
 50
329.872778
 51
89.872778
  0
LINE
  5
47C
330
1F
100
AcDbEntity
  8
001
370
    50
100
AcDbLine
 10
400.856559
 20
155.401574
 30
0.0
 11
414.560942
 21
155.49725
 31
0.0
  0
ARC
  5
47D
330
1F
100
AcDbEntity
  8
001
370
    50
100
AcDbCircle
 10
413.91591
 20
163.272997
 30
0.0
 40
3.0
100
AcDbArc
 50
298.349498
 51
144.83356
  0
ARC
  5
47E
330
1F
100
AcDbEntity
  8
001
370
    50
100
AcDbCircle
 10
400.355765
 20
164.5233
 30
0.0
 40
0.4
100
AcDbArc
 50
90.4
 51
175.4
  0
ARC
  5
47F
330
1F
100
AcDbEntity
  8
001
370
    50
100
AcDbCircle
 10
414.55815
 20
155.897241
 30
0.0
 40
0.4
100
AcDbArc
 50
270.4
 51
355.4
  0
LINE
  5
480
330
1F
100
AcDbEntity
  8
001
370
    50
100
AcDbLine
 10
399.942125
 20
164.369828
 30
0.0
 11
399.970004
 21
164.999856
 31
0.0
  0
LINE
  5
481
330
1F
100
AcDbEntity
  8
001
370
    50
100
AcDbLine
 10
401.574181
 20
174.393943
 30
0.0
 11
400.597823
 21
164.925
 31
0.0
  0
LINE
  5
482
330
1F
100
AcDbEntity
  8
001
  6
DASHED
370
    30
100
AcDbLine
 10
400.650515
 20
164.925368
 30
0.0
 11
401.750807
 21
175.393943
 31
0.0
  0
POLYLINE
  5
483
330
1F
100
AcDbEntity
  8
001
370
    50
100
AcDb2dPolyline
 66
     1
 10
0.0
 20
0.0
 30
0.0
  0
VERTEX
  5
485
330
483
100
AcDbEntity
  8
001
370
    50
100
AcDbVertex
100
AcDb2dVertex
 10
415.041076
 20
156.911844
 30
0.0
  0
VERTEX
  5
486
330
483
100
AcDbEntity
  8
001
370
    50
100
AcDbVertex
100
AcDb2dVertex
 10
415.914922
 20
156.900124
 30
0.0
  0
VERTEX
  5
487
330
483
100
AcDbEntity
  8
001
370
    50
100
AcDbVertex
100
AcDb2dVertex
 10
417.098682
 20
156.885139
 30
0.0
  0
VERTEX
  5
488
330
483
100
AcDbEntity
  8
001
370
    50
100
AcDbVertex
100
AcDb2dVertex
 10
418.383021
 20
156.870255
 30
0.0
  0
VERTEX
  5
489
330
483
100
AcDbEntity
  8
001
370
    50
100
AcDbVertex
100
AcDb2dVertex
 10
419.261787
 20
156.860771
 30
0.0
  0
SEQEND
  5
484
330
483
100
AcDbEntity
  8
001
370
    50
  0
LINE
  5
48A
330
1F
100
AcDbEntity
  8
001
370
    50
100
AcDbLine
 10
415.03159
 20
156.793943
 30
0.0
 11
419.261787
 21
156.793943
 31
0.0
  0
LINE
  5
48B
330
1F
100
AcDbEntity
  8
001
370
    50
100
AcDbLine
 10
400.856559
 20
235.386312
 30
0.0
 11
414.560942
 21
235.290636
 31
0.0
  0
ARC
  5
48C
330
1F
100
AcDbEntity
  8
001
370
    50
100
AcDbCircle
 10
414.55815
 20
234.890646
 30
0.0
 40
0.4
100
AcDbArc
 50
4.6
 51
89.6
  0
LINE
  5
48D
330
1F
100
AcDbEntity
  8
001
370
    50
100
AcDbLine
 10
399.350919
 20
233.766051
 30
0.0
 11
399.961787
 21
226.17368
 31
0.0
  0
LINE
  5
48E
330
1F
100
AcDbEntity
  8
001
370
    50
100
AcDbLine
 10
414.956862
 20
234.922726
 30
0.0
 11
415.03159
 21
233.993943
 31
0.0
  0
LINE
  5
48F
330
1F
100
AcDbEntity
  8
001
370
    50
100
AcDbLine
 10
399.261787
 20
200.393943
 30
0.0
 11
416.053582
 21
200.393943
 31
0.0
  0
POLYLINE
  5
490
330
1F
100
AcDbEntity
  8
001
370
    50
100
AcDb2dPolyline
 66
     1
 10
0.0
 20
0.0
 30
0.0
  0
VERTEX
  5
492
330
490
100
AcDbEntity
  8
001
370
    50
100
AcDbVertex
100
AcDb2dVertex
 10
415.214134
 20
200.193943
 30
0.0
  0
VERTEX
  5
493
330
490
100
AcDbEntity
  8
001
370
    50
100
AcDbVertex
100
AcDb2dVertex
 10
415.047445
 20
199.590061
 30
0.0
  0
VERTEX
  5
494
330
490
100
AcDbEntity
  8
001
370
    50
100
AcDbVertex
100
AcDb2dVertex
 10
414.805106
 20
198.707112
 30
0.0
  0
VERTEX
  5
495
330
490
100
AcDbEntity
  8
001
370
    50
100
AcDbVertex
100
AcDb2dVertex
 10
414.564551
 20
197.823654
 30
0.0
  0
VERTEX
  5
496
330
490
100
AcDbEntity
  8
001
370
    50
100
AcDbVertex
100
AcDb2dVertex
 10
414.40084
 20
197.218943
 30
0.0
  0
SEQEND
  5
491
330
490
100
AcDbEntity
  8
001
370
    50
  0
LINE
  5
497
330
1F
100
AcDbEntity
  8
001
370
    50
100
AcDbLine
 10
416.053582
 20
200.393943
 30
0.0
 11
415.999992
 21
200.193943
 31
0.0
  0
LINE
  5
498
330
1F
100
AcDbEntity
  8
001
370
    50
100
AcDbLine
 10
399.961787
 20
197.218943
 30
0.0
 11
414.40084
 21
197.218943
 31
0.0
  0
LINE
  5
499
330
1F
100
AcDbEntity
  8
001
370
    50
100
AcDbLine
 10
399.261787
 20
200.393943
 30
0.0
 11
399.961787
 21
197.218943
 31
0.0
  0
LINE
  5
49A
330
1F
100
AcDbEntity
  8
001
370
    50
100
AcDbLine
 10
424.261787
 20
200.193943
 30
0.0
 11
415.214134
 21
200.193943
 31
0.0
  0
LINE
  5
49B
330
1F
100
AcDbEntity
  8
001
370
    50
100
AcDbLine
 10
399.261787
 20
190.393943
 30
0.0
 11
399.961787
 21
193.568943
 31
0.0
  0
LINE
  5
49C
330
1F
100
AcDbEntity
  8
001
370
    50
100
AcDbLine
 10
399.261787
 20
190.393943
 30
0.0
 11
399.961787
 21
190.393943
 31
0.0
  0
LINE
  5
49D
330
1F
100
AcDbEntity
  8
001
370
    50
100
AcDbLine
 10
399.961787
 20
216.393943
 30
0.0
 11
399.961787
 21
200.393943
 31
0.0
  0
LINE
  5
49E
330
1F
100
AcDbEntity
  8
001
370
    50
100
AcDbLine
 10
399.961787
 20
197.218943
 30
0.0
 11
399.961787
 21
174.393943
 31
0.0
  0
LINE
  5
49F
330
1F
100
AcDbEntity
  8
001
370
    50
100
AcDbLine
 10
442.829291
 20
211.393943
 30
0.0
 11
432.261787
 21
211.393943
 31
0.0
  0
LINE
  5
4A0
330
1F
100
AcDbEntity
  8
001
  6
CENTER
370
     9
100
AcDbLine
 10
446.329485
 20
195.393943
 30
0.0
 11
397.409994
 21
195.393943
 31
0.0
  0
LINE
  5
4A1
330
1F
100
AcDbEntity
  8
001
370
    50
100
AcDbLine
 10
442.829291
 20
179.393943
 30
0.0
 11
432.261787
 21
179.393943
 31
0.0
  0
LINE
  5
4A2
330
1F
100
AcDbEntity
  8
001
370
     9
100
AcDbLine
 10
400.856559
 20
155.401574
 30
0.0
 11
381.605492
 21
155.401574
 31
0.0
  0
LINE
  5
4A3
330
1F
100
AcDbEntity
  8
001
  6
DASHED
370
    30
100
AcDbLine
 10
401.750807
 20
330.756782
 30
0.0
 11
401.750807
 21
290.756782
 31
0.0
  0
LINE
  5
4A4
330
1F
100
AcDbEntity
  8
001
  6
DASHED
370
    30
100
AcDbLine
 10
401.750807
 20
330.756782
 30
0.0
 11
399.970004
 21
347.699989
 31
0.0
  0
LINE
  5
4A5
330
1F
100
AcDbEntity
  8
001
  6
DASHED
370
    50
100
AcDbLine
 10
399.970004
 20
313.407924
 30
0.0
 11
399.970004
 21
313.40927
 31
0.0
  0
POLYLINE
  5
4A6
330
1F
100
AcDbEntity
  8
001
370
    50
100
AcDb2dPolyline
 66
     1
 10
0.0
 20
0.0
 30
0.0
  0
VERTEX
  5
4A8
330
4A6
100
AcDbEntity
  8
001
370
    50
100
AcDbVertex
100
AcDb2dVertex
 10
399.970004
 20
280.362694
 30
0.0
  0
VERTEX
  5
4A9
330
4A6
100
AcDbEntity
  8
001
370
    50
100
AcDbVertex
100
AcDb2dVertex
 10
400.146795
 20
282.442733
 30
0.0
  0
VERTEX
  5
4AA
330
4A6
100
AcDbEntity
  8
001
370
    50
100
AcDbVertex
100
AcDb2dVertex
 10
400.320729
 20
284.523001
 30
0.0
  0
VERTEX
  5
4AB
330
4A6
100
AcDbEntity
  8
001
370
    50
100
AcDbVertex
100
AcDb2dVertex
 10
400.488948
 20
286.603726
 30
0.0
  0
VERTEX
  5
4AC
330
4A6
100
AcDbEntity
  8
001
370
    50
100
AcDbVertex
100
AcDb2dVertex
 10
400.611407
 20
288.179836
 30
0.0
  0
VERTEX
  5
4AD
330
4A6
100
AcDbEntity
  8
001
370
    50
100
AcDbVertex
100
AcDb2dVertex
 10
400.731407
 20
289.756142
 30
0.0
  0
SEQEND
  5
4A7
330
4A6
100
AcDbEntity
  8
001
370
    50
  0
POLYLINE
  5
4AE
330
1F
100
AcDbEntity
  8
001
370
    50
100
AcDb2dPolyline
 66
     1
 10
0.0
 20
0.0
 30
0.0
  0
VERTEX
  5
4B0
330
4AE
100
AcDbEntity
  8
001
370
    50
100
AcDbVertex
100
AcDb2dVertex
 10
401.461787
 20
343.144434
 30
0.0
  0
VERTEX
  5
4B1
330
4AE
100
AcDbEntity
  8
001
370
    50
100
AcDbVertex
100
AcDb2dVertex
 10
401.394226
 20
343.141842
 30
0.0
  0
VERTEX
  5
4B2
330
4AE
100
AcDbEntity
  8
001
370
    50
100
AcDbVertex
100
AcDb2dVertex
 10
401.326806
 20
343.13718
 30
0.0
  0
VERTEX
  5
4B3
330
4AE
100
AcDbEntity
  8
001
370
    50
100
AcDbVertex
100
AcDb2dVertex
 10
401.082637
 20
343.087114
 30
0.0
  0
VERTEX
  5
4B4
330
4AE
100
AcDbEntity
  8
001
370
    50
100
AcDbVertex
100
AcDb2dVertex
 10
400.851742
 20
342.989799
 30
0.0
  0
VERTEX
  5
4B5
330
4AE
100
AcDbEntity
  8
001
370
    50
100
AcDbVertex
100
AcDb2dVertex
 10
400.643366
 20
342.854283
 30
0.0
  0
VERTEX
  5
4B6
330
4AE
100
AcDbEntity
  8
001
370
    50
100
AcDbVertex
100
AcDb2dVertex
 10
400.460271
 20
342.686616
 30
0.0
  0
VERTEX
  5
4B7
330
4AE
100
AcDbEntity
  8
001
370
    50
100
AcDbVertex
100
AcDb2dVertex
 10
400.279662
 20
342.455077
 30
0.0
  0
VERTEX
  5
4B8
330
4AE
100
AcDbEntity
  8
001
370
    50
100
AcDbVertex
100
AcDb2dVertex
 10
400.139636
 20
342.196879
 30
0.0
  0
VERTEX
  5
4B9
330
4AE
100
AcDbEntity
  8
001
370
    50
100
AcDbVertex
100
AcDb2dVertex
 10
400.072455
 20
342.024149
 30
0.0
  0
VERTEX
  5
4BA
330
4AE
100
AcDbEntity
  8
001
370
    50
100
AcDbVertex
100
AcDb2dVertex
 10
400.02116
 20
341.846126
 30
0.0
  0
VERTEX
  5
4BB
330
4AE
100
AcDbEntity
  8
001
370
    50
100
AcDbVertex
100
AcDb2dVertex
 10
399.98527
 20
341.664105
 30
0.0
  0
VERTEX
  5
4BC
330
4AE
100
AcDbEntity
  8
001
370
    50
100
AcDbVertex
100
AcDb2dVertex
 10
399.966146
 20
341.479769
 30
0.0
  0
VERTEX
  5
4BD
330
4AE
100
AcDbEntity
  8
001
370
    50
100
AcDbVertex
100
AcDb2dVertex
 10
399.963089
 20
341.393231
 30
0.0
  0
VERTEX
  5
4BE
330
4AE
100
AcDbEntity
  8
001
370
    50
100
AcDbVertex
100
AcDb2dVertex
 10
399.962059
 20
341.306615
 30
0.0
  0
SEQEND
  5
4AF
330
4AE
100
AcDbEntity
  8
001
370
    50
  0
LINE
  5
4BF
330
1F
100
AcDbEntity
  8
001
370
    50
100
AcDbLine
 10
419.261787
 20
343.144434
 30
0.0
 11
401.461787
 21
343.144434
 31
0.0
  0
POLYLINE
  5
4C0
330
1F
100
AcDbEntity
  8
001
370
    50
100
AcDb2dPolyline
 66
     1
 10
0.0
 20
0.0
 30
0.0
  0
VERTEX
  5
4C2
330
4C0
100
AcDbEntity
  8
001
370
    50
100
AcDbVertex
100
AcDb2dVertex
 10
424.261787
 20
336.985773
 30
0.0
  0
VERTEX
  5
4C3
330
4C0
100
AcDbEntity
  8
001
370
    50
100
AcDbVertex
100
AcDb2dVertex
 10
424.258095
 20
337.192983
 30
0.0
  0
VERTEX
  5
4C4
330
4C0
100
AcDbEntity
  8
001
370
    50
100
AcDbVertex
100
AcDb2dVertex
 10
424.251252
 20
337.400082
 30
0.0
  0
VERTEX
  5
4C5
330
4C0
100
AcDbEntity
  8
001
370
    50
100
AcDbVertex
100
AcDb2dVertex
 10
424.213576
 20
337.872326
 30
0.0
  0
VERTEX
  5
4C6
330
4C0
100
AcDbEntity
  8
001
370
    50
100
AcDbVertex
100
AcDb2dVertex
 10
424.145578
 20
338.341455
 30
0.0
  0
VERTEX
  5
4C7
330
4C0
100
AcDbEntity
  8
001
370
    50
100
AcDbVertex
100
AcDb2dVertex
 10
424.048791
 20
338.807155
 30
0.0
  0
VERTEX
  5
4C8
330
4C0
100
AcDbEntity
  8
001
370
    50
100
AcDbVertex
100
AcDb2dVertex
 10
423.92262
 20
339.265643
 30
0.0
  0
VERTEX
  5
4C9
330
4C0
100
AcDbEntity
  8
001
370
    50
100
AcDbVertex
100
AcDb2dVertex
 10
423.766587
 20
339.712413
 30
0.0
  0
VERTEX
  5
4CA
330
4C0
100
AcDbEntity
  8
001
370
    50
100
AcDbVertex
100
AcDb2dVertex
 10
423.579252
 20
340.146997
 30
0.0
  0
VERTEX
  5
4CB
330
4C0
100
AcDbEntity
  8
001
370
    50
100
AcDbVertex
100
AcDb2dVertex
 10
423.358253
 20
340.569564
 30
0.0
  0
VERTEX
  5
4CC
330
4C0
100
AcDbEntity
  8
001
370
    50
100
AcDbVertex
100
AcDb2dVertex
 10
423.105095
 20
340.973758
 30
0.0
  0
VERTEX
  5
4CD
330
4C0
100
AcDbEntity
  8
001
370
    50
100
AcDbVertex
100
AcDb2dVertex
 10
422.820359
 20
341.355985
 30
0.0
  0
VERTEX
  5
4CE
330
4C0
100
AcDbEntity
  8
001
370
    50
100
AcDbVertex
100
AcDb2dVertex
 10
422.503888
 20
341.712229
 30
0.0
  0
VERTEX
  5
4CF
330
4C0
100
AcDbEntity
  8
001
370
    50
100
AcDbVertex
100
AcDb2dVertex
 10
422.152861
 20
342.040789
 30
0.0
  0
VERTEX
  5
4D0
330
4C0
100
AcDbEntity
  8
001
370
    50
100
AcDbVertex
100
AcDb2dVertex
 10
421.772092
 20
342.334674
 30
0.0
  0
VERTEX
  5
4D1
330
4C0
100
AcDbEntity
  8
001
370
    50
100
AcDbVertex
100
AcDb2dVertex
 10
421.364726
 20
342.589751
 30
0.0
  0
VERTEX
  5
4D2
330
4C0
100
AcDbEntity
  8
001
370
    50
100
AcDbVertex
100
AcDb2dVertex
 10
420.933384
 20
342.801005
 30
0.0
  0
VERTEX
  5
4D3
330
4C0
100
AcDbEntity
  8
001
370
    50
100
AcDbVertex
100
AcDb2dVertex
 10
420.549457
 20
342.942665
 30
0.0
  0
VERTEX
  5
4D4
330
4C0
100
AcDbEntity
  8
001
370
    50
100
AcDbVertex
100
AcDb2dVertex
 10
420.153749
 20
343.047908
 30
0.0
  0
VERTEX
  5
4D5
330
4C0
100
AcDbEntity
  8
001
370
    50
100
AcDbVertex
100
AcDb2dVertex
 10
419.749916
 20
343.115821
 30
0.0
  0
VERTEX
  5
4D6
330
4C0
100
AcDbEntity
  8
001
370
    50
100
AcDbVertex
100
AcDb2dVertex
 10
419.341882
 20
343.143669
 30
0.0
  0
VERTEX
  5
4D7
330
4C0
100
AcDbEntity
  8
001
370
    50
100
AcDbVertex
100
AcDb2dVertex
 10
419.301834
 20
343.144155
 30
0.0
  0
VERTEX
  5
4D8
330
4C0
100
AcDbEntity
  8
001
370
    50
100
AcDbVertex
100
AcDb2dVertex
 10
419.261787
 20
343.144434
 30
0.0
  0
SEQEND
  5
4C1
330
4C0
100
AcDbEntity
  8
001
370
    50
  0
LINE
  5
4D9
330
1F
100
AcDbEntity
  8
001
370
    50
100
AcDbLine
 10
399.962059
 20
341.306615
 30
0.0
 11
399.970004
 21
341.150869
 31
0.0
  0
ARC
  5
4DA
330
1F
100
AcDbEntity
  8
001
370
    50
100
AcDbCircle
 10
401.461787
 20
347.856782
 30
0.0
 40
1.500000000000001
100
AcDbArc
 50
90.0
 51
180.0
  0
ARC
  5
4DB
330
1F
100
AcDbEntity
  8
001
  6
DASHED
370
    30
100
AcDbCircle
 10
401.461787
 20
347.856782
 30
0.0
 40
1.500000000000001
100
AcDbArc
 50
180.0
 51
186.0
  0
LINE
  5
4DC
330
1F
100
AcDbEntity
  8
001
370
    50
100
AcDbLine
 10
399.961787
 20
347.856782
 30
0.0
 11
399.961787
 21
341.330049
 31
0.0
  0
LINE
  5
4DD
330
1F
100
AcDbEntity
  8
001
370
    50
100
AcDbLine
 10
419.261787
 20
349.356782
 30
0.0
 11
401.461787
 21
349.356782
 31
0.0
  0
ARC
  5
4DE
330
1F
100
AcDbEntity
  8
001
370
    50
100
AcDbCircle
 10
419.261787
 20
344.356782
 30
0.0
 40
5.000000000000001
100
AcDbArc
 50
0.0
 51
90.0
  0
LINE
  5
4DF
330
1F
100
AcDbEntity
  8
001
370
    50
100
AcDbLine
 10
429.261787
 20
326.756782
 30
0.0
 11
429.261787
 21
294.756782
 31
0.0
  0
ARC
  5
4E0
330
1F
100
AcDbEntity
  8
001
370
    50
100
AcDbCircle
 10
429.261787
 20
331.756782
 30
0.0
 40
5.000000000000001
100
AcDbArc
 50
180.0
 51
270.0
  0
ARC
  5
4E1
330
1F
100
AcDbEntity
  8
001
370
    50
100
AcDbCircle
 10
429.261787
 20
289.756782
 30
0.0
 40
5.000000000000001
100
AcDbArc
 50
90.0
 51
180.0
  0
POLYLINE
  5
4E2
330
1F
100
AcDbEntity
  8
001
370
    50
100
AcDb2dPolyline
 66
     1
 10
0.0
 20
0.0
 30
0.0
  0
VERTEX
  5
4E4
330
4E2
100
AcDbEntity
  8
001
370
    50
100
AcDbVertex
100
AcDb2dVertex
 10
419.261787
 20
272.223609
 30
0.0
  0
VERTEX
  5
4E5
330
4E2
100
AcDbEntity
  8
001
370
    50
100
AcDbVertex
100
AcDb2dVertex
 10
419.68365
 20
272.244126
 30
0.0
  0
VERTEX
  5
4E6
330
4E2
100
AcDbEntity
  8
001
370
    50
100
AcDbVertex
100
AcDb2dVertex
 10
420.102759
 20
272.287003
 30
0.0
  0
VERTEX
  5
4E7
330
4E2
100
AcDbEntity
  8
001
370
    50
100
AcDbVertex
100
AcDb2dVertex
 10
420.51658
 20
272.369918
 30
0.0
  0
VERTEX
  5
4E8
330
4E2
100
AcDbEntity
  8
001
370
    50
100
AcDbVertex
100
AcDb2dVertex
 10
420.921622
 20
272.4914
 30
0.0
  0
VERTEX
  5
4E9
330
4E2
100
AcDbEntity
  8
001
370
    50
100
AcDbVertex
100
AcDb2dVertex
 10
421.315617
 20
272.646607
 30
0.0
  0
VERTEX
  5
4EA
330
4E2
100
AcDbEntity
  8
001
370
    50
100
AcDbVertex
100
AcDb2dVertex
 10
421.694994
 20
272.834047
 30
0.0
  0
VERTEX
  5
4EB
330
4E2
100
AcDbEntity
  8
001
370
    50
100
AcDbVertex
100
AcDb2dVertex
 10
422.057881
 20
273.053743
 30
0.0
  0
VERTEX
  5
4EC
330
4E2
100
AcDbEntity
  8
001
370
    50
100
AcDbVertex
100
AcDb2dVertex
 10
422.400468
 20
273.303985
 30
0.0
  0
VERTEX
  5
4ED
330
4E2
100
AcDbEntity
  8
001
370
    50
100
AcDbVertex
100
AcDb2dVertex
 10
422.717799
 20
273.581014
 30
0.0
  0
VERTEX
  5
4EE
330
4E2
100
AcDbEntity
  8
001
370
    50
100
AcDbVertex
100
AcDb2dVertex
 10
423.010518
 20
273.884058
 30
0.0
  0
VERTEX
  5
4EF
330
4E2
100
AcDbEntity
  8
001
370
    50
100
AcDbVertex
100
AcDb2dVertex
 10
423.277489
 20
274.211483
 30
0.0
  0
VERTEX
  5
4F0
330
4E2
100
AcDbEntity
  8
001
370
    50
100
AcDbVertex
100
AcDb2dVertex
 10
423.515265
 20
274.560405
 30
0.0
  0
VERTEX
  5
4F1
330
4E2
100
AcDbEntity
  8
001
370
    50
100
AcDbVertex
100
AcDb2dVertex
 10
423.719563
 20
274.924533
 30
0.0
  0
VERTEX
  5
4F2
330
4E2
100
AcDbEntity
  8
001
370
    50
100
AcDbVertex
100
AcDb2dVertex
 10
423.893542
 20
275.304645
 30
0.0
  0
VERTEX
  5
4F3
330
4E2
100
AcDbEntity
  8
001
370
    50
100
AcDbVertex
100
AcDb2dVertex
 10
424.037016
 20
275.698509
 30
0.0
  0
VERTEX
  5
4F4
330
4E2
100
AcDbEntity
  8
001
370
    50
100
AcDbVertex
100
AcDb2dVertex
 10
424.143182
 20
276.102861
 30
0.0
  0
VERTEX
  5
4F5
330
4E2
100
AcDbEntity
  8
001
370
    50
100
AcDbVertex
100
AcDb2dVertex
 10
424.221683
 20
276.640795
 30
0.0
  0
VERTEX
  5
4F6
330
4E2
100
AcDbEntity
  8
001
370
    50
100
AcDbVertex
100
AcDb2dVertex
 10
424.261787
 20
277.185493
 30
0.0
  0
SEQEND
  5
4E3
330
4E2
100
AcDbEntity
  8
001
370
    50
  0
ARC
  5
4F7
330
1F
100
AcDbEntity
  8
001
370
    50
100
AcDbCircle
 10
419.261787
 20
277.156782
 30
0.0
 40
5.000000000000001
100
AcDbArc
 50
270.0
 51
0.0
  0
LINE
  5
4F8
330
1F
100
AcDbEntity
  8
001
  6
DASHED
370
    50
100
AcDbLine
 10
399.961882
 20
331.756782
 30
0.0
 11
399.970004
 21
331.756782
 31
0.0
  0
LINE
  5
4F9
330
1F
100
AcDbEntity
  8
001
  6
DASHED
370
    50
100
AcDbLine
 10
399.961787
 20
313.411034
 30
0.0
 11
399.961787
 21
313.408543
 31
0.0
  0
LINE
  5
4FA
330
1F
100
AcDbEntity
  8
001
370
    50
100
AcDbLine
 10
424.261787
 20
289.756782
 30
0.0
 11
399.961787
 21
289.756782
 31
0.0
  0
LINE
  5
4FB
330
1F
100
AcDbEntity
  8
001
370
    50
100
AcDbLine
 10
400.731505
 20
331.756782
 30
0.0
 11
399.961787
 21
331.756782
 31
0.0
  0
POLYLINE
  5
4FC
330
1F
100
AcDbEntity
  8
001
370
    50
100
AcDb2dPolyline
 66
     1
 10
0.0
 20
0.0
 30
0.0
  0
VERTEX
  5
4FE
330
4FC
100
AcDbEntity
  8
001
370
    50
100
AcDbVertex
100
AcDb2dVertex
 10
399.970004
 20
341.150869
 30
0.0
  0
VERTEX
  5
4FF
330
4FC
100
AcDbEntity
  8
001
370
    50
100
AcDbVertex
100
AcDb2dVertex
 10
400.161493
 20
338.897694
 30
0.0
  0
VERTEX
  5
500
330
4FC
100
AcDbEntity
  8
001
370
    50
100
AcDbVertex
100
AcDb2dVertex
 10
400.349341
 20
336.644214
 30
0.0
  0
VERTEX
  5
501
330
4FC
100
AcDbEntity
  8
001
370
    50
100
AcDbVertex
100
AcDb2dVertex
 10
400.554191
 20
334.086133
 30
0.0
  0
VERTEX
  5
502
330
4FC
100
AcDbEntity
  8
001
370
    50
100
AcDbVertex
100
AcDb2dVertex
 10
400.748468
 20
331.527234
 30
0.0
  0
VERTEX
  5
503
330
4FC
100
AcDbEntity
  8
001
370
    50
100
AcDbVertex
100
AcDb2dVertex
 10
400.930953
 20
328.96728
 30
0.0
  0
VERTEX
  5
504
330
4FC
100
AcDbEntity
  8
001
370
    50
100
AcDbVertex
100
AcDb2dVertex
 10
401.100223
 20
326.406388
 30
0.0
  0
VERTEX
  5
505
330
4FC
100
AcDbEntity
  8
001
370
    50
100
AcDbVertex
100
AcDb2dVertex
 10
401.25373
 20
323.843353
 30
0.0
  0
VERTEX
  5
506
330
4FC
100
AcDbEntity
  8
001
370
    50
100
AcDbVertex
100
AcDb2dVertex
 10
401.384128
 20
321.279121
 30
0.0
  0
VERTEX
  5
507
330
4FC
100
AcDbEntity
  8
001
370
    50
100
AcDbVertex
100
AcDb2dVertex
 10
401.483356
 20
318.815004
 30
0.0
  0
VERTEX
  5
508
330
4FC
100
AcDbEntity
  8
001
370
    50
100
AcDbVertex
100
AcDb2dVertex
 10
401.567455
 20
316.35023
 30
0.0
  0
SEQEND
  5
4FD
330
4FC
100
AcDbEntity
  8
001
370
    50
  0
LINE
  5
509
330
1F
100
AcDbEntity
  8
001
370
    50
100
AcDbLine
 10
424.261787
 20
277.156782
 30
0.0
 11
424.261787
 21
344.356782
 31
0.0
  0
LINE
  5
50A
330
1F
100
AcDbEntity
  8
001
370
    50
100
AcDbLine
 10
432.261787
 20
294.756782
 30
0.0
 11
432.261787
 21
326.756782
 31
0.0
  0
LINE
  5
50B
330
1F
100
AcDbEntity
  8
001
370
    50
100
AcDbLine
 10
432.261787
 20
326.256782
 30
0.0
 11
429.261787
 21
326.256782
 31
0.0
  0
LINE
  5
50C
330
1F
100
AcDbEntity
  8
001
370
    50
100
AcDbLine
 10
429.261787
 20
295.256782
 30
0.0
 11
432.261787
 21
295.256782
 31
0.0
  0
LINE
  5
50D
330
1F
100
AcDbEntity
  8
001
370
    50
100
AcDbLine
 10
399.39468
 20
272.928571
 30
0.0
 11
399.957054
 21
279.918218
 31
0.0
  0
CIRCLE
  5
50E
330
1F
100
AcDbEntity
  8
001
370
    50
100
AcDbCircle
 10
407.570669
 20
275.573903
 30
0.0
 40
3.0
  0
LINE
  5
50F
330
1F
100
AcDbEntity
  8
001
370
    50
100
AcDbLine
 10
415.519235
 20
278.217647
 30
0.0
 11
414.956862
 21
271.227999
 31
0.0
  0
LINE
  5
510
330
1F
100
AcDbEntity
  8
001
370
    50
100
AcDbLine
 10
413.511715
 20
280.377996
 30
0.0
 11
400.352973
 21
280.286129
 31
0.0
  0
CIRCLE
  5
511
330
1F
100
AcDbEntity
  8
001
370
    50
100
AcDbCircle
 10
407.575656
 20
275.587168
 30
0.0
 40
2.5
  0
LINE
  5
512
330
1F
100
AcDbEntity
  8
001
370
    50
100
AcDbLine
 10
408.155226
 20
276.585884
 30
0.0
 11
407.838905
 21
277.136587
 31
0.0
  0
LINE
  5
513
330
1F
100
AcDbEntity
  8
001
370
    50
100
AcDbLine
 10
407.000528
 20
276.588448
 30
0.0
 11
407.319291
 21
277.137741
 31
0.0
  0
ARC
  5
514
330
1F
100
AcDbEntity
  8
001
370
    50
100
AcDbCircle
 10
407.578765
 20
276.987165
 30
0.0
 40
0.3
100
AcDbArc
 50
29.872778
 51
149.872778
  0
LINE
  5
515
330
1F
100
AcDbEntity
  8
001
370
    50
100
AcDbLine
 10
407.000528
 20
276.588448
 30
0.0
 11
406.365444
 21
276.589858
 31
0.0
  0
LINE
  5
516
330
1F
100
AcDbEntity
  8
001
370
    50
100
AcDbLine
 10
406.420959
 20
275.589732
 30
0.0
 11
406.104638
 21
276.140436
 31
0.0
  0
ARC
  5
517
330
1F
100
AcDbEntity
  8
001
370
    50
100
AcDbCircle
 10
406.364778
 20
276.289859
 30
0.0
 40
0.3
100
AcDbArc
 50
89.872778
 51
209.872778
  0
LINE
  5
518
330
1F
100
AcDbEntity
  8
001
370
    50
100
AcDbLine
 10
406.420959
 20
275.589732
 30
0.0
 11
406.102196
 21
275.040439
 31
0.0
  0
LINE
  5
519
330
1F
100
AcDbEntity
  8
001
370
    50
100
AcDbLine
 10
406.996087
 20
274.588453
 30
0.0
 11
406.361003
 21
274.589863
 31
0.0
  0
ARC
  5
51A
330
1F
100
AcDbEntity
  8
001
370
    50
100
AcDbCircle
 10
406.36167
 20
274.889862
 30
0.0
 40
0.3
100
AcDbArc
 50
149.872778
 51
269.872778
  0
LINE
  5
51B
330
1F
100
AcDbEntity
  8
001
370
    50
100
AcDbLine
 10
406.996087
 20
274.588453
 30
0.0
 11
407.312408
 21
274.037749
 31
0.0
  0
LINE
  5
51C
330
1F
100
AcDbEntity
  8
001
370
    50
100
AcDbLine
 10
408.150785
 20
274.585889
 30
0.0
 11
407.832022
 21
274.036595
 31
0.0
  0
ARC
  5
51D
330
1F
100
AcDbEntity
  8
001
370
    50
100
AcDbCircle
 10
407.572548
 20
274.187172
 30
0.0
 40
0.3
100
AcDbArc
 50
209.872778
 51
329.872778
  0
LINE
  5
51E
330
1F
100
AcDbEntity
  8
001
370
    50
100
AcDbLine
 10
408.150785
 20
274.585889
 30
0.0
 11
408.785869
 21
274.584479
 31
0.0
  0
LINE
  5
51F
330
1F
100
AcDbEntity
  8
001
370
    50
100
AcDbLine
 10
408.730354
 20
275.584604
 30
0.0
 11
409.046675
 21
275.033901
 31
0.0
  0
ARC
  5
520
330
1F
100
AcDbEntity
  8
001
370
    50
100
AcDbCircle
 10
408.786535
 20
274.884478
 30
0.0
 40
0.3
100
AcDbArc
 50
269.872778
 51
29.872778
  0
LINE
  5
521
330
1F
100
AcDbEntity
  8
001
370
    50
100
AcDbLine
 10
408.730354
 20
275.584604
 30
0.0
 11
409.049117
 21
276.133898
 31
0.0
  0
LINE
  5
522
330
1F
100
AcDbEntity
  8
001
370
    50
100
AcDbLine
 10
408.155226
 20
276.585884
 30
0.0
 11
408.790309
 21
276.584474
 31
0.0
  0
ARC
  5
523
330
1F
100
AcDbEntity
  8
001
370
    50
100
AcDbCircle
 10
408.789643
 20
276.284474
 30
0.0
 40
0.3
100
AcDbArc
 50
329.872778
 51
89.872778
  0
LINE
  5
524
330
1F
100
AcDbEntity
  8
001
370
    50
100
AcDbLine
 10
401.4022
 20
270.768222
 30
0.0
 11
414.560942
 21
270.860089
 31
0.0
  0
ARC
  5
525
330
1F
100
AcDbEntity
  8
001
370
    50
100
AcDbCircle
 10
413.91591
 20
278.635835
 30
0.0
 40
3.0
100
AcDbArc
 50
298.349498
 51
144.83356
  0
ARC
  5
526
330
1F
100
AcDbEntity
  8
001
370
    50
100
AcDbCircle
 10
400.355765
 20
279.886139
 30
0.0
 40
0.4
100
AcDbArc
 50
90.4
 51
175.4
  0
ARC
  5
527
330
1F
100
AcDbEntity
  8
001
370
    50
100
AcDbCircle
 10
414.55815
 20
271.260079
 30
0.0
 40
0.4
100
AcDbArc
 50
270.4
 51
355.4
  0
LINE
  5
528
330
1F
100
AcDbEntity
  8
001
370
    50
100
AcDbLine
 10
399.942125
 20
279.732666
 30
0.0
 11
399.970004
 21
280.362694
 31
0.0
  0
LINE
  5
529
330
1F
100
AcDbEntity
  8
001
370
    50
100
AcDbLine
 10
401.574181
 20
289.756782
 30
0.0
 11
400.597823
 21
280.287838
 31
0.0
  0
LINE
  5
52A
330
1F
100
AcDbEntity
  8
001
  6
DASHED
370
    30
100
AcDbLine
 10
400.650515
 20
280.288206
 30
0.0
 11
401.750807
 21
290.756782
 31
0.0
  0
POLYLINE
  5
52B
330
1F
100
AcDbEntity
  8
001
370
    50
100
AcDb2dPolyline
 66
     1
 10
0.0
 20
0.0
 30
0.0
  0
VERTEX
  5
52D
330
52B
100
AcDbEntity
  8
001
370
    50
100
AcDbVertex
100
AcDb2dVertex
 10
415.041076
 20
272.274683
 30
0.0
  0
VERTEX
  5
52E
330
52B
100
AcDbEntity
  8
001
370
    50
100
AcDbVertex
100
AcDb2dVertex
 10
415.914922
 20
272.262962
 30
0.0
  0
VERTEX
  5
52F
330
52B
100
AcDbEntity
  8
001
370
    50
100
AcDbVertex
100
AcDb2dVertex
 10
417.098682
 20
272.247977
 30
0.0
  0
VERTEX
  5
530
330
52B
100
AcDbEntity
  8
001
370
    50
100
AcDbVertex
100
AcDb2dVertex
 10
418.383021
 20
272.233094
 30
0.0
  0
VERTEX
  5
531
330
52B
100
AcDbEntity
  8
001
370
    50
100
AcDbVertex
100
AcDb2dVertex
 10
419.261787
 20
272.223609
 30
0.0
  0
SEQEND
  5
52C
330
52B
100
AcDbEntity
  8
001
370
    50
  0
LINE
  5
532
330
1F
100
AcDbEntity
  8
001
370
    50
100
AcDbLine
 10
415.03159
 20
272.156782
 30
0.0
 11
419.261787
 21
272.156782
 31
0.0
  0
LINE
  5
533
330
1F
100
AcDbEntity
  8
001
370
    50
100
AcDbLine
 10
401.4022
 20
350.745341
 30
0.0
 11
414.560942
 21
350.653474
 31
0.0
  0
ARC
  5
534
330
1F
100
AcDbEntity
  8
001
370
    50
100
AcDbCircle
 10
414.55815
 20
350.253484
 30
0.0
 40
0.4
100
AcDbArc
 50
4.6
 51
89.6
  0
LINE
  5
535
330
1F
100
AcDbEntity
  8
001
370
    50
100
AcDbLine
 10
399.39468
 20
348.584992
 30
0.0
 11
399.961787
 21
341.536518
 31
0.0
  0
LINE
  5
536
330
1F
100
AcDbEntity
  8
001
370
    50
100
AcDbLine
 10
414.956862
 20
350.285564
 30
0.0
 11
415.03159
 21
349.356782
 31
0.0
  0
LINE
  5
537
330
1F
100
AcDbEntity
  8
001
370
    50
100
AcDbLine
 10
399.261787
 20
315.756782
 30
0.0
 11
416.053582
 21
315.756782
 31
0.0
  0
POLYLINE
  5
538
330
1F
100
AcDbEntity
  8
001
370
    50
100
AcDb2dPolyline
 66
     1
 10
0.0
 20
0.0
 30
0.0
  0
VERTEX
  5
53A
330
538
100
AcDbEntity
  8
001
370
    50
100
AcDbVertex
100
AcDb2dVertex
 10
415.214134
 20
315.556782
 30
0.0
  0
VERTEX
  5
53B
330
538
100
AcDbEntity
  8
001
370
    50
100
AcDbVertex
100
AcDb2dVertex
 10
415.047445
 20
314.9529
 30
0.0
  0
VERTEX
  5
53C
330
538
100
AcDbEntity
  8
001
370
    50
100
AcDbVertex
100
AcDb2dVertex
 10
414.805106
 20
314.06995
 30
0.0
  0
VERTEX
  5
53D
330
538
100
AcDbEntity
  8
001
370
    50
100
AcDbVertex
100
AcDb2dVertex
 10
414.564551
 20
313.186492
 30
0.0
  0
VERTEX
  5
53E
330
538
100
AcDbEntity
  8
001
370
    50
100
AcDbVertex
100
AcDb2dVertex
 10
414.40084
 20
312.581782
 30
0.0
  0
SEQEND
  5
539
330
538
100
AcDbEntity
  8
001
370
    50
  0
LINE
  5
53F
330
1F
100
AcDbEntity
  8
001
370
    50
100
AcDbLine
 10
416.053582
 20
315.756782
 30
0.0
 11
415.999992
 21
315.556782
 31
0.0
  0
LINE
  5
540
330
1F
100
AcDbEntity
  8
001
370
    50
100
AcDbLine
 10
399.961787
 20
312.581782
 30
0.0
 11
414.40084
 21
312.581782
 31
0.0
  0
LINE
  5
541
330
1F
100
AcDbEntity
  8
001
370
    50
100
AcDbLine
 10
399.261787
 20
315.756782
 30
0.0
 11
399.961787
 21
312.581782
 31
0.0
  0
LINE
  5
542
330
1F
100
AcDbEntity
  8
001
370
    50
100
AcDbLine
 10
424.261787
 20
315.556782
 30
0.0
 11
415.214134
 21
315.556782
 31
0.0
  0
LINE
  5
543
330
1F
100
AcDbEntity
  8
001
370
    50
100
AcDbLine
 10
399.261787
 20
305.756782
 30
0.0
 11
399.961787
 21
308.931782
 31
0.0
  0
LINE
  5
544
330
1F
100
AcDbEntity
  8
001
370
    50
100
AcDbLine
 10
399.261787
 20
305.756782
 30
0.0
 11
399.961787
 21
305.756782
 31
0.0
  0
LINE
  5
545
330
1F
100
AcDbEntity
  8
001
370
    50
100
AcDbLine
 10
399.961787
 20
331.756782
 30
0.0
 11
399.961787
 21
315.756782
 31
0.0
  0
LINE
  5
546
330
1F
100
AcDbEntity
  8
001
370
    50
100
AcDbLine
 10
399.961787
 20
312.581782
 30
0.0
 11
399.961787
 21
289.756782
 31
0.0
  0
LINE
  5
547
330
1F
100
AcDbEntity
  8
001
370
    50
100
AcDbLine
 10
442.829291
 20
326.756782
 30
0.0
 11
432.261787
 21
326.756782
 31
0.0
  0
LINE
  5
548
330
1F
100
AcDbEntity
  8
001
  6
CENTER
370
     9
100
AcDbLine
 10
446.329485
 20
310.756782
 30
0.0
 11
397.409994
 21
310.756782
 31
0.0
  0
LINE
  5
549
330
1F
100
AcDbEntity
  8
001
370
    50
100
AcDbLine
 10
442.829291
 20
294.756782
 30
0.0
 11
432.261787
 21
294.756782
 31
0.0
  0
LINE
  5
54A
330
1F
100
AcDbEntity
  8
001
370
     9
100
AcDbLine
 10
401.4022
 20
270.768222
 30
0.0
 11
382.151133
 21
270.768222
 31
0.0
  0
LINE
  5
54B
330
1F
100
AcDbEntity
  8
001
  6
DASHED
370
    30
100
AcDbLine
 10
401.750807
 20
447.06911
 30
0.0
 11
401.750807
 21
407.06911
 31
0.0
  0
LINE
  5
54C
330
1F
100
AcDbEntity
  8
001
  6
DASHED
370
    30
100
AcDbLine
 10
401.750807
 20
447.06911
 30
0.0
 11
399.970004
 21
464.012317
 31
0.0
  0
LINE
  5
54D
330
1F
100
AcDbEntity
  8
001
  6
DASHED
370
    50
100
AcDbLine
 10
399.970004
 20
429.720253
 30
0.0
 11
399.970004
 21
429.721598
 31
0.0
  0
POLYLINE
  5
54E
330
1F
100
AcDbEntity
  8
001
370
    50
100
AcDb2dPolyline
 66
     1
 10
0.0
 20
0.0
 30
0.0
  0
VERTEX
  5
550
330
54E
100
AcDbEntity
  8
001
370
    50
100
AcDbVertex
100
AcDb2dVertex
 10
399.970004
 20
396.675022
 30
0.0
  0
VERTEX
  5
551
330
54E
100
AcDbEntity
  8
001
370
    50
100
AcDbVertex
100
AcDb2dVertex
 10
400.146795
 20
398.755062
 30
0.0
  0
VERTEX
  5
552
330
54E
100
AcDbEntity
  8
001
370
    50
100
AcDbVertex
100
AcDb2dVertex
 10
400.320729
 20
400.83533
 30
0.0
  0
VERTEX
  5
553
330
54E
100
AcDbEntity
  8
001
370
    50
100
AcDbVertex
100
AcDb2dVertex
 10
400.488948
 20
402.916055
 30
0.0
  0
VERTEX
  5
554
330
54E
100
AcDbEntity
  8
001
370
    50
100
AcDbVertex
100
AcDb2dVertex
 10
400.611407
 20
404.492164
 30
0.0
  0
VERTEX
  5
555
330
54E
100
AcDbEntity
  8
001
370
    50
100
AcDbVertex
100
AcDb2dVertex
 10
400.731407
 20
406.068471
 30
0.0
  0
SEQEND
  5
54F
330
54E
100
AcDbEntity
  8
001
370
    50
  0
POLYLINE
  5
556
330
1F
100
AcDbEntity
  8
001
370
    50
100
AcDb2dPolyline
 66
     1
 10
0.0
 20
0.0
 30
0.0
  0
VERTEX
  5
558
330
556
100
AcDbEntity
  8
001
370
    50
100
AcDbVertex
100
AcDb2dVertex
 10
401.461787
 20
459.456762
 30
0.0
  0
VERTEX
  5
559
330
556
100
AcDbEntity
  8
001
370
    50
100
AcDbVertex
100
AcDb2dVertex
 10
401.394226
 20
459.454171
 30
0.0
  0
VERTEX
  5
55A
330
556
100
AcDbEntity
  8
001
370
    50
100
AcDbVertex
100
AcDb2dVertex
 10
401.326806
 20
459.449509
 30
0.0
  0
VERTEX
  5
55B
330
556
100
AcDbEntity
  8
001
370
    50
100
AcDbVertex
100
AcDb2dVertex
 10
401.082637
 20
459.399442
 30
0.0
  0
VERTEX
  5
55C
330
556
100
AcDbEntity
  8
001
370
    50
100
AcDbVertex
100
AcDb2dVertex
 10
400.851742
 20
459.302128
 30
0.0
  0
VERTEX
  5
55D
330
556
100
AcDbEntity
  8
001
370
    50
100
AcDbVertex
100
AcDb2dVertex
 10
400.643366
 20
459.166611
 30
0.0
  0
VERTEX
  5
55E
330
556
100
AcDbEntity
  8
001
370
    50
100
AcDbVertex
100
AcDb2dVertex
 10
400.460271
 20
458.998945
 30
0.0
  0
VERTEX
  5
55F
330
556
100
AcDbEntity
  8
001
370
    50
100
AcDbVertex
100
AcDb2dVertex
 10
400.279662
 20
458.767405
 30
0.0
  0
VERTEX
  5
560
330
556
100
AcDbEntity
  8
001
370
    50
100
AcDbVertex
100
AcDb2dVertex
 10
400.139636
 20
458.509208
 30
0.0
  0
VERTEX
  5
561
330
556
100
AcDbEntity
  8
001
370
    50
100
AcDbVertex
100
AcDb2dVertex
 10
400.072455
 20
458.336477
 30
0.0
  0
VERTEX
  5
562
330
556
100
AcDbEntity
  8
001
370
    50
100
AcDbVertex
100
AcDb2dVertex
 10
400.02116
 20
458.158454
 30
0.0
  0
VERTEX
  5
563
330
556
100
AcDbEntity
  8
001
370
    50
100
AcDbVertex
100
AcDb2dVertex
 10
399.98527
 20
457.976434
 30
0.0
  0
VERTEX
  5
564
330
556
100
AcDbEntity
  8
001
370
    50
100
AcDbVertex
100
AcDb2dVertex
 10
399.966146
 20
457.792098
 30
0.0
  0
VERTEX
  5
565
330
556
100
AcDbEntity
  8
001
370
    50
100
AcDbVertex
100
AcDb2dVertex
 10
399.963089
 20
457.705559
 30
0.0
  0
VERTEX
  5
566
330
556
100
AcDbEntity
  8
001
370
    50
100
AcDbVertex
100
AcDb2dVertex
 10
399.962059
 20
457.618943
 30
0.0
  0
SEQEND
  5
557
330
556
100
AcDbEntity
  8
001
370
    50
  0
LINE
  5
567
330
1F
100
AcDbEntity
  8
001
370
    50
100
AcDbLine
 10
419.261787
 20
459.456762
 30
0.0
 11
401.461787
 21
459.456762
 31
0.0
  0
POLYLINE
  5
568
330
1F
100
AcDbEntity
  8
001
370
    50
100
AcDb2dPolyline
 66
     1
 10
0.0
 20
0.0
 30
0.0
  0
VERTEX
  5
56A
330
568
100
AcDbEntity
  8
001
370
    50
100
AcDbVertex
100
AcDb2dVertex
 10
424.261787
 20
453.298102
 30
0.0
  0
VERTEX
  5
56B
330
568
100
AcDbEntity
  8
001
370
    50
100
AcDbVertex
100
AcDb2dVertex
 10
424.258095
 20
453.505312
 30
0.0
  0
VERTEX
  5
56C
330
568
100
AcDbEntity
  8
001
370
    50
100
AcDbVertex
100
AcDb2dVertex
 10
424.251252
 20
453.712411
 30
0.0
  0
VERTEX
  5
56D
330
568
100
AcDbEntity
  8
001
370
    50
100
AcDbVertex
100
AcDb2dVertex
 10
424.213576
 20
454.184655
 30
0.0
  0
VERTEX
  5
56E
330
568
100
AcDbEntity
  8
001
370
    50
100
AcDbVertex
100
AcDb2dVertex
 10
424.145578
 20
454.653783
 30
0.0
  0
VERTEX
  5
56F
330
568
100
AcDbEntity
  8
001
370
    50
100
AcDbVertex
100
AcDb2dVertex
 10
424.048791
 20
455.119483
 30
0.0
  0
VERTEX
  5
570
330
568
100
AcDbEntity
  8
001
370
    50
100
AcDbVertex
100
AcDb2dVertex
 10
423.92262
 20
455.577972
 30
0.0
  0
VERTEX
  5
571
330
568
100
AcDbEntity
  8
001
370
    50
100
AcDbVertex
100
AcDb2dVertex
 10
423.766587
 20
456.024742
 30
0.0
  0
VERTEX
  5
572
330
568
100
AcDbEntity
  8
001
370
    50
100
AcDbVertex
100
AcDb2dVertex
 10
423.579252
 20
456.459325
 30
0.0
  0
VERTEX
  5
573
330
568
100
AcDbEntity
  8
001
370
    50
100
AcDbVertex
100
AcDb2dVertex
 10
423.358253
 20
456.881893
 30
0.0
  0
VERTEX
  5
574
330
568
100
AcDbEntity
  8
001
370
    50
100
AcDbVertex
100
AcDb2dVertex
 10
423.105095
 20
457.286087
 30
0.0
  0
VERTEX
  5
575
330
568
100
AcDbEntity
  8
001
370
    50
100
AcDbVertex
100
AcDb2dVertex
 10
422.820359
 20
457.668314
 30
0.0
  0
VERTEX
  5
576
330
568
100
AcDbEntity
  8
001
370
    50
100
AcDbVertex
100
AcDb2dVertex
 10
422.503888
 20
458.024557
 30
0.0
  0
VERTEX
  5
577
330
568
100
AcDbEntity
  8
001
370
    50
100
AcDbVertex
100
AcDb2dVertex
 10
422.152861
 20
458.353118
 30
0.0
  0
VERTEX
  5
578
330
568
100
AcDbEntity
  8
001
370
    50
100
AcDbVertex
100
AcDb2dVertex
 10
421.772092
 20
458.647003
 30
0.0
  0
VERTEX
  5
579
330
568
100
AcDbEntity
  8
001
370
    50
100
AcDbVertex
100
AcDb2dVertex
 10
421.364726
 20
458.902079
 30
0.0
  0
VERTEX
  5
57A
330
568
100
AcDbEntity
  8
001
370
    50
100
AcDbVertex
100
AcDb2dVertex
 10
420.933384
 20
459.113333
 30
0.0
  0
VERTEX
  5
57B
330
568
100
AcDbEntity
  8
001
370
    50
100
AcDbVertex
100
AcDb2dVertex
 10
420.549457
 20
459.254993
 30
0.0
  0
VERTEX
  5
57C
330
568
100
AcDbEntity
  8
001
370
    50
100
AcDbVertex
100
AcDb2dVertex
 10
420.153749
 20
459.360236
 30
0.0
  0
VERTEX
  5
57D
330
568
100
AcDbEntity
  8
001
370
    50
100
AcDbVertex
100
AcDb2dVertex
 10
419.749916
 20
459.428149
 30
0.0
  0
VERTEX
  5
57E
330
568
100
AcDbEntity
  8
001
370
    50
100
AcDbVertex
100
AcDb2dVertex
 10
419.341882
 20
459.455997
 30
0.0
  0
VERTEX
  5
57F
330
568
100
AcDbEntity
  8
001
370
    50
100
AcDbVertex
100
AcDb2dVertex
 10
419.301834
 20
459.456484
 30
0.0
  0
VERTEX
  5
580
330
568
100
AcDbEntity
  8
001
370
    50
100
AcDbVertex
100
AcDb2dVertex
 10
419.261787
 20
459.456762
 30
0.0
  0
SEQEND
  5
569
330
568
100
AcDbEntity
  8
001
370
    50
  0
LINE
  5
581
330
1F
100
AcDbEntity
  8
001
370
    50
100
AcDbLine
 10
399.962059
 20
457.618943
 30
0.0
 11
399.970004
 21
457.463198
 31
0.0
  0
ARC
  5
582
330
1F
100
AcDbEntity
  8
001
370
    50
100
AcDbCircle
 10
401.461787
 20
464.16911
 30
0.0
 40
1.500000000000001
100
AcDbArc
 50
90.0
 51
180.0
  0
ARC
  5
583
330
1F
100
AcDbEntity
  8
001
  6
DASHED
370
    30
100
AcDbCircle
 10
401.461787
 20
464.16911
 30
0.0
 40
1.500000000000001
100
AcDbArc
 50
180.0
 51
186.0
  0
LINE
  5
584
330
1F
100
AcDbEntity
  8
001
370
    50
100
AcDbLine
 10
399.961787
 20
464.16911
 30
0.0
 11
399.961787
 21
457.642378
 31
0.0
  0
LINE
  5
585
330
1F
100
AcDbEntity
  8
001
370
    50
100
AcDbLine
 10
419.261787
 20
465.66911
 30
0.0
 11
401.461787
 21
465.66911
 31
0.0
  0
ARC
  5
586
330
1F
100
AcDbEntity
  8
001
370
    50
100
AcDbCircle
 10
419.261787
 20
460.66911
 30
0.0
 40
5.000000000000001
100
AcDbArc
 50
0.0
 51
90.0
  0
LINE
  5
587
330
1F
100
AcDbEntity
  8
001
370
    50
100
AcDbLine
 10
429.261787
 20
443.06911
 30
0.0
 11
429.261787
 21
411.06911
 31
0.0
  0
ARC
  5
588
330
1F
100
AcDbEntity
  8
001
370
    50
100
AcDbCircle
 10
429.261787
 20
448.06911
 30
0.0
 40
5.000000000000001
100
AcDbArc
 50
180.0
 51
270.0
  0
ARC
  5
589
330
1F
100
AcDbEntity
  8
001
370
    50
100
AcDbCircle
 10
429.261787
 20
406.06911
 30
0.0
 40
5.000000000000001
100
AcDbArc
 50
90.0
 51
180.0
  0
POLYLINE
  5
58A
330
1F
100
AcDbEntity
  8
001
370
    50
100
AcDb2dPolyline
 66
     1
 10
0.0
 20
0.0
 30
0.0
  0
VERTEX
  5
58C
330
58A
100
AcDbEntity
  8
001
370
    50
100
AcDbVertex
100
AcDb2dVertex
 10
419.261787
 20
388.535937
 30
0.0
  0
VERTEX
  5
58D
330
58A
100
AcDbEntity
  8
001
370
    50
100
AcDbVertex
100
AcDb2dVertex
 10
419.68365
 20
388.556454
 30
0.0
  0
VERTEX
  5
58E
330
58A
100
AcDbEntity
  8
001
370
    50
100
AcDbVertex
100
AcDb2dVertex
 10
420.102759
 20
388.599332
 30
0.0
  0
VERTEX
  5
58F
330
58A
100
AcDbEntity
  8
001
370
    50
100
AcDbVertex
100
AcDb2dVertex
 10
420.51658
 20
388.682246
 30
0.0
  0
VERTEX
  5
590
330
58A
100
AcDbEntity
  8
001
370
    50
100
AcDbVertex
100
AcDb2dVertex
 10
420.921622
 20
388.803729
 30
0.0
  0
VERTEX
  5
591
330
58A
100
AcDbEntity
  8
001
370
    50
100
AcDbVertex
100
AcDb2dVertex
 10
421.315617
 20
388.958935
 30
0.0
  0
VERTEX
  5
592
330
58A
100
AcDbEntity
  8
001
370
    50
100
AcDbVertex
100
AcDb2dVertex
 10
421.694994
 20
389.146376
 30
0.0
  0
VERTEX
  5
593
330
58A
100
AcDbEntity
  8
001
370
    50
100
AcDbVertex
100
AcDb2dVertex
 10
422.057881
 20
389.366071
 30
0.0
  0
VERTEX
  5
594
330
58A
100
AcDbEntity
  8
001
370
    50
100
AcDbVertex
100
AcDb2dVertex
 10
422.400468
 20
389.616313
 30
0.0
  0
VERTEX
  5
595
330
58A
100
AcDbEntity
  8
001
370
    50
100
AcDbVertex
100
AcDb2dVertex
 10
422.717799
 20
389.893343
 30
0.0
  0
VERTEX
  5
596
330
58A
100
AcDbEntity
  8
001
370
    50
100
AcDbVertex
100
AcDb2dVertex
 10
423.010518
 20
390.196386
 30
0.0
  0
VERTEX
  5
597
330
58A
100
AcDbEntity
  8
001
370
    50
100
AcDbVertex
100
AcDb2dVertex
 10
423.277489
 20
390.523811
 30
0.0
  0
VERTEX
  5
598
330
58A
100
AcDbEntity
  8
001
370
    50
100
AcDbVertex
100
AcDb2dVertex
 10
423.515265
 20
390.872734
 30
0.0
  0
VERTEX
  5
599
330
58A
100
AcDbEntity
  8
001
370
    50
100
AcDbVertex
100
AcDb2dVertex
 10
423.719563
 20
391.236861
 30
0.0
  0
VERTEX
  5
59A
330
58A
100
AcDbEntity
  8
001
370
    50
100
AcDbVertex
100
AcDb2dVertex
 10
423.893542
 20
391.616974
 30
0.0
  0
VERTEX
  5
59B
330
58A
100
AcDbEntity
  8
001
370
    50
100
AcDbVertex
100
AcDb2dVertex
 10
424.037016
 20
392.010838
 30
0.0
  0
VERTEX
  5
59C
330
58A
100
AcDbEntity
  8
001
370
    50
100
AcDbVertex
100
AcDb2dVertex
 10
424.143182
 20
392.415189
 30
0.0
  0
VERTEX
  5
59D
330
58A
100
AcDbEntity
  8
001
370
    50
100
AcDbVertex
100
AcDb2dVertex
 10
424.221683
 20
392.953124
 30
0.0
  0
VERTEX
  5
59E
330
58A
100
AcDbEntity
  8
001
370
    50
100
AcDbVertex
100
AcDb2dVertex
 10
424.261787
 20
393.497822
 30
0.0
  0
SEQEND
  5
58B
330
58A
100
AcDbEntity
  8
001
370
    50
  0
ARC
  5
59F
330
1F
100
AcDbEntity
  8
001
370
    50
100
AcDbCircle
 10
419.261787
 20
393.46911
 30
0.0
 40
5.000000000000001
100
AcDbArc
 50
270.0
 51
0.0
  0
LINE
  5
5A0
330
1F
100
AcDbEntity
  8
001
  6
DASHED
370
    50
100
AcDbLine
 10
399.961882
 20
448.06911
 30
0.0
 11
399.970004
 21
448.06911
 31
0.0
  0
LINE
  5
5A1
330
1F
100
AcDbEntity
  8
001
  6
DASHED
370
    50
100
AcDbLine
 10
399.961787
 20
429.723362
 30
0.0
 11
399.961787
 21
429.720872
 31
0.0
  0
LINE
  5
5A2
330
1F
100
AcDbEntity
  8
001
370
    50
100
AcDbLine
 10
424.261787
 20
406.06911
 30
0.0
 11
399.961787
 21
406.06911
 31
0.0
  0
LINE
  5
5A3
330
1F
100
AcDbEntity
  8
001
370
    50
100
AcDbLine
 10
400.731505
 20
448.06911
 30
0.0
 11
399.961787
 21
448.06911
 31
0.0
  0
POLYLINE
  5
5A4
330
1F
100
AcDbEntity
  8
001
370
    50
100
AcDb2dPolyline
 66
     1
 10
0.0
 20
0.0
 30
0.0
  0
VERTEX
  5
5A6
330
5A4
100
AcDbEntity
  8
001
370
    50
100
AcDbVertex
100
AcDb2dVertex
 10
399.970004
 20
457.463198
 30
0.0
  0
VERTEX
  5
5A7
330
5A4
100
AcDbEntity
  8
001
370
    50
100
AcDbVertex
100
AcDb2dVertex
 10
400.161493
 20
455.210023
 30
0.0
  0
VERTEX
  5
5A8
330
5A4
100
AcDbEntity
  8
001
370
    50
100
AcDbVertex
100
AcDb2dVertex
 10
400.349341
 20
452.956542
 30
0.0
  0
VERTEX
  5
5A9
330
5A4
100
AcDbEntity
  8
001
370
    50
100
AcDbVertex
100
AcDb2dVertex
 10
400.554191
 20
450.398462
 30
0.0
  0
VERTEX
  5
5AA
330
5A4
100
AcDbEntity
  8
001
370
    50
100
AcDbVertex
100
AcDb2dVertex
 10
400.748468
 20
447.839563
 30
0.0
  0
VERTEX
  5
5AB
330
5A4
100
AcDbEntity
  8
001
370
    50
100
AcDbVertex
100
AcDb2dVertex
 10
400.930953
 20
445.279609
 30
0.0
  0
VERTEX
  5
5AC
330
5A4
100
AcDbEntity
  8
001
370
    50
100
AcDbVertex
100
AcDb2dVertex
 10
401.100223
 20
442.718717
 30
0.0
  0
VERTEX
  5
5AD
330
5A4
100
AcDbEntity
  8
001
370
    50
100
AcDbVertex
100
AcDb2dVertex
 10
401.25373
 20
440.155682
 30
0.0
  0
VERTEX
  5
5AE
330
5A4
100
AcDbEntity
  8
001
370
    50
100
AcDbVertex
100
AcDb2dVertex
 10
401.384128
 20
437.591449
 30
0.0
  0
VERTEX
  5
5AF
330
5A4
100
AcDbEntity
  8
001
370
    50
100
AcDbVertex
100
AcDb2dVertex
 10
401.483356
 20
435.127332
 30
0.0
  0
VERTEX
  5
5B0
330
5A4
100
AcDbEntity
  8
001
370
    50
100
AcDbVertex
100
AcDb2dVertex
 10
401.567455
 20
432.662558
 30
0.0
  0
SEQEND
  5
5A5
330
5A4
100
AcDbEntity
  8
001
370
    50
  0
LINE
  5
5B1
330
1F
100
AcDbEntity
  8
001
370
    50
100
AcDbLine
 10
424.261787
 20
393.46911
 30
0.0
 11
424.261787
 21
460.66911
 31
0.0
  0
LINE
  5
5B2
330
1F
100
AcDbEntity
  8
001
370
    50
100
AcDbLine
 10
432.261787
 20
411.06911
 30
0.0
 11
432.261787
 21
443.06911
 31
0.0
  0
LINE
  5
5B3
330
1F
100
AcDbEntity
  8
001
370
    50
100
AcDbLine
 10
432.261787
 20
442.56911
 30
0.0
 11
429.261787
 21
442.56911
 31
0.0
  0
LINE
  5
5B4
330
1F
100
AcDbEntity
  8
001
370
    50
100
AcDbLine
 10
429.261787
 20
411.56911
 30
0.0
 11
432.261787
 21
411.56911
 31
0.0
  0
LINE
  5
5B5
330
1F
100
AcDbEntity
  8
001
370
    50
100
AcDbLine
 10
399.438441
 20
389.784796
 30
0.0
 11
399.957054
 21
396.230547
 31
0.0
  0
CIRCLE
  5
5B6
330
1F
100
AcDbEntity
  8
001
370
    50
100
AcDbCircle
 10
407.570669
 20
391.886231
 30
0.0
 40
3.0
  0
LINE
  5
5B7
330
1F
100
AcDbEntity
  8
001
370
    50
100
AcDbLine
 10
415.475474
 20
393.986078
 30
0.0
 11
414.956862
 21
387.540328
 31
0.0
  0
LINE
  5
5B8
330
1F
100
AcDbEntity
  8
001
370
    50
100
AcDbLine
 10
412.966074
 20
396.686515
 30
0.0
 11
400.352973
 21
396.598457
 31
0.0
  0
CIRCLE
  5
5B9
330
1F
100
AcDbEntity
  8
001
370
    50
100
AcDbCircle
 10
407.575656
 20
391.899497
 30
0.0
 40
2.5
  0
LINE
  5
5BA
330
1F
100
AcDbEntity
  8
001
370
    50
100
AcDbLine
 10
408.155226
 20
392.898212
 30
0.0
 11
407.838905
 21
393.448916
 31
0.0
  0
LINE
  5
5BB
330
1F
100
AcDbEntity
  8
001
370
    50
100
AcDbLine
 10
407.000528
 20
392.900776
 30
0.0
 11
407.319291
 21
393.45007
 31
0.0
  0
ARC
  5
5BC
330
1F
100
AcDbEntity
  8
001
370
    50
100
AcDbCircle
 10
407.578765
 20
393.299493
 30
0.0
 40
0.3
100
AcDbArc
 50
29.872778
 51
149.872778
  0
LINE
  5
5BD
330
1F
100
AcDbEntity
  8
001
370
    50
100
AcDbLine
 10
407.000528
 20
392.900776
 30
0.0
 11
406.365444
 21
392.902186
 31
0.0
  0
LINE
  5
5BE
330
1F
100
AcDbEntity
  8
001
370
    50
100
AcDbLine
 10
406.420959
 20
391.902061
 30
0.0
 11
406.104638
 21
392.452764
 31
0.0
  0
ARC
  5
5BF
330
1F
100
AcDbEntity
  8
001
370
    50
100
AcDbCircle
 10
406.364778
 20
392.602187
 30
0.0
 40
0.3
100
AcDbArc
 50
89.872778
 51
209.872778
  0
LINE
  5
5C0
330
1F
100
AcDbEntity
  8
001
370
    50
100
AcDbLine
 10
406.420959
 20
391.902061
 30
0.0
 11
406.102196
 21
391.352767
 31
0.0
  0
LINE
  5
5C1
330
1F
100
AcDbEntity
  8
001
370
    50
100
AcDbLine
 10
406.996087
 20
390.900781
 30
0.0
 11
406.361003
 21
390.902191
 31
0.0
  0
ARC
  5
5C2
330
1F
100
AcDbEntity
  8
001
370
    50
100
AcDbCircle
 10
406.36167
 20
391.202191
 30
0.0
 40
0.3
100
AcDbArc
 50
149.872778
 51
269.872778
  0
LINE
  5
5C3
330
1F
100
AcDbEntity
  8
001
370
    50
100
AcDbLine
 10
406.996087
 20
390.900781
 30
0.0
 11
407.312408
 21
390.350077
 31
0.0
  0
LINE
  5
5C4
330
1F
100
AcDbEntity
  8
001
370
    50
100
AcDbLine
 10
408.150785
 20
390.898217
 30
0.0
 11
407.832022
 21
390.348924
 31
0.0
  0
ARC
  5
5C5
330
1F
100
AcDbEntity
  8
001
370
    50
100
AcDbCircle
 10
407.572548
 20
390.4995
 30
0.0
 40
0.3
100
AcDbArc
 50
209.872778
 51
329.872778
  0
LINE
  5
5C6
330
1F
100
AcDbEntity
  8
001
370
    50
100
AcDbLine
 10
408.150785
 20
390.898217
 30
0.0
 11
408.785869
 21
390.896807
 31
0.0
  0
LINE
  5
5C7
330
1F
100
AcDbEntity
  8
001
370
    50
100
AcDbLine
 10
408.730354
 20
391.896933
 30
0.0
 11
409.046675
 21
391.346229
 31
0.0
  0
ARC
  5
5C8
330
1F
100
AcDbEntity
  8
001
370
    50
100
AcDbCircle
 10
408.786535
 20
391.196806
 30
0.0
 40
0.3
100
AcDbArc
 50
269.872778
 51
29.872778
  0
LINE
  5
5C9
330
1F
100
AcDbEntity
  8
001
370
    50
100
AcDbLine
 10
408.730354
 20
391.896933
 30
0.0
 11
409.049117
 21
392.446226
 31
0.0
  0
LINE
  5
5CA
330
1F
100
AcDbEntity
  8
001
370
    50
100
AcDbLine
 10
408.155226
 20
392.898212
 30
0.0
 11
408.790309
 21
392.896802
 31
0.0
  0
ARC
  5
5CB
330
1F
100
AcDbEntity
  8
001
370
    50
100
AcDbCircle
 10
408.789643
 20
392.596803
 30
0.0
 40
0.3
100
AcDbArc
 50
329.872778
 51
89.872778
  0
LINE
  5
5CC
330
1F
100
AcDbEntity
  8
001
370
    50
100
AcDbLine
 10
401.947841
 20
387.08436
 30
0.0
 11
414.560942
 21
387.172417
 31
0.0
  0
ARC
  5
5CD
330
1F
100
AcDbEntity
  8
001
370
    50
100
AcDbCircle
 10
413.91591
 20
394.948164
 30
0.0
 40
3.0
100
AcDbArc
 50
298.349498
 51
144.83356
  0
ARC
  5
5CE
330
1F
100
AcDbEntity
  8
001
370
    50
100
AcDbCircle
 10
400.355765
 20
396.198467
 30
0.0
 40
0.4
100
AcDbArc
 50
90.4
 51
175.4
  0
ARC
  5
5CF
330
1F
100
AcDbEntity
  8
001
370
    50
100
AcDbCircle
 10
414.55815
 20
387.572407
 30
0.0
 40
0.4
100
AcDbArc
 50
270.4
 51
355.4
  0
LINE
  5
5D0
330
1F
100
AcDbEntity
  8
001
370
    50
100
AcDbLine
 10
399.942125
 20
396.044994
 30
0.0
 11
399.970004
 21
396.675022
 31
0.0
  0
LINE
  5
5D1
330
1F
100
AcDbEntity
  8
001
370
    50
100
AcDbLine
 10
401.574181
 20
406.06911
 30
0.0
 11
400.597823
 21
396.600167
 31
0.0
  0
LINE
  5
5D2
330
1F
100
AcDbEntity
  8
001
  6
DASHED
370
    30
100
AcDbLine
 10
400.650515
 20
396.600535
 30
0.0
 11
401.750807
 21
407.06911
 31
0.0
  0
POLYLINE
  5
5D3
330
1F
100
AcDbEntity
  8
001
370
    50
100
AcDb2dPolyline
 66
     1
 10
0.0
 20
0.0
 30
0.0
  0
VERTEX
  5
5D5
330
5D3
100
AcDbEntity
  8
001
370
    50
100
AcDbVertex
100
AcDb2dVertex
 10
415.041076
 20
388.587011
 30
0.0
  0
VERTEX
  5
5D6
330
5D3
100
AcDbEntity
  8
001
370
    50
100
AcDbVertex
100
AcDb2dVertex
 10
415.914922
 20
388.575291
 30
0.0
  0
VERTEX
  5
5D7
330
5D3
100
AcDbEntity
  8
001
370
    50
100
AcDbVertex
100
AcDb2dVertex
 10
417.098682
 20
388.560306
 30
0.0
  0
VERTEX
  5
5D8
330
5D3
100
AcDbEntity
  8
001
370
    50
100
AcDbVertex
100
AcDb2dVertex
 10
418.383021
 20
388.545422
 30
0.0
  0
VERTEX
  5
5D9
330
5D3
100
AcDbEntity
  8
001
370
    50
100
AcDbVertex
100
AcDb2dVertex
 10
419.261787
 20
388.535937
 30
0.0
  0
SEQEND
  5
5D4
330
5D3
100
AcDbEntity
  8
001
370
    50
  0
LINE
  5
5DA
330
1F
100
AcDbEntity
  8
001
370
    50
100
AcDbLine
 10
415.03159
 20
388.46911
 30
0.0
 11
419.261787
 21
388.46911
 31
0.0
  0
LINE
  5
5DB
330
1F
100
AcDbEntity
  8
001
370
    50
100
AcDbLine
 10
401.947841
 20
467.05386
 30
0.0
 11
414.560942
 21
466.965803
 31
0.0
  0
ARC
  5
5DC
330
1F
100
AcDbEntity
  8
001
370
    50
100
AcDbCircle
 10
414.55815
 20
466.565813
 30
0.0
 40
0.4
100
AcDbArc
 50
4.6
 51
89.6
  0
LINE
  5
5DD
330
1F
100
AcDbEntity
  8
001
370
    50
100
AcDbLine
 10
399.438441
 20
464.353424
 30
0.0
 11
399.961787
 21
457.848846
 31
0.0
  0
LINE
  5
5DE
330
1F
100
AcDbEntity
  8
001
370
    50
100
AcDbLine
 10
414.956862
 20
466.597892
 30
0.0
 11
415.03159
 21
465.66911
 31
0.0
  0
LINE
  5
5DF
330
1F
100
AcDbEntity
  8
001
370
    50
100
AcDbLine
 10
399.261787
 20
432.06911
 30
0.0
 11
416.053582
 21
432.06911
 31
0.0
  0
POLYLINE
  5
5E0
330
1F
100
AcDbEntity
  8
001
370
    50
100
AcDb2dPolyline
 66
     1
 10
0.0
 20
0.0
 30
0.0
  0
VERTEX
  5
5E2
330
5E0
100
AcDbEntity
  8
001
370
    50
100
AcDbVertex
100
AcDb2dVertex
 10
415.214134
 20
431.86911
 30
0.0
  0
VERTEX
  5
5E3
330
5E0
100
AcDbEntity
  8
001
370
    50
100
AcDbVertex
100
AcDb2dVertex
 10
415.047445
 20
431.265228
 30
0.0
  0
VERTEX
  5
5E4
330
5E0
100
AcDbEntity
  8
001
370
    50
100
AcDbVertex
100
AcDb2dVertex
 10
414.805106
 20
430.382279
 30
0.0
  0
VERTEX
  5
5E5
330
5E0
100
AcDbEntity
  8
001
370
    50
100
AcDbVertex
100
AcDb2dVertex
 10
414.564551
 20
429.498821
 30
0.0
  0
VERTEX
  5
5E6
330
5E0
100
AcDbEntity
  8
001
370
    50
100
AcDbVertex
100
AcDb2dVertex
 10
414.40084
 20
428.89411
 30
0.0
  0
SEQEND
  5
5E1
330
5E0
100
AcDbEntity
  8
001
370
    50
  0
LINE
  5
5E7
330
1F
100
AcDbEntity
  8
001
370
    50
100
AcDbLine
 10
416.053582
 20
432.06911
 30
0.0
 11
415.999992
 21
431.86911
 31
0.0
  0
LINE
  5
5E8
330
1F
100
AcDbEntity
  8
001
370
    50
100
AcDbLine
 10
399.961787
 20
428.89411
 30
0.0
 11
414.40084
 21
428.89411
 31
0.0
  0
LINE
  5
5E9
330
1F
100
AcDbEntity
  8
001
370
    50
100
AcDbLine
 10
399.261787
 20
432.06911
 30
0.0
 11
399.961787
 21
428.89411
 31
0.0
  0
LINE
  5
5EA
330
1F
100
AcDbEntity
  8
001
370
    50
100
AcDbLine
 10
424.261787
 20
431.86911
 30
0.0
 11
415.214134
 21
431.86911
 31
0.0
  0
LINE
  5
5EB
330
1F
100
AcDbEntity
  8
001
370
    50
100
AcDbLine
 10
399.261787
 20
422.06911
 30
0.0
 11
399.961787
 21
425.24411
 31
0.0
  0
LINE
  5
5EC
330
1F
100
AcDbEntity
  8
001
370
    50
100
AcDbLine
 10
399.261787
 20
422.06911
 30
0.0
 11
399.961787
 21
422.06911
 31
0.0
  0
LINE
  5
5ED
330
1F
100
AcDbEntity
  8
001
370
    50
100
AcDbLine
 10
399.961787
 20
448.06911
 30
0.0
 11
399.961787
 21
432.06911
 31
0.0
  0
LINE
  5
5EE
330
1F
100
AcDbEntity
  8
001
370
    50
100
AcDbLine
 10
399.961787
 20
428.89411
 30
0.0
 11
399.961787
 21
406.06911
 31
0.0
  0
LINE
  5
5EF
330
1F
100
AcDbEntity
  8
001
370
    50
100
AcDbLine
 10
442.829291
 20
443.06911
 30
0.0
 11
432.261787
 21
443.06911
 31
0.0
  0
LINE
  5
5F0
330
1F
100
AcDbEntity
  8
001
  6
CENTER
370
     9
100
AcDbLine
 10
446.329485
 20
427.06911
 30
0.0
 11
397.409994
 21
427.06911
 31
0.0
  0
LINE
  5
5F1
330
1F
100
AcDbEntity
  8
001
370
    50
100
AcDbLine
 10
442.829291
 20
411.06911
 30
0.0
 11
432.261787
 21
411.06911
 31
0.0
  0
LINE
  5
5F2
330
1F
100
AcDbEntity
  8
001
370
     9
100
AcDbLine
 10
401.947841
 20
387.08436
 30
0.0
 11
382.696774
 21
387.08436
 31
0.0
  0
ARC
  5
5F3
330
1F
100
AcDbEntity
  8
001
370
    50
100
AcDbCircle
 10
400.846087
 20
233.886349
 30
0.0
 40
1.5
100
AcDbArc
 50
89.6
 51
184.6
  0
ARC
  5
5F4
330
1F
100
AcDbEntity
  8
001
370
    50
100
AcDbCircle
 10
400.846087
 20
156.901538
 30
0.0
 40
1.5
100
AcDbArc
 50
175.4
 51
270.4
  0
ARC
  5
5F5
330
1F
100
AcDbEntity
  8
001
370
    50
100
AcDbCircle
 10
401.388238
 20
348.74539
 30
0.0
 40
2.0
100
AcDbArc
 50
89.6
 51
184.6
  0
ARC
  5
5F6
330
1F
100
AcDbEntity
  8
001
370
    50
100
AcDbCircle
 10
413.525677
 20
278.378044
 30
0.0
 40
2.0
100
AcDbArc
 50
355.4
 51
90.4
  0
ARC
  5
5F7
330
1F
100
AcDbEntity
  8
001
370
    50
100
AcDbCircle
 10
401.388238
 20
272.768173
 30
0.0
 40
2.0
100
AcDbArc
 50
175.4
 51
270.4
  0
ARC
  5
5F8
330
1F
100
AcDbEntity
  8
001
370
    50
100
AcDbCircle
 10
401.930388
 20
389.584299
 30
0.0
 40
2.5
100
AcDbArc
 50
175.4
 51
270.4
  0
ARC
  5
5F9
330
1F
100
AcDbEntity
  8
001
370
    50
100
AcDbCircle
 10
412.983527
 20
394.186576
 30
0.0
 40
2.5
100
AcDbArc
 50
355.4
 51
90.4
  0
ARC
  5
5FA
330
1F
100
AcDbEntity
  8
001
370
    50
100
AcDbCircle
 10
401.930388
 20
464.553921
 30
0.0
 40
2.5
100
AcDbArc
 50
89.6
 51
184.6
  0
LINE
  5
5FB
330
1F
100
AcDbEntity
  8
001
370
     9
100
AcDbLine
 10
401.947841
 20
307.08436
 30
0.0
 11
382.696774
 21
307.08436
 31
0.0
  0
ENDSEC
  0
SECTION
  2
OBJECTS
  0
DICTIONARY
  5
C
330
0
100
AcDbDictionary
281
     1
  3
ACAD_GROUP
350
D
  3
ACAD_LAYOUT
350
1A
  3
ACAD_MLEADERSTYLE
350
5FF
  3
ACAD_MLINESTYLE
350
17
  3
ACAD_PLOTSETTINGS
350
19
  3
ACAD_PLOTSTYLENAME
350
E
  3
ACAD_SCALELIST
350
3B
  3
ACAD_TABLESTYLE
350
5FE
  3
ACAD_VISUALSTYLE
350
2A
  3
AcDbVariableDictionary
350
5FC
  0
DICTIONARY
  5
D
102
{ACAD_REACTORS
330
C
102
}
330
C
100
AcDbDictionary
281
     1
  0
DICTIONARY
  5
1A
102
{ACAD_REACTORS
330
C
102
}
330
C
100
AcDbDictionary
281
     1
  3
Layout1
350
1E
  3
Layout2
350
26
  3
Model
350
22
  0
DICTIONARY
  5
5FF
102
{ACAD_REACTORS
330
C
102
}
330
C
100
AcDbDictionary
281
     1
  0
DICTIONARY
  5
17
102
{ACAD_REACTORS
330
C
102
}
330
C
100
AcDbDictionary
281
     1
  3
Standard
350
18
  0
DICTIONARY
  5
19
102
{ACAD_REACTORS
330
C
102
}
330
C
100
AcDbDictionary
281
     1
  0
ACDBDICTIONARYWDFLT
  5
E
102
{ACAD_REACTORS
330
C
102
}
330
C
100
AcDbDictionary
281
     1
  3
Normal
350
F
100
AcDbDictionaryWithDefault
340
F
  0
DICTIONARY
  5
3B
102
{ACAD_REACTORS
330
C
102
}
330
C
100
AcDbDictionary
281
     1
  3
A0
350
3C
  3
A1
350
3D
  3
A2
350
3E
  3
A3
350
3F
  3
A4
350
40
  3
A5
350
41
  3
A6
350
42
  3
A7
350
43
  3
A8
350
44
  3
A9
350
45
  3
B0
350
46
  3
B1
350
47
  3
B2
350
48
  3
B3
350
49
  3
B4
350
4A
  3
B5
350
4B
  3
B6
350
4C
  3
B7
350
4D
  3
B8
350
4E
  3
B9
350
4F
  3
C0
350
50
  3
C1
350
51
  3
C2
350
52
  3
C3
350
53
  3
C4
350
54
  3
C5
350
55
  3
C6
350
56
  3
C7
350
57
  3
C8
350
58
  3
C9
350
59
  3
D0
350
5A
  3
D1
350
5B
  3
D2
350
5C
  0
DICTIONARY
  5
5FE
102
{ACAD_REACTORS
330
C
102
}
330
C
100
AcDbDictionary
281
     1
  0
DICTIONARY
  5
2A
102
{ACAD_REACTORS
330
C
102
}
330
C
100
AcDbDictionary
281
     1
  3
2dWireframe
350
2F
  3
3D Hidden
350
31
  3
3dWireframe
350
30
  3
Basic
350
32
  3
Brighten
350
36
  3
ColorChange
350
3A
  3
Conceptual
350
34
  3
Dim
350
35
  3
Facepattern
350
39
  3
Flat
350
2B
  3
FlatWithEdges
350
2C
  3
Gouraud
350
2D
  3
GouraudWithEdges
350
2E
  3
Linepattern
350
38
  3
Realistic
350
33
  3
Thicken
350
37
  0
DICTIONARY
  5
5FC
102
{ACAD_REACTORS
330
C
102
}
330
C
100
AcDbDictionary
281
     1
  3
CANNOSCALE
350
5FD
  3
PSOLHEIGHT
350
601
  3
PSOLWIDTH
350
600
  0
LAYOUT
  5
1E
102
{ACAD_REACTORS
330
1A
102
}
330
1A
100
AcDbPlotSettings
  1

  2
none_device
  4

  6

 40
0.0
 41
0.0
 42
0.0
 43
0.0
 44
0.0
 45
0.0
 46
0.0
 47
0.0
 48
0.0
 49
0.0
140
0.0
141
0.0
142
1.0
143
1.0
 70
   688
 72
     0
 73
     0
 74
     5
  7

 75
    16
147
1.0
148
0.0
149
0.0
100
AcDbLayout
  1
Layout1
 70
     1
 71
     1
 10
0.0
 20
0.0
 11
12.0
 21
9.0
 12
0.0
 22
0.0
 32
0.0
 14
1.000000E+20
 24
1.000000E+20
 34
0.0
 15
-1.000000E+20
 25
-1.000000E+20
 35
0.0
146
0.0
 13
0.0
 23
0.0
 33
0.0
 16
1.0
 26
0.0
 36
0.0
 17
0.0
 27
1.0
 37
0.0
 76
     0
330
1B
  0
LAYOUT
  5
26
102
{ACAD_REACTORS
330
1A
102
}
330
1A
100
AcDbPlotSettings
  1

  2
none_device
  4

  6

 40
0.0
 41
0.0
 42
0.0
 43
0.0
 44
0.0
 45
0.0
 46
0.0
 47
0.0
 48
0.0
 49
0.0
140
0.0
141
0.0
142
1.0
143
1.0
 70
   688
 72
     0
 73
     0
 74
     5
  7

 75
    16
147
1.0
148
0.0
149
0.0
100
AcDbLayout
  1
Layout2
 70
     1
 71
     2
 10
0.0
 20
0.0
 11
0.0
 21
0.0
 12
0.0
 22
0.0
 32
0.0
 14
0.0
 24
0.0
 34
0.0
 15
0.0
 25
0.0
 35
0.0
146
0.0
 13
0.0
 23
0.0
 33
0.0
 16
1.0
 26
0.0
 36
0.0
 17
0.0
 27
1.0
 37
0.0
 76
     0
330
23
  0
LAYOUT
  5
22
102
{ACAD_REACTORS
330
1A
102
}
330
1A
100
AcDbPlotSettings
  1

  2
none_device
  4

  6

 40
0.0
 41
0.0
 42
0.0
 43
0.0
 44
0.0
 45
0.0
 46
0.0
 47
0.0
 48
0.0
 49
0.0
140
0.0
141
0.0
142
1.0
143
1.0
 70
  1712
 72
     0
 73
     0
 74
     0
  7

 75
     0
147
1.0
148
0.0
149
0.0
100
AcDbLayout
  1
Model
 70
     1
 71
     0
 10
0.0
 20
0.0
 11
12.0
 21
9.0
 12
0.0
 22
0.0
 32
0.0
 14
50.049225
 24
12.670288
 34
0.0
 15
446.329498
 25
467.084351
 35
0.0
146
0.0
 13
0.0
 23
0.0
 33
0.0
 16
1.0
 26
0.0
 36
0.0
 17
0.0
 27
1.0
 37
0.0
 76
     0
330
1F
331
29
  0
MLINESTYLE
  5
18
102
{ACAD_REACTORS
330
17
102
}
330
17
100
AcDbMlineStyle
  2
Standard
 70
     0
  3

 62
   256
 51
90.0
 52
90.0
 71
     2
 49
0.5
 62
   256
  6
BYLAYER
 49
-0.5
 62
   256
  6
BYLAYER
  0
ACDBPLACEHOLDER
  5
F
102
{ACAD_REACTORS
330
E
102
}
330
E
  0
SCALE
  5
3C
102
{ACAD_REACTORS
330
3B
102
}
330
3B
100
AcDbScale
 70
     0
300
1:1
140
1.0
141
1.0
290
     1
  0
SCALE
  5
3D
102
{ACAD_REACTORS
330
3B
102
}
330
3B
100
AcDbScale
 70
     0
300
1:2
140
1.0
141
2.0
290
     0
  0
SCALE
  5
3E
102
{ACAD_REACTORS
330
3B
102
}
330
3B
100
AcDbScale
 70
     0
300
1:4
140
1.0
141
4.0
290
     0
  0
SCALE
  5
3F
102
{ACAD_REACTORS
330
3B
102
}
330
3B
100
AcDbScale
 70
     0
300
1:5
140
1.0
141
5.0
290
     0
  0
SCALE
  5
40
102
{ACAD_REACTORS
330
3B
102
}
330
3B
100
AcDbScale
 70
     0
300
1:8
140
1.0
141
8.0
290
     0
  0
SCALE
  5
41
102
{ACAD_REACTORS
330
3B
102
}
330
3B
100
AcDbScale
 70
     0
300
1:10
140
1.0
141
10.0
290
     0
  0
SCALE
  5
42
102
{ACAD_REACTORS
330
3B
102
}
330
3B
100
AcDbScale
 70
     0
300
1:16
140
1.0
141
16.0
290
     0
  0
SCALE
  5
43
102
{ACAD_REACTORS
330
3B
102
}
330
3B
100
AcDbScale
 70
     0
300
1:20
140
1.0
141
20.0
290
     0
  0
SCALE
  5
44
102
{ACAD_REACTORS
330
3B
102
}
330
3B
100
AcDbScale
 70
     0
300
1:30
140
1.0
141
30.0
290
     0
  0
SCALE
  5
45
102
{ACAD_REACTORS
330
3B
102
}
330
3B
100
AcDbScale
 70
     0
300
1:40
140
1.0
141
40.0
290
     0
  0
SCALE
  5
46
102
{ACAD_REACTORS
330
3B
102
}
330
3B
100
AcDbScale
 70
     0
300
1:50
140
1.0
141
50.0
290
     0
  0
SCALE
  5
47
102
{ACAD_REACTORS
330
3B
102
}
330
3B
100
AcDbScale
 70
     0
300
1:100
140
1.0
141
100.0
290
     0
  0
SCALE
  5
48
102
{ACAD_REACTORS
330
3B
102
}
330
3B
100
AcDbScale
 70
     0
300
2:1
140
2.0
141
1.0
290
     0
  0
SCALE
  5
49
102
{ACAD_REACTORS
330
3B
102
}
330
3B
100
AcDbScale
 70
     0
300
4:1
140
4.0
141
1.0
290
     0
  0
SCALE
  5
4A
102
{ACAD_REACTORS
330
3B
102
}
330
3B
100
AcDbScale
 70
     0
300
8:1
140
8.0
141
1.0
290
     0
  0
SCALE
  5
4B
102
{ACAD_REACTORS
330
3B
102
}
330
3B
100
AcDbScale
 70
     0
300
10:1
140
10.0
141
1.0
290
     0
  0
SCALE
  5
4C
102
{ACAD_REACTORS
330
3B
102
}
330
3B
100
AcDbScale
 70
     0
300
100:1
140
100.0
141
1.0
290
     0
  0
SCALE
  5
4D
102
{ACAD_REACTORS
330
3B
102
}
330
3B
100
AcDbScale
 70
     0
300
1/128" = 1'-0"
140
0.007812
141
12.0
290
     0
  0
SCALE
  5
4E
102
{ACAD_REACTORS
330
3B
102
}
330
3B
100
AcDbScale
 70
     0
300
1/64" = 1'-0"
140
0.015625
141
12.0
290
     0
  0
SCALE
  5
4F
102
{ACAD_REACTORS
330
3B
102
}
330
3B
100
AcDbScale
 70
     0
300
1/32" = 1'-0"
140
0.03125
141
12.0
290
     0
  0
SCALE
  5
50
102
{ACAD_REACTORS
330
3B
102
}
330
3B
100
AcDbScale
 70
     0
300
1/16" = 1'-0"
140
0.0625
141
12.0
290
     0
  0
SCALE
  5
51
102
{ACAD_REACTORS
330
3B
102
}
330
3B
100
AcDbScale
 70
     0
300
3/32" = 1'-0"
140
0.09375
141
12.0
290
     0
  0
SCALE
  5
52
102
{ACAD_REACTORS
330
3B
102
}
330
3B
100
AcDbScale
 70
     0
300
1/8" = 1'-0"
140
0.125
141
12.0
290
     0
  0
SCALE
  5
53
102
{ACAD_REACTORS
330
3B
102
}
330
3B
100
AcDbScale
 70
     0
300
3/16" = 1'-0"
140
0.1875
141
12.0
290
     0
  0
SCALE
  5
54
102
{ACAD_REACTORS
330
3B
102
}
330
3B
100
AcDbScale
 70
     0
300
1/4" = 1'-0"
140
0.25
141
12.0
290
     0
  0
SCALE
  5
55
102
{ACAD_REACTORS
330
3B
102
}
330
3B
100
AcDbScale
 70
     0
300
3/8" = 1'-0"
140
0.375
141
12.0
290
     0
  0
SCALE
  5
56
102
{ACAD_REACTORS
330
3B
102
}
330
3B
100
AcDbScale
 70
     0
300
1/2" = 1'-0"
140
0.5
141
12.0
290
     0
  0
SCALE
  5
57
102
{ACAD_REACTORS
330
3B
102
}
330
3B
100
AcDbScale
 70
     0
300
3/4" = 1'-0"
140
0.75
141
12.0
290
     0
  0
SCALE
  5
58
102
{ACAD_REACTORS
330
3B
102
}
330
3B
100
AcDbScale
 70
     0
300
1" = 1'-0"
140
1.0
141
12.0
290
     0
  0
SCALE
  5
59
102
{ACAD_REACTORS
330
3B
102
}
330
3B
100
AcDbScale
 70
     0
300
1-1/2" = 1'-0"
140
1.5
141
12.0
290
     0
  0
SCALE
  5
5A
102
{ACAD_REACTORS
330
3B
102
}
330
3B
100
AcDbScale
 70
     0
300
3" = 1'-0"
140
3.0
141
12.0
290
     0
  0
SCALE
  5
5B
102
{ACAD_REACTORS
330
3B
102
}
330
3B
100
AcDbScale
 70
     0
300
6" = 1'-0"
140
6.0
141
12.0
290
     0
  0
SCALE
  5
5C
102
{ACAD_REACTORS
330
3B
102
}
330
3B
100
AcDbScale
 70
     0
300
1'-0" = 1'-0"
140
12.0
141
12.0
290
     0
  0
VISUALSTYLE
  5
2F
102
{ACAD_REACTORS
330
2A
102
}
330
2A
100
AcDbVisualStyle
  2
2dWireframe
 70
     4
 71
     0
 72
     2
 73
     0
 90
        0
 40
-0.6
 41
-30.0
 62
     5
 63
     7
 74
     1
 91
        4
 64
     7
 65
   257
 75
     1
175
     1
 42
1.0
 92
        0
 66
   257
 43
1.0
 76
     1
 77
     6
 78
     2
 67
     7
 79
     5
170
     0
171
     0
290
     0
174
     0
 93
        1
 44
0.0
173
     0
291
     0
 45
0.0
1001
ACAD
1000
AcDbSavedByObjectVersion
1070
     0
  0
VISUALSTYLE
  5
31
102
{ACAD_REACTORS
330
2A
102
}
330
2A
100
AcDbVisualStyle
  2
3D Hidden
 70
     6
 71
     1
 72
     2
 73
     2
 90
        0
 40
-0.6
 41
-30.0
 62
     5
 63
     7
 74
     2
 91
        2
 64
     7
 65
   257
 75
     2
175
     1
 42
40.0
 92
        0
 66
   257
 43
1.0
 76
     1
 77
     6
 78
     2
 67
     7
 79
     3
170
     0
171
     0
290
     0
174
     0
 93
        1
 44
0.0
173
     0
291
     0
 45
0.0
1001
ACAD
1000
AcDbSavedByObjectVersion
1070
     0
  0
VISUALSTYLE
  5
30
102
{ACAD_REACTORS
330
2A
102
}
330
2A
100
AcDbVisualStyle
  2
3dWireframe
 70
     5
 71
     0
 72
     2
 73
     0
 90
        0
 40
-0.6
 41
-30.0
 62
     5
 63
     7
 74
     1
 91
        4
 64
     7
 65
   257
 75
     1
175
     1
 42
1.0
 92
        0
 66
   257
 43
1.0
 76
     1
 77
     6
 78
     2
 67
     7
 79
     5
170
     0
171
     0
290
     0
174
     0
 93
        1
 44
0.0
173
     0
291
     0
 45
0.0
1001
ACAD
1000
AcDbSavedByObjectVersion
1070
     0
  0
VISUALSTYLE
  5
32
102
{ACAD_REACTORS
330
2A
102
}
330
2A
100
AcDbVisualStyle
  2
Basic
 70
     7
 71
     1
 72
     0
 73
     1
 90
        0
 40
-0.6
 41
-30.0
 62
     5
 63
     7
 74
     0
 91
        4
 64
     7
 65
   257
 75
     1
175
     1
 42
1.0
 92
        8
 66
     7
 43
1.0
 76
     1
 77
     6
 78
     2
 67
     7
 79
     5
170
     0
171
     0
290
     0
174
     0
 93
        1
 44
0.0
173
     0
291
     1
 45
0.0
1001
ACAD
1000
AcDbSavedByObjectVersion
1070
     0
  0
VISUALSTYLE
  5
36
102
{ACAD_REACTORS
330
2A
102
}
330
2A
100
AcDbVisualStyle
  2
Brighten
 70
    12
 71
     2
 72
     2
 73
     0
 90
        0
 40
-0.6
 41
-30.0
 62
     5
 63
     7
 74
     1
 91
        4
 64
     7
 65
   257
 75
     1
175
     1
 42
1.0
 92
        8
 66
     7
 43
1.0
 76
     1
 77
     6
 78
     2
 67
     7
 79
     5
170
     0
171
     0
290
     0
174
     0
 93
        1
 44
50.0
173
     0
291
     1
 45
0.0
1001
ACAD
1000
AcDbSavedByObjectVersion
1070
     0
  0
VISUALSTYLE
  5
3A
102
{ACAD_REACTORS
330
2A
102
}
330
2A
100
AcDbVisualStyle
  2
ColorChange
 70
    16
 71
     2
 72
     2
 73
     3
 90
        0
 40
-0.6
 41
-30.0
 62
     5
 63
     8
 74
     1
 91
        4
 64
     7
 65
   257
 75
     1
175
     1
 42
1.0
 92
        8
 66
     8
 43
1.0
 76
     1
 77
     6
 78
     2
 67
     7
 79
     5
170
     0
171
     0
290
     0
174
     0
 93
        1
 44
0.0
173
     0
291
     1
 45
0.0
1001
ACAD
1000
AcDbSavedByObjectVersion
1070
     0
  0
VISUALSTYLE
  5
34
102
{ACAD_REACTORS
330
2A
102
}
330
2A
100
AcDbVisualStyle
  2
Conceptual
 70
     9
 71
     3
 72
     2
 73
     0
 90
        0
 40
-0.6
 41
-30.0
 62
     5
 63
     7
 74
     2
 91
        2
 64
     7
 65
   257
 75
     1
175
     1
 42
40.0
 92
        8
 66
     7
 43
1.0
 76
     1
 77
     6
 78
     2
 67
     7
 79
     3
170
     0
171
     0
290
     0
174
     0
 93
        1
 44
0.0
173
     0
291
     0
 45
0.0
1001
ACAD
1000
AcDbSavedByObjectVersion
1070
     0
  0
VISUALSTYLE
  5
35
102
{ACAD_REACTORS
330
2A
102
}
330
2A
100
AcDbVisualStyle
  2
Dim
 70
    11
 71
     2
 72
     2
 73
     0
 90
        0
 40
-0.6
 41
-30.0
 62
     5
 63
     7
 74
     1
 91
        4
 64
     7
 65
   257
 75
     1
175
     1
 42
1.0
 92
        8
 66
     7
 43
1.0
 76
     1
 77
     6
 78
     2
 67
     7
 79
     5
170
     0
171
     0
290
     0
174
     0
 93
        1
 44
-50.0
173
     0
291
     1
 45
0.0
1001
ACAD
1000
AcDbSavedByObjectVersion
1070
     0
  0
VISUALSTYLE
  5
39
102
{ACAD_REACTORS
330
2A
102
}
330
2A
100
AcDbVisualStyle
  2
Facepattern
 70
    15
 71
     2
 72
     2
 73
     0
 90
        0
 40
-0.6
 41
-30.0
 62
     5
 63
     7
 74
     1
 91
        4
 64
     7
 65
   257
 75
     1
175
     1
 42
1.0
 92
        8
 66
     7
 43
1.0
 76
     1
 77
     6
 78
     2
 67
     7
 79
     5
170
     0
171
     0
290
     0
174
     0
 93
        1
 44
0.0
173
     0
291
     1
 45
0.0
1001
ACAD
1000
AcDbSavedByObjectVersion
1070
     0
  0
VISUALSTYLE
  5
2B
102
{ACAD_REACTORS
330
2A
102
}
330
2A
100
AcDbVisualStyle
  2
Flat
 70
     0
 71
     2
 72
     1
 73
     1
 90
        2
 40
-0.6
 41
30.0
 62
     5
 63
     7
 74
     0
 91
        4
 64
     7
 65
   257
 75
     1
175
     1
 42
1.0
 92
        8
 66
     7
 43
1.0
 76
     1
 77
     6
 78
     2
 67
     7
 79
     5
170
     0
171
     0
290
     0
174
     0
 93
       13
 44
0.0
173
     0
291
     1
 45
0.0
1001
ACAD
1000
AcDbSavedByObjectVersion
1070
     0
  0
VISUALSTYLE
  5
2C
102
{ACAD_REACTORS
330
2A
102
}
330
2A
100
AcDbVisualStyle
  2
FlatWithEdges
 70
     1
 71
     2
 72
     1
 73
     1
 90
        2
 40
-0.6
 41
30.0
 62
     5
 63
     7
 74
     1
 91
        4
 64
     7
 65
   257
 75
     1
175
     1
 42
1.0
 92
        0
 66
   257
 43
1.0
 76
     1
 77
     6
 78
     2
 67
     7
 79
     5
170
     0
171
     0
290
     0
174
     0
 93
       13
 44
0.0
173
     0
291
     1
 45
0.0
1001
ACAD
1000
AcDbSavedByObjectVersion
1070
     0
  0
VISUALSTYLE
  5
2D
102
{ACAD_REACTORS
330
2A
102
}
330
2A
100
AcDbVisualStyle
  2
Gouraud
 70
     2
 71
     2
 72
     2
 73
     1
 90
        2
 40
-0.6
 41
30.0
 62
     5
 63
     7
 74
     0
 91
        4
 64
     7
 65
   257
 75
     1
175
     1
 42
1.0
 92
        0
 66
     7
 43
1.0
 76
     1
 77
     6
 78
     2
 67
     7
 79
     5
170
     0
171
     0
290
     0
174
     0
 93
       13
 44
0.0
173
     0
291
     1
 45
0.0
1001
ACAD
1000
AcDbSavedByObjectVersion
1070
     0
  0
VISUALSTYLE
  5
2E
102
{ACAD_REACTORS
330
2A
102
}
330
2A
100
AcDbVisualStyle
  2
GouraudWithEdges
 70
     3
 71
     2
 72
     2
 73
     1
 90
        2
 40
-0.6
 41
30.0
 62
     5
 63
     7
 74
     1
 91
        4
 64
     7
 65
   257
 75
     1
175
     1
 42
1.0
 92
        0
 66
   257
 43
1.0
 76
     1
 77
     6
 78
     2
 67
     7
 79
     5
170
     0
171
     0
290
     0
174
     0
 93
       13
 44
0.0
173
     0
291
     1
 45
0.0
1001
ACAD
1000
AcDbSavedByObjectVersion
1070
     0
  0
VISUALSTYLE
  5
38
102
{ACAD_REACTORS
330
2A
102
}
330
2A
100
AcDbVisualStyle
  2
Linepattern
 70
    14
 71
     2
 72
     2
 73
     0
 90
        0
 40
-0.6
 41
-30.0
 62
     5
 63
     7
 74
     1
 91
        4
 64
     7
 65
   257
 75
     7
175
     7
 42
1.0
 92
        8
 66
     7
 43
1.0
 76
     1
 77
     6
 78
     2
 67
     7
 79
     5
170
     0
171
     0
290
     0
174
     0
 93
        1
 44
0.0
173
     0
291
     1
 45
0.0
1001
ACAD
1000
AcDbSavedByObjectVersion
1070
     0
  0
VISUALSTYLE
  5
33
102
{ACAD_REACTORS
330
2A
102
}
330
2A
100
AcDbVisualStyle
  2
Realistic
 70
     8
 71
     2
 72
     2
 73
     0
 90
        0
 40
-0.6
 41
-30.0
 62
     5
 63
     7
 74
     1
 91
        0
 64
     7
 65
   257
 75
     1
175
     1
 42
1.0
 92
        8
 66
     8
 43
1.0
 76
     1
 77
     6
 78
     2
 67
     7
 79
     5
170
     0
171
     0
290
     0
174
     0
 93
       13
 44
0.0
173
     0
291
     0
 45
0.0
1001
ACAD
1000
AcDbSavedByObjectVersion
1070
     0
  0
VISUALSTYLE
  5
37
102
{ACAD_REACTORS
330
2A
102
}
330
2A
100
AcDbVisualStyle
  2
Thicken
 70
    13
 71
     2
 72
     2
 73
     0
 90
        0
 40
-0.6
 41
-30.0
 62
     5
 63
     7
 74
     1
 91
        4
 64
     7
 65
   257
 75
     1
175
     1
 42
1.0
 92
       12
 66
     7
 43
1.0
 76
     1
 77
     6
 78
     2
 67
     7
 79
     5
170
     0
171
     0
290
     0
174
     0
 93
        1
 44
0.0
173
     0
291
     1
 45
0.0
1001
ACAD
1000
AcDbSavedByObjectVersion
1070
     0
  0
DICTIONARYVAR
  5
5FD
102
{ACAD_REACTORS
330
5FC
102
}
330
5FC
100
DictionaryVariables
280
     0
  1
1:1
  0
DICTIONARYVAR
  5
601
102
{ACAD_REACTORS
330
5FC
102
}
330
5FC
100
DictionaryVariables
280
     0
  1
80.000000
  0
DICTIONARYVAR
  5
600
102
{ACAD_REACTORS
330
5FC
102
}
330
5FC
100
DictionaryVariables
280
     0
  1
5.000000
  0
ENDSEC
  0
EOF
