  0
SECTION
  2
HEADER
  9
$ACADVER
  1
AC1015
  9
$ACADMAINTVER
 70
     6
  9
$DWGCODEPAGE
  3
ANSI_932
  9
$INSBASE
 10
0.0
 20
0.0
 30
0.0
  9
$EXTMIN
 10
8.204239
 20
-5.657715
 30
0.0
  9
$EXTMAX
 10
225.695953
 20
445.885437
 30
0.0
  9
$LIMMIN
 10
0.0
 20
0.0
  9
$LIMMAX
 10
12.0
 20
9.0
  9
$ORTHOMODE
 70
     0
  9
$REGENMODE
 70
     1
  9
$FILLMODE
 70
     1
  9
$QTEXTMODE
 70
     0
  9
$MIRRTEXT
 70
     1
  9
$LTSCALE
 40
5.011924
  9
$ATTMODE
 70
     1
  9
$TEXTSIZE
 40
3.2
  9
$TRACEWID
 40
1.0
  9
$TEXTSTYLE
  7
Standard
  9
$CLAYER
  8
0
  9
$CELTYPE
  6
ByLayer
  9
$CECOLOR
 62
   256
  9
$CELTSCALE
 40
1.0
  9
$DISPSILH
 70
     0
  9
$DIMSCALE
 40
1.0
  9
$DIMASZ
 40
2.5
  9
$DIMEXO
 40
0.625
  9
$DIMDLI
 40
3.75
  9
$DIMRND
 40
0.0
  9
$DIMDLE
 40
0.0
  9
$DIMEXE
 40
1.25
  9
$DIMTP
 40
0.0
  9
$DIMTM
 40
0.0
  9
$DIMTXT
 40
2.5
  9
$DIMCEN
 40
0.09
  9
$DIMTSZ
 40
0.0
  9
$DIMTOL
 70
     0
  9
$DIMLIM
 70
     0
  9
$DIMTIH
 70
     0
  9
$DIMTOH
 70
     0
  9
$DIMSE1
 70
     0
  9
$DIMSE2
 70
     0
  9
$DIMTAD
 70
     0
  9
$DIMZIN
 70
     8
  9
$DIMBLK
  1

  9
$DIMASO
 70
     1
  9
$DIMSHO
 70
     0
  9
$DIMPOST
  1

  9
$DIMAPOST
  1

  9
$DIMALT
 70
     0
  9
$DIMALTD
 70
     3
  9
$DIMALTF
 40
0.03937
  9
$DIMLFAC
 40
1.0
  9
$DIMTOFL
 70
     1
  9
$DIMTVP
 40
0.0
  9
$DIMTIX
 70
     0
  9
$DIMSOXD
 70
     0
  9
$DIMSAH
 70
     0
  9
$DIMBLK1
  1

  9
$DIMBLK2
  1

  9
$DIMSTYLE
  2
ISO-25
  9
$DIMCLRD
 70
     0
  9
$DIMCLRE
 70
     0
  9
$DIMCLRT
 70
     0
  9
$DIMTFAC
 40
1.0
  9
$DIMGAP
 40
0.625
  9
$DIMJUST
 70
     0
  9
$DIMSD1
 70
     0
  9
$DIMSD2
 70
     0
  9
$DIMTOLJ
 70
     0
  9
$DIMTZIN
 70
     8
  9
$DIMALTZ
 70
     0
  9
$DIMALTTZ
 70
     0
  9
$DIMUPT
 70
     0
  9
$DIMDEC
 70
     2
  9
$DIMTDEC
 70
     2
  9
$DIMALTU
 70
     2
  9
$DIMALTTD
 70
     3
  9
$DIMTXSTY
  7
Standard
  9
$DIMAUNIT
 70
     0
  9
$DIMADEC
 70
     0
  9
$DIMALTRND
 40
0.0
  9
$DIMAZIN
 70
     0
  9
$DIMDSEP
 70
    44
  9
$DIMATFIT
 70
     3
  9
$DIMFRAC
 70
     0
  9
$DIMLDRBLK
  1

  9
$DIMLUNIT
 70
     2
  9
$DIMLWD
 70
    -2
  9
$DIMLWE
 70
    -2
  9
$DIMTMOVE
 70
     0
  9
$LUNITS
 70
     2
  9
$LUPREC
 70
     4
  9
$SKETCHINC
 40
1.0
  9
$FILLETRAD
 40
0.0
  9
$AUNITS
 70
     0
  9
$AUPREC
 70
     0
  9
$MENU
  1
.
  9
$ELEVATION
 40
0.0
  9
$PELEVATION
 40
0.0
  9
$THICKNESS
 40
0.0
  9
$LIMCHECK
 70
     0
  9
$CHAMFERA
 40
10.0
  9
$CHAMFERB
 40
10.0
  9
$CHAMFERC
 40
20.0
  9
$CHAMFERD
 40
0.0
  9
$SKPOLY
 70
     0
  9
$TDCREATE
 40
2454734.488085567
  9
$TDUCREATE
 40
2454734.113085567
  9
$TDUPDATE
 40
2454734.488085579
  9
$TDUUPDATE
 40
2454734.113085579
  9
$TDINDWG
 40
0.0000000116
  9
$TDUSRTIMER
 40
0.0000000116
  9
$USRTIMER
 70
     1
  9
$ANGBASE
 50
0.0
  9
$ANGDIR
 70
     0
  9
$PDMODE
 70
     0
  9
$PDSIZE
 40
0.0
  9
$PLINEWID
 40
0.0
  9
$SPLFRAME
 70
     0
  9
$SPLINETYPE
 70
     6
  9
$SPLINESEGS
 70
     8
  9
$HANDSEED
  5
52B
  9
$SURFTAB1
 70
     6
  9
$SURFTAB2
 70
     6
  9
$SURFTYPE
 70
     6
  9
$SURFU
 70
     6
  9
$SURFV
 70
     6
  9
$UCSBASE
  2

  9
$UCSNAME
  2

  9
$UCSORG
 10
0.0
 20
0.0
 30
0.0
  9
$UCSXDIR
 10
1.0
 20
0.0
 30
0.0
  9
$UCSYDIR
 10
0.0
 20
1.0
 30
0.0
  9
$UCSORTHOREF
  2

  9
$UCSORTHOVIEW
 70
     0
  9
$UCSORGTOP
 10
0.0
 20
0.0
 30
0.0
  9
$UCSORGBOTTOM
 10
0.0
 20
0.0
 30
0.0
  9
$UCSORGLEFT
 10
0.0
 20
0.0
 30
0.0
  9
$UCSORGRIGHT
 10
0.0
 20
0.0
 30
0.0
  9
$UCSORGFRONT
 10
0.0
 20
0.0
 30
0.0
  9
$UCSORGBACK
 10
0.0
 20
0.0
 30
0.0
  9
$PUCSBASE
  2

  9
$PUCSNAME
  2

  9
$PUCSORG
 10
0.0
 20
0.0
 30
0.0
  9
$PUCSXDIR
 10
1.0
 20
0.0
 30
0.0
  9
$PUCSYDIR
 10
0.0
 20
1.0
 30
0.0
  9
$PUCSORTHOREF
  2

  9
$PUCSORTHOVIEW
 70
     0
  9
$PUCSORGTOP
 10
0.0
 20
0.0
 30
0.0
  9
$PUCSORGBOTTOM
 10
0.0
 20
0.0
 30
0.0
  9
$PUCSORGLEFT
 10
0.0
 20
0.0
 30
0.0
  9
$PUCSORGRIGHT
 10
0.0
 20
0.0
 30
0.0
  9
$PUCSORGFRONT
 10
0.0
 20
0.0
 30
0.0
  9
$PUCSORGBACK
 10
0.0
 20
0.0
 30
0.0
  9
$USERI1
 70
     0
  9
$USERI2
 70
     0
  9
$USERI3
 70
     0
  9
$USERI4
 70
     0
  9
$USERI5
 70
     0
  9
$USERR1
 40
0.0
  9
$USERR2
 40
0.0
  9
$USERR3
 40
0.0
  9
$USERR4
 40
0.0
  9
$USERR5
 40
0.0
  9
$WORLDVIEW
 70
     1
  9
$SHADEDGE
 70
     3
  9
$SHADEDIF
 70
    70
  9
$TILEMODE
 70
     1
  9
$MAXACTVP
 70
    64
  9
$PINSBASE
 10
0.0
 20
0.0
 30
0.0
  9
$PLIMCHECK
 70
     0
  9
$PEXTMIN
 10
1.000000E+20
 20
1.000000E+20
 30
0.0
  9
$PEXTMAX
 10
-1.000000E+20
 20
-1.000000E+20
 30
0.0
  9
$PLIMMIN
 10
0.0
 20
0.0
  9
$PLIMMAX
 10
12.0
 20
9.0
  9
$UNITMODE
 70
     0
  9
$VISRETAIN
 70
     1
  9
$PLINEGEN
 70
     0
  9
$PSLTSCALE
 70
     1
  9
$TREEDEPTH
 70
  3020
  9
$CMLSTYLE
  2
Standard
  9
$CMLJUST
 70
     0
  9
$CMLSCALE
 40
20.0
  9
$PROXYGRAPHICS
 70
     1
  9
$MEASUREMENT
 70
     1
  9
$CELWEIGHT
370
    -1
  9
$ENDCAPS
280
     0
  9
$JOINSTYLE
280
     0
  9
$LWDISPLAY
290
     0
  9
$INSUNITS
 70
     4
  9
$HYPERLINKBASE
  1

  9
$STYLESHEET
  1

  9
$XEDIT
290
     1
  9
$CEPSNTYPE
380
     0
  9
$PSTYLEMODE
290
     1
  9
$FINGERPRINTGUID
  2
{50CFA5BF-E9CA-4266-B4DA-35D2A57080DE}
  9
$VERSIONGUID
  2
{FAEB1C32-E019-11D5-929B-00C0DF256EC4}
  9
$EXTNAMES
290
     1
  9
$PSVPSCALE
 40
0.0
  9
$OLESTARTUP
290
     0
  0
ENDSEC
  0
SECTION
  2
CLASSES
  0
CLASS
  1
ACDBDICTIONARYWDFLT
  2
AcDbDictionaryWithDefault
  3
ObjectDBX Classes
 90
        0
280
     0
281
     0
  0
CLASS
  1
VISUALSTYLE
  2
AcDbVisualStyle
  3
ObjectDBX Classes
 90
     4095
280
     0
281
     0
  0
CLASS
  1
SCALE
  2
AcDbScale
  3
ObjectDBX Classes
 90
     1153
280
     0
281
     0
  0
CLASS
  1
DICTIONARYVAR
  2
AcDbDictionaryVar
  3
ObjectDBX Classes
 90
        0
280
     0
281
     0
  0
CLASS
  1
ACDBPLACEHOLDER
  2
AcDbPlaceHolder
  3
ObjectDBX Classes
 90
        0
280
     0
281
     0
  0
CLASS
  1
LAYOUT
  2
AcDbLayout
  3
ObjectDBX Classes
 90
        0
280
     0
281
     0
  0
ENDSEC
  0
SECTION
  2
TABLES
  0
TABLE
  2
VPORT
  5
8
330
0
100
AcDbSymbolTable
 70
     1
  0
VPORT
  5
29
330
8
100
AcDbSymbolTableRecord
100
AcDbViewportTableRecord
  2
*Active
 70
     0
 10
0.0
 20
0.0
 11
1.0
 21
1.0
 12
116.950096
 22
220.113861
 13
0.0
 23
0.0
 14
1.0
 24
1.0
 15
0.0
 25
0.0
 16
0.0
 26
0.0
 36
1.0
 17
0.0
 27
0.0
 37
0.0
 40
456.058583
 41
1.691288
 42
50.0
 43
0.0
 44
0.0
 50
0.0
 51
0.0
 71
     0
 72
   100
 73
     1
 74
     3
 75
     0
 76
     0
 77
     0
 78
     0
281
     0
 65
     1
110
0.0
120
0.0
130
0.0
111
1.0
121
0.0
131
0.0
112
0.0
122
1.0
132
0.0
 79
     0
146
0.0
  0
ENDTAB
  0
TABLE
  2
LTYPE
  5
5
330
0
100
AcDbSymbolTable
 70
     5
  0
LTYPE
  5
14
330
5
100
AcDbSymbolTableRecord
100
AcDbLinetypeTableRecord
  2
ByBlock
 70
     0
  3

 72
    65
 73
     0
 40
0.0
  0
LTYPE
  5
15
330
5
100
AcDbSymbolTableRecord
100
AcDbLinetypeTableRecord
  2
ByLayer
 70
     0
  3

 72
    65
 73
     0
 40
0.0
  0
LTYPE
  5
16
330
5
100
AcDbSymbolTableRecord
100
AcDbLinetypeTableRecord
  2
Continuous
 70
     0
  3
Solid line
 72
    65
 73
     0
 40
0.0
  0
LTYPE
  5
5D
330
5
100
AcDbSymbolTableRecord
100
AcDbLinetypeTableRecord
  2
DASHED
 70
     0
  3
DASHED
 72
    83
 73
     2
 40
0.75
 49
0.5
 74
     0
 49
-0.25
 74
     0
  0
LTYPE
  5
5E
330
5
100
AcDbSymbolTableRecord
100
AcDbLinetypeTableRecord
  2
HIDDEN
 70
     0
  3
HIDDEN
 72
    83
 73
     2
 40
0.375
 49
0.25
 74
     0
 49
-0.125
 74
     0
  0
LTYPE
  5
5F
330
5
100
AcDbSymbolTableRecord
100
AcDbLinetypeTableRecord
  2
CENTER
 70
     0
  3
CENTER
 72
    83
 73
     4
 40
2.0
 49
1.25
 74
     0
 49
-0.25
 74
     0
 49
0.25
 74
     0
 49
-0.25
 74
     0
  0
LTYPE
  5
60
330
5
100
AcDbSymbolTableRecord
100
AcDbLinetypeTableRecord
  2
PHANTOM
 70
     0
  3
PHANTOM
 72
    83
 73
     6
 40
2.5
 49
1.25
 74
     0
 49
-0.25
 74
     0
 49
0.25
 74
     0
 49
-0.25
 74
     0
 49
0.25
 74
     0
 49
-0.25
 74
     0
  0
ENDTAB
  0
TABLE
  2
LAYER
  5
2
330
0
100
AcDbSymbolTable
 70
     2
  0
LAYER
  5
10
330
2
100
AcDbSymbolTableRecord
100
AcDbLayerTableRecord
  2
0
 70
     0
 62
     7
  6
Continuous
370
    -3
390
F
  0
LAYER
  5
61
330
2
100
AcDbSymbolTableRecord
100
AcDbLayerTableRecord
  2
001
 70
     0
 62
     7
  6
Continuous
370
    -3
390
F
  0
ENDTAB
  0
TABLE
  2
STYLE
  5
3
330
0
100
AcDbSymbolTable
 70
     2
  0
STYLE
  5
11
330
3
100
AcDbSymbolTableRecord
100
AcDbTextStyleTableRecord
  2
Standard
 70
     0
 40
0.0
 41
1.0
 50
0.0
 71
     0
 42
0.2
  3
TXT
  4
BIGFONT
  0
STYLE
  5
62
330
3
100
AcDbSymbolTableRecord
100
AcDbTextStyleTableRecord
  2
TATEGAKI
 70
     4
 40
1.0
 41
1.0
 50
0.0
 71
     0
 42
0.2
  3
TXT
  4
BIGFONT
  0
ENDTAB
  0
TABLE
  2
VIEW
  5
6
330
0
100
AcDbSymbolTable
 70
     0
  0
ENDTAB
  0
TABLE
  2
UCS
  5
7
330
0
100
AcDbSymbolTable
 70
     0
  0
ENDTAB
  0
TABLE
  2
APPID
  5
9
330
0
100
AcDbSymbolTable
 70
     1
  0
APPID
  5
12
330
9
100
AcDbSymbolTableRecord
100
AcDbRegAppTableRecord
  2
ACAD
 70
     0
  0
ENDTAB
  0
TABLE
  2
DIMSTYLE
  5
A
330
0
100
AcDbSymbolTable
 70
     2
100
AcDbDimStyleTable
  0
DIMSTYLE
105
27
330
A
100
AcDbSymbolTableRecord
100
AcDbDimStyleTableRecord
  2
ISO-25
 70
     0
 41
2.5
 42
0.625
 43
3.75
 44
1.25
 73
     0
 74
     0
 77
     1
 78
     8
140
2.5
141
2.5
143
0.03937
147
0.625
171
     3
172
     1
271
     2
272
     2
274
     3
278
    44
283
     0
284
     8
340
11
  0
DIMSTYLE
105
63
102
{ACAD_REACTORS
330
27B
330
27C
330
27D
330
28B
330
28C
330
28D
330
28E
330
28F
330
291
330
292
330
2B7
330
2B8
330
2B9
330
2BA
330
2BB
330
2BC
330
2D5
330
2D7
330
2D8
330
2D9
330
2DA
330
2E7
330
2F4
330
2F5
102
}
330
A
100
AcDbSymbolTableRecord
100
AcDbDimStyleTableRecord
  2
Standard
 70
     0
 41
1.5
 42
0.0
 44
2.75
 73
     0
 74
     0
 77
     1
 78
     8
 79
     2
140
4.0
146
0.8
147
1.0
172
     1
179
     1
271
     1
340
11
  0
ENDTAB
  0
TABLE
  2
BLOCK_RECORD
  5
1
330
0
100
AcDbSymbolTable
 70
    28
  0
BLOCK_RECORD
  5
1F
330
1
100
AcDbSymbolTableRecord
100
AcDbBlockTableRecord
  2
*Model_Space
340
22
  0
BLOCK_RECORD
  5
1B
330
1
100
AcDbSymbolTableRecord
100
AcDbBlockTableRecord
  2
*Paper_Space
340
1E
  0
BLOCK_RECORD
  5
23
330
1
100
AcDbSymbolTableRecord
100
AcDbBlockTableRecord
  2
*Paper_Space0
340
26
  0
BLOCK_RECORD
  5
64
330
1
100
AcDbSymbolTableRecord
100
AcDbBlockTableRecord
  2
*D1
340
0
  0
BLOCK_RECORD
  5
78
330
1
100
AcDbSymbolTableRecord
100
AcDbBlockTableRecord
  2
*D2
340
0
  0
BLOCK_RECORD
  5
8C
330
1
100
AcDbSymbolTableRecord
100
AcDbBlockTableRecord
  2
*D3
340
0
  0
BLOCK_RECORD
  5
A0
330
1
100
AcDbSymbolTableRecord
100
AcDbBlockTableRecord
  2
DIM-1
340
0
102
{BLKREFS
331
28A
102
}
  0
BLOCK_RECORD
  5
AE
330
1
100
AcDbSymbolTableRecord
100
AcDbBlockTableRecord
  2
*D5
340
0
  0
BLOCK_RECORD
  5
C2
330
1
100
AcDbSymbolTableRecord
100
AcDbBlockTableRecord
  2
*D6
340
0
  0
BLOCK_RECORD
  5
D6
330
1
100
AcDbSymbolTableRecord
100
AcDbBlockTableRecord
  2
*D7
340
0
  0
BLOCK_RECORD
  5
EA
330
1
100
AcDbSymbolTableRecord
100
AcDbBlockTableRecord
  2
*D8
340
0
  0
BLOCK_RECORD
  5
FE
330
1
100
AcDbSymbolTableRecord
100
AcDbBlockTableRecord
  2
*D9
340
0
  0
BLOCK_RECORD
  5
112
330
1
100
AcDbSymbolTableRecord
100
AcDbBlockTableRecord
  2
DIM-2
340
0
102
{BLKREFS
331
290
102
}
  0
BLOCK_RECORD
  5
120
330
1
100
AcDbSymbolTableRecord
100
AcDbBlockTableRecord
  2
*D11
340
0
  0
BLOCK_RECORD
  5
136
330
1
100
AcDbSymbolTableRecord
100
AcDbBlockTableRecord
  2
*D12
340
0
  0
BLOCK_RECORD
  5
14C
330
1
100
AcDbSymbolTableRecord
100
AcDbBlockTableRecord
  2
*D13
340
0
  0
BLOCK_RECORD
  5
161
330
1
100
AcDbSymbolTableRecord
100
AcDbBlockTableRecord
  2
*D14
340
0
  0
BLOCK_RECORD
  5
177
330
1
100
AcDbSymbolTableRecord
100
AcDbBlockTableRecord
  2
*D15
340
0
  0
BLOCK_RECORD
  5
18B
330
1
100
AcDbSymbolTableRecord
100
AcDbBlockTableRecord
  2
*D16
340
0
  0
BLOCK_RECORD
  5
19F
330
1
100
AcDbSymbolTableRecord
100
AcDbBlockTableRecord
  2
*D17
340
0
  0
BLOCK_RECORD
  5
1B3
330
1
100
AcDbSymbolTableRecord
100
AcDbBlockTableRecord
  2
*D18
340
0
  0
BLOCK_RECORD
  5
1C9
330
1
100
AcDbSymbolTableRecord
100
AcDbBlockTableRecord
  2
*D19
340
0
  0
BLOCK_RECORD
  5
1DF
330
1
100
AcDbSymbolTableRecord
100
AcDbBlockTableRecord
  2
DIM-3
340
0
102
{BLKREFS
331
2D6
102
}
  0
BLOCK_RECORD
  5
1ED
330
1
100
AcDbSymbolTableRecord
100
AcDbBlockTableRecord
  2
*D21
340
0
  0
BLOCK_RECORD
  5
201
330
1
100
AcDbSymbolTableRecord
100
AcDbBlockTableRecord
  2
*D22
340
0
  0
BLOCK_RECORD
  5
215
330
1
100
AcDbSymbolTableRecord
100
AcDbBlockTableRecord
  2
*D23
340
0
  0
BLOCK_RECORD
  5
229
330
1
100
AcDbSymbolTableRecord
100
AcDbBlockTableRecord
  2
*D24
340
0
  0
BLOCK_RECORD
  5
23D
330
1
100
AcDbSymbolTableRecord
100
AcDbBlockTableRecord
  2
*D25
340
0
  0
BLOCK_RECORD
  5
251
330
1
100
AcDbSymbolTableRecord
100
AcDbBlockTableRecord
  2
*D26
340
0
  0
BLOCK_RECORD
  5
267
330
1
100
AcDbSymbolTableRecord
100
AcDbBlockTableRecord
  2
*D27
340
0
  0
ENDTAB
  0
ENDSEC
  0
SECTION
  2
BLOCKS
  0
BLOCK
  5
20
330
1F
100
AcDbEntity
  8
0
100
AcDbBlockBegin
  2
*Model_Space
 70
     0
 10
0.0
 20
0.0
 30
0.0
  3
*Model_Space
  1

  0
ENDBLK
  5
21
330
1F
100
AcDbEntity
  8
0
100
AcDbBlockEnd
  0
BLOCK
  5
1C
330
1B
100
AcDbEntity
 67
     1
  8
0
100
AcDbBlockBegin
  2
*Paper_Space
 70
     0
 10
0.0
 20
0.0
 30
0.0
  3
*Paper_Space
  1

  0
ENDBLK
  5
1D
330
1B
100
AcDbEntity
 67
     1
  8
0
100
AcDbBlockEnd
  0
BLOCK
  5
24
330
23
100
AcDbEntity
  8
0
100
AcDbBlockBegin
  2
*Paper_Space0
 70
     0
 10
0.0
 20
0.0
 30
0.0
  3
*Paper_Space0
  1

  0
ENDBLK
  5
25
330
23
100
AcDbEntity
  8
0
100
AcDbBlockEnd
  0
BLOCK
  5
65
330
64
100
AcDbEntity
  8
0
100
AcDbBlockBegin
  2
*D1
 70
     1
 10
0.0
 20
0.0
 30
0.0
  3
*D1
  1

  0
LINE
  5
67
330
64
100
AcDbEntity
  8
001
370
     9
100
AcDbLine
 10
103.834603
 20
272.430384
 30
0.0
 11
103.834603
 21
240.759593
 31
0.0
  0
LINE
  5
68
330
64
100
AcDbEntity
  8
001
370
     9
100
AcDbLine
 10
53.834603
 20
267.253517
 30
0.0
 11
53.834603
 21
240.759593
 31
0.0
  0
LINE
  5
69
330
64
100
AcDbEntity
  8
001
370
     9
100
AcDbLine
 10
103.834603
 20
243.509593
 30
0.0
 11
53.834603
 21
243.509593
 31
0.0
  0
POLYLINE
  5
6A
330
64
100
AcDbEntity
  8
001
370
     9
100
AcDb2dPolyline
 66
     1
 10
0.0
 20
0.0
 30
0.0
  0
VERTEX
  5
6C
330
6A
100
AcDbEntity
  8
001
370
     9
100
AcDbVertex
100
AcDb2dVertex
 10
102.334603
 20
243.911516
 30
0.0
  0
VERTEX
  5
6D
330
6A
100
AcDbEntity
  8
001
370
     9
100
AcDbVertex
100
AcDb2dVertex
 10
103.834603
 20
243.509593
 30
0.0
  0
VERTEX
  5
6E
330
6A
100
AcDbEntity
  8
001
370
     9
100
AcDbVertex
100
AcDb2dVertex
 10
102.334603
 20
243.107669
 30
0.0
  0
SEQEND
  5
6B
330
6A
100
AcDbEntity
  8
001
370
     9
  0
POLYLINE
  5
6F
330
64
100
AcDbEntity
  8
001
370
     9
100
AcDb2dPolyline
 66
     1
 10
0.0
 20
0.0
 30
0.0
  0
VERTEX
  5
71
330
6F
100
AcDbEntity
  8
001
370
     9
100
AcDbVertex
100
AcDb2dVertex
 10
55.334603
 20
243.107669
 30
0.0
  0
VERTEX
  5
72
330
6F
100
AcDbEntity
  8
001
370
     9
100
AcDbVertex
100
AcDb2dVertex
 10
53.834603
 20
243.509593
 30
0.0
  0
VERTEX
  5
73
330
6F
100
AcDbEntity
  8
001
370
     9
100
AcDbVertex
100
AcDb2dVertex
 10
55.334603
 20
243.911516
 30
0.0
  0
SEQEND
  5
70
330
6F
100
AcDbEntity
  8
001
370
     9
  0
TEXT
  5
74
330
64
100
AcDbEntity
  8
001
370
    30
100
AcDbText
 10
74.834603
 20
244.509593
 30
0.0
 40
4.0
  1
５０
 41
0.833333
100
AcDbText
  0
POINT
  5
75
330
64
100
AcDbEntity
  8
001
370
     9
100
AcDbPoint
 10
103.834603
 20
272.430384
 30
0.0
  0
POINT
  5
76
330
64
100
AcDbEntity
  8
001
370
     9
100
AcDbPoint
 10
53.834603
 20
267.253517
 30
0.0
  0
POINT
  5
77
330
64
100
AcDbEntity
  8
001
370
     9
100
AcDbPoint
 10
53.834603
 20
243.509593
 30
0.0
  0
ENDBLK
  5
66
330
64
100
AcDbEntity
  8
0
100
AcDbBlockEnd
  0
BLOCK
  5
79
330
78
100
AcDbEntity
  8
0
100
AcDbBlockBegin
  2
*D2
 70
     1
 10
0.0
 20
0.0
 30
0.0
  3
*D2
  1

  0
LINE
  5
7B
330
78
100
AcDbEntity
  8
001
370
     9
100
AcDbLine
 10
203.834603
 20
274.480384
 30
0.0
 11
203.834603
 21
240.759593
 31
0.0
  0
LINE
  5
7C
330
78
100
AcDbEntity
  8
001
370
     9
100
AcDbLine
 10
103.834603
 20
272.430384
 30
0.0
 11
103.834603
 21
240.759593
 31
0.0
  0
LINE
  5
7D
330
78
100
AcDbEntity
  8
001
370
     9
100
AcDbLine
 10
203.834603
 20
243.509593
 30
0.0
 11
103.834603
 21
243.509593
 31
0.0
  0
POLYLINE
  5
7E
330
78
100
AcDbEntity
  8
001
370
     9
100
AcDb2dPolyline
 66
     1
 10
0.0
 20
0.0
 30
0.0
  0
VERTEX
  5
80
330
7E
100
AcDbEntity
  8
001
370
     9
100
AcDbVertex
100
AcDb2dVertex
 10
202.334603
 20
243.911516
 30
0.0
  0
VERTEX
  5
81
330
7E
100
AcDbEntity
  8
001
370
     9
100
AcDbVertex
100
AcDb2dVertex
 10
203.834603
 20
243.509593
 30
0.0
  0
VERTEX
  5
82
330
7E
100
AcDbEntity
  8
001
370
     9
100
AcDbVertex
100
AcDb2dVertex
 10
202.334603
 20
243.107669
 30
0.0
  0
SEQEND
  5
7F
330
7E
100
AcDbEntity
  8
001
370
     9
  0
POLYLINE
  5
83
330
78
100
AcDbEntity
  8
001
370
     9
100
AcDb2dPolyline
 66
     1
 10
0.0
 20
0.0
 30
0.0
  0
VERTEX
  5
85
330
83
100
AcDbEntity
  8
001
370
     9
100
AcDbVertex
100
AcDb2dVertex
 10
105.334603
 20
243.107669
 30
0.0
  0
VERTEX
  5
86
330
83
100
AcDbEntity
  8
001
370
     9
100
AcDbVertex
100
AcDb2dVertex
 10
103.834603
 20
243.509593
 30
0.0
  0
VERTEX
  5
87
330
83
100
AcDbEntity
  8
001
370
     9
100
AcDbVertex
100
AcDb2dVertex
 10
105.334603
 20
243.911516
 30
0.0
  0
SEQEND
  5
84
330
83
100
AcDbEntity
  8
001
370
     9
  0
TEXT
  5
88
330
78
100
AcDbEntity
  8
001
370
    30
100
AcDbText
 10
147.834603
 20
244.509593
 30
0.0
 40
4.0
  1
１００
 41
0.833333
100
AcDbText
  0
POINT
  5
89
330
78
100
AcDbEntity
  8
001
370
     9
100
AcDbPoint
 10
203.834603
 20
274.480384
 30
0.0
  0
POINT
  5
8A
330
78
100
AcDbEntity
  8
001
370
     9
100
AcDbPoint
 10
103.834603
 20
272.430384
 30
0.0
  0
POINT
  5
8B
330
78
100
AcDbEntity
  8
001
370
     9
100
AcDbPoint
 10
103.834603
 20
243.509593
 30
0.0
  0
ENDBLK
  5
7A
330
78
100
AcDbEntity
  8
0
100
AcDbBlockEnd
  0
BLOCK
  5
8D
330
8C
100
AcDbEntity
  8
0
100
AcDbBlockBegin
  2
*D3
 70
     1
 10
0.0
 20
0.0
 30
0.0
  3
*D3
  1

  0
LINE
  5
8F
330
8C
100
AcDbEntity
  8
001
370
     9
100
AcDbLine
 10
53.834603
 20
267.253517
 30
0.0
 11
53.834603
 21
230.803016
 31
0.0
  0
LINE
  5
90
330
8C
100
AcDbEntity
  8
001
370
     9
100
AcDbLine
 10
203.834603
 20
274.480384
 30
0.0
 11
203.834603
 21
230.803016
 31
0.0
  0
LINE
  5
91
330
8C
100
AcDbEntity
  8
001
370
     9
100
AcDbLine
 10
53.834603
 20
233.553016
 30
0.0
 11
203.834603
 21
233.553016
 31
0.0
  0
POLYLINE
  5
92
330
8C
100
AcDbEntity
  8
001
370
     9
100
AcDb2dPolyline
 66
     1
 10
0.0
 20
0.0
 30
0.0
  0
VERTEX
  5
94
330
92
100
AcDbEntity
  8
001
370
     9
100
AcDbVertex
100
AcDb2dVertex
 10
55.334603
 20
233.151092
 30
0.0
  0
VERTEX
  5
95
330
92
100
AcDbEntity
  8
001
370
     9
100
AcDbVertex
100
AcDb2dVertex
 10
53.834603
 20
233.553016
 30
0.0
  0
VERTEX
  5
96
330
92
100
AcDbEntity
  8
001
370
     9
100
AcDbVertex
100
AcDb2dVertex
 10
55.334603
 20
233.95494
 30
0.0
  0
SEQEND
  5
93
330
92
100
AcDbEntity
  8
001
370
     9
  0
POLYLINE
  5
97
330
8C
100
AcDbEntity
  8
001
370
     9
100
AcDb2dPolyline
 66
     1
 10
0.0
 20
0.0
 30
0.0
  0
VERTEX
  5
99
330
97
100
AcDbEntity
  8
001
370
     9
100
AcDbVertex
100
AcDb2dVertex
 10
202.334603
 20
233.95494
 30
0.0
  0
VERTEX
  5
9A
330
97
100
AcDbEntity
  8
001
370
     9
100
AcDbVertex
100
AcDb2dVertex
 10
203.834603
 20
233.553016
 30
0.0
  0
VERTEX
  5
9B
330
97
100
AcDbEntity
  8
001
370
     9
100
AcDbVertex
100
AcDb2dVertex
 10
202.334603
 20
233.151092
 30
0.0
  0
SEQEND
  5
98
330
97
100
AcDbEntity
  8
001
370
     9
  0
TEXT
  5
9C
330
8C
100
AcDbEntity
  8
001
370
    30
100
AcDbText
 10
122.834603
 20
234.553016
 30
0.0
 40
4.0
  1
１５０
 41
0.833333
100
AcDbText
  0
POINT
  5
9D
330
8C
100
AcDbEntity
  8
001
370
     9
100
AcDbPoint
 10
53.834603
 20
267.253517
 30
0.0
  0
POINT
  5
9E
330
8C
100
AcDbEntity
  8
001
370
     9
100
AcDbPoint
 10
203.834603
 20
274.480384
 30
0.0
  0
POINT
  5
9F
330
8C
100
AcDbEntity
  8
001
370
     9
100
AcDbPoint
 10
203.834603
 20
233.553016
 30
0.0
  0
ENDBLK
  5
8E
330
8C
100
AcDbEntity
  8
0
100
AcDbBlockEnd
  0
BLOCK
  5
A1
330
A0
100
AcDbEntity
  8
0
100
AcDbBlockBegin
  2
DIM-1
 70
     0
 10
0.0
 20
0.0
 30
0.0
  3
DIM-1
  1

  0
TEXT
  5
A3
330
A0
100
AcDbEntity
  8
001
370
    30
100
AcDbText
 10
30.182284
 20
262.574318
 30
0.0
 40
4.0
  1
Ｒ１
 41
0.833333
100
AcDbText
  0
POLYLINE
  5
A4
330
A0
100
AcDbEntity
  8
001
370
     9
100
AcDb2dPolyline
 66
     1
 10
0.0
 20
0.0
 30
0.0
  0
VERTEX
  5
A6
330
A4
100
AcDbEntity
  8
001
370
     9
100
AcDbVertex
100
AcDb2dVertex
 10
57.927006
 20
276.647058
 30
0.0
  0
VERTEX
  5
A7
330
A4
100
AcDbEntity
  8
001
370
     9
100
AcDbVertex
100
AcDb2dVertex
 10
59.34171
 20
277.28749
 30
0.0
  0
VERTEX
  5
A8
330
A4
100
AcDbEntity
  8
001
370
     9
100
AcDbVertex
100
AcDb2dVertex
 10
58.436756
 20
276.025507
 30
0.0
  0
SEQEND
  5
A5
330
A4
100
AcDbEntity
  8
001
370
     9
  0
POLYLINE
  5
A9
330
A0
100
AcDbEntity
  8
001
370
     9
100
AcDb2dPolyline
 66
     1
 10
0.0
 20
0.0
 30
0.0
  0
VERTEX
  5
AB
330
A9
100
AcDbEntity
  8
001
370
     9
100
AcDbVertex
100
AcDb2dVertex
 10
59.34171
 20
277.28749
 30
0.0
  0
VERTEX
  5
AC
330
A9
100
AcDbEntity
  8
001
370
     9
100
AcDbVertex
100
AcDb2dVertex
 10
40.182284
 20
261.574318
 30
0.0
  0
VERTEX
  5
AD
330
A9
100
AcDbEntity
  8
001
370
     9
100
AcDbVertex
100
AcDb2dVertex
 10
28.182284
 20
261.574318
 30
0.0
  0
SEQEND
  5
AA
330
A9
100
AcDbEntity
  8
001
370
     9
  0
ENDBLK
  5
A2
330
A0
100
AcDbEntity
  8
0
100
AcDbBlockEnd
  0
BLOCK
  5
AF
330
AE
100
AcDbEntity
  8
0
100
AcDbBlockBegin
  2
*D5
 70
     1
 10
0.0
 20
0.0
 30
0.0
  3
*D5
  1

  0
LINE
  5
B1
330
AE
100
AcDbEntity
  8
001
370
     9
100
AcDbLine
 10
200.834603
 20
296.480384
 30
0.0
 11
225.695953
 21
296.480384
 31
0.0
  0
LINE
  5
B2
330
AE
100
AcDbEntity
  8
001
370
     9
100
AcDbLine
 10
200.834603
 20
271.480384
 30
0.0
 11
225.695953
 21
271.480384
 31
0.0
  0
LINE
  5
B3
330
AE
100
AcDbEntity
  8
001
370
     9
100
AcDbLine
 10
222.945953
 20
296.480384
 30
0.0
 11
222.945953
 21
271.480384
 31
0.0
  0
POLYLINE
  5
B4
330
AE
100
AcDbEntity
  8
001
370
     9
100
AcDb2dPolyline
 66
     1
 10
0.0
 20
0.0
 30
0.0
  0
VERTEX
  5
B6
330
B4
100
AcDbEntity
  8
001
370
     9
100
AcDbVertex
100
AcDb2dVertex
 10
222.544029
 20
294.980384
 30
0.0
  0
VERTEX
  5
B7
330
B4
100
AcDbEntity
  8
001
370
     9
100
AcDbVertex
100
AcDb2dVertex
 10
222.945953
 20
296.480384
 30
0.0
  0
VERTEX
  5
B8
330
B4
100
AcDbEntity
  8
001
370
     9
100
AcDbVertex
100
AcDb2dVertex
 10
223.347877
 20
294.980384
 30
0.0
  0
SEQEND
  5
B5
330
B4
100
AcDbEntity
  8
001
370
     9
  0
POLYLINE
  5
B9
330
AE
100
AcDbEntity
  8
001
370
     9
100
AcDb2dPolyline
 66
     1
 10
0.0
 20
0.0
 30
0.0
  0
VERTEX
  5
BB
330
B9
100
AcDbEntity
  8
001
370
     9
100
AcDbVertex
100
AcDb2dVertex
 10
223.347877
 20
272.980384
 30
0.0
  0
VERTEX
  5
BC
330
B9
100
AcDbEntity
  8
001
370
     9
100
AcDbVertex
100
AcDb2dVertex
 10
222.945953
 20
271.480384
 30
0.0
  0
VERTEX
  5
BD
330
B9
100
AcDbEntity
  8
001
370
     9
100
AcDbVertex
100
AcDb2dVertex
 10
222.544029
 20
272.980384
 30
0.0
  0
SEQEND
  5
BA
330
B9
100
AcDbEntity
  8
001
370
     9
  0
TEXT
  5
BE
330
AE
100
AcDbEntity
  8
001
370
    30
100
AcDbText
 10
221.945953
 20
277.168978
 30
0.0
 40
4.0
  1
%%c２５
 50
90.000003
 41
0.882353
100
AcDbText
  0
POINT
  5
BF
330
AE
100
AcDbEntity
  8
001
370
     9
100
AcDbPoint
 10
200.834603
 20
296.480384
 30
0.0
  0
POINT
  5
C0
330
AE
100
AcDbEntity
  8
001
370
     9
100
AcDbPoint
 10
200.834603
 20
271.480384
 30
0.0
  0
POINT
  5
C1
330
AE
100
AcDbEntity
  8
001
370
     9
100
AcDbPoint
 10
222.945953
 20
271.480384
 30
0.0
  0
ENDBLK
  5
B0
330
AE
100
AcDbEntity
  8
0
100
AcDbBlockEnd
  0
BLOCK
  5
C3
330
C2
100
AcDbEntity
  8
0
100
AcDbBlockBegin
  2
*D6
 70
     1
 10
0.0
 20
0.0
 30
0.0
  3
*D6
  1

  0
LINE
  5
C5
330
C2
100
AcDbEntity
  8
001
370
     9
100
AcDbLine
 10
103.834603
 20
149.509005
 30
0.0
 11
103.834603
 21
117.838214
 31
0.0
  0
LINE
  5
C6
330
C2
100
AcDbEntity
  8
001
370
     9
100
AcDbLine
 10
53.834603
 20
144.332139
 30
0.0
 11
53.834603
 21
117.838214
 31
0.0
  0
LINE
  5
C7
330
C2
100
AcDbEntity
  8
001
370
     9
100
AcDbLine
 10
103.834603
 20
120.588214
 30
0.0
 11
53.834603
 21
120.588214
 31
0.0
  0
POLYLINE
  5
C8
330
C2
100
AcDbEntity
  8
001
370
     9
100
AcDb2dPolyline
 66
     1
 10
0.0
 20
0.0
 30
0.0
  0
VERTEX
  5
CA
330
C8
100
AcDbEntity
  8
001
370
     9
100
AcDbVertex
100
AcDb2dVertex
 10
102.334603
 20
120.990138
 30
0.0
  0
VERTEX
  5
CB
330
C8
100
AcDbEntity
  8
001
370
     9
100
AcDbVertex
100
AcDb2dVertex
 10
103.834603
 20
120.588214
 30
0.0
  0
VERTEX
  5
CC
330
C8
100
AcDbEntity
  8
001
370
     9
100
AcDbVertex
100
AcDb2dVertex
 10
102.334603
 20
120.186291
 30
0.0
  0
SEQEND
  5
C9
330
C8
100
AcDbEntity
  8
001
370
     9
  0
POLYLINE
  5
CD
330
C2
100
AcDbEntity
  8
001
370
     9
100
AcDb2dPolyline
 66
     1
 10
0.0
 20
0.0
 30
0.0
  0
VERTEX
  5
CF
330
CD
100
AcDbEntity
  8
001
370
     9
100
AcDbVertex
100
AcDb2dVertex
 10
55.334603
 20
120.186291
 30
0.0
  0
VERTEX
  5
D0
330
CD
100
AcDbEntity
  8
001
370
     9
100
AcDbVertex
100
AcDb2dVertex
 10
53.834603
 20
120.588214
 30
0.0
  0
VERTEX
  5
D1
330
CD
100
AcDbEntity
  8
001
370
     9
100
AcDbVertex
100
AcDb2dVertex
 10
55.334603
 20
120.990138
 30
0.0
  0
SEQEND
  5
CE
330
CD
100
AcDbEntity
  8
001
370
     9
  0
TEXT
  5
D2
330
C2
100
AcDbEntity
  8
001
370
    30
100
AcDbText
 10
74.834603
 20
121.588214
 30
0.0
 40
4.0
  1
５０
 41
0.833333
100
AcDbText
  0
POINT
  5
D3
330
C2
100
AcDbEntity
  8
001
370
     9
100
AcDbPoint
 10
103.834603
 20
149.509005
 30
0.0
  0
POINT
  5
D4
330
C2
100
AcDbEntity
  8
001
370
     9
100
AcDbPoint
 10
53.834603
 20
144.332139
 30
0.0
  0
POINT
  5
D5
330
C2
100
AcDbEntity
  8
001
370
     9
100
AcDbPoint
 10
53.834603
 20
120.588214
 30
0.0
  0
ENDBLK
  5
C4
330
C2
100
AcDbEntity
  8
0
100
AcDbBlockEnd
  0
BLOCK
  5
D7
330
D6
100
AcDbEntity
  8
0
100
AcDbBlockBegin
  2
*D7
 70
     1
 10
0.0
 20
0.0
 30
0.0
  3
*D7
  1

  0
LINE
  5
D9
330
D6
100
AcDbEntity
  8
001
370
     9
100
AcDbLine
 10
203.834603
 20
151.559005
 30
0.0
 11
203.834603
 21
117.838214
 31
0.0
  0
LINE
  5
DA
330
D6
100
AcDbEntity
  8
001
370
     9
100
AcDbLine
 10
103.834603
 20
149.509005
 30
0.0
 11
103.834603
 21
117.838214
 31
0.0
  0
LINE
  5
DB
330
D6
100
AcDbEntity
  8
001
370
     9
100
AcDbLine
 10
203.834603
 20
120.588214
 30
0.0
 11
103.834603
 21
120.588214
 31
0.0
  0
POLYLINE
  5
DC
330
D6
100
AcDbEntity
  8
001
370
     9
100
AcDb2dPolyline
 66
     1
 10
0.0
 20
0.0
 30
0.0
  0
VERTEX
  5
DE
330
DC
100
AcDbEntity
  8
001
370
     9
100
AcDbVertex
100
AcDb2dVertex
 10
202.334603
 20
120.990138
 30
0.0
  0
VERTEX
  5
DF
330
DC
100
AcDbEntity
  8
001
370
     9
100
AcDbVertex
100
AcDb2dVertex
 10
203.834603
 20
120.588214
 30
0.0
  0
VERTEX
  5
E0
330
DC
100
AcDbEntity
  8
001
370
     9
100
AcDbVertex
100
AcDb2dVertex
 10
202.334603
 20
120.186291
 30
0.0
  0
SEQEND
  5
DD
330
DC
100
AcDbEntity
  8
001
370
     9
  0
POLYLINE
  5
E1
330
D6
100
AcDbEntity
  8
001
370
     9
100
AcDb2dPolyline
 66
     1
 10
0.0
 20
0.0
 30
0.0
  0
VERTEX
  5
E3
330
E1
100
AcDbEntity
  8
001
370
     9
100
AcDbVertex
100
AcDb2dVertex
 10
105.334603
 20
120.186291
 30
0.0
  0
VERTEX
  5
E4
330
E1
100
AcDbEntity
  8
001
370
     9
100
AcDbVertex
100
AcDb2dVertex
 10
103.834603
 20
120.588214
 30
0.0
  0
VERTEX
  5
E5
330
E1
100
AcDbEntity
  8
001
370
     9
100
AcDbVertex
100
AcDb2dVertex
 10
105.334603
 20
120.990138
 30
0.0
  0
SEQEND
  5
E2
330
E1
100
AcDbEntity
  8
001
370
     9
  0
TEXT
  5
E6
330
D6
100
AcDbEntity
  8
001
370
    30
100
AcDbText
 10
147.834603
 20
121.588214
 30
0.0
 40
4.0
  1
１００
 41
0.833333
100
AcDbText
  0
POINT
  5
E7
330
D6
100
AcDbEntity
  8
001
370
     9
100
AcDbPoint
 10
203.834603
 20
151.559005
 30
0.0
  0
POINT
  5
E8
330
D6
100
AcDbEntity
  8
001
370
     9
100
AcDbPoint
 10
103.834603
 20
149.509005
 30
0.0
  0
POINT
  5
E9
330
D6
100
AcDbEntity
  8
001
370
     9
100
AcDbPoint
 10
103.834603
 20
120.588214
 30
0.0
  0
ENDBLK
  5
D8
330
D6
100
AcDbEntity
  8
0
100
AcDbBlockEnd
  0
BLOCK
  5
EB
330
EA
100
AcDbEntity
  8
0
100
AcDbBlockBegin
  2
*D8
 70
     1
 10
0.0
 20
0.0
 30
0.0
  3
*D8
  1

  0
LINE
  5
ED
330
EA
100
AcDbEntity
  8
001
370
     9
100
AcDbLine
 10
53.834603
 20
144.332139
 30
0.0
 11
53.834603
 21
107.881638
 31
0.0
  0
LINE
  5
EE
330
EA
100
AcDbEntity
  8
001
370
     9
100
AcDbLine
 10
203.834603
 20
151.559005
 30
0.0
 11
203.834603
 21
107.881638
 31
0.0
  0
LINE
  5
EF
330
EA
100
AcDbEntity
  8
001
370
     9
100
AcDbLine
 10
53.834603
 20
110.631638
 30
0.0
 11
203.834603
 21
110.631638
 31
0.0
  0
POLYLINE
  5
F0
330
EA
100
AcDbEntity
  8
001
370
     9
100
AcDb2dPolyline
 66
     1
 10
0.0
 20
0.0
 30
0.0
  0
VERTEX
  5
F2
330
F0
100
AcDbEntity
  8
001
370
     9
100
AcDbVertex
100
AcDb2dVertex
 10
55.334603
 20
110.229714
 30
0.0
  0
VERTEX
  5
F3
330
F0
100
AcDbEntity
  8
001
370
     9
100
AcDbVertex
100
AcDb2dVertex
 10
53.834603
 20
110.631638
 30
0.0
  0
VERTEX
  5
F4
330
F0
100
AcDbEntity
  8
001
370
     9
100
AcDbVertex
100
AcDb2dVertex
 10
55.334603
 20
111.033561
 30
0.0
  0
SEQEND
  5
F1
330
F0
100
AcDbEntity
  8
001
370
     9
  0
POLYLINE
  5
F5
330
EA
100
AcDbEntity
  8
001
370
     9
100
AcDb2dPolyline
 66
     1
 10
0.0
 20
0.0
 30
0.0
  0
VERTEX
  5
F7
330
F5
100
AcDbEntity
  8
001
370
     9
100
AcDbVertex
100
AcDb2dVertex
 10
202.334603
 20
111.033561
 30
0.0
  0
VERTEX
  5
F8
330
F5
100
AcDbEntity
  8
001
370
     9
100
AcDbVertex
100
AcDb2dVertex
 10
203.834603
 20
110.631638
 30
0.0
  0
VERTEX
  5
F9
330
F5
100
AcDbEntity
  8
001
370
     9
100
AcDbVertex
100
AcDb2dVertex
 10
202.334603
 20
110.229714
 30
0.0
  0
SEQEND
  5
F6
330
F5
100
AcDbEntity
  8
001
370
     9
  0
TEXT
  5
FA
330
EA
100
AcDbEntity
  8
001
370
    30
100
AcDbText
 10
122.834603
 20
111.631638
 30
0.0
 40
4.0
  1
１５０
 41
0.833333
100
AcDbText
  0
POINT
  5
FB
330
EA
100
AcDbEntity
  8
001
370
     9
100
AcDbPoint
 10
53.834603
 20
144.332139
 30
0.0
  0
POINT
  5
FC
330
EA
100
AcDbEntity
  8
001
370
     9
100
AcDbPoint
 10
203.834603
 20
151.559005
 30
0.0
  0
POINT
  5
FD
330
EA
100
AcDbEntity
  8
001
370
     9
100
AcDbPoint
 10
203.834603
 20
110.631638
 30
0.0
  0
ENDBLK
  5
EC
330
EA
100
AcDbEntity
  8
0
100
AcDbBlockEnd
  0
BLOCK
  5
FF
330
FE
100
AcDbEntity
  8
0
100
AcDbBlockBegin
  2
*D9
 70
     1
 10
0.0
 20
0.0
 30
0.0
  3
*D9
  1

  0
LINE
  5
101
330
FE
100
AcDbEntity
  8
001
370
     9
100
AcDbLine
 10
200.834603
 20
173.559005
 30
0.0
 11
225.695953
 21
173.559005
 31
0.0
  0
LINE
  5
102
330
FE
100
AcDbEntity
  8
001
370
     9
100
AcDbLine
 10
200.834603
 20
148.559005
 30
0.0
 11
225.695953
 21
148.559005
 31
0.0
  0
LINE
  5
103
330
FE
100
AcDbEntity
  8
001
370
     9
100
AcDbLine
 10
222.945953
 20
173.559005
 30
0.0
 11
222.945953
 21
148.559005
 31
0.0
  0
POLYLINE
  5
104
330
FE
100
AcDbEntity
  8
001
370
     9
100
AcDb2dPolyline
 66
     1
 10
0.0
 20
0.0
 30
0.0
  0
VERTEX
  5
106
330
104
100
AcDbEntity
  8
001
370
     9
100
AcDbVertex
100
AcDb2dVertex
 10
222.544029
 20
172.059005
 30
0.0
  0
VERTEX
  5
107
330
104
100
AcDbEntity
  8
001
370
     9
100
AcDbVertex
100
AcDb2dVertex
 10
222.945953
 20
173.559005
 30
0.0
  0
VERTEX
  5
108
330
104
100
AcDbEntity
  8
001
370
     9
100
AcDbVertex
100
AcDb2dVertex
 10
223.347877
 20
172.059005
 30
0.0
  0
SEQEND
  5
105
330
104
100
AcDbEntity
  8
001
370
     9
  0
POLYLINE
  5
109
330
FE
100
AcDbEntity
  8
001
370
     9
100
AcDb2dPolyline
 66
     1
 10
0.0
 20
0.0
 30
0.0
  0
VERTEX
  5
10B
330
109
100
AcDbEntity
  8
001
370
     9
100
AcDbVertex
100
AcDb2dVertex
 10
223.347877
 20
150.059005
 30
0.0
  0
VERTEX
  5
10C
330
109
100
AcDbEntity
  8
001
370
     9
100
AcDbVertex
100
AcDb2dVertex
 10
222.945953
 20
148.559005
 30
0.0
  0
VERTEX
  5
10D
330
109
100
AcDbEntity
  8
001
370
     9
100
AcDbVertex
100
AcDb2dVertex
 10
222.544029
 20
150.059005
 30
0.0
  0
SEQEND
  5
10A
330
109
100
AcDbEntity
  8
001
370
     9
  0
TEXT
  5
10E
330
FE
100
AcDbEntity
  8
001
370
    30
100
AcDbText
 10
221.945953
 20
154.247599
 30
0.0
 40
4.0
  1
%%c２５
 50
90.000003
 41
0.882353
100
AcDbText
  0
POINT
  5
10F
330
FE
100
AcDbEntity
  8
001
370
     9
100
AcDbPoint
 10
200.834603
 20
173.559005
 30
0.0
  0
POINT
  5
110
330
FE
100
AcDbEntity
  8
001
370
     9
100
AcDbPoint
 10
200.834603
 20
148.559005
 30
0.0
  0
POINT
  5
111
330
FE
100
AcDbEntity
  8
001
370
     9
100
AcDbPoint
 10
222.945953
 20
148.559005
 30
0.0
  0
ENDBLK
  5
100
330
FE
100
AcDbEntity
  8
0
100
AcDbBlockEnd
  0
BLOCK
  5
113
330
112
100
AcDbEntity
  8
0
100
AcDbBlockBegin
  2
DIM-2
 70
     0
 10
0.0
 20
0.0
 30
0.0
  3
DIM-2
  1

  0
TEXT
  5
115
330
112
100
AcDbEntity
  8
001
370
    30
100
AcDbText
 10
33.915286
 20
135.703335
 30
0.0
 40
4.0
  1
Ｒ２
 41
0.833333
100
AcDbText
  0
POLYLINE
  5
116
330
112
100
AcDbEntity
  8
001
370
     9
100
AcDb2dPolyline
 66
     1
 10
0.0
 20
0.0
 30
0.0
  0
VERTEX
  5
118
330
116
100
AcDbEntity
  8
001
370
     9
100
AcDbVertex
100
AcDb2dVertex
 10
58.285318
 20
153.613029
 30
0.0
  0
VERTEX
  5
119
330
116
100
AcDbEntity
  8
001
370
     9
100
AcDbVertex
100
AcDb2dVertex
 10
59.528817
 20
154.543219
 30
0.0
  0
VERTEX
  5
11A
330
116
100
AcDbEntity
  8
001
370
     9
100
AcDbVertex
100
AcDb2dVertex
 10
58.917011
 20
153.115901
 30
0.0
  0
SEQEND
  5
117
330
116
100
AcDbEntity
  8
001
370
     9
  0
POLYLINE
  5
11B
330
112
100
AcDbEntity
  8
001
370
     9
100
AcDb2dPolyline
 66
     1
 10
0.0
 20
0.0
 30
0.0
  0
VERTEX
  5
11D
330
11B
100
AcDbEntity
  8
001
370
     9
100
AcDbVertex
100
AcDb2dVertex
 10
59.528817
 20
154.543219
 30
0.0
  0
VERTEX
  5
11E
330
11B
100
AcDbEntity
  8
001
370
     9
100
AcDbVertex
100
AcDb2dVertex
 10
43.915286
 20
134.703335
 30
0.0
  0
VERTEX
  5
11F
330
11B
100
AcDbEntity
  8
001
370
     9
100
AcDbVertex
100
AcDb2dVertex
 10
31.915286
 20
134.703335
 30
0.0
  0
SEQEND
  5
11C
330
11B
100
AcDbEntity
  8
001
370
     9
  0
ENDBLK
  5
114
330
112
100
AcDbEntity
  8
0
100
AcDbBlockEnd
  0
BLOCK
  5
121
330
120
100
AcDbEntity
  8
0
100
AcDbBlockBegin
  2
*D11
 70
     1
 10
0.0
 20
0.0
 30
0.0
  3
*D11
  1

  0
LINE
  5
123
330
120
100
AcDbEntity
  8
001
370
     9
100
AcDbLine
 10
46.207824
 20
155.129005
 30
0.0
 11
33.169652
 21
155.129005
 31
0.0
  0
LINE
  5
124
330
120
100
AcDbEntity
  8
001
370
     9
100
AcDbLine
 10
53.014119
 20
161.059005
 30
0.0
 11
33.169652
 21
161.059005
 31
0.0
  0
LINE
  5
125
330
120
100
AcDbEntity
  8
001
370
     9
100
AcDbLine
 10
35.919652
 20
155.129005
 30
0.0
 11
35.919652
 21
161.059005
 31
0.0
  0
POLYLINE
  5
126
330
120
100
AcDbEntity
  8
001
370
     9
100
AcDb2dPolyline
 66
     1
 10
0.0
 20
0.0
 30
0.0
  0
VERTEX
  5
128
330
126
100
AcDbEntity
  8
001
370
     9
100
AcDbVertex
100
AcDb2dVertex
 10
35.517728
 20
153.629005
 30
0.0
  0
VERTEX
  5
129
330
126
100
AcDbEntity
  8
001
370
     9
100
AcDbVertex
100
AcDb2dVertex
 10
35.919652
 20
155.129005
 30
0.0
  0
VERTEX
  5
12A
330
126
100
AcDbEntity
  8
001
370
     9
100
AcDbVertex
100
AcDb2dVertex
 10
36.321576
 20
153.629005
 30
0.0
  0
SEQEND
  5
127
330
126
100
AcDbEntity
  8
001
370
     9
  0
POLYLINE
  5
12B
330
120
100
AcDbEntity
  8
001
370
     9
100
AcDb2dPolyline
 66
     1
 10
0.0
 20
0.0
 30
0.0
  0
VERTEX
  5
12D
330
12B
100
AcDbEntity
  8
001
370
     9
100
AcDbVertex
100
AcDb2dVertex
 10
36.321576
 20
162.559005
 30
0.0
  0
VERTEX
  5
12E
330
12B
100
AcDbEntity
  8
001
370
     9
100
AcDbVertex
100
AcDb2dVertex
 10
35.919652
 20
161.059005
 30
0.0
  0
VERTEX
  5
12F
330
12B
100
AcDbEntity
  8
001
370
     9
100
AcDbVertex
100
AcDb2dVertex
 10
35.517728
 20
162.559005
 30
0.0
  0
SEQEND
  5
12C
330
12B
100
AcDbEntity
  8
001
370
     9
  0
TEXT
  5
130
330
120
100
AcDbEntity
  8
001
370
    30
100
AcDbText
 10
34.919652
 20
164.559005
 30
0.0
 40
4.0
  1
５．９３
 50
90.000003
 41
0.833333
100
AcDbText
  0
POINT
  5
131
330
120
100
AcDbEntity
  8
001
370
     9
100
AcDbPoint
 10
46.207824
 20
155.129005
 30
0.0
  0
POINT
  5
132
330
120
100
AcDbEntity
  8
001
370
     9
100
AcDbPoint
 10
53.014119
 20
161.059005
 30
0.0
  0
POINT
  5
133
330
120
100
AcDbEntity
  8
001
370
     9
100
AcDbPoint
 10
35.919652
 20
161.059005
 30
0.0
  0
LINE
  5
134
330
120
100
AcDbEntity
  8
001
370
     9
100
AcDbLine
 10
35.919652
 20
155.129005
 30
0.0
 11
35.919652
 21
152.629005
 31
0.0
  0
LINE
  5
135
330
120
100
AcDbEntity
  8
001
370
     9
100
AcDbLine
 10
35.919652
 20
161.059005
 30
0.0
 11
35.919652
 21
183.559005
 31
0.0
  0
ENDBLK
  5
122
330
120
100
AcDbEntity
  8
0
100
AcDbBlockEnd
  0
BLOCK
  5
137
330
136
100
AcDbEntity
  8
0
100
AcDbBlockBegin
  2
*D12
 70
     1
 10
0.0
 20
0.0
 30
0.0
  3
*D12
  1

  0
LINE
  5
139
330
136
100
AcDbEntity
  8
001
370
     9
100
AcDbLine
 10
49.317532
 20
277.580384
 30
0.0
 11
33.600751
 21
277.580384
 31
0.0
  0
LINE
  5
13A
330
136
100
AcDbEntity
  8
001
370
     9
100
AcDbLine
 10
53.014119
 20
283.980384
 30
0.0
 11
33.600751
 21
283.980384
 31
0.0
  0
LINE
  5
13B
330
136
100
AcDbEntity
  8
001
370
     9
100
AcDbLine
 10
36.350751
 20
277.580384
 30
0.0
 11
36.350751
 21
283.980384
 31
0.0
  0
POLYLINE
  5
13C
330
136
100
AcDbEntity
  8
001
370
     9
100
AcDb2dPolyline
 66
     1
 10
0.0
 20
0.0
 30
0.0
  0
VERTEX
  5
13E
330
13C
100
AcDbEntity
  8
001
370
     9
100
AcDbVertex
100
AcDb2dVertex
 10
35.948827
 20
276.080384
 30
0.0
  0
VERTEX
  5
13F
330
13C
100
AcDbEntity
  8
001
370
     9
100
AcDbVertex
100
AcDb2dVertex
 10
36.350751
 20
277.580384
 30
0.0
  0
VERTEX
  5
140
330
13C
100
AcDbEntity
  8
001
370
     9
100
AcDbVertex
100
AcDb2dVertex
 10
36.752674
 20
276.080384
 30
0.0
  0
SEQEND
  5
13D
330
13C
100
AcDbEntity
  8
001
370
     9
  0
POLYLINE
  5
141
330
136
100
AcDbEntity
  8
001
370
     9
100
AcDb2dPolyline
 66
     1
 10
0.0
 20
0.0
 30
0.0
  0
VERTEX
  5
143
330
141
100
AcDbEntity
  8
001
370
     9
100
AcDbVertex
100
AcDb2dVertex
 10
36.752674
 20
285.480384
 30
0.0
  0
VERTEX
  5
144
330
141
100
AcDbEntity
  8
001
370
     9
100
AcDbVertex
100
AcDb2dVertex
 10
36.350751
 20
283.980384
 30
0.0
  0
VERTEX
  5
145
330
141
100
AcDbEntity
  8
001
370
     9
100
AcDbVertex
100
AcDb2dVertex
 10
35.948827
 20
285.480384
 30
0.0
  0
SEQEND
  5
142
330
141
100
AcDbEntity
  8
001
370
     9
  0
TEXT
  5
146
330
136
100
AcDbEntity
  8
001
370
    30
100
AcDbText
 10
35.350751
 20
287.480384
 30
0.0
 40
4.0
  1
６．４
 50
90.000003
 41
0.833333
100
AcDbText
  0
POINT
  5
147
330
136
100
AcDbEntity
  8
001
370
     9
100
AcDbPoint
 10
49.317532
 20
277.580384
 30
0.0
  0
POINT
  5
148
330
136
100
AcDbEntity
  8
001
370
     9
100
AcDbPoint
 10
53.014119
 20
283.980384
 30
0.0
  0
POINT
  5
149
330
136
100
AcDbEntity
  8
001
370
     9
100
AcDbPoint
 10
36.350751
 20
283.980384
 30
0.0
  0
LINE
  5
14A
330
136
100
AcDbEntity
  8
001
370
     9
100
AcDbLine
 10
36.350751
 20
277.580384
 30
0.0
 11
36.350751
 21
275.080384
 31
0.0
  0
LINE
  5
14B
330
136
100
AcDbEntity
  8
001
370
     9
100
AcDbLine
 10
36.350751
 20
283.980384
 30
0.0
 11
36.350751
 21
302.480384
 31
0.0
  0
ENDBLK
  5
138
330
136
100
AcDbEntity
  8
0
100
AcDbBlockEnd
  0
BLOCK
  5
14D
330
14C
100
AcDbEntity
  8
0
100
AcDbBlockBegin
  2
*D13
 70
     1
 10
0.0
 20
0.0
 30
0.0
  3
*D13
  1

  0
LINE
  5
14F
330
14C
100
AcDbEntity
  8
001
370
     9
100
AcDbLine
 10
59.634603
 20
267.253517
 30
0.0
 11
59.634603
 21
251.286409
 31
0.0
  0
LINE
  5
150
330
14C
100
AcDbEntity
  8
001
370
     9
100
AcDbLine
 10
53.834603
 20
267.253517
 30
0.0
 11
53.834603
 21
251.286409
 31
0.0
  0
LINE
  5
151
330
14C
100
AcDbEntity
  8
001
370
     9
100
AcDbLine
 10
59.634603
 20
254.036409
 30
0.0
 11
53.834603
 21
254.036409
 31
0.0
  0
POLYLINE
  5
152
330
14C
100
AcDbEntity
  8
001
370
     9
100
AcDb2dPolyline
 66
     1
 10
0.0
 20
0.0
 30
0.0
  0
VERTEX
  5
154
330
152
100
AcDbEntity
  8
001
370
     9
100
AcDbVertex
100
AcDb2dVertex
 10
58.134603
 20
254.438332
 30
0.0
  0
VERTEX
  5
155
330
152
100
AcDbEntity
  8
001
370
     9
100
AcDbVertex
100
AcDb2dVertex
 10
59.634603
 20
254.036409
 30
0.0
  0
VERTEX
  5
156
330
152
100
AcDbEntity
  8
001
370
     9
100
AcDbVertex
100
AcDb2dVertex
 10
58.134603
 20
253.634485
 30
0.0
  0
SEQEND
  5
153
330
152
100
AcDbEntity
  8
001
370
     9
  0
POLYLINE
  5
157
330
14C
100
AcDbEntity
  8
001
370
     9
100
AcDb2dPolyline
 66
     1
 10
0.0
 20
0.0
 30
0.0
  0
VERTEX
  5
159
330
157
100
AcDbEntity
  8
001
370
     9
100
AcDbVertex
100
AcDb2dVertex
 10
55.334603
 20
253.634485
 30
0.0
  0
VERTEX
  5
15A
330
157
100
AcDbEntity
  8
001
370
     9
100
AcDbVertex
100
AcDb2dVertex
 10
53.834603
 20
254.036409
 30
0.0
  0
VERTEX
  5
15B
330
157
100
AcDbEntity
  8
001
370
     9
100
AcDbVertex
100
AcDb2dVertex
 10
55.334603
 20
254.438332
 30
0.0
  0
SEQEND
  5
158
330
157
100
AcDbEntity
  8
001
370
     9
  0
TEXT
  5
15C
330
14C
100
AcDbEntity
  8
001
370
    30
100
AcDbText
 10
63.134603
 20
255.036409
 30
0.0
 40
4.0
  1
５．８
 41
0.833333
100
AcDbText
  0
POINT
  5
15D
330
14C
100
AcDbEntity
  8
001
370
     9
100
AcDbPoint
 10
59.634603
 20
267.253517
 30
0.0
  0
POINT
  5
15E
330
14C
100
AcDbEntity
  8
001
370
     9
100
AcDbPoint
 10
53.834603
 20
267.253517
 30
0.0
  0
POINT
  5
15F
330
14C
100
AcDbEntity
  8
001
370
     9
100
AcDbPoint
 10
53.834603
 20
254.036409
 30
0.0
  0
LINE
  5
160
330
14C
100
AcDbEntity
  8
001
370
     9
100
AcDbLine
 10
59.634603
 20
254.036409
 30
0.0
 11
78.134603
 21
254.036409
 31
0.0
  0
ENDBLK
  5
14E
330
14C
100
AcDbEntity
  8
0
100
AcDbBlockEnd
  0
BLOCK
  5
162
330
161
100
AcDbEntity
  8
0
100
AcDbBlockBegin
  2
*D14
 70
     1
 10
0.0
 20
0.0
 30
0.0
  3
*D14
  1

  0
LINE
  5
164
330
161
100
AcDbEntity
  8
001
370
     9
100
AcDbLine
 10
60.114603
 20
143.067281
 30
0.0
 11
60.114603
 21
128.769022
 31
0.0
  0
LINE
  5
165
330
161
100
AcDbEntity
  8
001
370
     9
100
AcDbLine
 10
53.834603
 20
143.067281
 30
0.0
 11
53.834603
 21
128.769022
 31
0.0
  0
LINE
  5
166
330
161
100
AcDbEntity
  8
001
370
     9
100
AcDbLine
 10
60.114603
 20
131.519022
 30
0.0
 11
53.834603
 21
131.519022
 31
0.0
  0
POLYLINE
  5
167
330
161
100
AcDbEntity
  8
001
370
     9
100
AcDb2dPolyline
 66
     1
 10
0.0
 20
0.0
 30
0.0
  0
VERTEX
  5
169
330
167
100
AcDbEntity
  8
001
370
     9
100
AcDbVertex
100
AcDb2dVertex
 10
61.614603
 20
131.117098
 30
0.0
  0
VERTEX
  5
16A
330
167
100
AcDbEntity
  8
001
370
     9
100
AcDbVertex
100
AcDb2dVertex
 10
60.114603
 20
131.519022
 30
0.0
  0
VERTEX
  5
16B
330
167
100
AcDbEntity
  8
001
370
     9
100
AcDbVertex
100
AcDb2dVertex
 10
61.614603
 20
131.920946
 30
0.0
  0
SEQEND
  5
168
330
167
100
AcDbEntity
  8
001
370
     9
  0
POLYLINE
  5
16C
330
161
100
AcDbEntity
  8
001
370
     9
100
AcDb2dPolyline
 66
     1
 10
0.0
 20
0.0
 30
0.0
  0
VERTEX
  5
16E
330
16C
100
AcDbEntity
  8
001
370
     9
100
AcDbVertex
100
AcDb2dVertex
 10
52.334603
 20
131.920946
 30
0.0
  0
VERTEX
  5
16F
330
16C
100
AcDbEntity
  8
001
370
     9
100
AcDbVertex
100
AcDb2dVertex
 10
53.834603
 20
131.519022
 30
0.0
  0
VERTEX
  5
170
330
16C
100
AcDbEntity
  8
001
370
     9
100
AcDbVertex
100
AcDb2dVertex
 10
52.334603
 20
131.117098
 30
0.0
  0
SEQEND
  5
16D
330
16C
100
AcDbEntity
  8
001
370
     9
  0
TEXT
  5
171
330
161
100
AcDbEntity
  8
001
370
    30
100
AcDbText
 10
63.614603
 20
132.519022
 30
0.0
 40
4.0
  1
６．２８
 41
0.833333
100
AcDbText
  0
POINT
  5
172
330
161
100
AcDbEntity
  8
001
370
     9
100
AcDbPoint
 10
60.114603
 20
143.067281
 30
0.0
  0
POINT
  5
173
330
161
100
AcDbEntity
  8
001
370
     9
100
AcDbPoint
 10
53.834603
 20
143.067281
 30
0.0
  0
POINT
  5
174
330
161
100
AcDbEntity
  8
001
370
     9
100
AcDbPoint
 10
53.834603
 20
131.519022
 30
0.0
  0
LINE
  5
175
330
161
100
AcDbEntity
  8
001
370
     9
100
AcDbLine
 10
60.114603
 20
131.519022
 30
0.0
 11
82.614603
 21
131.519022
 31
0.0
  0
LINE
  5
176
330
161
100
AcDbEntity
  8
001
370
     9
100
AcDbLine
 10
53.834603
 20
131.519022
 30
0.0
 11
51.334603
 21
131.519022
 31
0.0
  0
ENDBLK
  5
163
330
161
100
AcDbEntity
  8
0
100
AcDbBlockEnd
  0
BLOCK
  5
178
330
177
100
AcDbEntity
  8
0
100
AcDbBlockBegin
  2
*D15
 70
     1
 10
0.0
 20
0.0
 30
0.0
  3
*D15
  1

  0
LINE
  5
17A
330
177
100
AcDbEntity
  8
001
370
     9
100
AcDbLine
 10
103.834603
 20
35.565031
 30
0.0
 11
103.834603
 21
5.104425
 31
0.0
  0
LINE
  5
17B
330
177
100
AcDbEntity
  8
001
370
     9
100
AcDbLine
 10
53.834603
 20
25.01235
 30
0.0
 11
53.834603
 21
5.104425
 31
0.0
  0
LINE
  5
17C
330
177
100
AcDbEntity
  8
001
370
     9
100
AcDbLine
 10
103.834603
 20
7.854425
 30
0.0
 11
53.834603
 21
7.854425
 31
0.0
  0
POLYLINE
  5
17D
330
177
100
AcDbEntity
  8
001
370
     9
100
AcDb2dPolyline
 66
     1
 10
0.0
 20
0.0
 30
0.0
  0
VERTEX
  5
17F
330
17D
100
AcDbEntity
  8
001
370
     9
100
AcDbVertex
100
AcDb2dVertex
 10
102.334603
 20
8.256349
 30
0.0
  0
VERTEX
  5
180
330
17D
100
AcDbEntity
  8
001
370
     9
100
AcDbVertex
100
AcDb2dVertex
 10
103.834603
 20
7.854425
 30
0.0
  0
VERTEX
  5
181
330
17D
100
AcDbEntity
  8
001
370
     9
100
AcDbVertex
100
AcDb2dVertex
 10
102.334603
 20
7.452502
 30
0.0
  0
SEQEND
  5
17E
330
17D
100
AcDbEntity
  8
001
370
     9
  0
POLYLINE
  5
182
330
177
100
AcDbEntity
  8
001
370
     9
100
AcDb2dPolyline
 66
     1
 10
0.0
 20
0.0
 30
0.0
  0
VERTEX
  5
184
330
182
100
AcDbEntity
  8
001
370
     9
100
AcDbVertex
100
AcDb2dVertex
 10
55.334603
 20
7.452502
 30
0.0
  0
VERTEX
  5
185
330
182
100
AcDbEntity
  8
001
370
     9
100
AcDbVertex
100
AcDb2dVertex
 10
53.834603
 20
7.854425
 30
0.0
  0
VERTEX
  5
186
330
182
100
AcDbEntity
  8
001
370
     9
100
AcDbVertex
100
AcDb2dVertex
 10
55.334603
 20
8.256349
 30
0.0
  0
SEQEND
  5
183
330
182
100
AcDbEntity
  8
001
370
     9
  0
TEXT
  5
187
330
177
100
AcDbEntity
  8
001
370
    30
100
AcDbText
 10
74.834603
 20
8.854425
 30
0.0
 40
4.0
  1
５０
 41
0.833333
100
AcDbText
  0
POINT
  5
188
330
177
100
AcDbEntity
  8
001
370
     9
100
AcDbPoint
 10
103.834603
 20
35.565031
 30
0.0
  0
POINT
  5
189
330
177
100
AcDbEntity
  8
001
370
     9
100
AcDbPoint
 10
53.834603
 20
25.01235
 30
0.0
  0
POINT
  5
18A
330
177
100
AcDbEntity
  8
001
370
     9
100
AcDbPoint
 10
53.834603
 20
7.854425
 30
0.0
  0
ENDBLK
  5
179
330
177
100
AcDbEntity
  8
0
100
AcDbBlockEnd
  0
BLOCK
  5
18C
330
18B
100
AcDbEntity
  8
0
100
AcDbBlockBegin
  2
*D16
 70
     1
 10
0.0
 20
0.0
 30
0.0
  3
*D16
  1

  0
LINE
  5
18E
330
18B
100
AcDbEntity
  8
001
370
     9
100
AcDbLine
 10
203.834603
 20
37.615031
 30
0.0
 11
203.834603
 21
5.104425
 31
0.0
  0
LINE
  5
18F
330
18B
100
AcDbEntity
  8
001
370
     9
100
AcDbLine
 10
103.834603
 20
35.565031
 30
0.0
 11
103.834603
 21
5.104425
 31
0.0
  0
LINE
  5
190
330
18B
100
AcDbEntity
  8
001
370
     9
100
AcDbLine
 10
203.834603
 20
7.854425
 30
0.0
 11
103.834603
 21
7.854425
 31
0.0
  0
POLYLINE
  5
191
330
18B
100
AcDbEntity
  8
001
370
     9
100
AcDb2dPolyline
 66
     1
 10
0.0
 20
0.0
 30
0.0
  0
VERTEX
  5
193
330
191
100
AcDbEntity
  8
001
370
     9
100
AcDbVertex
100
AcDb2dVertex
 10
202.334603
 20
8.256349
 30
0.0
  0
VERTEX
  5
194
330
191
100
AcDbEntity
  8
001
370
     9
100
AcDbVertex
100
AcDb2dVertex
 10
203.834603
 20
7.854425
 30
0.0
  0
VERTEX
  5
195
330
191
100
AcDbEntity
  8
001
370
     9
100
AcDbVertex
100
AcDb2dVertex
 10
202.334603
 20
7.452502
 30
0.0
  0
SEQEND
  5
192
330
191
100
AcDbEntity
  8
001
370
     9
  0
POLYLINE
  5
196
330
18B
100
AcDbEntity
  8
001
370
     9
100
AcDb2dPolyline
 66
     1
 10
0.0
 20
0.0
 30
0.0
  0
VERTEX
  5
198
330
196
100
AcDbEntity
  8
001
370
     9
100
AcDbVertex
100
AcDb2dVertex
 10
105.334603
 20
7.452502
 30
0.0
  0
VERTEX
  5
199
330
196
100
AcDbEntity
  8
001
370
     9
100
AcDbVertex
100
AcDb2dVertex
 10
103.834603
 20
7.854425
 30
0.0
  0
VERTEX
  5
19A
330
196
100
AcDbEntity
  8
001
370
     9
100
AcDbVertex
100
AcDb2dVertex
 10
105.334603
 20
8.256349
 30
0.0
  0
SEQEND
  5
197
330
196
100
AcDbEntity
  8
001
370
     9
  0
TEXT
  5
19B
330
18B
100
AcDbEntity
  8
001
370
    30
100
AcDbText
 10
147.834603
 20
8.854425
 30
0.0
 40
4.0
  1
１００
 41
0.833333
100
AcDbText
  0
POINT
  5
19C
330
18B
100
AcDbEntity
  8
001
370
     9
100
AcDbPoint
 10
203.834603
 20
37.615031
 30
0.0
  0
POINT
  5
19D
330
18B
100
AcDbEntity
  8
001
370
     9
100
AcDbPoint
 10
103.834603
 20
35.565031
 30
0.0
  0
POINT
  5
19E
330
18B
100
AcDbEntity
  8
001
370
     9
100
AcDbPoint
 10
103.834603
 20
7.854425
 30
0.0
  0
ENDBLK
  5
18D
330
18B
100
AcDbEntity
  8
0
100
AcDbBlockEnd
  0
BLOCK
  5
1A0
330
19F
100
AcDbEntity
  8
0
100
AcDbBlockBegin
  2
*D17
 70
     1
 10
0.0
 20
0.0
 30
0.0
  3
*D17
  1

  0
LINE
  5
1A2
330
19F
100
AcDbEntity
  8
001
370
     9
100
AcDbLine
 10
53.834603
 20
25.01235
 30
0.0
 11
53.834603
 21
-5.657729
 31
0.0
  0
LINE
  5
1A3
330
19F
100
AcDbEntity
  8
001
370
     9
100
AcDbLine
 10
203.834603
 20
37.615031
 30
0.0
 11
203.834603
 21
-5.657729
 31
0.0
  0
LINE
  5
1A4
330
19F
100
AcDbEntity
  8
001
370
     9
100
AcDbLine
 10
53.834603
 20
-2.907729
 30
0.0
 11
203.834603
 21
-2.907729
 31
0.0
  0
POLYLINE
  5
1A5
330
19F
100
AcDbEntity
  8
001
370
     9
100
AcDb2dPolyline
 66
     1
 10
0.0
 20
0.0
 30
0.0
  0
VERTEX
  5
1A7
330
1A5
100
AcDbEntity
  8
001
370
     9
100
AcDbVertex
100
AcDb2dVertex
 10
55.334603
 20
-3.309653
 30
0.0
  0
VERTEX
  5
1A8
330
1A5
100
AcDbEntity
  8
001
370
     9
100
AcDbVertex
100
AcDb2dVertex
 10
53.834603
 20
-2.907729
 30
0.0
  0
VERTEX
  5
1A9
330
1A5
100
AcDbEntity
  8
001
370
     9
100
AcDbVertex
100
AcDb2dVertex
 10
55.334603
 20
-2.505805
 30
0.0
  0
SEQEND
  5
1A6
330
1A5
100
AcDbEntity
  8
001
370
     9
  0
POLYLINE
  5
1AA
330
19F
100
AcDbEntity
  8
001
370
     9
100
AcDb2dPolyline
 66
     1
 10
0.0
 20
0.0
 30
0.0
  0
VERTEX
  5
1AC
330
1AA
100
AcDbEntity
  8
001
370
     9
100
AcDbVertex
100
AcDb2dVertex
 10
202.334603
 20
-2.505805
 30
0.0
  0
VERTEX
  5
1AD
330
1AA
100
AcDbEntity
  8
001
370
     9
100
AcDbVertex
100
AcDb2dVertex
 10
203.834603
 20
-2.907729
 30
0.0
  0
VERTEX
  5
1AE
330
1AA
100
AcDbEntity
  8
001
370
     9
100
AcDbVertex
100
AcDb2dVertex
 10
202.334603
 20
-3.309653
 30
0.0
  0
SEQEND
  5
1AB
330
1AA
100
AcDbEntity
  8
001
370
     9
  0
TEXT
  5
1AF
330
19F
100
AcDbEntity
  8
001
370
    30
100
AcDbText
 10
122.834603
 20
-1.907729
 30
0.0
 40
4.0
  1
１５０
 41
0.833333
100
AcDbText
  0
POINT
  5
1B0
330
19F
100
AcDbEntity
  8
001
370
     9
100
AcDbPoint
 10
53.834603
 20
25.01235
 30
0.0
  0
POINT
  5
1B1
330
19F
100
AcDbEntity
  8
001
370
     9
100
AcDbPoint
 10
203.834603
 20
37.615031
 30
0.0
  0
POINT
  5
1B2
330
19F
100
AcDbEntity
  8
001
370
     9
100
AcDbPoint
 10
203.834603
 20
-2.907729
 30
0.0
  0
ENDBLK
  5
1A1
330
19F
100
AcDbEntity
  8
0
100
AcDbBlockEnd
  0
BLOCK
  5
1B4
330
1B3
100
AcDbEntity
  8
0
100
AcDbBlockBegin
  2
*D18
 70
     1
 10
0.0
 20
0.0
 30
0.0
  3
*D18
  1

  0
LINE
  5
1B6
330
1B3
100
AcDbEntity
  8
001
370
     9
100
AcDbLine
 10
60.614603
 20
25.01235
 30
0.0
 11
60.614603
 21
16.291997
 31
0.0
  0
LINE
  5
1B7
330
1B3
100
AcDbEntity
  8
001
370
     9
100
AcDbLine
 10
53.834603
 20
25.01235
 30
0.0
 11
53.834603
 21
16.291997
 31
0.0
  0
LINE
  5
1B8
330
1B3
100
AcDbEntity
  8
001
370
     9
100
AcDbLine
 10
60.614603
 20
19.041997
 30
0.0
 11
53.834603
 21
19.041997
 31
0.0
  0
POLYLINE
  5
1B9
330
1B3
100
AcDbEntity
  8
001
370
     9
100
AcDb2dPolyline
 66
     1
 10
0.0
 20
0.0
 30
0.0
  0
VERTEX
  5
1BB
330
1B9
100
AcDbEntity
  8
001
370
     9
100
AcDbVertex
100
AcDb2dVertex
 10
62.114603
 20
18.640073
 30
0.0
  0
VERTEX
  5
1BC
330
1B9
100
AcDbEntity
  8
001
370
     9
100
AcDbVertex
100
AcDb2dVertex
 10
60.614603
 20
19.041997
 30
0.0
  0
VERTEX
  5
1BD
330
1B9
100
AcDbEntity
  8
001
370
     9
100
AcDbVertex
100
AcDb2dVertex
 10
62.114603
 20
19.443921
 30
0.0
  0
SEQEND
  5
1BA
330
1B9
100
AcDbEntity
  8
001
370
     9
  0
POLYLINE
  5
1BE
330
1B3
100
AcDbEntity
  8
001
370
     9
100
AcDb2dPolyline
 66
     1
 10
0.0
 20
0.0
 30
0.0
  0
VERTEX
  5
1C0
330
1BE
100
AcDbEntity
  8
001
370
     9
100
AcDbVertex
100
AcDb2dVertex
 10
52.334603
 20
19.443921
 30
0.0
  0
VERTEX
  5
1C1
330
1BE
100
AcDbEntity
  8
001
370
     9
100
AcDbVertex
100
AcDb2dVertex
 10
53.834603
 20
19.041997
 30
0.0
  0
VERTEX
  5
1C2
330
1BE
100
AcDbEntity
  8
001
370
     9
100
AcDbVertex
100
AcDb2dVertex
 10
52.334603
 20
18.640073
 30
0.0
  0
SEQEND
  5
1BF
330
1BE
100
AcDbEntity
  8
001
370
     9
  0
TEXT
  5
1C3
330
1B3
100
AcDbEntity
  8
001
370
    30
100
AcDbText
 10
64.114603
 20
20.041997
 30
0.0
 40
4.0
  1
６．７８
 41
0.833333
100
AcDbText
  0
POINT
  5
1C4
330
1B3
100
AcDbEntity
  8
001
370
     9
100
AcDbPoint
 10
60.614603
 20
25.01235
 30
0.0
  0
POINT
  5
1C5
330
1B3
100
AcDbEntity
  8
001
370
     9
100
AcDbPoint
 10
53.834603
 20
25.01235
 30
0.0
  0
POINT
  5
1C6
330
1B3
100
AcDbEntity
  8
001
370
     9
100
AcDbPoint
 10
53.834603
 20
19.041997
 30
0.0
  0
LINE
  5
1C7
330
1B3
100
AcDbEntity
  8
001
370
     9
100
AcDbLine
 10
60.614603
 20
19.041997
 30
0.0
 11
83.114603
 21
19.041997
 31
0.0
  0
LINE
  5
1C8
330
1B3
100
AcDbEntity
  8
001
370
     9
100
AcDbLine
 10
53.834603
 20
19.041997
 30
0.0
 11
51.334603
 21
19.041997
 31
0.0
  0
ENDBLK
  5
1B5
330
1B3
100
AcDbEntity
  8
0
100
AcDbBlockEnd
  0
BLOCK
  5
1CA
330
1C9
100
AcDbEntity
  8
0
100
AcDbBlockBegin
  2
*D19
 70
     1
 10
0.0
 20
0.0
 30
0.0
  3
*D19
  1

  0
LINE
  5
1CC
330
1C9
100
AcDbEntity
  8
001
370
     9
100
AcDbLine
 10
53.014119
 20
47.115031
 30
0.0
 11
32.819965
 21
47.115031
 31
0.0
  0
LINE
  5
1CD
330
1C9
100
AcDbEntity
  8
001
370
     9
100
AcDbLine
 10
48.734003
 20
41.615031
 30
0.0
 11
32.819965
 21
41.615031
 31
0.0
  0
LINE
  5
1CE
330
1C9
100
AcDbEntity
  8
001
370
     9
100
AcDbLine
 10
35.569965
 20
47.115031
 30
0.0
 11
35.569965
 21
41.615031
 31
0.0
  0
POLYLINE
  5
1CF
330
1C9
100
AcDbEntity
  8
001
370
     9
100
AcDb2dPolyline
 66
     1
 10
0.0
 20
0.0
 30
0.0
  0
VERTEX
  5
1D1
330
1CF
100
AcDbEntity
  8
001
370
     9
100
AcDbVertex
100
AcDb2dVertex
 10
35.971889
 20
48.615031
 30
0.0
  0
VERTEX
  5
1D2
330
1CF
100
AcDbEntity
  8
001
370
     9
100
AcDbVertex
100
AcDb2dVertex
 10
35.569965
 20
47.115031
 30
0.0
  0
VERTEX
  5
1D3
330
1CF
100
AcDbEntity
  8
001
370
     9
100
AcDbVertex
100
AcDb2dVertex
 10
35.168042
 20
48.615031
 30
0.0
  0
SEQEND
  5
1D0
330
1CF
100
AcDbEntity
  8
001
370
     9
  0
POLYLINE
  5
1D4
330
1C9
100
AcDbEntity
  8
001
370
     9
100
AcDb2dPolyline
 66
     1
 10
0.0
 20
0.0
 30
0.0
  0
VERTEX
  5
1D6
330
1D4
100
AcDbEntity
  8
001
370
     9
100
AcDbVertex
100
AcDb2dVertex
 10
35.168042
 20
40.115031
 30
0.0
  0
VERTEX
  5
1D7
330
1D4
100
AcDbEntity
  8
001
370
     9
100
AcDbVertex
100
AcDb2dVertex
 10
35.569965
 20
41.615031
 30
0.0
  0
VERTEX
  5
1D8
330
1D4
100
AcDbEntity
  8
001
370
     9
100
AcDbVertex
100
AcDb2dVertex
 10
35.971889
 20
40.115031
 30
0.0
  0
SEQEND
  5
1D5
330
1D4
100
AcDbEntity
  8
001
370
     9
  0
TEXT
  5
1D9
330
1C9
100
AcDbEntity
  8
001
370
    30
100
AcDbText
 10
34.569965
 20
50.615031
 30
0.0
 40
4.0
  1
５．５
 50
90.000003
 41
0.833333
100
AcDbText
  0
POINT
  5
1DA
330
1C9
100
AcDbEntity
  8
001
370
     9
100
AcDbPoint
 10
53.014119
 20
47.115031
 30
0.0
  0
POINT
  5
1DB
330
1C9
100
AcDbEntity
  8
001
370
     9
100
AcDbPoint
 10
48.734003
 20
41.615031
 30
0.0
  0
POINT
  5
1DC
330
1C9
100
AcDbEntity
  8
001
370
     9
100
AcDbPoint
 10
35.569965
 20
41.615031
 30
0.0
  0
LINE
  5
1DD
330
1C9
100
AcDbEntity
  8
001
370
     9
100
AcDbLine
 10
35.569965
 20
47.115031
 30
0.0
 11
35.569965
 21
65.615031
 31
0.0
  0
LINE
  5
1DE
330
1C9
100
AcDbEntity
  8
001
370
     9
100
AcDbLine
 10
35.569965
 20
41.615031
 30
0.0
 11
35.569965
 21
39.115031
 31
0.0
  0
ENDBLK
  5
1CB
330
1C9
100
AcDbEntity
  8
0
100
AcDbBlockEnd
  0
BLOCK
  5
1E0
330
1DF
100
AcDbEntity
  8
0
100
AcDbBlockBegin
  2
DIM-3
 70
     0
 10
0.0
 20
0.0
 30
0.0
  3
DIM-3
  1

  0
TEXT
  5
1E2
330
1DF
100
AcDbEntity
  8
001
370
    30
100
AcDbText
 10
37.250025
 20
24.597116
 30
0.0
 40
4.0
  1
Ｒ３
 41
0.833333
100
AcDbText
  0
POLYLINE
  5
1E3
330
1DF
100
AcDbEntity
  8
001
370
     9
100
AcDb2dPolyline
 66
     1
 10
0.0
 20
0.0
 30
0.0
  0
VERTEX
  5
1E5
330
1E3
100
AcDbEntity
  8
001
370
     9
100
AcDbVertex
100
AcDb2dVertex
 10
58.527834
 20
39.760615
 30
0.0
  0
VERTEX
  5
1E6
330
1E3
100
AcDbEntity
  8
001
370
     9
100
AcDbVertex
100
AcDb2dVertex
 10
59.735924
 20
40.736352
 30
0.0
  0
VERTEX
  5
1E7
330
1E3
100
AcDbEntity
  8
001
370
     9
100
AcDbVertex
100
AcDb2dVertex
 10
59.177556
 20
39.287294
 30
0.0
  0
SEQEND
  5
1E4
330
1E3
100
AcDbEntity
  8
001
370
     9
  0
POLYLINE
  5
1E8
330
1DF
100
AcDbEntity
  8
001
370
     9
100
AcDb2dPolyline
 66
     1
 10
0.0
 20
0.0
 30
0.0
  0
VERTEX
  5
1EA
330
1E8
100
AcDbEntity
  8
001
370
     9
100
AcDbVertex
100
AcDb2dVertex
 10
59.735924
 20
40.736352
 30
0.0
  0
VERTEX
  5
1EB
330
1E8
100
AcDbEntity
  8
001
370
     9
100
AcDbVertex
100
AcDb2dVertex
 10
47.250025
 20
23.597116
 30
0.0
  0
VERTEX
  5
1EC
330
1E8
100
AcDbEntity
  8
001
370
     9
100
AcDbVertex
100
AcDb2dVertex
 10
35.250025
 20
23.597116
 30
0.0
  0
SEQEND
  5
1E9
330
1E8
100
AcDbEntity
  8
001
370
     9
  0
ENDBLK
  5
1E1
330
1DF
100
AcDbEntity
  8
0
100
AcDbBlockEnd
  0
BLOCK
  5
1EE
330
1ED
100
AcDbEntity
  8
0
100
AcDbBlockBegin
  2
*D21
 70
     1
 10
0.0
 20
0.0
 30
0.0
  3
*D21
  1

  0
LINE
  5
1F0
330
1ED
100
AcDbEntity
  8
001
370
     9
100
AcDbLine
 10
200.834603
 20
59.615031
 30
0.0
 11
225.695953
 21
59.615031
 31
0.0
  0
LINE
  5
1F1
330
1ED
100
AcDbEntity
  8
001
370
     9
100
AcDbLine
 10
200.834603
 20
34.615031
 30
0.0
 11
225.695953
 21
34.615031
 31
0.0
  0
LINE
  5
1F2
330
1ED
100
AcDbEntity
  8
001
370
     9
100
AcDbLine
 10
222.945953
 20
59.615031
 30
0.0
 11
222.945953
 21
34.615031
 31
0.0
  0
POLYLINE
  5
1F3
330
1ED
100
AcDbEntity
  8
001
370
     9
100
AcDb2dPolyline
 66
     1
 10
0.0
 20
0.0
 30
0.0
  0
VERTEX
  5
1F5
330
1F3
100
AcDbEntity
  8
001
370
     9
100
AcDbVertex
100
AcDb2dVertex
 10
222.544029
 20
58.115031
 30
0.0
  0
VERTEX
  5
1F6
330
1F3
100
AcDbEntity
  8
001
370
     9
100
AcDbVertex
100
AcDb2dVertex
 10
222.945953
 20
59.615031
 30
0.0
  0
VERTEX
  5
1F7
330
1F3
100
AcDbEntity
  8
001
370
     9
100
AcDbVertex
100
AcDb2dVertex
 10
223.347877
 20
58.115031
 30
0.0
  0
SEQEND
  5
1F4
330
1F3
100
AcDbEntity
  8
001
370
     9
  0
POLYLINE
  5
1F8
330
1ED
100
AcDbEntity
  8
001
370
     9
100
AcDb2dPolyline
 66
     1
 10
0.0
 20
0.0
 30
0.0
  0
VERTEX
  5
1FA
330
1F8
100
AcDbEntity
  8
001
370
     9
100
AcDbVertex
100
AcDb2dVertex
 10
223.347877
 20
36.115031
 30
0.0
  0
VERTEX
  5
1FB
330
1F8
100
AcDbEntity
  8
001
370
     9
100
AcDbVertex
100
AcDb2dVertex
 10
222.945953
 20
34.615031
 30
0.0
  0
VERTEX
  5
1FC
330
1F8
100
AcDbEntity
  8
001
370
     9
100
AcDbVertex
100
AcDb2dVertex
 10
222.544029
 20
36.115031
 30
0.0
  0
SEQEND
  5
1F9
330
1F8
100
AcDbEntity
  8
001
370
     9
  0
TEXT
  5
1FD
330
1ED
100
AcDbEntity
  8
001
370
    30
100
AcDbText
 10
221.945953
 20
40.303625
 30
0.0
 40
4.0
  1
%%c２５
 50
90.000003
 41
0.882353
100
AcDbText
  0
POINT
  5
1FE
330
1ED
100
AcDbEntity
  8
001
370
     9
100
AcDbPoint
 10
200.834603
 20
59.615031
 30
0.0
  0
POINT
  5
1FF
330
1ED
100
AcDbEntity
  8
001
370
     9
100
AcDbPoint
 10
200.834603
 20
34.615031
 30
0.0
  0
POINT
  5
200
330
1ED
100
AcDbEntity
  8
001
370
     9
100
AcDbPoint
 10
222.945953
 20
34.615031
 30
0.0
  0
ENDBLK
  5
1EF
330
1ED
100
AcDbEntity
  8
0
100
AcDbBlockEnd
  0
BLOCK
  5
202
330
201
100
AcDbEntity
  8
0
100
AcDbBlockBegin
  2
*D22
 70
     1
 10
0.0
 20
0.0
 30
0.0
  3
*D22
  1

  0
LINE
  5
204
330
201
100
AcDbEntity
  8
001
370
     9
100
AcDbLine
 10
103.834603
 20
392.589483
 30
0.0
 11
103.834603
 21
360.918692
 31
0.0
  0
LINE
  5
205
330
201
100
AcDbEntity
  8
001
370
     9
100
AcDbLine
 10
53.834603
 20
387.412616
 30
0.0
 11
53.834603
 21
360.918692
 31
0.0
  0
LINE
  5
206
330
201
100
AcDbEntity
  8
001
370
     9
100
AcDbLine
 10
103.834603
 20
363.668692
 30
0.0
 11
53.834603
 21
363.668692
 31
0.0
  0
POLYLINE
  5
207
330
201
100
AcDbEntity
  8
001
370
     9
100
AcDb2dPolyline
 66
     1
 10
0.0
 20
0.0
 30
0.0
  0
VERTEX
  5
209
330
207
100
AcDbEntity
  8
001
370
     9
100
AcDbVertex
100
AcDb2dVertex
 10
102.334603
 20
364.070616
 30
0.0
  0
VERTEX
  5
20A
330
207
100
AcDbEntity
  8
001
370
     9
100
AcDbVertex
100
AcDb2dVertex
 10
103.834603
 20
363.668692
 30
0.0
  0
VERTEX
  5
20B
330
207
100
AcDbEntity
  8
001
370
     9
100
AcDbVertex
100
AcDb2dVertex
 10
102.334603
 20
363.266768
 30
0.0
  0
SEQEND
  5
208
330
207
100
AcDbEntity
  8
001
370
     9
  0
POLYLINE
  5
20C
330
201
100
AcDbEntity
  8
001
370
     9
100
AcDb2dPolyline
 66
     1
 10
0.0
 20
0.0
 30
0.0
  0
VERTEX
  5
20E
330
20C
100
AcDbEntity
  8
001
370
     9
100
AcDbVertex
100
AcDb2dVertex
 10
55.334603
 20
363.266768
 30
0.0
  0
VERTEX
  5
20F
330
20C
100
AcDbEntity
  8
001
370
     9
100
AcDbVertex
100
AcDb2dVertex
 10
53.834603
 20
363.668692
 30
0.0
  0
VERTEX
  5
210
330
20C
100
AcDbEntity
  8
001
370
     9
100
AcDbVertex
100
AcDb2dVertex
 10
55.334603
 20
364.070616
 30
0.0
  0
SEQEND
  5
20D
330
20C
100
AcDbEntity
  8
001
370
     9
  0
TEXT
  5
211
330
201
100
AcDbEntity
  8
001
370
    30
100
AcDbText
 10
74.834603
 20
364.668692
 30
0.0
 40
4.0
  1
５０
 41
0.833333
100
AcDbText
  0
POINT
  5
212
330
201
100
AcDbEntity
  8
001
370
     9
100
AcDbPoint
 10
103.834603
 20
392.589483
 30
0.0
  0
POINT
  5
213
330
201
100
AcDbEntity
  8
001
370
     9
100
AcDbPoint
 10
53.834603
 20
387.412616
 30
0.0
  0
POINT
  5
214
330
201
100
AcDbEntity
  8
001
370
     9
100
AcDbPoint
 10
53.834603
 20
363.668692
 30
0.0
  0
ENDBLK
  5
203
330
201
100
AcDbEntity
  8
0
100
AcDbBlockEnd
  0
BLOCK
  5
216
330
215
100
AcDbEntity
  8
0
100
AcDbBlockBegin
  2
*D23
 70
     1
 10
0.0
 20
0.0
 30
0.0
  3
*D23
  1

  0
LINE
  5
218
330
215
100
AcDbEntity
  8
001
370
     9
100
AcDbLine
 10
203.834603
 20
394.639483
 30
0.0
 11
203.834603
 21
360.918692
 31
0.0
  0
LINE
  5
219
330
215
100
AcDbEntity
  8
001
370
     9
100
AcDbLine
 10
103.834603
 20
392.589483
 30
0.0
 11
103.834603
 21
360.918692
 31
0.0
  0
LINE
  5
21A
330
215
100
AcDbEntity
  8
001
370
     9
100
AcDbLine
 10
203.834603
 20
363.668692
 30
0.0
 11
103.834603
 21
363.668692
 31
0.0
  0
POLYLINE
  5
21B
330
215
100
AcDbEntity
  8
001
370
     9
100
AcDb2dPolyline
 66
     1
 10
0.0
 20
0.0
 30
0.0
  0
VERTEX
  5
21D
330
21B
100
AcDbEntity
  8
001
370
     9
100
AcDbVertex
100
AcDb2dVertex
 10
202.334603
 20
364.070616
 30
0.0
  0
VERTEX
  5
21E
330
21B
100
AcDbEntity
  8
001
370
     9
100
AcDbVertex
100
AcDb2dVertex
 10
203.834603
 20
363.668692
 30
0.0
  0
VERTEX
  5
21F
330
21B
100
AcDbEntity
  8
001
370
     9
100
AcDbVertex
100
AcDb2dVertex
 10
202.334603
 20
363.266768
 30
0.0
  0
SEQEND
  5
21C
330
21B
100
AcDbEntity
  8
001
370
     9
  0
POLYLINE
  5
220
330
215
100
AcDbEntity
  8
001
370
     9
100
AcDb2dPolyline
 66
     1
 10
0.0
 20
0.0
 30
0.0
  0
VERTEX
  5
222
330
220
100
AcDbEntity
  8
001
370
     9
100
AcDbVertex
100
AcDb2dVertex
 10
105.334603
 20
363.266768
 30
0.0
  0
VERTEX
  5
223
330
220
100
AcDbEntity
  8
001
370
     9
100
AcDbVertex
100
AcDb2dVertex
 10
103.834603
 20
363.668692
 30
0.0
  0
VERTEX
  5
224
330
220
100
AcDbEntity
  8
001
370
     9
100
AcDbVertex
100
AcDb2dVertex
 10
105.334603
 20
364.070616
 30
0.0
  0
SEQEND
  5
221
330
220
100
AcDbEntity
  8
001
370
     9
  0
TEXT
  5
225
330
215
100
AcDbEntity
  8
001
370
    30
100
AcDbText
 10
147.834603
 20
364.668692
 30
0.0
 40
4.0
  1
１００
 41
0.833333
100
AcDbText
  0
POINT
  5
226
330
215
100
AcDbEntity
  8
001
370
     9
100
AcDbPoint
 10
203.834603
 20
394.639483
 30
0.0
  0
POINT
  5
227
330
215
100
AcDbEntity
  8
001
370
     9
100
AcDbPoint
 10
103.834603
 20
392.589483
 30
0.0
  0
POINT
  5
228
330
215
100
AcDbEntity
  8
001
370
     9
100
AcDbPoint
 10
103.834603
 20
363.668692
 30
0.0
  0
ENDBLK
  5
217
330
215
100
AcDbEntity
  8
0
100
AcDbBlockEnd
  0
BLOCK
  5
22A
330
229
100
AcDbEntity
  8
0
100
AcDbBlockBegin
  2
*D24
 70
     1
 10
0.0
 20
0.0
 30
0.0
  3
*D24
  1

  0
LINE
  5
22C
330
229
100
AcDbEntity
  8
001
370
     9
100
AcDbLine
 10
53.834603
 20
387.412616
 30
0.0
 11
53.834603
 21
350.962115
 31
0.0
  0
LINE
  5
22D
330
229
100
AcDbEntity
  8
001
370
     9
100
AcDbLine
 10
203.834603
 20
394.639483
 30
0.0
 11
203.834603
 21
350.962115
 31
0.0
  0
LINE
  5
22E
330
229
100
AcDbEntity
  8
001
370
     9
100
AcDbLine
 10
53.834603
 20
353.712115
 30
0.0
 11
203.834603
 21
353.712115
 31
0.0
  0
POLYLINE
  5
22F
330
229
100
AcDbEntity
  8
001
370
     9
100
AcDb2dPolyline
 66
     1
 10
0.0
 20
0.0
 30
0.0
  0
VERTEX
  5
231
330
22F
100
AcDbEntity
  8
001
370
     9
100
AcDbVertex
100
AcDb2dVertex
 10
55.334603
 20
353.310191
 30
0.0
  0
VERTEX
  5
232
330
22F
100
AcDbEntity
  8
001
370
     9
100
AcDbVertex
100
AcDb2dVertex
 10
53.834603
 20
353.712115
 30
0.0
  0
VERTEX
  5
233
330
22F
100
AcDbEntity
  8
001
370
     9
100
AcDbVertex
100
AcDb2dVertex
 10
55.334603
 20
354.114039
 30
0.0
  0
SEQEND
  5
230
330
22F
100
AcDbEntity
  8
001
370
     9
  0
POLYLINE
  5
234
330
229
100
AcDbEntity
  8
001
370
     9
100
AcDb2dPolyline
 66
     1
 10
0.0
 20
0.0
 30
0.0
  0
VERTEX
  5
236
330
234
100
AcDbEntity
  8
001
370
     9
100
AcDbVertex
100
AcDb2dVertex
 10
202.334603
 20
354.114039
 30
0.0
  0
VERTEX
  5
237
330
234
100
AcDbEntity
  8
001
370
     9
100
AcDbVertex
100
AcDb2dVertex
 10
203.834603
 20
353.712115
 30
0.0
  0
VERTEX
  5
238
330
234
100
AcDbEntity
  8
001
370
     9
100
AcDbVertex
100
AcDb2dVertex
 10
202.334603
 20
353.310191
 30
0.0
  0
SEQEND
  5
235
330
234
100
AcDbEntity
  8
001
370
     9
  0
TEXT
  5
239
330
229
100
AcDbEntity
  8
001
370
    30
100
AcDbText
 10
122.834603
 20
354.712115
 30
0.0
 40
4.0
  1
１５０
 41
0.833333
100
AcDbText
  0
POINT
  5
23A
330
229
100
AcDbEntity
  8
001
370
     9
100
AcDbPoint
 10
53.834603
 20
387.412616
 30
0.0
  0
POINT
  5
23B
330
229
100
AcDbEntity
  8
001
370
     9
100
AcDbPoint
 10
203.834603
 20
394.639483
 30
0.0
  0
POINT
  5
23C
330
229
100
AcDbEntity
  8
001
370
     9
100
AcDbPoint
 10
203.834603
 20
353.712115
 30
0.0
  0
ENDBLK
  5
22B
330
229
100
AcDbEntity
  8
0
100
AcDbBlockEnd
  0
BLOCK
  5
23E
330
23D
100
AcDbEntity
  8
0
100
AcDbBlockBegin
  2
*D25
 70
     1
 10
0.0
 20
0.0
 30
0.0
  3
*D25
  1

  0
LINE
  5
240
330
23D
100
AcDbEntity
  8
001
370
     9
100
AcDbLine
 10
200.834603
 20
416.639483
 30
0.0
 11
225.695953
 21
416.639483
 31
0.0
  0
LINE
  5
241
330
23D
100
AcDbEntity
  8
001
370
     9
100
AcDbLine
 10
200.834603
 20
391.639483
 30
0.0
 11
225.695953
 21
391.639483
 31
0.0
  0
LINE
  5
242
330
23D
100
AcDbEntity
  8
001
370
     9
100
AcDbLine
 10
222.945953
 20
416.639483
 30
0.0
 11
222.945953
 21
391.639483
 31
0.0
  0
POLYLINE
  5
243
330
23D
100
AcDbEntity
  8
001
370
     9
100
AcDb2dPolyline
 66
     1
 10
0.0
 20
0.0
 30
0.0
  0
VERTEX
  5
245
330
243
100
AcDbEntity
  8
001
370
     9
100
AcDbVertex
100
AcDb2dVertex
 10
222.544029
 20
415.139483
 30
0.0
  0
VERTEX
  5
246
330
243
100
AcDbEntity
  8
001
370
     9
100
AcDbVertex
100
AcDb2dVertex
 10
222.945953
 20
416.639483
 30
0.0
  0
VERTEX
  5
247
330
243
100
AcDbEntity
  8
001
370
     9
100
AcDbVertex
100
AcDb2dVertex
 10
223.347877
 20
415.139483
 30
0.0
  0
SEQEND
  5
244
330
243
100
AcDbEntity
  8
001
370
     9
  0
POLYLINE
  5
248
330
23D
100
AcDbEntity
  8
001
370
     9
100
AcDb2dPolyline
 66
     1
 10
0.0
 20
0.0
 30
0.0
  0
VERTEX
  5
24A
330
248
100
AcDbEntity
  8
001
370
     9
100
AcDbVertex
100
AcDb2dVertex
 10
223.347877
 20
393.139483
 30
0.0
  0
VERTEX
  5
24B
330
248
100
AcDbEntity
  8
001
370
     9
100
AcDbVertex
100
AcDb2dVertex
 10
222.945953
 20
391.639483
 30
0.0
  0
VERTEX
  5
24C
330
248
100
AcDbEntity
  8
001
370
     9
100
AcDbVertex
100
AcDb2dVertex
 10
222.544029
 20
393.139483
 30
0.0
  0
SEQEND
  5
249
330
248
100
AcDbEntity
  8
001
370
     9
  0
TEXT
  5
24D
330
23D
100
AcDbEntity
  8
001
370
    30
100
AcDbText
 10
221.945953
 20
397.328077
 30
0.0
 40
4.0
  1
%%c２５
 50
90.000003
 41
0.882353
100
AcDbText
  0
POINT
  5
24E
330
23D
100
AcDbEntity
  8
001
370
     9
100
AcDbPoint
 10
200.834603
 20
416.639483
 30
0.0
  0
POINT
  5
24F
330
23D
100
AcDbEntity
  8
001
370
     9
100
AcDbPoint
 10
200.834603
 20
391.639483
 30
0.0
  0
POINT
  5
250
330
23D
100
AcDbEntity
  8
001
370
     9
100
AcDbPoint
 10
222.945953
 20
391.639483
 30
0.0
  0
ENDBLK
  5
23F
330
23D
100
AcDbEntity
  8
0
100
AcDbBlockEnd
  0
BLOCK
  5
252
330
251
100
AcDbEntity
  8
0
100
AcDbBlockBegin
  2
*D26
 70
     1
 10
0.0
 20
0.0
 30
0.0
  3
*D26
  1

  0
LINE
  5
254
330
251
100
AcDbEntity
  8
001
370
     9
100
AcDbLine
 10
64.434603
 20
391.639483
 30
0.0
 11
64.434603
 21
371.381618
 31
0.0
  0
LINE
  5
255
330
251
100
AcDbEntity
  8
001
370
     9
100
AcDbLine
 10
53.834603
 20
387.412616
 30
0.0
 11
53.834603
 21
371.381618
 31
0.0
  0
LINE
  5
256
330
251
100
AcDbEntity
  8
001
370
     9
100
AcDbLine
 10
64.434603
 20
374.131618
 30
0.0
 11
53.834603
 21
374.131618
 31
0.0
  0
POLYLINE
  5
257
330
251
100
AcDbEntity
  8
001
370
     9
100
AcDb2dPolyline
 66
     1
 10
0.0
 20
0.0
 30
0.0
  0
VERTEX
  5
259
330
257
100
AcDbEntity
  8
001
370
     9
100
AcDbVertex
100
AcDb2dVertex
 10
65.934603
 20
373.729694
 30
0.0
  0
VERTEX
  5
25A
330
257
100
AcDbEntity
  8
001
370
     9
100
AcDbVertex
100
AcDb2dVertex
 10
64.434603
 20
374.131618
 30
0.0
  0
VERTEX
  5
25B
330
257
100
AcDbEntity
  8
001
370
     9
100
AcDbVertex
100
AcDb2dVertex
 10
65.934603
 20
374.533542
 30
0.0
  0
SEQEND
  5
258
330
257
100
AcDbEntity
  8
001
370
     9
  0
POLYLINE
  5
25C
330
251
100
AcDbEntity
  8
001
370
     9
100
AcDb2dPolyline
 66
     1
 10
0.0
 20
0.0
 30
0.0
  0
VERTEX
  5
25E
330
25C
100
AcDbEntity
  8
001
370
     9
100
AcDbVertex
100
AcDb2dVertex
 10
52.334603
 20
374.533542
 30
0.0
  0
VERTEX
  5
25F
330
25C
100
AcDbEntity
  8
001
370
     9
100
AcDbVertex
100
AcDb2dVertex
 10
53.834603
 20
374.131618
 30
0.0
  0
VERTEX
  5
260
330
25C
100
AcDbEntity
  8
001
370
     9
100
AcDbVertex
100
AcDb2dVertex
 10
52.334603
 20
373.729694
 30
0.0
  0
SEQEND
  5
25D
330
25C
100
AcDbEntity
  8
001
370
     9
  0
TEXT
  5
261
330
251
100
AcDbEntity
  8
001
370
    30
100
AcDbText
 10
26.334603
 20
375.131618
 30
0.0
 40
4.0
  1
（１０．６）
 41
0.833333
100
AcDbText
  0
POINT
  5
262
330
251
100
AcDbEntity
  8
001
370
     9
100
AcDbPoint
 10
64.434603
 20
391.639483
 30
0.0
  0
POINT
  5
263
330
251
100
AcDbEntity
  8
001
370
     9
100
AcDbPoint
 10
53.834603
 20
387.412616
 30
0.0
  0
POINT
  5
264
330
251
100
AcDbEntity
  8
001
370
     9
100
AcDbPoint
 10
53.834603
 20
374.131618
 30
0.0
  0
LINE
  5
265
330
251
100
AcDbEntity
  8
001
370
     9
100
AcDbLine
 10
64.434603
 20
374.131618
 30
0.0
 11
66.934603
 21
374.131618
 31
0.0
  0
LINE
  5
266
330
251
100
AcDbEntity
  8
001
370
     9
100
AcDbLine
 10
53.834603
 20
374.131618
 30
0.0
 11
23.334603
 21
374.131618
 31
0.0
  0
ENDBLK
  5
253
330
251
100
AcDbEntity
  8
0
100
AcDbBlockEnd
  0
BLOCK
  5
268
330
267
100
AcDbEntity
  8
0
100
AcDbBlockBegin
  2
*D27
 70
     1
 10
0.0
 20
0.0
 30
0.0
  3
*D27
  1

  0
LINE
  5
26A
330
267
100
AcDbEntity
  8
001
370
     9
100
AcDbLine
 10
64.317446
 20
391.75664
 30
0.0
 11
80.974432
 21
375.099654
 31
0.0
  0
ARC
  5
26B
330
267
100
AcDbEntity
  8
001
370
     9
100
AcDbCircle
 10
51.934603
 20
404.139483
 30
0.0
 40
38.31852003424628
100
AcDbArc
 50
315.0
 51
0.0
  0
POLYLINE
  5
26C
330
267
100
AcDbEntity
  8
001
370
     9
100
AcDb2dPolyline
 66
     1
 10
0.0
 20
0.0
 30
0.0
  0
VERTEX
  5
26E
330
26C
100
AcDbEntity
  8
001
370
     9
100
AcDbVertex
100
AcDb2dVertex
 10
89.821919
 20
402.647637
 30
0.0
  0
VERTEX
  5
26F
330
26C
100
AcDbEntity
  8
001
370
     9
100
AcDbVertex
100
AcDb2dVertex
 10
90.253123
 20
404.139483
 30
0.0
  0
VERTEX
  5
270
330
26C
100
AcDbEntity
  8
001
370
     9
100
AcDbVertex
100
AcDb2dVertex
 10
90.625613
 20
402.631904
 30
0.0
  0
SEQEND
  5
26D
330
26C
100
AcDbEntity
  8
001
370
     9
  0
POLYLINE
  5
271
330
267
100
AcDbEntity
  8
001
370
     9
100
AcDb2dPolyline
 66
     1
 10
0.0
 20
0.0
 30
0.0
  0
VERTEX
  5
273
330
271
100
AcDbEntity
  8
001
370
     9
100
AcDbVertex
100
AcDb2dVertex
 10
80.359298
 20
377.846827
 30
0.0
  0
VERTEX
  5
274
330
271
100
AcDbEntity
  8
001
370
     9
100
AcDbVertex
100
AcDb2dVertex
 10
79.029889
 20
377.044198
 30
0.0
  0
VERTEX
  5
275
330
271
100
AcDbEntity
  8
001
370
     9
100
AcDbVertex
100
AcDb2dVertex
 10
79.779876
 20
378.404
 30
0.0
  0
SEQEND
  5
272
330
271
100
AcDbEntity
  8
001
370
     9
  0
TEXT
  5
276
330
267
100
AcDbEntity
  8
001
370
    30
100
AcDbText
 10
81.15162
 20
380.159536
 30
0.0
 40
4.0
  1
４５%%d
 50
59.756205
 41
0.978261
100
AcDbText
  0
POINT
  5
277
330
267
100
AcDbEntity
  8
001
370
     9
100
AcDbPoint
 10
64.317446
 20
391.75664
 30
0.0
  0
POINT
  5
278
330
267
100
AcDbEntity
  8
001
370
     9
100
AcDbPoint
 10
51.934603
 20
404.139483
 30
0.0
  0
POINT
  5
279
330
267
100
AcDbEntity
  8
001
370
     9
100
AcDbPoint
 10
51.934603
 20
404.139483
 30
0.0
  0
POINT
  5
27A
330
267
100
AcDbEntity
  8
001
370
     9
100
AcDbPoint
 10
53.014119
 20
404.139483
 30
0.0
  0
ENDBLK
  5
269
330
267
100
AcDbEntity
  8
0
100
AcDbBlockEnd
  0
ENDSEC
  0
SECTION
  2
ENTITIES
  0
DIMENSION
  5
27B
330
1F
100
AcDbEntity
  8
001
370
     9
100
AcDbDimension
  2
*D1
 10
53.834603
 20
243.509593
 30
0.0
 11
78.834603
 21
246.509593
 31
0.0
 70
   160
 71
     5
 42
-1.0
  3
Standard
100
AcDbAlignedDimension
 13
103.834603
 23
272.430384
 33
0.0
 14
53.834603
 24
267.253517
 34
0.0
 50
180.0
100
AcDbRotatedDimension
  0
DIMENSION
  5
27C
330
1F
100
AcDbEntity
  8
001
370
     9
100
AcDbDimension
  2
*D2
 10
103.834603
 20
243.509593
 30
0.0
 11
153.834603
 21
246.509593
 31
0.0
 70
   160
 71
     5
 42
-1.0
  3
Standard
100
AcDbAlignedDimension
 13
203.834603
 23
274.480384
 33
0.0
 14
103.834603
 24
272.430384
 34
0.0
 50
180.0
100
AcDbRotatedDimension
  0
DIMENSION
  5
27D
330
1F
100
AcDbEntity
  8
001
370
     9
100
AcDbDimension
  2
*D3
 10
203.834603
 20
233.553016
 30
0.0
 11
128.834603
 21
236.553016
 31
0.0
 70
   160
 71
     5
 42
-1.0
  3
Standard
100
AcDbAlignedDimension
 13
53.834603
 23
267.253517
 33
0.0
 14
203.834603
 24
274.480384
 34
0.0
100
AcDbRotatedDimension
  0
TEXT
  5
27E
330
1F
100
AcDbEntity
  8
001
370
    30
100
AcDbText
 10
27.179186
 20
277.980384
 30
0.0
 40
4.0
  1
%%c２５
 50
90.000003
 41
0.882353
100
AcDbText
  0
POLYLINE
  5
27F
330
1F
100
AcDbEntity
  8
001
370
     9
100
AcDb2dPolyline
 66
     1
 10
0.0
 20
0.0
 30
0.0
  0
VERTEX
  5
281
330
27F
100
AcDbEntity
  8
001
370
     9
100
AcDbVertex
100
AcDb2dVertex
 10
28.58111
 20
272.980384
 30
0.0
  0
VERTEX
  5
282
330
27F
100
AcDbEntity
  8
001
370
     9
100
AcDbVertex
100
AcDb2dVertex
 10
28.179186
 20
271.480384
 30
0.0
  0
VERTEX
  5
283
330
27F
100
AcDbEntity
  8
001
370
     9
100
AcDbVertex
100
AcDb2dVertex
 10
27.777262
 20
272.980384
 30
0.0
  0
SEQEND
  5
280
330
27F
100
AcDbEntity
  8
001
370
     9
  0
LINE
  5
284
330
1F
100
AcDbEntity
  8
001
370
     9
100
AcDbLine
 10
28.179186
 20
296.480384
 30
0.0
 11
28.179186
 21
271.480384
 31
0.0
  0
POLYLINE
  5
285
330
1F
100
AcDbEntity
  8
001
370
     9
100
AcDb2dPolyline
 66
     1
 10
0.0
 20
0.0
 30
0.0
  0
VERTEX
  5
287
330
285
100
AcDbEntity
  8
001
370
     9
100
AcDbVertex
100
AcDb2dVertex
 10
49.317532
 20
271.480384
 30
0.0
  0
VERTEX
  5
288
330
285
100
AcDbEntity
  8
001
370
     9
100
AcDbVertex
100
AcDb2dVertex
 10
28.179186
 20
271.480384
 30
0.0
  0
VERTEX
  5
289
330
285
100
AcDbEntity
  8
001
370
     9
100
AcDbVertex
100
AcDb2dVertex
 10
25.429186
 20
271.480384
 30
0.0
  0
SEQEND
  5
286
330
285
100
AcDbEntity
  8
001
370
     9
  0
INSERT
  5
28A
330
1F
100
AcDbEntity
  8
001
  6
ByBlock
 62
     0
370
    -2
100
AcDbBlockReference
  2
DIM-1
 10
0.0
 20
0.0
 30
0.0
  0
DIMENSION
  5
28B
330
1F
100
AcDbEntity
  8
001
370
     9
100
AcDbDimension
  2
*D5
 10
222.945953
 20
271.480384
 30
0.0
 11
219.945953
 21
283.168978
 31
0.0
 70
   160
 71
     5
 42
-1.0
  3
Standard
100
AcDbAlignedDimension
 13
200.834603
 23
296.480384
 33
0.0
 14
200.834603
 24
271.480384
 34
0.0
 50
270.0
100
AcDbRotatedDimension
  0
DIMENSION
  5
28C
330
1F
100
AcDbEntity
  8
001
370
     9
100
AcDbDimension
  2
*D6
 10
53.834603
 20
120.588214
 30
0.0
 11
78.834603
 21
123.588214
 31
0.0
 70
   160
 71
     5
 42
-1.0
  3
Standard
100
AcDbAlignedDimension
 13
103.834603
 23
149.509005
 33
0.0
 14
53.834603
 24
144.332139
 34
0.0
 50
180.0
100
AcDbRotatedDimension
  0
DIMENSION
  5
28D
330
1F
100
AcDbEntity
  8
001
370
     9
100
AcDbDimension
  2
*D7
 10
103.834603
 20
120.588214
 30
0.0
 11
153.834603
 21
123.588214
 31
0.0
 70
   160
 71
     5
 42
-1.0
  3
Standard
100
AcDbAlignedDimension
 13
203.834603
 23
151.559005
 33
0.0
 14
103.834603
 24
149.509005
 34
0.0
 50
180.0
100
AcDbRotatedDimension
  0
DIMENSION
  5
28E
330
1F
100
AcDbEntity
  8
001
370
     9
100
AcDbDimension
  2
*D8
 10
203.834603
 20
110.631638
 30
0.0
 11
128.834603
 21
113.631638
 31
0.0
 70
   160
 71
     5
 42
-1.0
  3
Standard
100
AcDbAlignedDimension
 13
53.834603
 23
144.332139
 33
0.0
 14
203.834603
 24
151.559005
 34
0.0
100
AcDbRotatedDimension
  0
DIMENSION
  5
28F
330
1F
100
AcDbEntity
  8
001
370
     9
100
AcDbDimension
  2
*D9
 10
222.945953
 20
148.559005
 30
0.0
 11
219.945953
 21
160.247599
 31
0.0
 70
   160
 71
     5
 42
-1.0
  3
Standard
100
AcDbAlignedDimension
 13
200.834603
 23
173.559005
 33
0.0
 14
200.834603
 24
148.559005
 34
0.0
 50
270.0
100
AcDbRotatedDimension
  0
INSERT
  5
290
330
1F
100
AcDbEntity
  8
001
  6
ByBlock
 62
     0
370
    -2
100
AcDbBlockReference
  2
DIM-2
 10
0.0
 20
0.0
 30
0.0
  0
DIMENSION
  5
291
330
1F
100
AcDbEntity
  8
001
370
     9
100
AcDbDimension
  2
*D11
 10
35.919652
 20
161.059005
 30
0.0
 11
32.919652
 21
172.559005
 31
0.0
 70
   160
 71
     5
 42
-1.0
  3
Standard
100
AcDbAlignedDimension
 13
46.207824
 23
155.129005
 33
0.0
 14
53.014119
 24
161.059005
 34
0.0
 50
90.0
100
AcDbRotatedDimension
  0
DIMENSION
  5
292
330
1F
100
AcDbEntity
  8
001
370
     9
100
AcDbDimension
  2
*D12
 10
36.350751
 20
283.980384
 30
0.0
 11
33.35075
 21
293.480384
 31
0.0
 70
   160
 71
     5
 42
-1.0
  3
Standard
100
AcDbAlignedDimension
 13
49.317532
 23
277.580384
 33
0.0
 14
53.014119
 24
283.980384
 34
0.0
 50
90.0
100
AcDbRotatedDimension
  0
TEXT
  5
293
330
1F
100
AcDbEntity
  8
001
370
    30
100
AcDbText
 10
42.204182
 20
156.642308
 30
0.0
 40
4.0
  1
%%c３．８
 50
90.000003
 41
0.869565
100
AcDbText
  0
POLYLINE
  5
294
330
1F
100
AcDbEntity
  8
001
370
     9
100
AcDb2dPolyline
 66
     1
 10
0.0
 20
0.0
 30
0.0
  0
VERTEX
  5
296
330
294
100
AcDbEntity
  8
001
370
     9
100
AcDbVertex
100
AcDb2dVertex
 10
45.235747
 20
160.659005
 30
0.0
  0
VERTEX
  5
297
330
294
100
AcDbEntity
  8
001
370
     9
100
AcDbVertex
100
AcDb2dVertex
 10
44.833823
 20
159.159005
 30
0.0
  0
VERTEX
  5
298
330
294
100
AcDbEntity
  8
001
370
     9
100
AcDbVertex
100
AcDb2dVertex
 10
44.431899
 20
160.659005
 30
0.0
  0
SEQEND
  5
295
330
294
100
AcDbEntity
  8
001
370
     9
  0
LINE
  5
299
330
1F
100
AcDbEntity
  8
001
370
     9
100
AcDbLine
 10
44.833823
 20
162.959005
 30
0.0
 11
44.833823
 21
159.159005
 31
0.0
  0
POLYLINE
  5
29A
330
1F
100
AcDbEntity
  8
001
370
     9
100
AcDb2dPolyline
 66
     1
 10
0.0
 20
0.0
 30
0.0
  0
VERTEX
  5
29C
330
29A
100
AcDbEntity
  8
001
370
     9
100
AcDbVertex
100
AcDb2dVertex
 10
49.317532
 20
159.159005
 30
0.0
  0
VERTEX
  5
29D
330
29A
100
AcDbEntity
  8
001
370
     9
100
AcDbVertex
100
AcDb2dVertex
 10
44.833823
 20
159.159005
 30
0.0
  0
VERTEX
  5
29E
330
29A
100
AcDbEntity
  8
001
370
     9
100
AcDbVertex
100
AcDb2dVertex
 10
42.083823
 20
159.159005
 30
0.0
  0
SEQEND
  5
29B
330
29A
100
AcDbEntity
  8
001
370
     9
  0
TEXT
  5
29F
330
1F
100
AcDbEntity
  8
001
370
    30
100
AcDbText
 10
42.508183
 20
279.52059
 30
0.0
 40
4.0
  1
%%c３．８
 50
90.000003
 41
0.869565
100
AcDbText
  0
POLYLINE
  5
2A0
330
1F
100
AcDbEntity
  8
001
370
     9
100
AcDb2dPolyline
 66
     1
 10
0.0
 20
0.0
 30
0.0
  0
VERTEX
  5
2A2
330
2A0
100
AcDbEntity
  8
001
370
     9
100
AcDbVertex
100
AcDb2dVertex
 10
45.235747
 20
283.580384
 30
0.0
  0
VERTEX
  5
2A3
330
2A0
100
AcDbEntity
  8
001
370
     9
100
AcDbVertex
100
AcDb2dVertex
 10
44.833823
 20
282.080384
 30
0.0
  0
VERTEX
  5
2A4
330
2A0
100
AcDbEntity
  8
001
370
     9
100
AcDbVertex
100
AcDb2dVertex
 10
44.431899
 20
283.580384
 30
0.0
  0
SEQEND
  5
2A1
330
2A0
100
AcDbEntity
  8
001
370
     9
  0
LINE
  5
2A5
330
1F
100
AcDbEntity
  8
001
370
     9
100
AcDbLine
 10
44.833823
 20
285.880384
 30
0.0
 11
44.833823
 21
282.080384
 31
0.0
  0
POLYLINE
  5
2A6
330
1F
100
AcDbEntity
  8
001
370
     9
100
AcDb2dPolyline
 66
     1
 10
0.0
 20
0.0
 30
0.0
  0
VERTEX
  5
2A8
330
2A6
100
AcDbEntity
  8
001
370
     9
100
AcDbVertex
100
AcDb2dVertex
 10
49.317532
 20
282.080384
 30
0.0
  0
VERTEX
  5
2A9
330
2A6
100
AcDbEntity
  8
001
370
     9
100
AcDbVertex
100
AcDb2dVertex
 10
44.833823
 20
282.080384
 30
0.0
  0
VERTEX
  5
2AA
330
2A6
100
AcDbEntity
  8
001
370
     9
100
AcDbVertex
100
AcDb2dVertex
 10
42.083823
 20
282.080384
 30
0.0
  0
SEQEND
  5
2A7
330
2A6
100
AcDbEntity
  8
001
370
     9
  0
TEXT
  5
2AB
330
1F
100
AcDbEntity
  8
001
370
    30
100
AcDbText
 10
26.179186
 20
155.059005
 30
0.0
 40
4.0
  1
%%c２５
 50
90.000003
 41
0.882353
100
AcDbText
  0
POLYLINE
  5
2AC
330
1F
100
AcDbEntity
  8
001
370
     9
100
AcDb2dPolyline
 66
     1
 10
0.0
 20
0.0
 30
0.0
  0
VERTEX
  5
2AE
330
2AC
100
AcDbEntity
  8
001
370
     9
100
AcDbVertex
100
AcDb2dVertex
 10
27.58111
 20
150.059005
 30
0.0
  0
VERTEX
  5
2AF
330
2AC
100
AcDbEntity
  8
001
370
     9
100
AcDbVertex
100
AcDb2dVertex
 10
27.179186
 20
148.559005
 30
0.0
  0
VERTEX
  5
2B0
330
2AC
100
AcDbEntity
  8
001
370
     9
100
AcDbVertex
100
AcDb2dVertex
 10
26.777262
 20
150.059005
 30
0.0
  0
SEQEND
  5
2AD
330
2AC
100
AcDbEntity
  8
001
370
     9
  0
LINE
  5
2B1
330
1F
100
AcDbEntity
  8
001
370
     9
100
AcDbLine
 10
27.179186
 20
173.559005
 30
0.0
 11
27.179186
 21
148.559005
 31
0.0
  0
POLYLINE
  5
2B2
330
1F
100
AcDbEntity
  8
001
370
     9
100
AcDb2dPolyline
 66
     1
 10
0.0
 20
0.0
 30
0.0
  0
VERTEX
  5
2B4
330
2B2
100
AcDbEntity
  8
001
370
     9
100
AcDbVertex
100
AcDb2dVertex
 10
49.317532
 20
148.559005
 30
0.0
  0
VERTEX
  5
2B5
330
2B2
100
AcDbEntity
  8
001
370
     9
100
AcDbVertex
100
AcDb2dVertex
 10
27.179186
 20
148.559005
 30
0.0
  0
VERTEX
  5
2B6
330
2B2
100
AcDbEntity
  8
001
370
     9
100
AcDbVertex
100
AcDb2dVertex
 10
24.429186
 20
148.559005
 30
0.0
  0
SEQEND
  5
2B3
330
2B2
100
AcDbEntity
  8
001
370
     9
  0
DIMENSION
  5
2B7
330
1F
100
AcDbEntity
  8
001
370
     9
100
AcDbDimension
  2
*D13
 10
53.834603
 20
254.036409
 30
0.0
 11
69.134603
 21
257.036409
 31
0.0
 70
   160
 71
     5
 42
-1.0
  3
Standard
100
AcDbAlignedDimension
 13
59.634603
 23
267.253517
 33
0.0
 14
53.834603
 24
267.253517
 34
0.0
 50
180.0
100
AcDbRotatedDimension
  0
DIMENSION
  5
2B8
330
1F
100
AcDbEntity
  8
001
370
     9
100
AcDbDimension
  2
*D14
 10
53.834603
 20
131.519022
 30
0.0
 11
71.614603
 21
134.519022
 31
0.0
 70
   160
 71
     5
 42
-1.0
  3
Standard
100
AcDbAlignedDimension
 13
60.114603
 23
143.067281
 33
0.0
 14
53.834603
 24
143.067281
 34
0.0
 50
180.0
100
AcDbRotatedDimension
  0
DIMENSION
  5
2B9
330
1F
100
AcDbEntity
  8
001
370
     9
100
AcDbDimension
  2
*D15
 10
53.834603
 20
7.854425
 30
0.0
 11
78.834603
 21
10.854425
 31
0.0
 70
   160
 71
     5
 42
-1.0
  3
Standard
100
AcDbAlignedDimension
 13
103.834603
 23
35.565031
 33
0.0
 14
53.834603
 24
25.01235
 34
0.0
 50
180.0
100
AcDbRotatedDimension
  0
DIMENSION
  5
2BA
330
1F
100
AcDbEntity
  8
001
370
     9
100
AcDbDimension
  2
*D16
 10
103.834603
 20
7.854425
 30
0.0
 11
153.834603
 21
10.854425
 31
0.0
 70
   160
 71
     5
 42
-1.0
  3
Standard
100
AcDbAlignedDimension
 13
203.834603
 23
37.615031
 33
0.0
 14
103.834603
 24
35.565031
 34
0.0
 50
180.0
100
AcDbRotatedDimension
  0
DIMENSION
  5
2BB
330
1F
100
AcDbEntity
  8
001
370
     9
100
AcDbDimension
  2
*D17
 10
203.834603
 20
-2.907729
 30
0.0
 11
128.834603
 21
0.092271
 31
0.0
 70
   160
 71
     5
 42
-1.0
  3
Standard
100
AcDbAlignedDimension
 13
53.834603
 23
25.01235
 33
0.0
 14
203.834603
 24
37.615031
 34
0.0
100
AcDbRotatedDimension
  0
DIMENSION
  5
2BC
330
1F
100
AcDbEntity
  8
001
370
     9
100
AcDbDimension
  2
*D18
 10
53.834603
 20
19.041997
 30
0.0
 11
72.114603
 21
22.041997
 31
0.0
 70
   160
 71
     5
 42
-1.0
  3
Standard
100
AcDbAlignedDimension
 13
60.614603
 23
25.01235
 33
0.0
 14
53.834603
 24
25.01235
 34
0.0
 50
180.0
100
AcDbRotatedDimension
  0
TEXT
  5
2BD
330
1F
100
AcDbEntity
  8
001
370
    30
100
AcDbText
 10
42.204182
 20
42.698334
 30
0.0
 40
4.0
  1
%%c３．８
 50
90.000003
 41
0.869565
100
AcDbText
  0
POLYLINE
  5
2BE
330
1F
100
AcDbEntity
  8
001
370
     9
100
AcDb2dPolyline
 66
     1
 10
0.0
 20
0.0
 30
0.0
  0
VERTEX
  5
2C0
330
2BE
100
AcDbEntity
  8
001
370
     9
100
AcDbVertex
100
AcDb2dVertex
 10
45.235747
 20
46.715031
 30
0.0
  0
VERTEX
  5
2C1
330
2BE
100
AcDbEntity
  8
001
370
     9
100
AcDbVertex
100
AcDb2dVertex
 10
44.833823
 20
45.215031
 30
0.0
  0
VERTEX
  5
2C2
330
2BE
100
AcDbEntity
  8
001
370
     9
100
AcDbVertex
100
AcDb2dVertex
 10
44.431899
 20
46.715031
 30
0.0
  0
SEQEND
  5
2BF
330
2BE
100
AcDbEntity
  8
001
370
     9
  0
LINE
  5
2C3
330
1F
100
AcDbEntity
  8
001
370
     9
100
AcDbLine
 10
44.833823
 20
49.015031
 30
0.0
 11
44.833823
 21
45.215031
 31
0.0
  0
POLYLINE
  5
2C4
330
1F
100
AcDbEntity
  8
001
370
     9
100
AcDb2dPolyline
 66
     1
 10
0.0
 20
0.0
 30
0.0
  0
VERTEX
  5
2C6
330
2C4
100
AcDbEntity
  8
001
370
     9
100
AcDbVertex
100
AcDb2dVertex
 10
49.317532
 20
45.215031
 30
0.0
  0
VERTEX
  5
2C7
330
2C4
100
AcDbEntity
  8
001
370
     9
100
AcDbVertex
100
AcDb2dVertex
 10
44.833823
 20
45.215031
 30
0.0
  0
VERTEX
  5
2C8
330
2C4
100
AcDbEntity
  8
001
370
     9
100
AcDbVertex
100
AcDb2dVertex
 10
42.083823
 20
45.215031
 30
0.0
  0
SEQEND
  5
2C5
330
2C4
100
AcDbEntity
  8
001
370
     9
  0
TEXT
  5
2C9
330
1F
100
AcDbEntity
  8
001
370
    30
100
AcDbText
 10
26.179186
 20
41.115031
 30
0.0
 40
4.0
  1
%%c２５
 50
90.000003
 41
0.882353
100
AcDbText
  0
POLYLINE
  5
2CA
330
1F
100
AcDbEntity
  8
001
370
     9
100
AcDb2dPolyline
 66
     1
 10
0.0
 20
0.0
 30
0.0
  0
VERTEX
  5
2CC
330
2CA
100
AcDbEntity
  8
001
370
     9
100
AcDbVertex
100
AcDb2dVertex
 10
27.58111
 20
36.115031
 30
0.0
  0
VERTEX
  5
2CD
330
2CA
100
AcDbEntity
  8
001
370
     9
100
AcDbVertex
100
AcDb2dVertex
 10
27.179186
 20
34.615031
 30
0.0
  0
VERTEX
  5
2CE
330
2CA
100
AcDbEntity
  8
001
370
     9
100
AcDbVertex
100
AcDb2dVertex
 10
26.777262
 20
36.115031
 30
0.0
  0
SEQEND
  5
2CB
330
2CA
100
AcDbEntity
  8
001
370
     9
  0
LINE
  5
2CF
330
1F
100
AcDbEntity
  8
001
370
     9
100
AcDbLine
 10
27.179186
 20
59.615031
 30
0.0
 11
27.179186
 21
34.615031
 31
0.0
  0
POLYLINE
  5
2D0
330
1F
100
AcDbEntity
  8
001
370
     9
100
AcDb2dPolyline
 66
     1
 10
0.0
 20
0.0
 30
0.0
  0
VERTEX
  5
2D2
330
2D0
100
AcDbEntity
  8
001
370
     9
100
AcDbVertex
100
AcDb2dVertex
 10
49.317532
 20
34.615031
 30
0.0
  0
VERTEX
  5
2D3
330
2D0
100
AcDbEntity
  8
001
370
     9
100
AcDbVertex
100
AcDb2dVertex
 10
27.179186
 20
34.615031
 30
0.0
  0
VERTEX
  5
2D4
330
2D0
100
AcDbEntity
  8
001
370
     9
100
AcDbVertex
100
AcDb2dVertex
 10
24.429186
 20
34.615031
 30
0.0
  0
SEQEND
  5
2D1
330
2D0
100
AcDbEntity
  8
001
370
     9
  0
DIMENSION
  5
2D5
330
1F
100
AcDbEntity
  8
001
370
     9
100
AcDbDimension
  2
*D19
 10
35.569965
 20
41.615031
 30
0.0
 11
32.569965
 21
56.615031
 31
0.0
 70
   160
 71
     5
 42
-1.0
  3
Standard
100
AcDbAlignedDimension
 13
53.014119
 23
47.115031
 33
0.0
 14
48.734003
 24
41.615031
 34
0.0
 50
270.0
100
AcDbRotatedDimension
  0
INSERT
  5
2D6
330
1F
100
AcDbEntity
  8
001
  6
ByBlock
 62
     0
370
    -2
100
AcDbBlockReference
  2
DIM-3
 10
0.0
 20
0.0
 30
0.0
  0
DIMENSION
  5
2D7
330
1F
100
AcDbEntity
  8
001
370
     9
100
AcDbDimension
  2
*D21
 10
222.945953
 20
34.615031
 30
0.0
 11
219.945953
 21
46.303625
 31
0.0
 70
   160
 71
     5
 42
-1.0
  3
Standard
100
AcDbAlignedDimension
 13
200.834603
 23
59.615031
 33
0.0
 14
200.834603
 24
34.615031
 34
0.0
 50
270.0
100
AcDbRotatedDimension
  0
DIMENSION
  5
2D8
330
1F
100
AcDbEntity
  8
001
370
     9
100
AcDbDimension
  2
*D22
 10
53.834603
 20
363.668692
 30
0.0
 11
78.834603
 21
366.668692
 31
0.0
 70
   160
 71
     5
 42
-1.0
  3
Standard
100
AcDbAlignedDimension
 13
103.834603
 23
392.589483
 33
0.0
 14
53.834603
 24
387.412616
 34
0.0
 50
180.0
100
AcDbRotatedDimension
  0
DIMENSION
  5
2D9
330
1F
100
AcDbEntity
  8
001
370
     9
100
AcDbDimension
  2
*D23
 10
103.834603
 20
363.668692
 30
0.0
 11
153.834603
 21
366.668692
 31
0.0
 70
   160
 71
     5
 42
-1.0
  3
Standard
100
AcDbAlignedDimension
 13
203.834603
 23
394.639483
 33
0.0
 14
103.834603
 24
392.589483
 34
0.0
 50
180.0
100
AcDbRotatedDimension
  0
DIMENSION
  5
2DA
330
1F
100
AcDbEntity
  8
001
370
     9
100
AcDbDimension
  2
*D24
 10
203.834603
 20
353.712115
 30
0.0
 11
128.834603
 21
356.712115
 31
0.0
 70
   160
 71
     5
 42
-1.0
  3
Standard
100
AcDbAlignedDimension
 13
53.834603
 23
387.412616
 33
0.0
 14
203.834603
 24
394.639483
 34
0.0
100
AcDbRotatedDimension
  0
TEXT
  5
2DB
330
1F
100
AcDbEntity
  8
001
370
    30
100
AcDbText
 10
27.179186
 20
398.139483
 30
0.0
 40
4.0
  1
%%c２５
 50
90.000003
 41
0.882353
100
AcDbText
  0
POLYLINE
  5
2DC
330
1F
100
AcDbEntity
  8
001
370
     9
100
AcDb2dPolyline
 66
     1
 10
0.0
 20
0.0
 30
0.0
  0
VERTEX
  5
2DE
330
2DC
100
AcDbEntity
  8
001
370
     9
100
AcDbVertex
100
AcDb2dVertex
 10
28.58111
 20
393.139483
 30
0.0
  0
VERTEX
  5
2DF
330
2DC
100
AcDbEntity
  8
001
370
     9
100
AcDbVertex
100
AcDb2dVertex
 10
28.179186
 20
391.639483
 30
0.0
  0
VERTEX
  5
2E0
330
2DC
100
AcDbEntity
  8
001
370
     9
100
AcDbVertex
100
AcDb2dVertex
 10
27.777262
 20
393.139483
 30
0.0
  0
SEQEND
  5
2DD
330
2DC
100
AcDbEntity
  8
001
370
     9
  0
LINE
  5
2E1
330
1F
100
AcDbEntity
  8
001
370
     9
100
AcDbLine
 10
28.179186
 20
416.639483
 30
0.0
 11
28.179186
 21
391.639483
 31
0.0
  0
POLYLINE
  5
2E2
330
1F
100
AcDbEntity
  8
001
370
     9
100
AcDb2dPolyline
 66
     1
 10
0.0
 20
0.0
 30
0.0
  0
VERTEX
  5
2E4
330
2E2
100
AcDbEntity
  8
001
370
     9
100
AcDbVertex
100
AcDb2dVertex
 10
49.317532
 20
391.639483
 30
0.0
  0
VERTEX
  5
2E5
330
2E2
100
AcDbEntity
  8
001
370
     9
100
AcDbVertex
100
AcDb2dVertex
 10
28.179186
 20
391.639483
 30
0.0
  0
VERTEX
  5
2E6
330
2E2
100
AcDbEntity
  8
001
370
     9
100
AcDbVertex
100
AcDb2dVertex
 10
25.429186
 20
391.639483
 30
0.0
  0
SEQEND
  5
2E3
330
2E2
100
AcDbEntity
  8
001
370
     9
  0
DIMENSION
  5
2E7
330
1F
100
AcDbEntity
  8
001
370
     9
100
AcDbDimension
  2
*D25
 10
222.945953
 20
391.639483
 30
0.0
 11
219.945953
 21
403.328077
 31
0.0
 70
   160
 71
     5
 42
-1.0
  3
Standard
100
AcDbAlignedDimension
 13
200.834603
 23
416.639483
 33
0.0
 14
200.834603
 24
391.639483
 34
0.0
 50
270.0
100
AcDbRotatedDimension
  0
TEXT
  5
2E8
330
1F
100
AcDbEntity
  8
001
370
    30
100
AcDbText
 10
42.508183
 20
399.679689
 30
0.0
 40
4.0
  1
%%c３．８
 50
90.000003
 41
0.869565
100
AcDbText
  0
POLYLINE
  5
2E9
330
1F
100
AcDbEntity
  8
001
370
     9
100
AcDb2dPolyline
 66
     1
 10
0.0
 20
0.0
 30
0.0
  0
VERTEX
  5
2EB
330
2E9
100
AcDbEntity
  8
001
370
     9
100
AcDbVertex
100
AcDb2dVertex
 10
45.235747
 20
403.739483
 30
0.0
  0
VERTEX
  5
2EC
330
2E9
100
AcDbEntity
  8
001
370
     9
100
AcDbVertex
100
AcDb2dVertex
 10
44.833823
 20
402.239483
 30
0.0
  0
VERTEX
  5
2ED
330
2E9
100
AcDbEntity
  8
001
370
     9
100
AcDbVertex
100
AcDb2dVertex
 10
44.431899
 20
403.739483
 30
0.0
  0
SEQEND
  5
2EA
330
2E9
100
AcDbEntity
  8
001
370
     9
  0
LINE
  5
2EE
330
1F
100
AcDbEntity
  8
001
370
     9
100
AcDbLine
 10
44.833823
 20
406.039483
 30
0.0
 11
44.833823
 21
402.239483
 31
0.0
  0
POLYLINE
  5
2EF
330
1F
100
AcDbEntity
  8
001
370
     9
100
AcDb2dPolyline
 66
     1
 10
0.0
 20
0.0
 30
0.0
  0
VERTEX
  5
2F1
330
2EF
100
AcDbEntity
  8
001
370
     9
100
AcDbVertex
100
AcDb2dVertex
 10
49.317532
 20
402.239483
 30
0.0
  0
VERTEX
  5
2F2
330
2EF
100
AcDbEntity
  8
001
370
     9
100
AcDbVertex
100
AcDb2dVertex
 10
44.833823
 20
402.239483
 30
0.0
  0
VERTEX
  5
2F3
330
2EF
100
AcDbEntity
  8
001
370
     9
100
AcDbVertex
100
AcDb2dVertex
 10
42.083823
 20
402.239483
 30
0.0
  0
SEQEND
  5
2F0
330
2EF
100
AcDbEntity
  8
001
370
     9
  0
DIMENSION
  5
2F4
330
1F
100
AcDbEntity
  8
001
370
     9
100
AcDbDimension
  2
*D26
 10
53.834603
 20
374.131618
 30
0.0
 11
38.334603
 21
377.131618
 31
0.0
 70
   160
 71
     5
 42
-1.0
  3
Standard
100
AcDbAlignedDimension
 13
64.434603
 23
391.639483
 33
0.0
 14
53.834603
 24
387.412616
 34
0.0
 50
180.0
100
AcDbRotatedDimension
  0
DIMENSION
  5
2F5
330
1F
100
AcDbEntity
  8
001
370
     9
100
AcDbDimension
  2
*D27
 10
51.934603
 20
404.139483
 30
0.0
 11
82.445923
 21
386.350237
 31
0.0
 70
    34
 71
     5
 42
-1.0
  3
Standard
100
AcDb2LineAngularDimension
 13
64.317446
 23
391.75664
 33
0.0
 14
51.934603
 24
404.139483
 34
0.0
 15
53.014119
 25
404.139483
 35
0.0
 16
87.3363
 26
389.47562
 36
0.0
  0
ARC
  5
2F6
330
1F
100
AcDbEntity
  8
001
370
    50
100
AcDbCircle
 10
200.834603
 20
293.480384
 30
0.0
 40
3.000000000000003
100
AcDbArc
 50
0.0
 51
90.0
  0
ARC
  5
2F7
330
1F
100
AcDbEntity
  8
001
370
    50
100
AcDbCircle
 10
200.834603
 20
274.480384
 30
0.0
 40
3.000000000000003
100
AcDbArc
 50
270.0
 51
0.0
  0
LINE
  5
2F8
330
1F
100
AcDbEntity
  8
001
370
    50
100
AcDbLine
 10
203.834603
 20
293.480384
 30
0.0
 11
203.834603
 21
274.480384
 31
0.0
  0
LINE
  5
2F9
330
1F
100
AcDbEntity
  8
001
370
    50
100
AcDbLine
 10
104.784603
 20
296.480384
 30
0.0
 11
104.784603
 21
271.480384
 31
0.0
  0
LINE
  5
2FA
330
1F
100
AcDbEntity
  8
001
370
    50
100
AcDbLine
 10
200.834603
 20
296.480384
 30
0.0
 11
104.784603
 21
296.480384
 31
0.0
  0
LINE
  5
2FB
330
1F
100
AcDbEntity
  8
001
370
    50
100
AcDbLine
 10
104.784603
 20
271.480384
 30
0.0
 11
200.834603
 21
271.480384
 31
0.0
  0
LINE
  5
2FC
330
1F
100
AcDbEntity
  8
001
370
    50
100
AcDbLine
 10
103.834603
 20
295.530384
 30
0.0
 11
103.834603
 21
272.430384
 31
0.0
  0
LINE
  5
2FD
330
1F
100
AcDbEntity
  8
001
370
    50
100
AcDbLine
 10
104.784603
 20
296.480384
 30
0.0
 11
103.834603
 21
295.530384
 31
0.0
  0
LINE
  5
2FE
330
1F
100
AcDbEntity
  8
001
370
    50
100
AcDbLine
 10
103.834603
 20
272.430384
 30
0.0
 11
104.784603
 21
271.480384
 31
0.0
  0
LINE
  5
2FF
330
1F
100
AcDbEntity
  8
001
370
    50
100
AcDbLine
 10
103.834603
 20
295.530384
 30
0.0
 11
65.308591
 21
295.530384
 31
0.0
  0
POLYLINE
  5
300
330
1F
100
AcDbEntity
  8
001
370
    50
100
AcDb2dPolyline
 66
     1
 10
0.0
 20
0.0
 30
0.0
  0
VERTEX
  5
302
330
300
100
AcDbEntity
  8
001
370
    50
100
AcDbVertex
100
AcDb2dVertex
 10
73.288902
 20
293.598825
 30
0.0
  0
VERTEX
  5
303
330
300
100
AcDbEntity
  8
001
370
    50
100
AcDbVertex
100
AcDb2dVertex
 10
71.711997
 20
293.84698
 30
0.0
  0
VERTEX
  5
304
330
300
100
AcDbEntity
  8
001
370
    50
100
AcDbVertex
100
AcDb2dVertex
 10
69.402569
 20
294.176827
 30
0.0
  0
VERTEX
  5
305
330
300
100
AcDbEntity
  8
001
370
    50
100
AcDbVertex
100
AcDb2dVertex
 10
66.973442
 20
294.4758
 30
0.0
  0
VERTEX
  5
306
330
300
100
AcDbEntity
  8
001
370
    50
100
AcDbVertex
100
AcDb2dVertex
 10
65.308591
 20
294.657529
 30
0.0
  0
SEQEND
  5
301
330
300
100
AcDbEntity
  8
001
370
    50
  0
POLYLINE
  5
307
330
1F
100
AcDbEntity
  8
001
370
    50
100
AcDb2dPolyline
 66
     1
 10
0.0
 20
0.0
 30
0.0
  0
VERTEX
  5
309
330
307
100
AcDbEntity
  8
001
370
    50
100
AcDbVertex
100
AcDb2dVertex
 10
73.288902
 20
274.361942
 30
0.0
  0
VERTEX
  5
30A
330
307
100
AcDbEntity
  8
001
370
    50
100
AcDbVertex
100
AcDb2dVertex
 10
73.71416
 20
274.890359
 30
0.0
  0
VERTEX
  5
30B
330
307
100
AcDbEntity
  8
001
370
    50
100
AcDbVertex
100
AcDb2dVertex
 10
74.256122
 20
275.65351
 30
0.0
  0
VERTEX
  5
30C
330
307
100
AcDbEntity
  8
001
370
    50
100
AcDbVertex
100
AcDb2dVertex
 10
74.71823
 20
276.446222
 30
0.0
  0
VERTEX
  5
30D
330
307
100
AcDbEntity
  8
001
370
    50
100
AcDbVertex
100
AcDb2dVertex
 10
75.069786
 20
277.210943
 30
0.0
  0
VERTEX
  5
30E
330
307
100
AcDbEntity
  8
001
370
    50
100
AcDbVertex
100
AcDb2dVertex
 10
75.407715
 20
278.078828
 30
0.0
  0
VERTEX
  5
30F
330
307
100
AcDbEntity
  8
001
370
    50
100
AcDbVertex
100
AcDb2dVertex
 10
75.703915
 20
278.984515
 30
0.0
  0
VERTEX
  5
310
330
307
100
AcDbEntity
  8
001
370
    50
100
AcDbVertex
100
AcDb2dVertex
 10
75.951589
 20
279.947178
 30
0.0
  0
VERTEX
  5
311
330
307
100
AcDbEntity
  8
001
370
    50
100
AcDbVertex
100
AcDb2dVertex
 10
76.138262
 20
280.917599
 30
0.0
  0
VERTEX
  5
312
330
307
100
AcDbEntity
  8
001
370
    50
100
AcDbVertex
100
AcDb2dVertex
 10
76.27584
 20
281.929353
 30
0.0
  0
VERTEX
  5
313
330
307
100
AcDbEntity
  8
001
370
    50
100
AcDbVertex
100
AcDb2dVertex
 10
76.358959
 20
282.948473
 30
0.0
  0
VERTEX
  5
314
330
307
100
AcDbEntity
  8
001
370
    50
100
AcDbVertex
100
AcDb2dVertex
 10
76.387081
 20
283.980384
 30
0.0
  0
VERTEX
  5
315
330
307
100
AcDbEntity
  8
001
370
    50
100
AcDbVertex
100
AcDb2dVertex
 10
76.358959
 20
285.012294
 30
0.0
  0
VERTEX
  5
316
330
307
100
AcDbEntity
  8
001
370
    50
100
AcDbVertex
100
AcDb2dVertex
 10
76.27584
 20
286.031414
 30
0.0
  0
VERTEX
  5
317
330
307
100
AcDbEntity
  8
001
370
    50
100
AcDbVertex
100
AcDb2dVertex
 10
76.138262
 20
287.043168
 30
0.0
  0
VERTEX
  5
318
330
307
100
AcDbEntity
  8
001
370
    50
100
AcDbVertex
100
AcDb2dVertex
 10
75.951589
 20
288.013589
 30
0.0
  0
VERTEX
  5
319
330
307
100
AcDbEntity
  8
001
370
    50
100
AcDbVertex
100
AcDb2dVertex
 10
75.703915
 20
288.976252
 30
0.0
  0
VERTEX
  5
31A
330
307
100
AcDbEntity
  8
001
370
    50
100
AcDbVertex
100
AcDb2dVertex
 10
75.407715
 20
289.881939
 30
0.0
  0
VERTEX
  5
31B
330
307
100
AcDbEntity
  8
001
370
    50
100
AcDbVertex
100
AcDb2dVertex
 10
75.069786
 20
290.749824
 30
0.0
  0
VERTEX
  5
31C
330
307
100
AcDbEntity
  8
001
370
    50
100
AcDbVertex
100
AcDb2dVertex
 10
74.71823
 20
291.514545
 30
0.0
  0
VERTEX
  5
31D
330
307
100
AcDbEntity
  8
001
370
    50
100
AcDbVertex
100
AcDb2dVertex
 10
74.256122
 20
292.307258
 30
0.0
  0
VERTEX
  5
31E
330
307
100
AcDbEntity
  8
001
370
    50
100
AcDbVertex
100
AcDb2dVertex
 10
73.71416
 20
293.070408
 30
0.0
  0
VERTEX
  5
31F
330
307
100
AcDbEntity
  8
001
370
    50
100
AcDbVertex
100
AcDb2dVertex
 10
73.288902
 20
293.598825
 30
0.0
  0
SEQEND
  5
308
330
307
100
AcDbEntity
  8
001
370
    50
  0
LINE
  5
320
330
1F
100
AcDbEntity
  8
001
370
    50
100
AcDbLine
 10
73.288902
 20
293.598825
 30
0.0
 11
73.288902
 21
274.361942
 31
0.0
  0
POLYLINE
  5
321
330
1F
100
AcDbEntity
  8
001
370
    50
100
AcDb2dPolyline
 66
     1
 10
0.0
 20
0.0
 30
0.0
  0
VERTEX
  5
323
330
321
100
AcDbEntity
  8
001
370
    50
100
AcDbVertex
100
AcDb2dVertex
 10
57.965071
 20
287.59052
 30
0.0
  0
VERTEX
  5
324
330
321
100
AcDbEntity
  8
001
370
    50
100
AcDbVertex
100
AcDb2dVertex
 10
58.149474
 20
287.593555
 30
0.0
  0
VERTEX
  5
325
330
321
100
AcDbEntity
  8
001
370
    50
100
AcDbVertex
100
AcDb2dVertex
 10
58.33345
 20
287.603067
 30
0.0
  0
VERTEX
  5
326
330
321
100
AcDbEntity
  8
001
370
    50
100
AcDbVertex
100
AcDb2dVertex
 10
58.517163
 20
287.624286
 30
0.0
  0
VERTEX
  5
327
330
321
100
AcDbEntity
  8
001
370
    50
100
AcDbVertex
100
AcDb2dVertex
 10
58.699364
 20
287.65695
 30
0.0
  0
VERTEX
  5
328
330
321
100
AcDbEntity
  8
001
370
    50
100
AcDbVertex
100
AcDb2dVertex
 10
58.879003
 20
287.699732
 30
0.0
  0
VERTEX
  5
329
330
321
100
AcDbEntity
  8
001
370
    50
100
AcDbVertex
100
AcDb2dVertex
 10
59.055733
 20
287.752967
 30
0.0
  0
VERTEX
  5
32A
330
321
100
AcDbEntity
  8
001
370
    50
100
AcDbVertex
100
AcDb2dVertex
 10
59.229493
 20
287.817328
 30
0.0
  0
VERTEX
  5
32B
330
321
100
AcDbEntity
  8
001
370
    50
100
AcDbVertex
100
AcDb2dVertex
 10
59.399097
 20
287.892069
 30
0.0
  0
VERTEX
  5
32C
330
321
100
AcDbEntity
  8
001
370
    50
100
AcDbVertex
100
AcDb2dVertex
 10
59.565088
 20
287.976993
 30
0.0
  0
VERTEX
  5
32D
330
321
100
AcDbEntity
  8
001
370
    50
100
AcDbVertex
100
AcDb2dVertex
 10
59.725993
 20
288.071175
 30
0.0
  0
VERTEX
  5
32E
330
321
100
AcDbEntity
  8
001
370
    50
100
AcDbVertex
100
AcDb2dVertex
 10
59.881407
 20
288.174181
 30
0.0
  0
VERTEX
  5
32F
330
321
100
AcDbEntity
  8
001
370
    50
100
AcDbVertex
100
AcDb2dVertex
 10
60.03092
 20
288.285577
 30
0.0
  0
VERTEX
  5
330
330
321
100
AcDbEntity
  8
001
370
    50
100
AcDbVertex
100
AcDb2dVertex
 10
60.173564
 20
288.404338
 30
0.0
  0
VERTEX
  5
331
330
321
100
AcDbEntity
  8
001
370
    50
100
AcDbVertex
100
AcDb2dVertex
 10
60.309905
 20
288.530296
 30
0.0
  0
VERTEX
  5
332
330
321
100
AcDbEntity
  8
001
370
    50
100
AcDbVertex
100
AcDb2dVertex
 10
60.440595
 20
288.663561
 30
0.0
  0
VERTEX
  5
333
330
321
100
AcDbEntity
  8
001
370
    50
100
AcDbVertex
100
AcDb2dVertex
 10
60.564758
 20
288.802924
 30
0.0
  0
VERTEX
  5
334
330
321
100
AcDbEntity
  8
001
370
    50
100
AcDbVertex
100
AcDb2dVertex
 10
60.682376
 20
288.948021
 30
0.0
  0
VERTEX
  5
335
330
321
100
AcDbEntity
  8
001
370
    50
100
AcDbVertex
100
AcDb2dVertex
 10
60.793246
 20
289.098339
 30
0.0
  0
VERTEX
  5
336
330
321
100
AcDbEntity
  8
001
370
    50
100
AcDbVertex
100
AcDb2dVertex
 10
60.913223
 20
289.278597
 30
0.0
  0
VERTEX
  5
337
330
321
100
AcDbEntity
  8
001
370
    50
100
AcDbVertex
100
AcDb2dVertex
 10
61.024048
 20
289.464646
 30
0.0
  0
VERTEX
  5
338
330
321
100
AcDbEntity
  8
001
370
    50
100
AcDbVertex
100
AcDb2dVertex
 10
61.126255
 20
289.656826
 30
0.0
  0
VERTEX
  5
339
330
321
100
AcDbEntity
  8
001
370
    50
100
AcDbVertex
100
AcDb2dVertex
 10
61.219144
 20
289.853651
 30
0.0
  0
VERTEX
  5
33A
330
321
100
AcDbEntity
  8
001
370
    50
100
AcDbVertex
100
AcDb2dVertex
 10
61.302654
 20
290.054596
 30
0.0
  0
VERTEX
  5
33B
330
321
100
AcDbEntity
  8
001
370
    50
100
AcDbVertex
100
AcDb2dVertex
 10
61.377061
 20
290.259145
 30
0.0
  0
VERTEX
  5
33C
330
321
100
AcDbEntity
  8
001
370
    50
100
AcDbVertex
100
AcDb2dVertex
 10
61.443312
 20
290.469971
 30
0.0
  0
VERTEX
  5
33D
330
321
100
AcDbEntity
  8
001
370
    50
100
AcDbVertex
100
AcDb2dVertex
 10
61.498934
 20
290.683717
 30
0.0
  0
VERTEX
  5
33E
330
321
100
AcDbEntity
  8
001
370
    50
100
AcDbVertex
100
AcDb2dVertex
 10
61.54366
 20
290.900234
 30
0.0
  0
VERTEX
  5
33F
330
321
100
AcDbEntity
  8
001
370
    50
100
AcDbVertex
100
AcDb2dVertex
 10
61.582251
 20
291.118091
 30
0.0
  0
SEQEND
  5
322
330
321
100
AcDbEntity
  8
001
370
    50
  0
LINE
  5
340
330
1F
100
AcDbEntity
  8
001
370
    50
100
AcDbLine
 10
61.582251
 20
291.118091
 30
0.0
 11
65.308591
 21
294.657529
 31
0.0
  0
LINE
  5
341
330
1F
100
AcDbEntity
  8
001
370
    50
100
AcDbLine
 10
65.308591
 20
295.530384
 30
0.0
 11
61.582251
 21
291.919309
 31
0.0
  0
ARC
  5
342
330
1F
100
AcDbEntity
  8
001
370
    50
100
AcDbCircle
 10
57.434603
 20
292.580384
 30
0.0
 40
4.200000000000001
100
AcDbArc
 50
277.25594
 51
350.94406
  0
LINE
  5
343
330
1F
100
AcDbEntity
  8
001
370
    50
100
AcDbLine
 10
57.965071
 20
288.414018
 30
0.0
 11
54.834603
 21
285.380384
 31
0.0
  0
LINE
  5
344
330
1F
100
AcDbEntity
  8
001
370
    50
100
AcDbLine
 10
65.308591
 20
294.657529
 30
0.0
 11
65.308591
 21
295.530384
 31
0.0
  0
LINE
  5
345
330
1F
100
AcDbEntity
  8
001
370
    50
100
AcDbLine
 10
61.582251
 20
291.118091
 30
0.0
 11
61.582251
 21
291.919309
 31
0.0
  0
LINE
  5
346
330
1F
100
AcDbEntity
  8
001
370
    50
100
AcDbLine
 10
57.965071
 20
287.59052
 30
0.0
 11
57.965071
 21
288.414018
 31
0.0
  0
LINE
  5
347
330
1F
100
AcDbEntity
  8
001
  6
CENTER
370
     9
100
AcDbLine
 10
53.014119
 20
283.980384
 30
0.0
 11
207.605268
 21
283.980384
 31
0.0
  0
LINE
  5
348
330
1F
100
AcDbEntity
  8
001
370
    50
100
AcDbLine
 10
203.834603
 20
283.980384
 30
0.0
 11
206.43268
 21
285.480384
 31
0.0
  0
LINE
  5
349
330
1F
100
AcDbEntity
  8
001
370
    50
100
AcDbLine
 10
203.834603
 20
283.980384
 30
0.0
 11
206.43268
 21
282.480384
 31
0.0
  0
CIRCLE
  5
34A
330
1F
100
AcDbEntity
  8
001
370
    50
100
AcDbCircle
 10
62.409762
 20
280.055542
 30
0.0
 40
1.905
  0
LINE
  5
34B
330
1F
100
AcDbEntity
  8
001
370
    50
100
AcDbLine
 10
59.846735
 20
276.068252
 30
0.0
 11
59.634603
 21
276.580384
 31
0.0
  0
LINE
  5
34C
330
1F
100
AcDbEntity
  8
001
370
    50
100
AcDbLine
 10
58.122471
 20
277.792516
 30
0.0
 11
58.634603
 21
277.580384
 31
0.0
  0
ARC
  5
34D
330
1F
100
AcDbEntity
  8
001
370
    50
100
AcDbCircle
 10
58.634603
 20
276.580384
 30
0.0
 40
1.0
100
AcDbArc
 50
0.0
 51
90.0
  0
ARC
  5
34E
330
1F
100
AcDbEntity
  8
001
370
    50
100
AcDbCircle
 10
200.834603
 20
170.559005
 30
0.0
 40
3.000000000000003
100
AcDbArc
 50
0.0
 51
90.0
  0
ARC
  5
34F
330
1F
100
AcDbEntity
  8
001
370
    50
100
AcDbCircle
 10
200.834603
 20
151.559005
 30
0.0
 40
3.000000000000003
100
AcDbArc
 50
270.0
 51
0.0
  0
LINE
  5
350
330
1F
100
AcDbEntity
  8
001
370
    50
100
AcDbLine
 10
203.834603
 20
170.559005
 30
0.0
 11
203.834603
 21
151.559005
 31
0.0
  0
LINE
  5
351
330
1F
100
AcDbEntity
  8
001
370
    50
100
AcDbLine
 10
104.784603
 20
173.559005
 30
0.0
 11
104.784603
 21
148.559005
 31
0.0
  0
LINE
  5
352
330
1F
100
AcDbEntity
  8
001
370
    50
100
AcDbLine
 10
200.834603
 20
173.559005
 30
0.0
 11
104.784603
 21
173.559005
 31
0.0
  0
LINE
  5
353
330
1F
100
AcDbEntity
  8
001
370
    50
100
AcDbLine
 10
104.784603
 20
148.559005
 30
0.0
 11
200.834603
 21
148.559005
 31
0.0
  0
LINE
  5
354
330
1F
100
AcDbEntity
  8
001
370
    50
100
AcDbLine
 10
103.834603
 20
172.609005
 30
0.0
 11
103.834603
 21
149.509005
 31
0.0
  0
LINE
  5
355
330
1F
100
AcDbEntity
  8
001
370
    50
100
AcDbLine
 10
104.784603
 20
173.559005
 30
0.0
 11
103.834603
 21
172.609005
 31
0.0
  0
LINE
  5
356
330
1F
100
AcDbEntity
  8
001
370
    50
100
AcDbLine
 10
103.834603
 20
149.509005
 30
0.0
 11
104.784603
 21
148.559005
 31
0.0
  0
LINE
  5
357
330
1F
100
AcDbEntity
  8
001
370
    50
100
AcDbLine
 10
103.834603
 20
172.609005
 30
0.0
 11
65.308591
 21
172.609005
 31
0.0
  0
POLYLINE
  5
358
330
1F
100
AcDbEntity
  8
001
370
    50
100
AcDb2dPolyline
 66
     1
 10
0.0
 20
0.0
 30
0.0
  0
VERTEX
  5
35A
330
358
100
AcDbEntity
  8
001
370
    50
100
AcDbVertex
100
AcDb2dVertex
 10
73.288902
 20
170.677447
 30
0.0
  0
VERTEX
  5
35B
330
358
100
AcDbEntity
  8
001
370
    50
100
AcDbVertex
100
AcDb2dVertex
 10
71.711997
 20
170.925602
 30
0.0
  0
VERTEX
  5
35C
330
358
100
AcDbEntity
  8
001
370
    50
100
AcDbVertex
100
AcDb2dVertex
 10
69.402569
 20
171.255449
 30
0.0
  0
VERTEX
  5
35D
330
358
100
AcDbEntity
  8
001
370
    50
100
AcDbVertex
100
AcDb2dVertex
 10
66.973442
 20
171.554421
 30
0.0
  0
VERTEX
  5
35E
330
358
100
AcDbEntity
  8
001
370
    50
100
AcDbVertex
100
AcDb2dVertex
 10
65.308591
 20
171.736151
 30
0.0
  0
SEQEND
  5
359
330
358
100
AcDbEntity
  8
001
370
    50
  0
POLYLINE
  5
35F
330
1F
100
AcDbEntity
  8
001
370
    50
100
AcDb2dPolyline
 66
     1
 10
0.0
 20
0.0
 30
0.0
  0
VERTEX
  5
361
330
35F
100
AcDbEntity
  8
001
370
    50
100
AcDbVertex
100
AcDb2dVertex
 10
73.288902
 20
151.440564
 30
0.0
  0
VERTEX
  5
362
330
35F
100
AcDbEntity
  8
001
370
    50
100
AcDbVertex
100
AcDb2dVertex
 10
73.71416
 20
151.968981
 30
0.0
  0
VERTEX
  5
363
330
35F
100
AcDbEntity
  8
001
370
    50
100
AcDbVertex
100
AcDb2dVertex
 10
74.256122
 20
152.732131
 30
0.0
  0
VERTEX
  5
364
330
35F
100
AcDbEntity
  8
001
370
    50
100
AcDbVertex
100
AcDb2dVertex
 10
74.71823
 20
153.524844
 30
0.0
  0
VERTEX
  5
365
330
35F
100
AcDbEntity
  8
001
370
    50
100
AcDbVertex
100
AcDb2dVertex
 10
75.069786
 20
154.289565
 30
0.0
  0
VERTEX
  5
366
330
35F
100
AcDbEntity
  8
001
370
    50
100
AcDbVertex
100
AcDb2dVertex
 10
75.407715
 20
155.15745
 30
0.0
  0
VERTEX
  5
367
330
35F
100
AcDbEntity
  8
001
370
    50
100
AcDbVertex
100
AcDb2dVertex
 10
75.703915
 20
156.063137
 30
0.0
  0
VERTEX
  5
368
330
35F
100
AcDbEntity
  8
001
370
    50
100
AcDbVertex
100
AcDb2dVertex
 10
75.951589
 20
157.0258
 30
0.0
  0
VERTEX
  5
369
330
35F
100
AcDbEntity
  8
001
370
    50
100
AcDbVertex
100
AcDb2dVertex
 10
76.138262
 20
157.99622
 30
0.0
  0
VERTEX
  5
36A
330
35F
100
AcDbEntity
  8
001
370
    50
100
AcDbVertex
100
AcDb2dVertex
 10
76.27584
 20
159.007975
 30
0.0
  0
VERTEX
  5
36B
330
35F
100
AcDbEntity
  8
001
370
    50
100
AcDbVertex
100
AcDb2dVertex
 10
76.358959
 20
160.027095
 30
0.0
  0
VERTEX
  5
36C
330
35F
100
AcDbEntity
  8
001
370
    50
100
AcDbVertex
100
AcDb2dVertex
 10
76.387081
 20
161.059005
 30
0.0
  0
VERTEX
  5
36D
330
35F
100
AcDbEntity
  8
001
370
    50
100
AcDbVertex
100
AcDb2dVertex
 10
76.358959
 20
162.090916
 30
0.0
  0
VERTEX
  5
36E
330
35F
100
AcDbEntity
  8
001
370
    50
100
AcDbVertex
100
AcDb2dVertex
 10
76.27584
 20
163.110036
 30
0.0
  0
VERTEX
  5
36F
330
35F
100
AcDbEntity
  8
001
370
    50
100
AcDbVertex
100
AcDb2dVertex
 10
76.138262
 20
164.12179
 30
0.0
  0
VERTEX
  5
370
330
35F
100
AcDbEntity
  8
001
370
    50
100
AcDbVertex
100
AcDb2dVertex
 10
75.951589
 20
165.092211
 30
0.0
  0
VERTEX
  5
371
330
35F
100
AcDbEntity
  8
001
370
    50
100
AcDbVertex
100
AcDb2dVertex
 10
75.703915
 20
166.054874
 30
0.0
  0
VERTEX
  5
372
330
35F
100
AcDbEntity
  8
001
370
    50
100
AcDbVertex
100
AcDb2dVertex
 10
75.407715
 20
166.960561
 30
0.0
  0
VERTEX
  5
373
330
35F
100
AcDbEntity
  8
001
370
    50
100
AcDbVertex
100
AcDb2dVertex
 10
75.069786
 20
167.828446
 30
0.0
  0
VERTEX
  5
374
330
35F
100
AcDbEntity
  8
001
370
    50
100
AcDbVertex
100
AcDb2dVertex
 10
74.71823
 20
168.593167
 30
0.0
  0
VERTEX
  5
375
330
35F
100
AcDbEntity
  8
001
370
    50
100
AcDbVertex
100
AcDb2dVertex
 10
74.256122
 20
169.385879
 30
0.0
  0
VERTEX
  5
376
330
35F
100
AcDbEntity
  8
001
370
    50
100
AcDbVertex
100
AcDb2dVertex
 10
73.71416
 20
170.14903
 30
0.0
  0
VERTEX
  5
377
330
35F
100
AcDbEntity
  8
001
370
    50
100
AcDbVertex
100
AcDb2dVertex
 10
73.288902
 20
170.677447
 30
0.0
  0
SEQEND
  5
360
330
35F
100
AcDbEntity
  8
001
370
    50
  0
LINE
  5
378
330
1F
100
AcDbEntity
  8
001
370
    50
100
AcDbLine
 10
73.288902
 20
170.677447
 30
0.0
 11
73.288902
 21
151.440564
 31
0.0
  0
POLYLINE
  5
379
330
1F
100
AcDbEntity
  8
001
370
    50
100
AcDb2dPolyline
 66
     1
 10
0.0
 20
0.0
 30
0.0
  0
VERTEX
  5
37B
330
379
100
AcDbEntity
  8
001
370
    50
100
AcDbVertex
100
AcDb2dVertex
 10
57.965071
 20
164.669142
 30
0.0
  0
VERTEX
  5
37C
330
379
100
AcDbEntity
  8
001
370
    50
100
AcDbVertex
100
AcDb2dVertex
 10
58.149474
 20
164.672176
 30
0.0
  0
VERTEX
  5
37D
330
379
100
AcDbEntity
  8
001
370
    50
100
AcDbVertex
100
AcDb2dVertex
 10
58.33345
 20
164.681689
 30
0.0
  0
VERTEX
  5
37E
330
379
100
AcDbEntity
  8
001
370
    50
100
AcDbVertex
100
AcDb2dVertex
 10
58.517163
 20
164.702908
 30
0.0
  0
VERTEX
  5
37F
330
379
100
AcDbEntity
  8
001
370
    50
100
AcDbVertex
100
AcDb2dVertex
 10
58.699364
 20
164.735572
 30
0.0
  0
VERTEX
  5
380
330
379
100
AcDbEntity
  8
001
370
    50
100
AcDbVertex
100
AcDb2dVertex
 10
58.879003
 20
164.778354
 30
0.0
  0
VERTEX
  5
381
330
379
100
AcDbEntity
  8
001
370
    50
100
AcDbVertex
100
AcDb2dVertex
 10
59.055733
 20
164.831589
 30
0.0
  0
VERTEX
  5
382
330
379
100
AcDbEntity
  8
001
370
    50
100
AcDbVertex
100
AcDb2dVertex
 10
59.229493
 20
164.895949
 30
0.0
  0
VERTEX
  5
383
330
379
100
AcDbEntity
  8
001
370
    50
100
AcDbVertex
100
AcDb2dVertex
 10
59.399097
 20
164.97069
 30
0.0
  0
VERTEX
  5
384
330
379
100
AcDbEntity
  8
001
370
    50
100
AcDbVertex
100
AcDb2dVertex
 10
59.565088
 20
165.055615
 30
0.0
  0
VERTEX
  5
385
330
379
100
AcDbEntity
  8
001
370
    50
100
AcDbVertex
100
AcDb2dVertex
 10
59.725993
 20
165.149796
 30
0.0
  0
VERTEX
  5
386
330
379
100
AcDbEntity
  8
001
370
    50
100
AcDbVertex
100
AcDb2dVertex
 10
59.881407
 20
165.252803
 30
0.0
  0
VERTEX
  5
387
330
379
100
AcDbEntity
  8
001
370
    50
100
AcDbVertex
100
AcDb2dVertex
 10
60.03092
 20
165.364198
 30
0.0
  0
VERTEX
  5
388
330
379
100
AcDbEntity
  8
001
370
    50
100
AcDbVertex
100
AcDb2dVertex
 10
60.173564
 20
165.48296
 30
0.0
  0
VERTEX
  5
389
330
379
100
AcDbEntity
  8
001
370
    50
100
AcDbVertex
100
AcDb2dVertex
 10
60.309905
 20
165.608918
 30
0.0
  0
VERTEX
  5
38A
330
379
100
AcDbEntity
  8
001
370
    50
100
AcDbVertex
100
AcDb2dVertex
 10
60.440595
 20
165.742183
 30
0.0
  0
VERTEX
  5
38B
330
379
100
AcDbEntity
  8
001
370
    50
100
AcDbVertex
100
AcDb2dVertex
 10
60.564758
 20
165.881546
 30
0.0
  0
VERTEX
  5
38C
330
379
100
AcDbEntity
  8
001
370
    50
100
AcDbVertex
100
AcDb2dVertex
 10
60.682376
 20
166.026643
 30
0.0
  0
VERTEX
  5
38D
330
379
100
AcDbEntity
  8
001
370
    50
100
AcDbVertex
100
AcDb2dVertex
 10
60.793246
 20
166.176961
 30
0.0
  0
VERTEX
  5
38E
330
379
100
AcDbEntity
  8
001
370
    50
100
AcDbVertex
100
AcDb2dVertex
 10
60.913223
 20
166.357219
 30
0.0
  0
VERTEX
  5
38F
330
379
100
AcDbEntity
  8
001
370
    50
100
AcDbVertex
100
AcDb2dVertex
 10
61.024048
 20
166.543268
 30
0.0
  0
VERTEX
  5
390
330
379
100
AcDbEntity
  8
001
370
    50
100
AcDbVertex
100
AcDb2dVertex
 10
61.126255
 20
166.735448
 30
0.0
  0
VERTEX
  5
391
330
379
100
AcDbEntity
  8
001
370
    50
100
AcDbVertex
100
AcDb2dVertex
 10
61.219144
 20
166.932273
 30
0.0
  0
VERTEX
  5
392
330
379
100
AcDbEntity
  8
001
370
    50
100
AcDbVertex
100
AcDb2dVertex
 10
61.302654
 20
167.133217
 30
0.0
  0
VERTEX
  5
393
330
379
100
AcDbEntity
  8
001
370
    50
100
AcDbVertex
100
AcDb2dVertex
 10
61.377061
 20
167.337767
 30
0.0
  0
VERTEX
  5
394
330
379
100
AcDbEntity
  8
001
370
    50
100
AcDbVertex
100
AcDb2dVertex
 10
61.443312
 20
167.548593
 30
0.0
  0
VERTEX
  5
395
330
379
100
AcDbEntity
  8
001
370
    50
100
AcDbVertex
100
AcDb2dVertex
 10
61.498934
 20
167.762338
 30
0.0
  0
VERTEX
  5
396
330
379
100
AcDbEntity
  8
001
370
    50
100
AcDbVertex
100
AcDb2dVertex
 10
61.54366
 20
167.978856
 30
0.0
  0
VERTEX
  5
397
330
379
100
AcDbEntity
  8
001
370
    50
100
AcDbVertex
100
AcDb2dVertex
 10
61.582251
 20
168.196712
 30
0.0
  0
SEQEND
  5
37A
330
379
100
AcDbEntity
  8
001
370
    50
  0
LINE
  5
398
330
1F
100
AcDbEntity
  8
001
370
    50
100
AcDbLine
 10
61.582251
 20
168.196712
 30
0.0
 11
65.308591
 21
171.736151
 31
0.0
  0
LINE
  5
399
330
1F
100
AcDbEntity
  8
001
370
    50
100
AcDbLine
 10
65.308591
 20
172.609005
 30
0.0
 11
61.582251
 21
168.997931
 31
0.0
  0
ARC
  5
39A
330
1F
100
AcDbEntity
  8
001
370
    50
100
AcDbCircle
 10
57.434603
 20
169.659005
 30
0.0
 40
4.200000000000001
100
AcDbArc
 50
277.25594
 51
350.94406
  0
LINE
  5
39B
330
1F
100
AcDbEntity
  8
001
370
    50
100
AcDbLine
 10
57.965071
 20
165.49264
 30
0.0
 11
54.834603
 21
162.459005
 31
0.0
  0
LINE
  5
39C
330
1F
100
AcDbEntity
  8
001
370
    50
100
AcDbLine
 10
65.308591
 20
171.736151
 30
0.0
 11
65.308591
 21
172.609005
 31
0.0
  0
LINE
  5
39D
330
1F
100
AcDbEntity
  8
001
370
    50
100
AcDbLine
 10
61.582251
 20
168.196712
 30
0.0
 11
61.582251
 21
168.997931
 31
0.0
  0
LINE
  5
39E
330
1F
100
AcDbEntity
  8
001
370
    50
100
AcDbLine
 10
57.965071
 20
164.669142
 30
0.0
 11
57.965071
 21
165.49264
 31
0.0
  0
LINE
  5
39F
330
1F
100
AcDbEntity
  8
001
  6
CENTER
370
     9
100
AcDbLine
 10
53.014119
 20
161.059005
 30
0.0
 11
207.605268
 21
161.059005
 31
0.0
  0
LINE
  5
3A0
330
1F
100
AcDbEntity
  8
001
370
    50
100
AcDbLine
 10
203.834603
 20
161.059005
 30
0.0
 11
206.43268
 21
162.559005
 31
0.0
  0
LINE
  5
3A1
330
1F
100
AcDbEntity
  8
001
370
    50
100
AcDbLine
 10
203.834603
 20
161.059005
 30
0.0
 11
206.43268
 21
159.559005
 31
0.0
  0
LINE
  5
3A2
330
1F
100
AcDbEntity
  8
001
370
    50
100
AcDbLine
 10
60.29138
 20
152.702229
 30
0.0
 11
60.114603
 21
153.129005
 31
0.0
  0
LINE
  5
3A3
330
1F
100
AcDbEntity
  8
001
370
    50
100
AcDbLine
 10
57.687827
 20
155.305782
 30
0.0
 11
58.114603
 21
155.129005
 31
0.0
  0
ARC
  5
3A4
330
1F
100
AcDbEntity
  8
001
370
    50
100
AcDbCircle
 10
58.114603
 20
153.129005
 30
0.0
 40
2.0
100
AcDbArc
 50
0.0
 51
90.0
  0
LINE
  5
3A5
330
1F
100
AcDbEntity
  8
001
370
    50
100
AcDbLine
 10
60.29138
 20
152.702229
 30
0.0
 11
64.317446
 21
148.676163
 31
0.0
  0
ARC
  5
3A6
330
1F
100
AcDbEntity
  8
001
370
    50
100
AcDbCircle
 10
200.834603
 20
56.615031
 30
0.0
 40
3.000000000000003
100
AcDbArc
 50
0.0
 51
90.0
  0
ARC
  5
3A7
330
1F
100
AcDbEntity
  8
001
370
    50
100
AcDbCircle
 10
200.834603
 20
37.615031
 30
0.0
 40
3.000000000000003
100
AcDbArc
 50
270.0
 51
0.0
  0
LINE
  5
3A8
330
1F
100
AcDbEntity
  8
001
370
    50
100
AcDbLine
 10
203.834603
 20
56.615031
 30
0.0
 11
203.834603
 21
37.615031
 31
0.0
  0
LINE
  5
3A9
330
1F
100
AcDbEntity
  8
001
370
    50
100
AcDbLine
 10
104.784603
 20
59.615031
 30
0.0
 11
104.784603
 21
34.615031
 31
0.0
  0
LINE
  5
3AA
330
1F
100
AcDbEntity
  8
001
370
    50
100
AcDbLine
 10
200.834603
 20
59.615031
 30
0.0
 11
104.784603
 21
59.615031
 31
0.0
  0
LINE
  5
3AB
330
1F
100
AcDbEntity
  8
001
370
    50
100
AcDbLine
 10
104.784603
 20
34.615031
 30
0.0
 11
200.834603
 21
34.615031
 31
0.0
  0
LINE
  5
3AC
330
1F
100
AcDbEntity
  8
001
370
    50
100
AcDbLine
 10
103.834603
 20
58.665031
 30
0.0
 11
103.834603
 21
35.565031
 31
0.0
  0
LINE
  5
3AD
330
1F
100
AcDbEntity
  8
001
370
    50
100
AcDbLine
 10
104.784603
 20
59.615031
 30
0.0
 11
103.834603
 21
58.665031
 31
0.0
  0
LINE
  5
3AE
330
1F
100
AcDbEntity
  8
001
370
    50
100
AcDbLine
 10
103.834603
 20
35.565031
 30
0.0
 11
104.784603
 21
34.615031
 31
0.0
  0
LINE
  5
3AF
330
1F
100
AcDbEntity
  8
001
370
    50
100
AcDbLine
 10
103.834603
 20
58.665031
 30
0.0
 11
65.308591
 21
58.665031
 31
0.0
  0
POLYLINE
  5
3B0
330
1F
100
AcDbEntity
  8
001
370
    50
100
AcDb2dPolyline
 66
     1
 10
0.0
 20
0.0
 30
0.0
  0
VERTEX
  5
3B2
330
3B0
100
AcDbEntity
  8
001
370
    50
100
AcDbVertex
100
AcDb2dVertex
 10
73.288902
 20
56.733473
 30
0.0
  0
VERTEX
  5
3B3
330
3B0
100
AcDbEntity
  8
001
370
    50
100
AcDbVertex
100
AcDb2dVertex
 10
71.711997
 20
56.981628
 30
0.0
  0
VERTEX
  5
3B4
330
3B0
100
AcDbEntity
  8
001
370
    50
100
AcDbVertex
100
AcDb2dVertex
 10
69.402569
 20
57.311475
 30
0.0
  0
VERTEX
  5
3B5
330
3B0
100
AcDbEntity
  8
001
370
    50
100
AcDbVertex
100
AcDb2dVertex
 10
66.973442
 20
57.610447
 30
0.0
  0
VERTEX
  5
3B6
330
3B0
100
AcDbEntity
  8
001
370
    50
100
AcDbVertex
100
AcDb2dVertex
 10
65.308591
 20
57.792177
 30
0.0
  0
SEQEND
  5
3B1
330
3B0
100
AcDbEntity
  8
001
370
    50
  0
POLYLINE
  5
3B7
330
1F
100
AcDbEntity
  8
001
370
    50
100
AcDb2dPolyline
 66
     1
 10
0.0
 20
0.0
 30
0.0
  0
VERTEX
  5
3B9
330
3B7
100
AcDbEntity
  8
001
370
    50
100
AcDbVertex
100
AcDb2dVertex
 10
73.288902
 20
37.49659
 30
0.0
  0
VERTEX
  5
3BA
330
3B7
100
AcDbEntity
  8
001
370
    50
100
AcDbVertex
100
AcDb2dVertex
 10
73.71416
 20
38.025007
 30
0.0
  0
VERTEX
  5
3BB
330
3B7
100
AcDbEntity
  8
001
370
    50
100
AcDbVertex
100
AcDb2dVertex
 10
74.256122
 20
38.788157
 30
0.0
  0
VERTEX
  5
3BC
330
3B7
100
AcDbEntity
  8
001
370
    50
100
AcDbVertex
100
AcDb2dVertex
 10
74.71823
 20
39.58087
 30
0.0
  0
VERTEX
  5
3BD
330
3B7
100
AcDbEntity
  8
001
370
    50
100
AcDbVertex
100
AcDb2dVertex
 10
75.069786
 20
40.34559
 30
0.0
  0
VERTEX
  5
3BE
330
3B7
100
AcDbEntity
  8
001
370
    50
100
AcDbVertex
100
AcDb2dVertex
 10
75.407715
 20
41.213476
 30
0.0
  0
VERTEX
  5
3BF
330
3B7
100
AcDbEntity
  8
001
370
    50
100
AcDbVertex
100
AcDb2dVertex
 10
75.703915
 20
42.119163
 30
0.0
  0
VERTEX
  5
3C0
330
3B7
100
AcDbEntity
  8
001
370
    50
100
AcDbVertex
100
AcDb2dVertex
 10
75.951589
 20
43.081826
 30
0.0
  0
VERTEX
  5
3C1
330
3B7
100
AcDbEntity
  8
001
370
    50
100
AcDbVertex
100
AcDb2dVertex
 10
76.138262
 20
44.052246
 30
0.0
  0
VERTEX
  5
3C2
330
3B7
100
AcDbEntity
  8
001
370
    50
100
AcDbVertex
100
AcDb2dVertex
 10
76.27584
 20
45.064001
 30
0.0
  0
VERTEX
  5
3C3
330
3B7
100
AcDbEntity
  8
001
370
    50
100
AcDbVertex
100
AcDb2dVertex
 10
76.358959
 20
46.08312
 30
0.0
  0
VERTEX
  5
3C4
330
3B7
100
AcDbEntity
  8
001
370
    50
100
AcDbVertex
100
AcDb2dVertex
 10
76.387081
 20
47.115031
 30
0.0
  0
VERTEX
  5
3C5
330
3B7
100
AcDbEntity
  8
001
370
    50
100
AcDbVertex
100
AcDb2dVertex
 10
76.358959
 20
48.146942
 30
0.0
  0
VERTEX
  5
3C6
330
3B7
100
AcDbEntity
  8
001
370
    50
100
AcDbVertex
100
AcDb2dVertex
 10
76.27584
 20
49.166062
 30
0.0
  0
VERTEX
  5
3C7
330
3B7
100
AcDbEntity
  8
001
370
    50
100
AcDbVertex
100
AcDb2dVertex
 10
76.138262
 20
50.177816
 30
0.0
  0
VERTEX
  5
3C8
330
3B7
100
AcDbEntity
  8
001
370
    50
100
AcDbVertex
100
AcDb2dVertex
 10
75.951589
 20
51.148236
 30
0.0
  0
VERTEX
  5
3C9
330
3B7
100
AcDbEntity
  8
001
370
    50
100
AcDbVertex
100
AcDb2dVertex
 10
75.703915
 20
52.1109
 30
0.0
  0
VERTEX
  5
3CA
330
3B7
100
AcDbEntity
  8
001
370
    50
100
AcDbVertex
100
AcDb2dVertex
 10
75.407715
 20
53.016587
 30
0.0
  0
VERTEX
  5
3CB
330
3B7
100
AcDbEntity
  8
001
370
    50
100
AcDbVertex
100
AcDb2dVertex
 10
75.069786
 20
53.884472
 30
0.0
  0
VERTEX
  5
3CC
330
3B7
100
AcDbEntity
  8
001
370
    50
100
AcDbVertex
100
AcDb2dVertex
 10
74.71823
 20
54.649193
 30
0.0
  0
VERTEX
  5
3CD
330
3B7
100
AcDbEntity
  8
001
370
    50
100
AcDbVertex
100
AcDb2dVertex
 10
74.256122
 20
55.441905
 30
0.0
  0
VERTEX
  5
3CE
330
3B7
100
AcDbEntity
  8
001
370
    50
100
AcDbVertex
100
AcDb2dVertex
 10
73.71416
 20
56.205055
 30
0.0
  0
VERTEX
  5
3CF
330
3B7
100
AcDbEntity
  8
001
370
    50
100
AcDbVertex
100
AcDb2dVertex
 10
73.288902
 20
56.733473
 30
0.0
  0
SEQEND
  5
3B8
330
3B7
100
AcDbEntity
  8
001
370
    50
  0
LINE
  5
3D0
330
1F
100
AcDbEntity
  8
001
370
    50
100
AcDbLine
 10
73.288902
 20
56.733473
 30
0.0
 11
73.288902
 21
37.49659
 31
0.0
  0
POLYLINE
  5
3D1
330
1F
100
AcDbEntity
  8
001
370
    50
100
AcDb2dPolyline
 66
     1
 10
0.0
 20
0.0
 30
0.0
  0
VERTEX
  5
3D3
330
3D1
100
AcDbEntity
  8
001
370
    50
100
AcDbVertex
100
AcDb2dVertex
 10
57.965071
 20
50.725168
 30
0.0
  0
VERTEX
  5
3D4
330
3D1
100
AcDbEntity
  8
001
370
    50
100
AcDbVertex
100
AcDb2dVertex
 10
58.149474
 20
50.728202
 30
0.0
  0
VERTEX
  5
3D5
330
3D1
100
AcDbEntity
  8
001
370
    50
100
AcDbVertex
100
AcDb2dVertex
 10
58.33345
 20
50.737715
 30
0.0
  0
VERTEX
  5
3D6
330
3D1
100
AcDbEntity
  8
001
370
    50
100
AcDbVertex
100
AcDb2dVertex
 10
58.517163
 20
50.758934
 30
0.0
  0
VERTEX
  5
3D7
330
3D1
100
AcDbEntity
  8
001
370
    50
100
AcDbVertex
100
AcDb2dVertex
 10
58.699364
 20
50.791598
 30
0.0
  0
VERTEX
  5
3D8
330
3D1
100
AcDbEntity
  8
001
370
    50
100
AcDbVertex
100
AcDb2dVertex
 10
58.879003
 20
50.83438
 30
0.0
  0
VERTEX
  5
3D9
330
3D1
100
AcDbEntity
  8
001
370
    50
100
AcDbVertex
100
AcDb2dVertex
 10
59.055733
 20
50.887615
 30
0.0
  0
VERTEX
  5
3DA
330
3D1
100
AcDbEntity
  8
001
370
    50
100
AcDbVertex
100
AcDb2dVertex
 10
59.229493
 20
50.951975
 30
0.0
  0
VERTEX
  5
3DB
330
3D1
100
AcDbEntity
  8
001
370
    50
100
AcDbVertex
100
AcDb2dVertex
 10
59.399097
 20
51.026716
 30
0.0
  0
VERTEX
  5
3DC
330
3D1
100
AcDbEntity
  8
001
370
    50
100
AcDbVertex
100
AcDb2dVertex
 10
59.565088
 20
51.111641
 30
0.0
  0
VERTEX
  5
3DD
330
3D1
100
AcDbEntity
  8
001
370
    50
100
AcDbVertex
100
AcDb2dVertex
 10
59.725993
 20
51.205822
 30
0.0
  0
VERTEX
  5
3DE
330
3D1
100
AcDbEntity
  8
001
370
    50
100
AcDbVertex
100
AcDb2dVertex
 10
59.881407
 20
51.308829
 30
0.0
  0
VERTEX
  5
3DF
330
3D1
100
AcDbEntity
  8
001
370
    50
100
AcDbVertex
100
AcDb2dVertex
 10
60.03092
 20
51.420224
 30
0.0
  0
VERTEX
  5
3E0
330
3D1
100
AcDbEntity
  8
001
370
    50
100
AcDbVertex
100
AcDb2dVertex
 10
60.173564
 20
51.538986
 30
0.0
  0
VERTEX
  5
3E1
330
3D1
100
AcDbEntity
  8
001
370
    50
100
AcDbVertex
100
AcDb2dVertex
 10
60.309905
 20
51.664943
 30
0.0
  0
VERTEX
  5
3E2
330
3D1
100
AcDbEntity
  8
001
370
    50
100
AcDbVertex
100
AcDb2dVertex
 10
60.440595
 20
51.798209
 30
0.0
  0
VERTEX
  5
3E3
330
3D1
100
AcDbEntity
  8
001
370
    50
100
AcDbVertex
100
AcDb2dVertex
 10
60.564758
 20
51.937572
 30
0.0
  0
VERTEX
  5
3E4
330
3D1
100
AcDbEntity
  8
001
370
    50
100
AcDbVertex
100
AcDb2dVertex
 10
60.682376
 20
52.082669
 30
0.0
  0
VERTEX
  5
3E5
330
3D1
100
AcDbEntity
  8
001
370
    50
100
AcDbVertex
100
AcDb2dVertex
 10
60.793246
 20
52.232987
 30
0.0
  0
VERTEX
  5
3E6
330
3D1
100
AcDbEntity
  8
001
370
    50
100
AcDbVertex
100
AcDb2dVertex
 10
60.913223
 20
52.413245
 30
0.0
  0
VERTEX
  5
3E7
330
3D1
100
AcDbEntity
  8
001
370
    50
100
AcDbVertex
100
AcDb2dVertex
 10
61.024048
 20
52.599294
 30
0.0
  0
VERTEX
  5
3E8
330
3D1
100
AcDbEntity
  8
001
370
    50
100
AcDbVertex
100
AcDb2dVertex
 10
61.126255
 20
52.791474
 30
0.0
  0
VERTEX
  5
3E9
330
3D1
100
AcDbEntity
  8
001
370
    50
100
AcDbVertex
100
AcDb2dVertex
 10
61.219144
 20
52.988299
 30
0.0
  0
VERTEX
  5
3EA
330
3D1
100
AcDbEntity
  8
001
370
    50
100
AcDbVertex
100
AcDb2dVertex
 10
61.302654
 20
53.189243
 30
0.0
  0
VERTEX
  5
3EB
330
3D1
100
AcDbEntity
  8
001
370
    50
100
AcDbVertex
100
AcDb2dVertex
 10
61.377061
 20
53.393792
 30
0.0
  0
VERTEX
  5
3EC
330
3D1
100
AcDbEntity
  8
001
370
    50
100
AcDbVertex
100
AcDb2dVertex
 10
61.443312
 20
53.604618
 30
0.0
  0
VERTEX
  5
3ED
330
3D1
100
AcDbEntity
  8
001
370
    50
100
AcDbVertex
100
AcDb2dVertex
 10
61.498934
 20
53.818364
 30
0.0
  0
VERTEX
  5
3EE
330
3D1
100
AcDbEntity
  8
001
370
    50
100
AcDbVertex
100
AcDb2dVertex
 10
61.54366
 20
54.034882
 30
0.0
  0
VERTEX
  5
3EF
330
3D1
100
AcDbEntity
  8
001
370
    50
100
AcDbVertex
100
AcDb2dVertex
 10
61.582251
 20
54.252738
 30
0.0
  0
SEQEND
  5
3D2
330
3D1
100
AcDbEntity
  8
001
370
    50
  0
LINE
  5
3F0
330
1F
100
AcDbEntity
  8
001
370
    50
100
AcDbLine
 10
61.582251
 20
54.252738
 30
0.0
 11
65.308591
 21
57.792177
 31
0.0
  0
LINE
  5
3F1
330
1F
100
AcDbEntity
  8
001
370
    50
100
AcDbLine
 10
65.308591
 20
58.665031
 30
0.0
 11
61.582251
 21
55.053957
 31
0.0
  0
ARC
  5
3F2
330
1F
100
AcDbEntity
  8
001
370
    50
100
AcDbCircle
 10
57.434603
 20
55.715031
 30
0.0
 40
4.200000000000001
100
AcDbArc
 50
277.25594
 51
350.94406
  0
LINE
  5
3F3
330
1F
100
AcDbEntity
  8
001
370
    50
100
AcDbLine
 10
57.965071
 20
51.548665
 30
0.0
 11
54.834603
 21
48.515031
 31
0.0
  0
LINE
  5
3F4
330
1F
100
AcDbEntity
  8
001
370
    50
100
AcDbLine
 10
65.308591
 20
57.792177
 30
0.0
 11
65.308591
 21
58.665031
 31
0.0
  0
LINE
  5
3F5
330
1F
100
AcDbEntity
  8
001
370
    50
100
AcDbLine
 10
61.582251
 20
54.252738
 30
0.0
 11
61.582251
 21
55.053957
 31
0.0
  0
LINE
  5
3F6
330
1F
100
AcDbEntity
  8
001
370
    50
100
AcDbLine
 10
57.965071
 20
50.725168
 30
0.0
 11
57.965071
 21
51.548665
 31
0.0
  0
LINE
  5
3F7
330
1F
100
AcDbEntity
  8
001
  6
CENTER
370
     9
100
AcDbLine
 10
53.014119
 20
47.115031
 30
0.0
 11
207.605268
 21
47.115031
 31
0.0
  0
LINE
  5
3F8
330
1F
100
AcDbEntity
  8
001
370
    50
100
AcDbLine
 10
203.834603
 20
47.115031
 30
0.0
 11
206.43268
 21
48.615031
 31
0.0
  0
LINE
  5
3F9
330
1F
100
AcDbEntity
  8
001
370
    50
100
AcDbLine
 10
203.834603
 20
47.115031
 30
0.0
 11
206.43268
 21
45.615031
 31
0.0
  0
POLYLINE
  5
3FA
330
1F
100
AcDbEntity
  8
001
370
    50
100
AcDb2dPolyline
 66
     1
 10
0.0
 20
0.0
 30
0.0
  0
VERTEX
  5
3FC
330
3FA
100
AcDbEntity
  8
001
370
    50
100
AcDbVertex
100
AcDb2dVertex
 10
65.69973
 20
273.344196
 30
0.0
  0
VERTEX
  5
3FD
330
3FA
100
AcDbEntity
  8
001
370
    50
100
AcDbVertex
100
AcDb2dVertex
 10
67.321989
 20
273.52527
 30
0.0
  0
VERTEX
  5
3FE
330
3FA
100
AcDbEntity
  8
001
370
    50
100
AcDbVertex
100
AcDb2dVertex
 10
69.402569
 20
273.78394
 30
0.0
  0
VERTEX
  5
3FF
330
3FA
100
AcDbEntity
  8
001
370
    50
100
AcDbVertex
100
AcDb2dVertex
 10
71.711997
 20
274.113787
 30
0.0
  0
VERTEX
  5
400
330
3FA
100
AcDbEntity
  8
001
370
    50
100
AcDbVertex
100
AcDb2dVertex
 10
73.288902
 20
274.361942
 30
0.0
  0
SEQEND
  5
3FB
330
3FA
100
AcDbEntity
  8
001
370
    50
  0
LINE
  5
401
330
1F
100
AcDbEntity
  8
001
370
    50
100
AcDbLine
 10
65.454875
 20
272.430384
 30
0.0
 11
103.834603
 21
272.430384
 31
0.0
  0
LINE
  5
402
330
1F
100
AcDbEntity
  8
001
370
     9
100
AcDbLine
 10
58.634603
 20
277.580384
 30
0.0
 11
49.317532
 21
277.580384
 31
0.0
  0
LINE
  5
403
330
1F
100
AcDbEntity
  8
001
370
     9
100
AcDbLine
 10
57.614603
 20
41.615031
 30
0.0
 11
48.734003
 21
41.615031
 31
0.0
  0
ARC
  5
404
330
1F
100
AcDbEntity
  8
001
370
    50
100
AcDbCircle
 10
54.234603
 20
282.246069
 30
0.0
 40
0.4
100
AcDbArc
 50
105.0
 51
225.0
  0
LINE
  5
405
330
1F
100
AcDbEntity
  8
001
370
     9
100
AcDbLine
 10
59.634603
 20
276.580384
 30
0.0
 11
59.634603
 21
267.253517
 31
0.0
  0
LINE
  5
406
330
1F
100
AcDbEntity
  8
001
370
    50
100
AcDbLine
 10
53.951761
 20
281.963226
 30
0.0
 11
58.122471
 21
277.792516
 31
0.0
  0
LINE
  5
407
330
1F
100
AcDbEntity
  8
001
370
     9
100
AcDbLine
 10
53.951761
 20
281.963226
 30
0.0
 11
53.834603
 21
282.080384
 31
0.0
  0
LINE
  5
408
330
1F
100
AcDbEntity
  8
001
370
    50
100
AcDbLine
 10
68.290865
 20
286.426544
 30
0.0
 11
54.131076
 21
282.632439
 31
0.0
  0
LINE
  5
409
330
1F
100
AcDbEntity
  8
001
370
    50
100
AcDbLine
 10
68.780763
 20
285.936646
 30
0.0
 11
64.986659
 21
271.776856
 31
0.0
  0
ARC
  5
40A
330
1F
100
AcDbEntity
  8
001
370
    50
100
AcDbCircle
 10
64.600289
 20
271.880384
 30
0.0
 40
0.4
100
AcDbArc
 50
225.0
 51
345.0
  0
ARC
  5
40B
330
1F
100
AcDbEntity
  8
001
370
    50
100
AcDbCircle
 10
67.263022
 20
284.908802
 30
0.0
 40
3.0
100
AcDbArc
 50
278.578178
 51
171.421822
  0
LINE
  5
40C
330
1F
100
AcDbEntity
  8
001
370
    50
100
AcDbLine
 10
54.834603
 20
282.820949
 30
0.0
 11
54.834603
 21
285.380384
 31
0.0
  0
POLYLINE
  5
40D
330
1F
100
AcDbEntity
  8
001
370
    50
100
AcDb2dPolyline
 66
     1
 10
0.0
 20
0.0
 30
0.0
  0
VERTEX
  5
40F
330
40D
100
AcDbEntity
  8
001
370
    50
100
AcDbVertex
100
AcDb2dVertex
 10
55.203241
 20
282.919725
 30
0.0
  0
VERTEX
  5
410
330
40D
100
AcDbEntity
  8
001
370
    50
100
AcDbVertex
100
AcDb2dVertex
 10
55.222724
 20
283.046661
 30
0.0
  0
VERTEX
  5
411
330
40D
100
AcDbEntity
  8
001
370
    50
100
AcDbVertex
100
AcDb2dVertex
 10
55.242208
 20
283.173598
 30
0.0
  0
VERTEX
  5
412
330
40D
100
AcDbEntity
  8
001
370
    50
100
AcDbVertex
100
AcDb2dVertex
 10
55.261326
 20
283.298156
 30
0.0
  0
VERTEX
  5
413
330
40D
100
AcDbEntity
  8
001
370
    50
100
AcDbVertex
100
AcDb2dVertex
 10
55.280445
 20
283.422714
 30
0.0
  0
VERTEX
  5
414
330
40D
100
AcDbEntity
  8
001
370
    50
100
AcDbVertex
100
AcDb2dVertex
 10
55.335713
 20
283.782789
 30
0.0
  0
VERTEX
  5
415
330
40D
100
AcDbEntity
  8
001
370
    50
100
AcDbVertex
100
AcDb2dVertex
 10
55.390981
 20
284.142864
 30
0.0
  0
VERTEX
  5
416
330
40D
100
AcDbEntity
  8
001
370
    50
100
AcDbVertex
100
AcDb2dVertex
 10
55.407956
 20
284.247155
 30
0.0
  0
VERTEX
  5
417
330
40D
100
AcDbEntity
  8
001
370
    50
100
AcDbVertex
100
AcDb2dVertex
 10
55.42947
 20
284.350396
 30
0.0
  0
VERTEX
  5
418
330
40D
100
AcDbEntity
  8
001
370
    50
100
AcDbVertex
100
AcDb2dVertex
 10
55.461389
 20
284.460529
 30
0.0
  0
VERTEX
  5
419
330
40D
100
AcDbEntity
  8
001
370
    50
100
AcDbVertex
100
AcDb2dVertex
 10
55.50087
 20
284.5684
 30
0.0
  0
VERTEX
  5
41A
330
40D
100
AcDbEntity
  8
001
370
    50
100
AcDbVertex
100
AcDb2dVertex
 10
55.561467
 20
284.708255
 30
0.0
  0
VERTEX
  5
41B
330
40D
100
AcDbEntity
  8
001
370
    50
100
AcDbVertex
100
AcDb2dVertex
 10
55.629899
 20
284.844342
 30
0.0
  0
VERTEX
  5
41C
330
40D
100
AcDbEntity
  8
001
370
    50
100
AcDbVertex
100
AcDb2dVertex
 10
55.704965
 20
284.976676
 30
0.0
  0
VERTEX
  5
41D
330
40D
100
AcDbEntity
  8
001
370
    50
100
AcDbVertex
100
AcDb2dVertex
 10
55.785368
 20
285.10588
 30
0.0
  0
VERTEX
  5
41E
330
40D
100
AcDbEntity
  8
001
370
    50
100
AcDbVertex
100
AcDb2dVertex
 10
55.871824
 20
285.235337
 30
0.0
  0
VERTEX
  5
41F
330
40D
100
AcDbEntity
  8
001
370
    50
100
AcDbVertex
100
AcDb2dVertex
 10
55.961832
 20
285.362329
 30
0.0
  0
VERTEX
  5
420
330
40D
100
AcDbEntity
  8
001
370
    50
100
AcDbVertex
100
AcDb2dVertex
 10
56.054748
 20
285.486992
 30
0.0
  0
VERTEX
  5
421
330
40D
100
AcDbEntity
  8
001
370
    50
100
AcDbVertex
100
AcDb2dVertex
 10
56.150089
 20
285.60982
 30
0.0
  0
VERTEX
  5
422
330
40D
100
AcDbEntity
  8
001
370
    50
100
AcDbVertex
100
AcDb2dVertex
 10
56.362161
 20
285.870164
 30
0.0
  0
VERTEX
  5
423
330
40D
100
AcDbEntity
  8
001
370
    50
100
AcDbVertex
100
AcDb2dVertex
 10
56.580958
 20
286.124915
 30
0.0
  0
VERTEX
  5
424
330
40D
100
AcDbEntity
  8
001
370
    50
100
AcDbVertex
100
AcDb2dVertex
 10
56.804566
 20
286.375019
 30
0.0
  0
VERTEX
  5
425
330
40D
100
AcDbEntity
  8
001
370
    50
100
AcDbVertex
100
AcDb2dVertex
 10
57.031997
 20
286.62163
 30
0.0
  0
VERTEX
  5
426
330
40D
100
AcDbEntity
  8
001
370
    50
100
AcDbVertex
100
AcDb2dVertex
 10
57.495744
 20
287.108718
 30
0.0
  0
VERTEX
  5
427
330
40D
100
AcDbEntity
  8
001
370
    50
100
AcDbVertex
100
AcDb2dVertex
 10
57.965071
 20
287.59052
 30
0.0
  0
SEQEND
  5
40E
330
40D
100
AcDbEntity
  8
001
370
    50
  0
LINE
  5
428
330
1F
100
AcDbEntity
  8
001
370
     9
100
AcDbLine
 10
53.834603
 20
282.246069
 30
0.0
 11
53.834603
 21
267.253517
 31
0.0
  0
LINE
  5
429
330
1F
100
AcDbEntity
  8
001
370
     9
100
AcDbLine
 10
64.317446
 20
271.597541
 30
0.0
 11
64.434603
 21
271.480384
 31
0.0
  0
LINE
  5
42A
330
1F
100
AcDbEntity
  8
001
370
    50
100
AcDbLine
 10
64.317446
 20
271.597541
 30
0.0
 11
59.846735
 21
276.068252
 31
0.0
  0
LINE
  5
42B
330
1F
100
AcDbEntity
  8
001
370
     9
100
AcDbLine
 10
49.317532
 20
271.480384
 30
0.0
 11
64.600289
 21
271.480384
 31
0.0
  0
LINE
  5
42C
330
1F
100
AcDbEntity
  8
001
370
     9
100
AcDbLine
 10
49.317532
 20
282.080384
 30
0.0
 11
53.834603
 21
282.080384
 31
0.0
  0
LINE
  5
42D
330
1F
100
AcDbEntity
  8
001
370
     9
100
AcDbLine
 10
60.114603
 20
153.129005
 30
0.0
 11
60.114603
 21
143.067281
 31
0.0
  0
LINE
  5
42E
330
1F
100
AcDbEntity
  8
001
370
     9
100
AcDbLine
 10
58.114603
 20
155.129005
 30
0.0
 11
46.207824
 21
155.129005
 31
0.0
  0
ARC
  5
42F
330
1F
100
AcDbEntity
  8
001
370
    50
100
AcDbCircle
 10
68.394393
 20
286.040173
 30
0.0
 40
0.4
100
AcDbArc
 50
345.0
 51
105.0
  0
ARC
  5
430
330
1F
100
AcDbEntity
  8
001
370
    50
100
AcDbCircle
 10
54.234603
 20
159.324691
 30
0.0
 40
0.4
100
AcDbArc
 50
105.0
 51
225.0
  0
LINE
  5
431
330
1F
100
AcDbEntity
  8
001
370
     9
100
AcDbLine
 10
53.951761
 20
159.041848
 30
0.0
 11
53.834603
 21
159.159005
 31
0.0
  0
LINE
  5
432
330
1F
100
AcDbEntity
  8
001
370
    50
100
AcDbLine
 10
57.687827
 20
155.305782
 30
0.0
 11
53.951761
 21
159.041848
 31
0.0
  0
CIRCLE
  5
433
330
1F
100
AcDbEntity
  8
001
370
    50
100
AcDbCircle
 10
62.409762
 20
157.134164
 30
0.0
 40
1.905
  0
LINE
  5
434
330
1F
100
AcDbEntity
  8
001
370
    50
100
AcDbLine
 10
68.290865
 20
163.505165
 30
0.0
 11
54.131076
 21
159.711061
 31
0.0
  0
LINE
  5
435
330
1F
100
AcDbEntity
  8
001
370
    50
100
AcDbLine
 10
64.986659
 20
148.855478
 30
0.0
 11
68.780763
 21
163.015267
 31
0.0
  0
ARC
  5
436
330
1F
100
AcDbEntity
  8
001
370
    50
100
AcDbCircle
 10
67.263022
 20
161.987424
 30
0.0
 40
3.0
100
AcDbArc
 50
278.578178
 51
171.421822
  0
ARC
  5
437
330
1F
100
AcDbEntity
  8
001
370
    50
100
AcDbCircle
 10
68.394393
 20
163.118795
 30
0.0
 40
0.4
100
AcDbArc
 50
345.0
 51
105.0
  0
ARC
  5
438
330
1F
100
AcDbEntity
  8
001
370
    50
100
AcDbCircle
 10
64.600289
 20
148.959005
 30
0.0
 40
0.4
100
AcDbArc
 50
225.0
 51
345.0
  0
LINE
  5
439
330
1F
100
AcDbEntity
  8
001
370
     9
100
AcDbLine
 10
53.834603
 20
159.324691
 30
0.0
 11
53.834603
 21
143.067281
 31
0.0
  0
LINE
  5
43A
330
1F
100
AcDbEntity
  8
001
370
     9
100
AcDbLine
 10
46.207824
 20
159.159005
 30
0.0
 11
53.834603
 21
159.159005
 31
0.0
  0
LINE
  5
43B
330
1F
100
AcDbEntity
  8
001
370
    50
100
AcDbLine
 10
54.834603
 20
159.899571
 30
0.0
 11
54.834603
 21
162.459005
 31
0.0
  0
POLYLINE
  5
43C
330
1F
100
AcDbEntity
  8
001
370
    50
100
AcDb2dPolyline
 66
     1
 10
0.0
 20
0.0
 30
0.0
  0
VERTEX
  5
43E
330
43C
100
AcDbEntity
  8
001
370
    50
100
AcDbVertex
100
AcDb2dVertex
 10
55.203241
 20
159.998347
 30
0.0
  0
VERTEX
  5
43F
330
43C
100
AcDbEntity
  8
001
370
    50
100
AcDbVertex
100
AcDb2dVertex
 10
55.235342
 20
160.207485
 30
0.0
  0
VERTEX
  5
440
330
43C
100
AcDbEntity
  8
001
370
    50
100
AcDbVertex
100
AcDb2dVertex
 10
55.267442
 20
160.416623
 30
0.0
  0
VERTEX
  5
441
330
43C
100
AcDbEntity
  8
001
370
    50
100
AcDbVertex
100
AcDb2dVertex
 10
55.316742
 20
160.737814
 30
0.0
  0
VERTEX
  5
442
330
43C
100
AcDbEntity
  8
001
370
    50
100
AcDbVertex
100
AcDb2dVertex
 10
55.366042
 20
161.059005
 30
0.0
  0
VERTEX
  5
443
330
43C
100
AcDbEntity
  8
001
370
    50
100
AcDbVertex
100
AcDb2dVertex
 10
55.378511
 20
161.140246
 30
0.0
  0
VERTEX
  5
444
330
43C
100
AcDbEntity
  8
001
370
    50
100
AcDbVertex
100
AcDb2dVertex
 10
55.390981
 20
161.221486
 30
0.0
  0
VERTEX
  5
445
330
43C
100
AcDbEntity
  8
001
370
    50
100
AcDbVertex
100
AcDb2dVertex
 10
55.407956
 20
161.325777
 30
0.0
  0
VERTEX
  5
446
330
43C
100
AcDbEntity
  8
001
370
    50
100
AcDbVertex
100
AcDb2dVertex
 10
55.42947
 20
161.429017
 30
0.0
  0
VERTEX
  5
447
330
43C
100
AcDbEntity
  8
001
370
    50
100
AcDbVertex
100
AcDb2dVertex
 10
55.461389
 20
161.539151
 30
0.0
  0
VERTEX
  5
448
330
43C
100
AcDbEntity
  8
001
370
    50
100
AcDbVertex
100
AcDb2dVertex
 10
55.50087
 20
161.647022
 30
0.0
  0
VERTEX
  5
449
330
43C
100
AcDbEntity
  8
001
370
    50
100
AcDbVertex
100
AcDb2dVertex
 10
55.561467
 20
161.786877
 30
0.0
  0
VERTEX
  5
44A
330
43C
100
AcDbEntity
  8
001
370
    50
100
AcDbVertex
100
AcDb2dVertex
 10
55.629899
 20
161.922964
 30
0.0
  0
VERTEX
  5
44B
330
43C
100
AcDbEntity
  8
001
370
    50
100
AcDbVertex
100
AcDb2dVertex
 10
55.704965
 20
162.055298
 30
0.0
  0
VERTEX
  5
44C
330
43C
100
AcDbEntity
  8
001
370
    50
100
AcDbVertex
100
AcDb2dVertex
 10
55.785368
 20
162.184502
 30
0.0
  0
VERTEX
  5
44D
330
43C
100
AcDbEntity
  8
001
370
    50
100
AcDbVertex
100
AcDb2dVertex
 10
55.871824
 20
162.313959
 30
0.0
  0
VERTEX
  5
44E
330
43C
100
AcDbEntity
  8
001
370
    50
100
AcDbVertex
100
AcDb2dVertex
 10
55.961832
 20
162.440951
 30
0.0
  0
VERTEX
  5
44F
330
43C
100
AcDbEntity
  8
001
370
    50
100
AcDbVertex
100
AcDb2dVertex
 10
56.054748
 20
162.565614
 30
0.0
  0
VERTEX
  5
450
330
43C
100
AcDbEntity
  8
001
370
    50
100
AcDbVertex
100
AcDb2dVertex
 10
56.150089
 20
162.688442
 30
0.0
  0
VERTEX
  5
451
330
43C
100
AcDbEntity
  8
001
370
    50
100
AcDbVertex
100
AcDb2dVertex
 10
56.362161
 20
162.948786
 30
0.0
  0
VERTEX
  5
452
330
43C
100
AcDbEntity
  8
001
370
    50
100
AcDbVertex
100
AcDb2dVertex
 10
56.580958
 20
163.203537
 30
0.0
  0
VERTEX
  5
453
330
43C
100
AcDbEntity
  8
001
370
    50
100
AcDbVertex
100
AcDb2dVertex
 10
56.804566
 20
163.453641
 30
0.0
  0
VERTEX
  5
454
330
43C
100
AcDbEntity
  8
001
370
    50
100
AcDbVertex
100
AcDb2dVertex
 10
57.031997
 20
163.700252
 30
0.0
  0
VERTEX
  5
455
330
43C
100
AcDbEntity
  8
001
370
    50
100
AcDbVertex
100
AcDb2dVertex
 10
57.495744
 20
164.18734
 30
0.0
  0
VERTEX
  5
456
330
43C
100
AcDbEntity
  8
001
370
    50
100
AcDbVertex
100
AcDb2dVertex
 10
57.965071
 20
164.669142
 30
0.0
  0
SEQEND
  5
43D
330
43C
100
AcDbEntity
  8
001
370
    50
  0
POLYLINE
  5
457
330
1F
100
AcDbEntity
  8
001
370
    50
100
AcDb2dPolyline
 66
     1
 10
0.0
 20
0.0
 30
0.0
  0
VERTEX
  5
459
330
457
100
AcDbEntity
  8
001
370
    50
100
AcDbVertex
100
AcDb2dVertex
 10
65.396957
 20
150.38673
 30
0.0
  0
VERTEX
  5
45A
330
457
100
AcDbEntity
  8
001
370
    50
100
AcDbVertex
100
AcDb2dVertex
 10
65.552178
 20
150.404085
 30
0.0
  0
VERTEX
  5
45B
330
457
100
AcDbEntity
  8
001
370
    50
100
AcDbVertex
100
AcDb2dVertex
 10
65.7074
 20
150.421441
 30
0.0
  0
VERTEX
  5
45C
330
457
100
AcDbEntity
  8
001
370
    50
100
AcDbVertex
100
AcDb2dVertex
 10
65.976098
 20
150.451484
 30
0.0
  0
VERTEX
  5
45D
330
457
100
AcDbEntity
  8
001
370
    50
100
AcDbVertex
100
AcDb2dVertex
 10
66.244797
 20
150.481527
 30
0.0
  0
VERTEX
  5
45E
330
457
100
AcDbEntity
  8
001
370
    50
100
AcDbVertex
100
AcDb2dVertex
 10
66.390901
 20
150.497863
 30
0.0
  0
VERTEX
  5
45F
330
457
100
AcDbEntity
  8
001
370
    50
100
AcDbVertex
100
AcDb2dVertex
 10
66.537006
 20
150.5142
 30
0.0
  0
VERTEX
  5
460
330
457
100
AcDbEntity
  8
001
370
    50
100
AcDbVertex
100
AcDb2dVertex
 10
67.886035
 20
150.670797
 30
0.0
  0
VERTEX
  5
461
330
457
100
AcDbEntity
  8
001
370
    50
100
AcDbVertex
100
AcDb2dVertex
 10
69.402569
 20
150.862562
 30
0.0
  0
VERTEX
  5
462
330
457
100
AcDbEntity
  8
001
370
    50
100
AcDbVertex
100
AcDb2dVertex
 10
71.711997
 20
151.192409
 30
0.0
  0
VERTEX
  5
463
330
457
100
AcDbEntity
  8
001
370
    50
100
AcDbVertex
100
AcDb2dVertex
 10
73.288902
 20
151.440564
 30
0.0
  0
SEQEND
  5
458
330
457
100
AcDbEntity
  8
001
370
    50
  0
LINE
  5
464
330
1F
100
AcDbEntity
  8
001
370
    50
100
AcDbLine
 10
65.161771
 20
149.509005
 30
0.0
 11
103.834603
 21
149.509005
 31
0.0
  0
LINE
  5
465
330
1F
100
AcDbEntity
  8
001
370
     9
100
AcDbLine
 10
49.317532
 20
148.559005
 30
0.0
 11
64.600289
 21
148.559005
 31
0.0
  0
LINE
  5
466
330
1F
100
AcDbEntity
  8
001
370
     9
100
AcDbLine
 10
49.317532
 20
159.159005
 30
0.0
 11
53.834603
 21
159.159005
 31
0.0
  0
LINE
  5
467
330
1F
100
AcDbEntity
  8
001
370
    50
100
AcDbLine
 10
60.741883
 20
38.307752
 30
0.0
 11
64.317446
 21
34.732189
 31
0.0
  0
ARC
  5
468
330
1F
100
AcDbEntity
  8
001
370
    50
100
AcDbCircle
 10
54.234603
 20
45.380717
 30
0.0
 40
0.4
100
AcDbArc
 50
105.0
 51
225.0
  0
LINE
  5
469
330
1F
100
AcDbEntity
  8
001
370
     9
100
AcDbLine
 10
53.951761
 20
45.097874
 30
0.0
 11
53.834603
 21
45.215031
 31
0.0
  0
LINE
  5
46A
330
1F
100
AcDbEntity
  8
001
370
    50
100
AcDbLine
 10
57.307324
 20
41.74231
 30
0.0
 11
53.951761
 21
45.097874
 31
0.0
  0
LINE
  5
46B
330
1F
100
AcDbEntity
  8
001
370
    50
100
AcDbLine
 10
68.290865
 20
49.561191
 30
0.0
 11
54.131076
 21
45.767087
 31
0.0
  0
LINE
  5
46C
330
1F
100
AcDbEntity
  8
001
370
    50
100
AcDbLine
 10
64.986659
 20
34.911504
 30
0.0
 11
68.780763
 21
49.071293
 31
0.0
  0
ARC
  5
46D
330
1F
100
AcDbEntity
  8
001
370
    50
100
AcDbCircle
 10
67.263022
 20
48.04345
 30
0.0
 40
3.0
100
AcDbArc
 50
278.578178
 51
171.421822
  0
ARC
  5
46E
330
1F
100
AcDbEntity
  8
001
370
    50
100
AcDbCircle
 10
68.394393
 20
49.174821
 30
0.0
 40
0.4
100
AcDbArc
 50
345.0
 51
105.0
  0
ARC
  5
46F
330
1F
100
AcDbEntity
  8
001
370
    50
100
AcDbCircle
 10
64.600289
 20
35.015031
 30
0.0
 40
0.4
100
AcDbArc
 50
225.0
 51
345.0
  0
LINE
  5
470
330
1F
100
AcDbEntity
  8
001
370
     9
100
AcDbLine
 10
60.614603
 20
38.615031
 30
0.0
 11
60.614603
 21
25.01235
 31
0.0
  0
ARC
  5
471
330
1F
100
AcDbEntity
  8
001
370
    50
100
AcDbCircle
 10
57.614603
 20
38.615031
 30
0.0
 40
3.0
100
AcDbArc
 50
0.0
 51
90.0
  0
LINE
  5
472
330
1F
100
AcDbEntity
  8
001
370
    50
100
AcDbLine
 10
57.614603
 20
41.615031
 30
0.0
 11
57.307324
 21
41.74231
 31
0.0
  0
LINE
  5
473
330
1F
100
AcDbEntity
  8
001
370
    50
100
AcDbLine
 10
60.741883
 20
38.307752
 30
0.0
 11
60.614603
 21
38.615031
 31
0.0
  0
LINE
  5
474
330
1F
100
AcDbEntity
  8
001
370
    50
100
AcDbLine
 10
65.161771
 20
35.565031
 30
0.0
 11
103.834603
 21
35.565031
 31
0.0
  0
POLYLINE
  5
475
330
1F
100
AcDbEntity
  8
001
370
    50
100
AcDb2dPolyline
 66
     1
 10
0.0
 20
0.0
 30
0.0
  0
VERTEX
  5
477
330
475
100
AcDbEntity
  8
001
370
    50
100
AcDbVertex
100
AcDb2dVertex
 10
65.398014
 20
36.446701
 30
0.0
  0
VERTEX
  5
478
330
475
100
AcDbEntity
  8
001
370
    50
100
AcDbVertex
100
AcDb2dVertex
 10
65.562663
 20
36.46424
 30
0.0
  0
VERTEX
  5
479
330
475
100
AcDbEntity
  8
001
370
    50
100
AcDbVertex
100
AcDb2dVertex
 10
65.727312
 20
36.481779
 30
0.0
  0
VERTEX
  5
47A
330
475
100
AcDbEntity
  8
001
370
    50
100
AcDbVertex
100
AcDb2dVertex
 10
67.343323
 20
36.66241
 30
0.0
  0
VERTEX
  5
47B
330
475
100
AcDbEntity
  8
001
370
    50
100
AcDbVertex
100
AcDb2dVertex
 10
69.402569
 20
36.918588
 30
0.0
  0
VERTEX
  5
47C
330
475
100
AcDbEntity
  8
001
370
    50
100
AcDbVertex
100
AcDb2dVertex
 10
71.711997
 20
37.248435
 30
0.0
  0
VERTEX
  5
47D
330
475
100
AcDbEntity
  8
001
370
    50
100
AcDbVertex
100
AcDb2dVertex
 10
73.288902
 20
37.49659
 30
0.0
  0
SEQEND
  5
476
330
475
100
AcDbEntity
  8
001
370
    50
  0
POLYLINE
  5
47E
330
1F
100
AcDbEntity
  8
001
370
    50
100
AcDb2dPolyline
 66
     1
 10
0.0
 20
0.0
 30
0.0
  0
VERTEX
  5
480
330
47E
100
AcDbEntity
  8
001
370
    50
100
AcDbVertex
100
AcDb2dVertex
 10
55.203241
 20
46.054373
 30
0.0
  0
VERTEX
  5
481
330
47E
100
AcDbEntity
  8
001
370
    50
100
AcDbVertex
100
AcDb2dVertex
 10
55.229739
 20
46.22701
 30
0.0
  0
VERTEX
  5
482
330
47E
100
AcDbEntity
  8
001
370
    50
100
AcDbVertex
100
AcDb2dVertex
 10
55.256237
 20
46.399647
 30
0.0
  0
VERTEX
  5
483
330
47E
100
AcDbEntity
  8
001
370
    50
100
AcDbVertex
100
AcDb2dVertex
 10
55.323609
 20
46.838579
 30
0.0
  0
VERTEX
  5
484
330
47E
100
AcDbEntity
  8
001
370
    50
100
AcDbVertex
100
AcDb2dVertex
 10
55.390981
 20
47.277512
 30
0.0
  0
VERTEX
  5
485
330
47E
100
AcDbEntity
  8
001
370
    50
100
AcDbVertex
100
AcDb2dVertex
 10
55.407956
 20
47.381803
 30
0.0
  0
VERTEX
  5
486
330
47E
100
AcDbEntity
  8
001
370
    50
100
AcDbVertex
100
AcDb2dVertex
 10
55.42947
 20
47.485043
 30
0.0
  0
VERTEX
  5
487
330
47E
100
AcDbEntity
  8
001
370
    50
100
AcDbVertex
100
AcDb2dVertex
 10
55.461389
 20
47.595177
 30
0.0
  0
VERTEX
  5
488
330
47E
100
AcDbEntity
  8
001
370
    50
100
AcDbVertex
100
AcDb2dVertex
 10
55.50087
 20
47.703048
 30
0.0
  0
VERTEX
  5
489
330
47E
100
AcDbEntity
  8
001
370
    50
100
AcDbVertex
100
AcDb2dVertex
 10
55.561467
 20
47.842902
 30
0.0
  0
VERTEX
  5
48A
330
47E
100
AcDbEntity
  8
001
370
    50
100
AcDbVertex
100
AcDb2dVertex
 10
55.629899
 20
47.97899
 30
0.0
  0
VERTEX
  5
48B
330
47E
100
AcDbEntity
  8
001
370
    50
100
AcDbVertex
100
AcDb2dVertex
 10
55.704965
 20
48.111324
 30
0.0
  0
VERTEX
  5
48C
330
47E
100
AcDbEntity
  8
001
370
    50
100
AcDbVertex
100
AcDb2dVertex
 10
55.785368
 20
48.240528
 30
0.0
  0
VERTEX
  5
48D
330
47E
100
AcDbEntity
  8
001
370
    50
100
AcDbVertex
100
AcDb2dVertex
 10
55.871824
 20
48.369985
 30
0.0
  0
VERTEX
  5
48E
330
47E
100
AcDbEntity
  8
001
370
    50
100
AcDbVertex
100
AcDb2dVertex
 10
55.961832
 20
48.496977
 30
0.0
  0
VERTEX
  5
48F
330
47E
100
AcDbEntity
  8
001
370
    50
100
AcDbVertex
100
AcDb2dVertex
 10
56.054748
 20
48.62164
 30
0.0
  0
VERTEX
  5
490
330
47E
100
AcDbEntity
  8
001
370
    50
100
AcDbVertex
100
AcDb2dVertex
 10
56.150089
 20
48.744468
 30
0.0
  0
VERTEX
  5
491
330
47E
100
AcDbEntity
  8
001
370
    50
100
AcDbVertex
100
AcDb2dVertex
 10
56.362161
 20
49.004812
 30
0.0
  0
VERTEX
  5
492
330
47E
100
AcDbEntity
  8
001
370
    50
100
AcDbVertex
100
AcDb2dVertex
 10
56.580958
 20
49.259563
 30
0.0
  0
VERTEX
  5
493
330
47E
100
AcDbEntity
  8
001
370
    50
100
AcDbVertex
100
AcDb2dVertex
 10
56.804566
 20
49.509667
 30
0.0
  0
VERTEX
  5
494
330
47E
100
AcDbEntity
  8
001
370
    50
100
AcDbVertex
100
AcDb2dVertex
 10
57.031997
 20
49.756278
 30
0.0
  0
VERTEX
  5
495
330
47E
100
AcDbEntity
  8
001
370
    50
100
AcDbVertex
100
AcDb2dVertex
 10
57.495744
 20
50.243365
 30
0.0
  0
VERTEX
  5
496
330
47E
100
AcDbEntity
  8
001
370
    50
100
AcDbVertex
100
AcDb2dVertex
 10
57.965071
 20
50.725168
 30
0.0
  0
SEQEND
  5
47F
330
47E
100
AcDbEntity
  8
001
370
    50
  0
LINE
  5
497
330
1F
100
AcDbEntity
  8
001
370
    50
100
AcDbLine
 10
54.834603
 20
45.955597
 30
0.0
 11
54.834603
 21
48.515031
 31
0.0
  0
LINE
  5
498
330
1F
100
AcDbEntity
  8
001
370
     9
100
AcDbLine
 10
53.834603
 20
45.380717
 30
0.0
 11
53.834603
 21
25.01235
 31
0.0
  0
CIRCLE
  5
499
330
1F
100
AcDbEntity
  8
001
370
    50
100
AcDbCircle
 10
62.409762
 20
43.19019
 30
0.0
 40
1.905
  0
LINE
  5
49A
330
1F
100
AcDbEntity
  8
001
370
     9
100
AcDbLine
 10
49.317532
 20
34.615031
 30
0.0
 11
64.600289
 21
34.615031
 31
0.0
  0
LINE
  5
49B
330
1F
100
AcDbEntity
  8
001
370
     9
100
AcDbLine
 10
49.317532
 20
45.215031
 30
0.0
 11
53.834603
 21
45.215031
 31
0.0
  0
TEXT
  5
49C
330
1F
100
AcDbEntity
  8
001
370
    30
100
AcDbText
 10
8.204242
 20
316.582919
 30
0.0
 40
5.0
  1
ＲＣンドカッター　ＣＲ２５－０５Ｔ　（Ｔ３２ＧＳＲ－１Ｒ）
 41
0.833333
100
AcDbText
  0
TEXT
  5
49D
330
1F
100
AcDbEntity
  8
001
370
    30
100
AcDbText
 10
8.204242
 20
196.810539
 30
0.0
 40
5.0
  1
ＲＣンドカッター　ＣＲ２５－０５Ｔ　（Ｔ３２ＧＳＲ－２Ｒ）
 41
0.833333
100
AcDbText
  0
TEXT
  5
49E
330
1F
100
AcDbEntity
  8
001
370
    30
100
AcDbText
 10
8.204242
 20
79.247982
 30
0.0
 40
5.0
  1
ＲＣンドカッター　ＣＲ２５－０５Ｔ　（Ｔ３２ＧＳＲ－３Ｒ）
 41
0.833333
100
AcDbText
  0
ARC
  5
49F
330
1F
100
AcDbEntity
  8
001
370
    50
100
AcDbCircle
 10
200.834603
 20
413.639483
 30
0.0
 40
3.000000000000003
100
AcDbArc
 50
0.0
 51
90.0
  0
ARC
  5
4A0
330
1F
100
AcDbEntity
  8
001
370
    50
100
AcDbCircle
 10
200.834603
 20
394.639483
 30
0.0
 40
3.000000000000003
100
AcDbArc
 50
270.0
 51
0.0
  0
LINE
  5
4A1
330
1F
100
AcDbEntity
  8
001
370
    50
100
AcDbLine
 10
203.834603
 20
413.639483
 30
0.0
 11
203.834603
 21
394.639483
 31
0.0
  0
LINE
  5
4A2
330
1F
100
AcDbEntity
  8
001
370
    50
100
AcDbLine
 10
104.784603
 20
416.639483
 30
0.0
 11
104.784603
 21
391.639483
 31
0.0
  0
LINE
  5
4A3
330
1F
100
AcDbEntity
  8
001
370
    50
100
AcDbLine
 10
200.834603
 20
416.639483
 30
0.0
 11
104.784603
 21
416.639483
 31
0.0
  0
LINE
  5
4A4
330
1F
100
AcDbEntity
  8
001
370
    50
100
AcDbLine
 10
104.784603
 20
391.639483
 30
0.0
 11
200.834603
 21
391.639483
 31
0.0
  0
LINE
  5
4A5
330
1F
100
AcDbEntity
  8
001
370
    50
100
AcDbLine
 10
103.834603
 20
415.689483
 30
0.0
 11
103.834603
 21
392.589483
 31
0.0
  0
LINE
  5
4A6
330
1F
100
AcDbEntity
  8
001
370
    50
100
AcDbLine
 10
104.784603
 20
416.639483
 30
0.0
 11
103.834603
 21
415.689483
 31
0.0
  0
LINE
  5
4A7
330
1F
100
AcDbEntity
  8
001
370
    50
100
AcDbLine
 10
103.834603
 20
392.589483
 30
0.0
 11
104.784603
 21
391.639483
 31
0.0
  0
LINE
  5
4A8
330
1F
100
AcDbEntity
  8
001
370
    50
100
AcDbLine
 10
103.834603
 20
415.689483
 30
0.0
 11
65.308591
 21
415.689483
 31
0.0
  0
POLYLINE
  5
4A9
330
1F
100
AcDbEntity
  8
001
370
    50
100
AcDb2dPolyline
 66
     1
 10
0.0
 20
0.0
 30
0.0
  0
VERTEX
  5
4AB
330
4A9
100
AcDbEntity
  8
001
370
    50
100
AcDbVertex
100
AcDb2dVertex
 10
73.288902
 20
413.757925
 30
0.0
  0
VERTEX
  5
4AC
330
4A9
100
AcDbEntity
  8
001
370
    50
100
AcDbVertex
100
AcDb2dVertex
 10
71.711997
 20
414.006079
 30
0.0
  0
VERTEX
  5
4AD
330
4A9
100
AcDbEntity
  8
001
370
    50
100
AcDbVertex
100
AcDb2dVertex
 10
69.402569
 20
414.335926
 30
0.0
  0
VERTEX
  5
4AE
330
4A9
100
AcDbEntity
  8
001
370
    50
100
AcDbVertex
100
AcDb2dVertex
 10
66.973442
 20
414.634899
 30
0.0
  0
VERTEX
  5
4AF
330
4A9
100
AcDbEntity
  8
001
370
    50
100
AcDbVertex
100
AcDb2dVertex
 10
65.308591
 20
414.816629
 30
0.0
  0
SEQEND
  5
4AA
330
4A9
100
AcDbEntity
  8
001
370
    50
  0
POLYLINE
  5
4B0
330
1F
100
AcDbEntity
  8
001
370
    50
100
AcDb2dPolyline
 66
     1
 10
0.0
 20
0.0
 30
0.0
  0
VERTEX
  5
4B2
330
4B0
100
AcDbEntity
  8
001
370
    50
100
AcDbVertex
100
AcDb2dVertex
 10
73.288902
 20
394.521041
 30
0.0
  0
VERTEX
  5
4B3
330
4B0
100
AcDbEntity
  8
001
370
    50
100
AcDbVertex
100
AcDb2dVertex
 10
73.71416
 20
395.049459
 30
0.0
  0
VERTEX
  5
4B4
330
4B0
100
AcDbEntity
  8
001
370
    50
100
AcDbVertex
100
AcDb2dVertex
 10
74.256122
 20
395.812609
 30
0.0
  0
VERTEX
  5
4B5
330
4B0
100
AcDbEntity
  8
001
370
    50
100
AcDbVertex
100
AcDb2dVertex
 10
74.71823
 20
396.605321
 30
0.0
  0
VERTEX
  5
4B6
330
4B0
100
AcDbEntity
  8
001
370
    50
100
AcDbVertex
100
AcDb2dVertex
 10
75.069786
 20
397.370042
 30
0.0
  0
VERTEX
  5
4B7
330
4B0
100
AcDbEntity
  8
001
370
    50
100
AcDbVertex
100
AcDb2dVertex
 10
75.407715
 20
398.237927
 30
0.0
  0
VERTEX
  5
4B8
330
4B0
100
AcDbEntity
  8
001
370
    50
100
AcDbVertex
100
AcDb2dVertex
 10
75.703915
 20
399.143614
 30
0.0
  0
VERTEX
  5
4B9
330
4B0
100
AcDbEntity
  8
001
370
    50
100
AcDbVertex
100
AcDb2dVertex
 10
75.951589
 20
400.106278
 30
0.0
  0
VERTEX
  5
4BA
330
4B0
100
AcDbEntity
  8
001
370
    50
100
AcDbVertex
100
AcDb2dVertex
 10
76.138262
 20
401.076698
 30
0.0
  0
VERTEX
  5
4BB
330
4B0
100
AcDbEntity
  8
001
370
    50
100
AcDbVertex
100
AcDb2dVertex
 10
76.27584
 20
402.088452
 30
0.0
  0
VERTEX
  5
4BC
330
4B0
100
AcDbEntity
  8
001
370
    50
100
AcDbVertex
100
AcDb2dVertex
 10
76.358959
 20
403.107572
 30
0.0
  0
VERTEX
  5
4BD
330
4B0
100
AcDbEntity
  8
001
370
    50
100
AcDbVertex
100
AcDb2dVertex
 10
76.387081
 20
404.139483
 30
0.0
  0
VERTEX
  5
4BE
330
4B0
100
AcDbEntity
  8
001
370
    50
100
AcDbVertex
100
AcDb2dVertex
 10
76.358959
 20
405.171394
 30
0.0
  0
VERTEX
  5
4BF
330
4B0
100
AcDbEntity
  8
001
370
    50
100
AcDbVertex
100
AcDb2dVertex
 10
76.27584
 20
406.190514
 30
0.0
  0
VERTEX
  5
4C0
330
4B0
100
AcDbEntity
  8
001
370
    50
100
AcDbVertex
100
AcDb2dVertex
 10
76.138262
 20
407.202268
 30
0.0
  0
VERTEX
  5
4C1
330
4B0
100
AcDbEntity
  8
001
370
    50
100
AcDbVertex
100
AcDb2dVertex
 10
75.951589
 20
408.172688
 30
0.0
  0
VERTEX
  5
4C2
330
4B0
100
AcDbEntity
  8
001
370
    50
100
AcDbVertex
100
AcDb2dVertex
 10
75.703915
 20
409.135351
 30
0.0
  0
VERTEX
  5
4C3
330
4B0
100
AcDbEntity
  8
001
370
    50
100
AcDbVertex
100
AcDb2dVertex
 10
75.407715
 20
410.041039
 30
0.0
  0
VERTEX
  5
4C4
330
4B0
100
AcDbEntity
  8
001
370
    50
100
AcDbVertex
100
AcDb2dVertex
 10
75.069786
 20
410.908924
 30
0.0
  0
VERTEX
  5
4C5
330
4B0
100
AcDbEntity
  8
001
370
    50
100
AcDbVertex
100
AcDb2dVertex
 10
74.71823
 20
411.673645
 30
0.0
  0
VERTEX
  5
4C6
330
4B0
100
AcDbEntity
  8
001
370
    50
100
AcDbVertex
100
AcDb2dVertex
 10
74.256122
 20
412.466357
 30
0.0
  0
VERTEX
  5
4C7
330
4B0
100
AcDbEntity
  8
001
370
    50
100
AcDbVertex
100
AcDb2dVertex
 10
73.71416
 20
413.229507
 30
0.0
  0
VERTEX
  5
4C8
330
4B0
100
AcDbEntity
  8
001
370
    50
100
AcDbVertex
100
AcDb2dVertex
 10
73.288902
 20
413.757925
 30
0.0
  0
SEQEND
  5
4B1
330
4B0
100
AcDbEntity
  8
001
370
    50
  0
LINE
  5
4C9
330
1F
100
AcDbEntity
  8
001
370
    50
100
AcDbLine
 10
73.288902
 20
413.757925
 30
0.0
 11
73.288902
 21
394.521041
 31
0.0
  0
POLYLINE
  5
4CA
330
1F
100
AcDbEntity
  8
001
370
    50
100
AcDb2dPolyline
 66
     1
 10
0.0
 20
0.0
 30
0.0
  0
VERTEX
  5
4CC
330
4CA
100
AcDbEntity
  8
001
370
    50
100
AcDbVertex
100
AcDb2dVertex
 10
57.965071
 20
407.749619
 30
0.0
  0
VERTEX
  5
4CD
330
4CA
100
AcDbEntity
  8
001
370
    50
100
AcDbVertex
100
AcDb2dVertex
 10
58.149474
 20
407.752654
 30
0.0
  0
VERTEX
  5
4CE
330
4CA
100
AcDbEntity
  8
001
370
    50
100
AcDbVertex
100
AcDb2dVertex
 10
58.33345
 20
407.762167
 30
0.0
  0
VERTEX
  5
4CF
330
4CA
100
AcDbEntity
  8
001
370
    50
100
AcDbVertex
100
AcDb2dVertex
 10
58.517163
 20
407.783386
 30
0.0
  0
VERTEX
  5
4D0
330
4CA
100
AcDbEntity
  8
001
370
    50
100
AcDbVertex
100
AcDb2dVertex
 10
58.699364
 20
407.816049
 30
0.0
  0
VERTEX
  5
4D1
330
4CA
100
AcDbEntity
  8
001
370
    50
100
AcDbVertex
100
AcDb2dVertex
 10
58.879003
 20
407.858831
 30
0.0
  0
VERTEX
  5
4D2
330
4CA
100
AcDbEntity
  8
001
370
    50
100
AcDbVertex
100
AcDb2dVertex
 10
59.055733
 20
407.912067
 30
0.0
  0
VERTEX
  5
4D3
330
4CA
100
AcDbEntity
  8
001
370
    50
100
AcDbVertex
100
AcDb2dVertex
 10
59.229493
 20
407.976427
 30
0.0
  0
VERTEX
  5
4D4
330
4CA
100
AcDbEntity
  8
001
370
    50
100
AcDbVertex
100
AcDb2dVertex
 10
59.399097
 20
408.051168
 30
0.0
  0
VERTEX
  5
4D5
330
4CA
100
AcDbEntity
  8
001
370
    50
100
AcDbVertex
100
AcDb2dVertex
 10
59.565088
 20
408.136093
 30
0.0
  0
VERTEX
  5
4D6
330
4CA
100
AcDbEntity
  8
001
370
    50
100
AcDbVertex
100
AcDb2dVertex
 10
59.725993
 20
408.230274
 30
0.0
  0
VERTEX
  5
4D7
330
4CA
100
AcDbEntity
  8
001
370
    50
100
AcDbVertex
100
AcDb2dVertex
 10
59.881407
 20
408.333281
 30
0.0
  0
VERTEX
  5
4D8
330
4CA
100
AcDbEntity
  8
001
370
    50
100
AcDbVertex
100
AcDb2dVertex
 10
60.03092
 20
408.444676
 30
0.0
  0
VERTEX
  5
4D9
330
4CA
100
AcDbEntity
  8
001
370
    50
100
AcDbVertex
100
AcDb2dVertex
 10
60.173564
 20
408.563437
 30
0.0
  0
VERTEX
  5
4DA
330
4CA
100
AcDbEntity
  8
001
370
    50
100
AcDbVertex
100
AcDb2dVertex
 10
60.309905
 20
408.689395
 30
0.0
  0
VERTEX
  5
4DB
330
4CA
100
AcDbEntity
  8
001
370
    50
100
AcDbVertex
100
AcDb2dVertex
 10
60.440595
 20
408.822661
 30
0.0
  0
VERTEX
  5
4DC
330
4CA
100
AcDbEntity
  8
001
370
    50
100
AcDbVertex
100
AcDb2dVertex
 10
60.564758
 20
408.962024
 30
0.0
  0
VERTEX
  5
4DD
330
4CA
100
AcDbEntity
  8
001
370
    50
100
AcDbVertex
100
AcDb2dVertex
 10
60.682376
 20
409.107121
 30
0.0
  0
VERTEX
  5
4DE
330
4CA
100
AcDbEntity
  8
001
370
    50
100
AcDbVertex
100
AcDb2dVertex
 10
60.793246
 20
409.257439
 30
0.0
  0
VERTEX
  5
4DF
330
4CA
100
AcDbEntity
  8
001
370
    50
100
AcDbVertex
100
AcDb2dVertex
 10
60.913223
 20
409.437697
 30
0.0
  0
VERTEX
  5
4E0
330
4CA
100
AcDbEntity
  8
001
370
    50
100
AcDbVertex
100
AcDb2dVertex
 10
61.024048
 20
409.623745
 30
0.0
  0
VERTEX
  5
4E1
330
4CA
100
AcDbEntity
  8
001
370
    50
100
AcDbVertex
100
AcDb2dVertex
 10
61.126255
 20
409.815925
 30
0.0
  0
VERTEX
  5
4E2
330
4CA
100
AcDbEntity
  8
001
370
    50
100
AcDbVertex
100
AcDb2dVertex
 10
61.219144
 20
410.012751
 30
0.0
  0
VERTEX
  5
4E3
330
4CA
100
AcDbEntity
  8
001
370
    50
100
AcDbVertex
100
AcDb2dVertex
 10
61.302654
 20
410.213695
 30
0.0
  0
VERTEX
  5
4E4
330
4CA
100
AcDbEntity
  8
001
370
    50
100
AcDbVertex
100
AcDb2dVertex
 10
61.377061
 20
410.418244
 30
0.0
  0
VERTEX
  5
4E5
330
4CA
100
AcDbEntity
  8
001
370
    50
100
AcDbVertex
100
AcDb2dVertex
 10
61.443312
 20
410.62907
 30
0.0
  0
VERTEX
  5
4E6
330
4CA
100
AcDbEntity
  8
001
370
    50
100
AcDbVertex
100
AcDb2dVertex
 10
61.498934
 20
410.842816
 30
0.0
  0
VERTEX
  5
4E7
330
4CA
100
AcDbEntity
  8
001
370
    50
100
AcDbVertex
100
AcDb2dVertex
 10
61.54366
 20
411.059334
 30
0.0
  0
VERTEX
  5
4E8
330
4CA
100
AcDbEntity
  8
001
370
    50
100
AcDbVertex
100
AcDb2dVertex
 10
61.582251
 20
411.27719
 30
0.0
  0
SEQEND
  5
4CB
330
4CA
100
AcDbEntity
  8
001
370
    50
  0
LINE
  5
4E9
330
1F
100
AcDbEntity
  8
001
370
    50
100
AcDbLine
 10
61.582251
 20
411.27719
 30
0.0
 11
65.308591
 21
414.816629
 31
0.0
  0
LINE
  5
4EA
330
1F
100
AcDbEntity
  8
001
370
    50
100
AcDbLine
 10
65.308591
 20
415.689483
 30
0.0
 11
61.582251
 21
412.078408
 31
0.0
  0
ARC
  5
4EB
330
1F
100
AcDbEntity
  8
001
370
    50
100
AcDbCircle
 10
57.434603
 20
412.739483
 30
0.0
 40
4.200000000000001
100
AcDbArc
 50
277.25594
 51
350.94406
  0
LINE
  5
4EC
330
1F
100
AcDbEntity
  8
001
370
    50
100
AcDbLine
 10
57.965071
 20
408.573117
 30
0.0
 11
54.834603
 21
405.539483
 31
0.0
  0
LINE
  5
4ED
330
1F
100
AcDbEntity
  8
001
370
    50
100
AcDbLine
 10
65.308591
 20
414.816629
 30
0.0
 11
65.308591
 21
415.689483
 31
0.0
  0
LINE
  5
4EE
330
1F
100
AcDbEntity
  8
001
370
    50
100
AcDbLine
 10
61.582251
 20
411.27719
 30
0.0
 11
61.582251
 21
412.078408
 31
0.0
  0
LINE
  5
4EF
330
1F
100
AcDbEntity
  8
001
370
    50
100
AcDbLine
 10
57.965071
 20
407.749619
 30
0.0
 11
57.965071
 21
408.573117
 31
0.0
  0
LINE
  5
4F0
330
1F
100
AcDbEntity
  8
001
  6
CENTER
370
     9
100
AcDbLine
 10
53.014119
 20
404.139483
 30
0.0
 11
207.605268
 21
404.139483
 31
0.0
  0
LINE
  5
4F1
330
1F
100
AcDbEntity
  8
001
370
    50
100
AcDbLine
 10
203.834603
 20
404.139483
 30
0.0
 11
206.43268
 21
405.639483
 31
0.0
  0
LINE
  5
4F2
330
1F
100
AcDbEntity
  8
001
370
    50
100
AcDbLine
 10
203.834603
 20
404.139483
 30
0.0
 11
206.43268
 21
402.639483
 31
0.0
  0
CIRCLE
  5
4F3
330
1F
100
AcDbEntity
  8
001
370
    50
100
AcDbCircle
 10
62.409762
 20
400.214641
 30
0.0
 40
1.905
  0
POLYLINE
  5
4F4
330
1F
100
AcDbEntity
  8
001
370
    50
100
AcDb2dPolyline
 66
     1
 10
0.0
 20
0.0
 30
0.0
  0
VERTEX
  5
4F6
330
4F4
100
AcDbEntity
  8
001
370
    50
100
AcDbVertex
100
AcDb2dVertex
 10
65.69973
 20
393.503295
 30
0.0
  0
VERTEX
  5
4F7
330
4F4
100
AcDbEntity
  8
001
370
    50
100
AcDbVertex
100
AcDb2dVertex
 10
67.321989
 20
393.684369
 30
0.0
  0
VERTEX
  5
4F8
330
4F4
100
AcDbEntity
  8
001
370
    50
100
AcDbVertex
100
AcDb2dVertex
 10
69.402569
 20
393.94304
 30
0.0
  0
VERTEX
  5
4F9
330
4F4
100
AcDbEntity
  8
001
370
    50
100
AcDbVertex
100
AcDb2dVertex
 10
71.711997
 20
394.272887
 30
0.0
  0
VERTEX
  5
4FA
330
4F4
100
AcDbEntity
  8
001
370
    50
100
AcDbVertex
100
AcDb2dVertex
 10
73.288902
 20
394.521041
 30
0.0
  0
SEQEND
  5
4F5
330
4F4
100
AcDbEntity
  8
001
370
    50
  0
LINE
  5
4FB
330
1F
100
AcDbEntity
  8
001
370
    50
100
AcDbLine
 10
65.454875
 20
392.589483
 30
0.0
 11
103.834603
 21
392.589483
 31
0.0
  0
ARC
  5
4FC
330
1F
100
AcDbEntity
  8
001
370
    50
100
AcDbCircle
 10
54.234603
 20
402.405168
 30
0.0
 40
0.4
100
AcDbArc
 50
105.0
 51
225.0
  0
LINE
  5
4FD
330
1F
100
AcDbEntity
  8
001
370
    50
100
AcDbLine
 10
64.317446
 20
391.75664
 30
0.0
 11
53.951761
 21
402.122326
 31
0.0
  0
LINE
  5
4FE
330
1F
100
AcDbEntity
  8
001
370
     9
100
AcDbLine
 10
53.951761
 20
402.122326
 30
0.0
 11
53.834603
 21
402.239483
 31
0.0
  0
LINE
  5
4FF
330
1F
100
AcDbEntity
  8
001
370
    50
100
AcDbLine
 10
68.290865
 20
406.585643
 30
0.0
 11
54.131076
 21
402.791539
 31
0.0
  0
LINE
  5
500
330
1F
100
AcDbEntity
  8
001
370
    50
100
AcDbLine
 10
68.780763
 20
406.095745
 30
0.0
 11
64.986659
 21
391.935955
 31
0.0
  0
ARC
  5
501
330
1F
100
AcDbEntity
  8
001
370
    50
100
AcDbCircle
 10
64.600289
 20
392.039483
 30
0.0
 40
0.4
100
AcDbArc
 50
225.0
 51
345.0
  0
ARC
  5
502
330
1F
100
AcDbEntity
  8
001
370
    50
100
AcDbCircle
 10
67.263022
 20
405.067902
 30
0.0
 40
3.0
100
AcDbArc
 50
278.578178
 51
171.421822
  0
LINE
  5
503
330
1F
100
AcDbEntity
  8
001
370
    50
100
AcDbLine
 10
54.834603
 20
402.980048
 30
0.0
 11
54.834603
 21
405.539483
 31
0.0
  0
POLYLINE
  5
504
330
1F
100
AcDbEntity
  8
001
370
    50
100
AcDb2dPolyline
 66
     1
 10
0.0
 20
0.0
 30
0.0
  0
VERTEX
  5
506
330
504
100
AcDbEntity
  8
001
370
    50
100
AcDbVertex
100
AcDb2dVertex
 10
55.203241
 20
403.078824
 30
0.0
  0
VERTEX
  5
507
330
504
100
AcDbEntity
  8
001
370
    50
100
AcDbVertex
100
AcDb2dVertex
 10
55.222724
 20
403.205761
 30
0.0
  0
VERTEX
  5
508
330
504
100
AcDbEntity
  8
001
370
    50
100
AcDbVertex
100
AcDb2dVertex
 10
55.242208
 20
403.332697
 30
0.0
  0
VERTEX
  5
509
330
504
100
AcDbEntity
  8
001
370
    50
100
AcDbVertex
100
AcDb2dVertex
 10
55.261326
 20
403.457255
 30
0.0
  0
VERTEX
  5
50A
330
504
100
AcDbEntity
  8
001
370
    50
100
AcDbVertex
100
AcDb2dVertex
 10
55.280445
 20
403.581813
 30
0.0
  0
VERTEX
  5
50B
330
504
100
AcDbEntity
  8
001
370
    50
100
AcDbVertex
100
AcDb2dVertex
 10
55.335713
 20
403.941888
 30
0.0
  0
VERTEX
  5
50C
330
504
100
AcDbEntity
  8
001
370
    50
100
AcDbVertex
100
AcDb2dVertex
 10
55.390981
 20
404.301964
 30
0.0
  0
VERTEX
  5
50D
330
504
100
AcDbEntity
  8
001
370
    50
100
AcDbVertex
100
AcDb2dVertex
 10
55.407956
 20
404.406254
 30
0.0
  0
VERTEX
  5
50E
330
504
100
AcDbEntity
  8
001
370
    50
100
AcDbVertex
100
AcDb2dVertex
 10
55.42947
 20
404.509495
 30
0.0
  0
VERTEX
  5
50F
330
504
100
AcDbEntity
  8
001
370
    50
100
AcDbVertex
100
AcDb2dVertex
 10
55.461389
 20
404.619629
 30
0.0
  0
VERTEX
  5
510
330
504
100
AcDbEntity
  8
001
370
    50
100
AcDbVertex
100
AcDb2dVertex
 10
55.50087
 20
404.727499
 30
0.0
  0
VERTEX
  5
511
330
504
100
AcDbEntity
  8
001
370
    50
100
AcDbVertex
100
AcDb2dVertex
 10
55.561467
 20
404.867354
 30
0.0
  0
VERTEX
  5
512
330
504
100
AcDbEntity
  8
001
370
    50
100
AcDbVertex
100
AcDb2dVertex
 10
55.629899
 20
405.003441
 30
0.0
  0
VERTEX
  5
513
330
504
100
AcDbEntity
  8
001
370
    50
100
AcDbVertex
100
AcDb2dVertex
 10
55.704965
 20
405.135776
 30
0.0
  0
VERTEX
  5
514
330
504
100
AcDbEntity
  8
001
370
    50
100
AcDbVertex
100
AcDb2dVertex
 10
55.785368
 20
405.26498
 30
0.0
  0
VERTEX
  5
515
330
504
100
AcDbEntity
  8
001
370
    50
100
AcDbVertex
100
AcDb2dVertex
 10
55.871824
 20
405.394437
 30
0.0
  0
VERTEX
  5
516
330
504
100
AcDbEntity
  8
001
370
    50
100
AcDbVertex
100
AcDb2dVertex
 10
55.961832
 20
405.521428
 30
0.0
  0
VERTEX
  5
517
330
504
100
AcDbEntity
  8
001
370
    50
100
AcDbVertex
100
AcDb2dVertex
 10
56.054748
 20
405.646092
 30
0.0
  0
VERTEX
  5
518
330
504
100
AcDbEntity
  8
001
370
    50
100
AcDbVertex
100
AcDb2dVertex
 10
56.150089
 20
405.76892
 30
0.0
  0
VERTEX
  5
519
330
504
100
AcDbEntity
  8
001
370
    50
100
AcDbVertex
100
AcDb2dVertex
 10
56.362161
 20
406.029263
 30
0.0
  0
VERTEX
  5
51A
330
504
100
AcDbEntity
  8
001
370
    50
100
AcDbVertex
100
AcDb2dVertex
 10
56.580958
 20
406.284014
 30
0.0
  0
VERTEX
  5
51B
330
504
100
AcDbEntity
  8
001
370
    50
100
AcDbVertex
100
AcDb2dVertex
 10
56.804566
 20
406.534118
 30
0.0
  0
VERTEX
  5
51C
330
504
100
AcDbEntity
  8
001
370
    50
100
AcDbVertex
100
AcDb2dVertex
 10
57.031997
 20
406.78073
 30
0.0
  0
VERTEX
  5
51D
330
504
100
AcDbEntity
  8
001
370
    50
100
AcDbVertex
100
AcDb2dVertex
 10
57.495744
 20
407.267817
 30
0.0
  0
VERTEX
  5
51E
330
504
100
AcDbEntity
  8
001
370
    50
100
AcDbVertex
100
AcDb2dVertex
 10
57.965071
 20
407.749619
 30
0.0
  0
SEQEND
  5
505
330
504
100
AcDbEntity
  8
001
370
    50
  0
LINE
  5
51F
330
1F
100
AcDbEntity
  8
001
370
     9
100
AcDbLine
 10
53.834603
 20
402.405168
 30
0.0
 11
53.834603
 21
387.412616
 31
0.0
  0
LINE
  5
520
330
1F
100
AcDbEntity
  8
001
370
     9
100
AcDbLine
 10
64.317446
 20
391.75664
 30
0.0
 11
64.434603
 21
391.639483
 31
0.0
  0
LINE
  5
521
330
1F
100
AcDbEntity
  8
001
370
     9
100
AcDbLine
 10
49.317532
 20
391.639483
 30
0.0
 11
64.600289
 21
391.639483
 31
0.0
  0
LINE
  5
522
330
1F
100
AcDbEntity
  8
001
370
     9
100
AcDbLine
 10
49.317532
 20
402.239483
 30
0.0
 11
53.834603
 21
402.239483
 31
0.0
  0
ARC
  5
523
330
1F
100
AcDbEntity
  8
001
370
    50
100
AcDbCircle
 10
68.394393
 20
406.199273
 30
0.0
 40
0.4
100
AcDbArc
 50
345.0
 51
105.0
  0
TEXT
  5
524
330
1F
100
AcDbEntity
  8
001
370
    30
100
AcDbText
 10
8.204242
 20
440.885433
 30
0.0
 40
5.0
  1
ＲＣンドカッター　ＣＲ２５－０５Ｔ　（Ｔ３２ＭＯＲ　・　Ｔ３２ＧＵＲ）
 41
0.833333
100
AcDbText
  0
ENDSEC
  0
SECTION
  2
OBJECTS
  0
DICTIONARY
  5
C
330
0
100
AcDbDictionary
281
     1
  3
ACAD_GROUP
350
D
  3
ACAD_LAYOUT
350
1A
  3
ACAD_MLEADERSTYLE
350
528
  3
ACAD_MLINESTYLE
350
17
  3
ACAD_PLOTSETTINGS
350
19
  3
ACAD_PLOTSTYLENAME
350
E
  3
ACAD_SCALELIST
350
3B
  3
ACAD_TABLESTYLE
350
527
  3
ACAD_VISUALSTYLE
350
2A
  3
AcDbVariableDictionary
350
525
  0
DICTIONARY
  5
D
102
{ACAD_REACTORS
330
C
102
}
330
C
100
AcDbDictionary
281
     1
  0
DICTIONARY
  5
1A
102
{ACAD_REACTORS
330
C
102
}
330
C
100
AcDbDictionary
281
     1
  3
Layout1
350
1E
  3
Layout2
350
26
  3
Model
350
22
  0
DICTIONARY
  5
528
102
{ACAD_REACTORS
330
C
102
}
330
C
100
AcDbDictionary
281
     1
  0
DICTIONARY
  5
17
102
{ACAD_REACTORS
330
C
102
}
330
C
100
AcDbDictionary
281
     1
  3
Standard
350
18
  0
DICTIONARY
  5
19
102
{ACAD_REACTORS
330
C
102
}
330
C
100
AcDbDictionary
281
     1
  0
ACDBDICTIONARYWDFLT
  5
E
102
{ACAD_REACTORS
330
C
102
}
330
C
100
AcDbDictionary
281
     1
  3
Normal
350
F
100
AcDbDictionaryWithDefault
340
F
  0
DICTIONARY
  5
3B
102
{ACAD_REACTORS
330
C
102
}
330
C
100
AcDbDictionary
281
     1
  3
A0
350
3C
  3
A1
350
3D
  3
A2
350
3E
  3
A3
350
3F
  3
A4
350
40
  3
A5
350
41
  3
A6
350
42
  3
A7
350
43
  3
A8
350
44
  3
A9
350
45
  3
B0
350
46
  3
B1
350
47
  3
B2
350
48
  3
B3
350
49
  3
B4
350
4A
  3
B5
350
4B
  3
B6
350
4C
  3
B7
350
4D
  3
B8
350
4E
  3
B9
350
4F
  3
C0
350
50
  3
C1
350
51
  3
C2
350
52
  3
C3
350
53
  3
C4
350
54
  3
C5
350
55
  3
C6
350
56
  3
C7
350
57
  3
C8
350
58
  3
C9
350
59
  3
D0
350
5A
  3
D1
350
5B
  3
D2
350
5C
  0
DICTIONARY
  5
527
102
{ACAD_REACTORS
330
C
102
}
330
C
100
AcDbDictionary
281
     1
  0
DICTIONARY
  5
2A
102
{ACAD_REACTORS
330
C
102
}
330
C
100
AcDbDictionary
281
     1
  3
2dWireframe
350
2F
  3
3D Hidden
350
31
  3
3dWireframe
350
30
  3
Basic
350
32
  3
Brighten
350
36
  3
ColorChange
350
3A
  3
Conceptual
350
34
  3
Dim
350
35
  3
Facepattern
350
39
  3
Flat
350
2B
  3
FlatWithEdges
350
2C
  3
Gouraud
350
2D
  3
GouraudWithEdges
350
2E
  3
Linepattern
350
38
  3
Realistic
350
33
  3
Thicken
350
37
  0
DICTIONARY
  5
525
102
{ACAD_REACTORS
330
C
102
}
330
C
100
AcDbDictionary
281
     1
  3
CANNOSCALE
350
526
  3
PSOLHEIGHT
350
52A
  3
PSOLWIDTH
350
529
  0
LAYOUT
  5
1E
102
{ACAD_REACTORS
330
1A
102
}
330
1A
100
AcDbPlotSettings
  1

  2
none_device
  4

  6

 40
0.0
 41
0.0
 42
0.0
 43
0.0
 44
0.0
 45
0.0
 46
0.0
 47
0.0
 48
0.0
 49
0.0
140
0.0
141
0.0
142
1.0
143
1.0
 70
   688
 72
     0
 73
     0
 74
     5
  7

 75
    16
147
1.0
148
0.0
149
0.0
100
AcDbLayout
  1
Layout1
 70
     1
 71
     1
 10
0.0
 20
0.0
 11
12.0
 21
9.0
 12
0.0
 22
0.0
 32
0.0
 14
1.000000E+20
 24
1.000000E+20
 34
0.0
 15
-1.000000E+20
 25
-1.000000E+20
 35
0.0
146
0.0
 13
0.0
 23
0.0
 33
0.0
 16
1.0
 26
0.0
 36
0.0
 17
0.0
 27
1.0
 37
0.0
 76
     0
330
1B
  0
LAYOUT
  5
26
102
{ACAD_REACTORS
330
1A
102
}
330
1A
100
AcDbPlotSettings
  1

  2
none_device
  4

  6

 40
0.0
 41
0.0
 42
0.0
 43
0.0
 44
0.0
 45
0.0
 46
0.0
 47
0.0
 48
0.0
 49
0.0
140
0.0
141
0.0
142
1.0
143
1.0
 70
   688
 72
     0
 73
     0
 74
     5
  7

 75
    16
147
1.0
148
0.0
149
0.0
100
AcDbLayout
  1
Layout2
 70
     1
 71
     2
 10
0.0
 20
0.0
 11
0.0
 21
0.0
 12
0.0
 22
0.0
 32
0.0
 14
0.0
 24
0.0
 34
0.0
 15
0.0
 25
0.0
 35
0.0
146
0.0
 13
0.0
 23
0.0
 33
0.0
 16
1.0
 26
0.0
 36
0.0
 17
0.0
 27
1.0
 37
0.0
 76
     0
330
23
  0
LAYOUT
  5
22
102
{ACAD_REACTORS
330
1A
102
}
330
1A
100
AcDbPlotSettings
  1

  2
none_device
  4

  6

 40
0.0
 41
0.0
 42
0.0
 43
0.0
 44
0.0
 45
0.0
 46
0.0
 47
0.0
 48
0.0
 49
0.0
140
0.0
141
0.0
142
1.0
143
1.0
 70
  1712
 72
     0
 73
     0
 74
     0
  7

 75
     0
147
1.0
148
0.0
149
0.0
100
AcDbLayout
  1
Model
 70
     1
 71
     0
 10
0.0
 20
0.0
 11
12.0
 21
9.0
 12
0.0
 22
0.0
 32
0.0
 14
8.204239
 24
-5.657715
 34
0.0
 15
225.695953
 25
445.885437
 35
0.0
146
0.0
 13
0.0
 23
0.0
 33
0.0
 16
1.0
 26
0.0
 36
0.0
 17
0.0
 27
1.0
 37
0.0
 76
     0
330
1F
331
29
  0
MLINESTYLE
  5
18
102
{ACAD_REACTORS
330
17
102
}
330
17
100
AcDbMlineStyle
  2
Standard
 70
     0
  3

 62
   256
 51
90.0
 52
90.0
 71
     2
 49
0.5
 62
   256
  6
BYLAYER
 49
-0.5
 62
   256
  6
BYLAYER
  0
ACDBPLACEHOLDER
  5
F
102
{ACAD_REACTORS
330
E
102
}
330
E
  0
SCALE
  5
3C
102
{ACAD_REACTORS
330
3B
102
}
330
3B
100
AcDbScale
 70
     0
300
1:1
140
1.0
141
1.0
290
     1
  0
SCALE
  5
3D
102
{ACAD_REACTORS
330
3B
102
}
330
3B
100
AcDbScale
 70
     0
300
1:2
140
1.0
141
2.0
290
     0
  0
SCALE
  5
3E
102
{ACAD_REACTORS
330
3B
102
}
330
3B
100
AcDbScale
 70
     0
300
1:4
140
1.0
141
4.0
290
     0
  0
SCALE
  5
3F
102
{ACAD_REACTORS
330
3B
102
}
330
3B
100
AcDbScale
 70
     0
300
1:5
140
1.0
141
5.0
290
     0
  0
SCALE
  5
40
102
{ACAD_REACTORS
330
3B
102
}
330
3B
100
AcDbScale
 70
     0
300
1:8
140
1.0
141
8.0
290
     0
  0
SCALE
  5
41
102
{ACAD_REACTORS
330
3B
102
}
330
3B
100
AcDbScale
 70
     0
300
1:10
140
1.0
141
10.0
290
     0
  0
SCALE
  5
42
102
{ACAD_REACTORS
330
3B
102
}
330
3B
100
AcDbScale
 70
     0
300
1:16
140
1.0
141
16.0
290
     0
  0
SCALE
  5
43
102
{ACAD_REACTORS
330
3B
102
}
330
3B
100
AcDbScale
 70
     0
300
1:20
140
1.0
141
20.0
290
     0
  0
SCALE
  5
44
102
{ACAD_REACTORS
330
3B
102
}
330
3B
100
AcDbScale
 70
     0
300
1:30
140
1.0
141
30.0
290
     0
  0
SCALE
  5
45
102
{ACAD_REACTORS
330
3B
102
}
330
3B
100
AcDbScale
 70
     0
300
1:40
140
1.0
141
40.0
290
     0
  0
SCALE
  5
46
102
{ACAD_REACTORS
330
3B
102
}
330
3B
100
AcDbScale
 70
     0
300
1:50
140
1.0
141
50.0
290
     0
  0
SCALE
  5
47
102
{ACAD_REACTORS
330
3B
102
}
330
3B
100
AcDbScale
 70
     0
300
1:100
140
1.0
141
100.0
290
     0
  0
SCALE
  5
48
102
{ACAD_REACTORS
330
3B
102
}
330
3B
100
AcDbScale
 70
     0
300
2:1
140
2.0
141
1.0
290
     0
  0
SCALE
  5
49
102
{ACAD_REACTORS
330
3B
102
}
330
3B
100
AcDbScale
 70
     0
300
4:1
140
4.0
141
1.0
290
     0
  0
SCALE
  5
4A
102
{ACAD_REACTORS
330
3B
102
}
330
3B
100
AcDbScale
 70
     0
300
8:1
140
8.0
141
1.0
290
     0
  0
SCALE
  5
4B
102
{ACAD_REACTORS
330
3B
102
}
330
3B
100
AcDbScale
 70
     0
300
10:1
140
10.0
141
1.0
290
     0
  0
SCALE
  5
4C
102
{ACAD_REACTORS
330
3B
102
}
330
3B
100
AcDbScale
 70
     0
300
100:1
140
100.0
141
1.0
290
     0
  0
SCALE
  5
4D
102
{ACAD_REACTORS
330
3B
102
}
330
3B
100
AcDbScale
 70
     0
300
1/128" = 1'-0"
140
0.007812
141
12.0
290
     0
  0
SCALE
  5
4E
102
{ACAD_REACTORS
330
3B
102
}
330
3B
100
AcDbScale
 70
     0
300
1/64" = 1'-0"
140
0.015625
141
12.0
290
     0
  0
SCALE
  5
4F
102
{ACAD_REACTORS
330
3B
102
}
330
3B
100
AcDbScale
 70
     0
300
1/32" = 1'-0"
140
0.03125
141
12.0
290
     0
  0
SCALE
  5
50
102
{ACAD_REACTORS
330
3B
102
}
330
3B
100
AcDbScale
 70
     0
300
1/16" = 1'-0"
140
0.0625
141
12.0
290
     0
  0
SCALE
  5
51
102
{ACAD_REACTORS
330
3B
102
}
330
3B
100
AcDbScale
 70
     0
300
3/32" = 1'-0"
140
0.09375
141
12.0
290
     0
  0
SCALE
  5
52
102
{ACAD_REACTORS
330
3B
102
}
330
3B
100
AcDbScale
 70
     0
300
1/8" = 1'-0"
140
0.125
141
12.0
290
     0
  0
SCALE
  5
53
102
{ACAD_REACTORS
330
3B
102
}
330
3B
100
AcDbScale
 70
     0
300
3/16" = 1'-0"
140
0.1875
141
12.0
290
     0
  0
SCALE
  5
54
102
{ACAD_REACTORS
330
3B
102
}
330
3B
100
AcDbScale
 70
     0
300
1/4" = 1'-0"
140
0.25
141
12.0
290
     0
  0
SCALE
  5
55
102
{ACAD_REACTORS
330
3B
102
}
330
3B
100
AcDbScale
 70
     0
300
3/8" = 1'-0"
140
0.375
141
12.0
290
     0
  0
SCALE
  5
56
102
{ACAD_REACTORS
330
3B
102
}
330
3B
100
AcDbScale
 70
     0
300
1/2" = 1'-0"
140
0.5
141
12.0
290
     0
  0
SCALE
  5
57
102
{ACAD_REACTORS
330
3B
102
}
330
3B
100
AcDbScale
 70
     0
300
3/4" = 1'-0"
140
0.75
141
12.0
290
     0
  0
SCALE
  5
58
102
{ACAD_REACTORS
330
3B
102
}
330
3B
100
AcDbScale
 70
     0
300
1" = 1'-0"
140
1.0
141
12.0
290
     0
  0
SCALE
  5
59
102
{ACAD_REACTORS
330
3B
102
}
330
3B
100
AcDbScale
 70
     0
300
1-1/2" = 1'-0"
140
1.5
141
12.0
290
     0
  0
SCALE
  5
5A
102
{ACAD_REACTORS
330
3B
102
}
330
3B
100
AcDbScale
 70
     0
300
3" = 1'-0"
140
3.0
141
12.0
290
     0
  0
SCALE
  5
5B
102
{ACAD_REACTORS
330
3B
102
}
330
3B
100
AcDbScale
 70
     0
300
6" = 1'-0"
140
6.0
141
12.0
290
     0
  0
SCALE
  5
5C
102
{ACAD_REACTORS
330
3B
102
}
330
3B
100
AcDbScale
 70
     0
300
1'-0" = 1'-0"
140
12.0
141
12.0
290
     0
  0
VISUALSTYLE
  5
2F
102
{ACAD_REACTORS
330
2A
102
}
330
2A
100
AcDbVisualStyle
  2
2dWireframe
 70
     4
 71
     0
 72
     2
 73
     0
 90
        0
 40
-0.6
 41
-30.0
 62
     5
 63
     7
 74
     1
 91
        4
 64
     7
 65
   257
 75
     1
175
     1
 42
1.0
 92
        0
 66
   257
 43
1.0
 76
     1
 77
     6
 78
     2
 67
     7
 79
     5
170
     0
171
     0
290
     0
174
     0
 93
        1
 44
0.0
173
     0
291
     0
 45
0.0
1001
ACAD
1000
AcDbSavedByObjectVersion
1070
     0
  0
VISUALSTYLE
  5
31
102
{ACAD_REACTORS
330
2A
102
}
330
2A
100
AcDbVisualStyle
  2
3D Hidden
 70
     6
 71
     1
 72
     2
 73
     2
 90
        0
 40
-0.6
 41
-30.0
 62
     5
 63
     7
 74
     2
 91
        2
 64
     7
 65
   257
 75
     2
175
     1
 42
40.0
 92
        0
 66
   257
 43
1.0
 76
     1
 77
     6
 78
     2
 67
     7
 79
     3
170
     0
171
     0
290
     0
174
     0
 93
        1
 44
0.0
173
     0
291
     0
 45
0.0
1001
ACAD
1000
AcDbSavedByObjectVersion
1070
     0
  0
VISUALSTYLE
  5
30
102
{ACAD_REACTORS
330
2A
102
}
330
2A
100
AcDbVisualStyle
  2
3dWireframe
 70
     5
 71
     0
 72
     2
 73
     0
 90
        0
 40
-0.6
 41
-30.0
 62
     5
 63
     7
 74
     1
 91
        4
 64
     7
 65
   257
 75
     1
175
     1
 42
1.0
 92
        0
 66
   257
 43
1.0
 76
     1
 77
     6
 78
     2
 67
     7
 79
     5
170
     0
171
     0
290
     0
174
     0
 93
        1
 44
0.0
173
     0
291
     0
 45
0.0
1001
ACAD
1000
AcDbSavedByObjectVersion
1070
     0
  0
VISUALSTYLE
  5
32
102
{ACAD_REACTORS
330
2A
102
}
330
2A
100
AcDbVisualStyle
  2
Basic
 70
     7
 71
     1
 72
     0
 73
     1
 90
        0
 40
-0.6
 41
-30.0
 62
     5
 63
     7
 74
     0
 91
        4
 64
     7
 65
   257
 75
     1
175
     1
 42
1.0
 92
        8
 66
     7
 43
1.0
 76
     1
 77
     6
 78
     2
 67
     7
 79
     5
170
     0
171
     0
290
     0
174
     0
 93
        1
 44
0.0
173
     0
291
     1
 45
0.0
1001
ACAD
1000
AcDbSavedByObjectVersion
1070
     0
  0
VISUALSTYLE
  5
36
102
{ACAD_REACTORS
330
2A
102
}
330
2A
100
AcDbVisualStyle
  2
Brighten
 70
    12
 71
     2
 72
     2
 73
     0
 90
        0
 40
-0.6
 41
-30.0
 62
     5
 63
     7
 74
     1
 91
        4
 64
     7
 65
   257
 75
     1
175
     1
 42
1.0
 92
        8
 66
     7
 43
1.0
 76
     1
 77
     6
 78
     2
 67
     7
 79
     5
170
     0
171
     0
290
     0
174
     0
 93
        1
 44
50.0
173
     0
291
     1
 45
0.0
1001
ACAD
1000
AcDbSavedByObjectVersion
1070
     0
  0
VISUALSTYLE
  5
3A
102
{ACAD_REACTORS
330
2A
102
}
330
2A
100
AcDbVisualStyle
  2
ColorChange
 70
    16
 71
     2
 72
     2
 73
     3
 90
        0
 40
-0.6
 41
-30.0
 62
     5
 63
     8
 74
     1
 91
        4
 64
     7
 65
   257
 75
     1
175
     1
 42
1.0
 92
        8
 66
     8
 43
1.0
 76
     1
 77
     6
 78
     2
 67
     7
 79
     5
170
     0
171
     0
290
     0
174
     0
 93
        1
 44
0.0
173
     0
291
     1
 45
0.0
1001
ACAD
1000
AcDbSavedByObjectVersion
1070
     0
  0
VISUALSTYLE
  5
34
102
{ACAD_REACTORS
330
2A
102
}
330
2A
100
AcDbVisualStyle
  2
Conceptual
 70
     9
 71
     3
 72
     2
 73
     0
 90
        0
 40
-0.6
 41
-30.0
 62
     5
 63
     7
 74
     2
 91
        2
 64
     7
 65
   257
 75
     1
175
     1
 42
40.0
 92
        8
 66
     7
 43
1.0
 76
     1
 77
     6
 78
     2
 67
     7
 79
     3
170
     0
171
     0
290
     0
174
     0
 93
        1
 44
0.0
173
     0
291
     0
 45
0.0
1001
ACAD
1000
AcDbSavedByObjectVersion
1070
     0
  0
VISUALSTYLE
  5
35
102
{ACAD_REACTORS
330
2A
102
}
330
2A
100
AcDbVisualStyle
  2
Dim
 70
    11
 71
     2
 72
     2
 73
     0
 90
        0
 40
-0.6
 41
-30.0
 62
     5
 63
     7
 74
     1
 91
        4
 64
     7
 65
   257
 75
     1
175
     1
 42
1.0
 92
        8
 66
     7
 43
1.0
 76
     1
 77
     6
 78
     2
 67
     7
 79
     5
170
     0
171
     0
290
     0
174
     0
 93
        1
 44
-50.0
173
     0
291
     1
 45
0.0
1001
ACAD
1000
AcDbSavedByObjectVersion
1070
     0
  0
VISUALSTYLE
  5
39
102
{ACAD_REACTORS
330
2A
102
}
330
2A
100
AcDbVisualStyle
  2
Facepattern
 70
    15
 71
     2
 72
     2
 73
     0
 90
        0
 40
-0.6
 41
-30.0
 62
     5
 63
     7
 74
     1
 91
        4
 64
     7
 65
   257
 75
     1
175
     1
 42
1.0
 92
        8
 66
     7
 43
1.0
 76
     1
 77
     6
 78
     2
 67
     7
 79
     5
170
     0
171
     0
290
     0
174
     0
 93
        1
 44
0.0
173
     0
291
     1
 45
0.0
1001
ACAD
1000
AcDbSavedByObjectVersion
1070
     0
  0
VISUALSTYLE
  5
2B
102
{ACAD_REACTORS
330
2A
102
}
330
2A
100
AcDbVisualStyle
  2
Flat
 70
     0
 71
     2
 72
     1
 73
     1
 90
        2
 40
-0.6
 41
30.0
 62
     5
 63
     7
 74
     0
 91
        4
 64
     7
 65
   257
 75
     1
175
     1
 42
1.0
 92
        8
 66
     7
 43
1.0
 76
     1
 77
     6
 78
     2
 67
     7
 79
     5
170
     0
171
     0
290
     0
174
     0
 93
       13
 44
0.0
173
     0
291
     1
 45
0.0
1001
ACAD
1000
AcDbSavedByObjectVersion
1070
     0
  0
VISUALSTYLE
  5
2C
102
{ACAD_REACTORS
330
2A
102
}
330
2A
100
AcDbVisualStyle
  2
FlatWithEdges
 70
     1
 71
     2
 72
     1
 73
     1
 90
        2
 40
-0.6
 41
30.0
 62
     5
 63
     7
 74
     1
 91
        4
 64
     7
 65
   257
 75
     1
175
     1
 42
1.0
 92
        0
 66
   257
 43
1.0
 76
     1
 77
     6
 78
     2
 67
     7
 79
     5
170
     0
171
     0
290
     0
174
     0
 93
       13
 44
0.0
173
     0
291
     1
 45
0.0
1001
ACAD
1000
AcDbSavedByObjectVersion
1070
     0
  0
VISUALSTYLE
  5
2D
102
{ACAD_REACTORS
330
2A
102
}
330
2A
100
AcDbVisualStyle
  2
Gouraud
 70
     2
 71
     2
 72
     2
 73
     1
 90
        2
 40
-0.6
 41
30.0
 62
     5
 63
     7
 74
     0
 91
        4
 64
     7
 65
   257
 75
     1
175
     1
 42
1.0
 92
        0
 66
     7
 43
1.0
 76
     1
 77
     6
 78
     2
 67
     7
 79
     5
170
     0
171
     0
290
     0
174
     0
 93
       13
 44
0.0
173
     0
291
     1
 45
0.0
1001
ACAD
1000
AcDbSavedByObjectVersion
1070
     0
  0
VISUALSTYLE
  5
2E
102
{ACAD_REACTORS
330
2A
102
}
330
2A
100
AcDbVisualStyle
  2
GouraudWithEdges
 70
     3
 71
     2
 72
     2
 73
     1
 90
        2
 40
-0.6
 41
30.0
 62
     5
 63
     7
 74
     1
 91
        4
 64
     7
 65
   257
 75
     1
175
     1
 42
1.0
 92
        0
 66
   257
 43
1.0
 76
     1
 77
     6
 78
     2
 67
     7
 79
     5
170
     0
171
     0
290
     0
174
     0
 93
       13
 44
0.0
173
     0
291
     1
 45
0.0
1001
ACAD
1000
AcDbSavedByObjectVersion
1070
     0
  0
VISUALSTYLE
  5
38
102
{ACAD_REACTORS
330
2A
102
}
330
2A
100
AcDbVisualStyle
  2
Linepattern
 70
    14
 71
     2
 72
     2
 73
     0
 90
        0
 40
-0.6
 41
-30.0
 62
     5
 63
     7
 74
     1
 91
        4
 64
     7
 65
   257
 75
     7
175
     7
 42
1.0
 92
        8
 66
     7
 43
1.0
 76
     1
 77
     6
 78
     2
 67
     7
 79
     5
170
     0
171
     0
290
     0
174
     0
 93
        1
 44
0.0
173
     0
291
     1
 45
0.0
1001
ACAD
1000
AcDbSavedByObjectVersion
1070
     0
  0
VISUALSTYLE
  5
33
102
{ACAD_REACTORS
330
2A
102
}
330
2A
100
AcDbVisualStyle
  2
Realistic
 70
     8
 71
     2
 72
     2
 73
     0
 90
        0
 40
-0.6
 41
-30.0
 62
     5
 63
     7
 74
     1
 91
        0
 64
     7
 65
   257
 75
     1
175
     1
 42
1.0
 92
        8
 66
     8
 43
1.0
 76
     1
 77
     6
 78
     2
 67
     7
 79
     5
170
     0
171
     0
290
     0
174
     0
 93
       13
 44
0.0
173
     0
291
     0
 45
0.0
1001
ACAD
1000
AcDbSavedByObjectVersion
1070
     0
  0
VISUALSTYLE
  5
37
102
{ACAD_REACTORS
330
2A
102
}
330
2A
100
AcDbVisualStyle
  2
Thicken
 70
    13
 71
     2
 72
     2
 73
     0
 90
        0
 40
-0.6
 41
-30.0
 62
     5
 63
     7
 74
     1
 91
        4
 64
     7
 65
   257
 75
     1
175
     1
 42
1.0
 92
       12
 66
     7
 43
1.0
 76
     1
 77
     6
 78
     2
 67
     7
 79
     5
170
     0
171
     0
290
     0
174
     0
 93
        1
 44
0.0
173
     0
291
     1
 45
0.0
1001
ACAD
1000
AcDbSavedByObjectVersion
1070
     0
  0
DICTIONARYVAR
  5
526
102
{ACAD_REACTORS
330
525
102
}
330
525
100
DictionaryVariables
280
     0
  1
1:1
  0
DICTIONARYVAR
  5
52A
102
{ACAD_REACTORS
330
525
102
}
330
525
100
DictionaryVariables
280
     0
  1
80.000000
  0
DICTIONARYVAR
  5
529
102
{ACAD_REACTORS
330
525
102
}
330
525
100
DictionaryVariables
280
     0
  1
5.000000
  0
ENDSEC
  0
EOF
