  0
SECTION
  2
HEADER
  9
$ACADVER
  1
AC1015
  9
$ACADMAINTVER
 70
     6
  9
$DWGCODEPAGE
  3
ANSI_932
  9
$INSBASE
 10
0.0
 20
0.0
 30
0.0
  9
$EXTMIN
 10
0.79245
 20
-0.135498
 30
0.0
  9
$EXTMAX
 10
288.912476
 20
209.161438
 30
0.0
  9
$LIMMIN
 10
0.0
 20
0.0
  9
$LIMMAX
 10
12.0
 20
9.0
  9
$ORTHOMODE
 70
     0
  9
$REGENMODE
 70
     1
  9
$FILLMODE
 70
     1
  9
$QTEXTMODE
 70
     0
  9
$MIRRTEXT
 70
     1
  9
$LTSCALE
 40
3.561157
  9
$ATTMODE
 70
     1
  9
$TEXTSIZE
 40
3.2
  9
$TRACEWID
 40
1.0
  9
$TEXTSTYLE
  7
Standard
  9
$CLAYER
  8
0
  9
$CELTYPE
  6
ByLayer
  9
$CECOLOR
 62
   256
  9
$CELTSCALE
 40
1.0
  9
$DISPSILH
 70
     0
  9
$DIMSCALE
 40
1.0
  9
$DIMASZ
 40
2.5
  9
$DIMEXO
 40
0.625
  9
$DIMDLI
 40
3.75
  9
$DIMRND
 40
0.0
  9
$DIMDLE
 40
0.0
  9
$DIMEXE
 40
1.25
  9
$DIMTP
 40
0.0
  9
$DIMTM
 40
0.0
  9
$DIMTXT
 40
2.5
  9
$DIMCEN
 40
0.09
  9
$DIMTSZ
 40
0.0
  9
$DIMTOL
 70
     0
  9
$DIMLIM
 70
     0
  9
$DIMTIH
 70
     0
  9
$DIMTOH
 70
     0
  9
$DIMSE1
 70
     0
  9
$DIMSE2
 70
     0
  9
$DIMTAD
 70
     0
  9
$DIMZIN
 70
     8
  9
$DIMBLK
  1

  9
$DIMASO
 70
     1
  9
$DIMSHO
 70
     0
  9
$DIMPOST
  1

  9
$DIMAPOST
  1

  9
$DIMALT
 70
     0
  9
$DIMALTD
 70
     3
  9
$DIMALTF
 40
0.03937
  9
$DIMLFAC
 40
1.0
  9
$DIMTOFL
 70
     1
  9
$DIMTVP
 40
0.0
  9
$DIMTIX
 70
     0
  9
$DIMSOXD
 70
     0
  9
$DIMSAH
 70
     0
  9
$DIMBLK1
  1

  9
$DIMBLK2
  1

  9
$DIMSTYLE
  2
ISO-25
  9
$DIMCLRD
 70
     0
  9
$DIMCLRE
 70
     0
  9
$DIMCLRT
 70
     0
  9
$DIMTFAC
 40
1.0
  9
$DIMGAP
 40
0.625
  9
$DIMJUST
 70
     0
  9
$DIMSD1
 70
     0
  9
$DIMSD2
 70
     0
  9
$DIMTOLJ
 70
     0
  9
$DIMTZIN
 70
     8
  9
$DIMALTZ
 70
     0
  9
$DIMALTTZ
 70
     0
  9
$DIMUPT
 70
     0
  9
$DIMDEC
 70
     2
  9
$DIMTDEC
 70
     2
  9
$DIMALTU
 70
     2
  9
$DIMALTTD
 70
     3
  9
$DIMTXSTY
  7
Standard
  9
$DIMAUNIT
 70
     0
  9
$DIMADEC
 70
     0
  9
$DIMALTRND
 40
0.0
  9
$DIMAZIN
 70
     0
  9
$DIMDSEP
 70
    44
  9
$DIMATFIT
 70
     3
  9
$DIMFRAC
 70
     0
  9
$DIMLDRBLK
  1

  9
$DIMLUNIT
 70
     2
  9
$DIMLWD
 70
    -2
  9
$DIMLWE
 70
    -2
  9
$DIMTMOVE
 70
     0
  9
$LUNITS
 70
     2
  9
$LUPREC
 70
     4
  9
$SKETCHINC
 40
1.0
  9
$FILLETRAD
 40
0.0
  9
$AUNITS
 70
     0
  9
$AUPREC
 70
     0
  9
$MENU
  1
.
  9
$ELEVATION
 40
0.0
  9
$PELEVATION
 40
0.0
  9
$THICKNESS
 40
0.0
  9
$LIMCHECK
 70
     0
  9
$CHAMFERA
 40
10.0
  9
$CHAMFERB
 40
10.0
  9
$CHAMFERC
 40
20.0
  9
$CHAMFERD
 40
0.0
  9
$SKPOLY
 70
     0
  9
$TDCREATE
 40
2455405.447375937
  9
$TDUCREATE
 40
2455405.072375937
  9
$TDUPDATE
 40
2455405.447375949
  9
$TDUUPDATE
 40
2455405.072375949
  9
$TDINDWG
 40
0.0000000116
  9
$TDUSRTIMER
 40
0.0000000116
  9
$USRTIMER
 70
     1
  9
$ANGBASE
 50
0.0
  9
$ANGDIR
 70
     0
  9
$PDMODE
 70
     0
  9
$PDSIZE
 40
0.0
  9
$PLINEWID
 40
0.0
  9
$SPLFRAME
 70
     0
  9
$SPLINETYPE
 70
     6
  9
$SPLINESEGS
 70
     8
  9
$HANDSEED
  5
44E
  9
$SURFTAB1
 70
     6
  9
$SURFTAB2
 70
     6
  9
$SURFTYPE
 70
     6
  9
$SURFU
 70
     6
  9
$SURFV
 70
     6
  9
$UCSBASE
  2

  9
$UCSNAME
  2

  9
$UCSORG
 10
0.0
 20
0.0
 30
0.0
  9
$UCSXDIR
 10
1.0
 20
0.0
 30
0.0
  9
$UCSYDIR
 10
0.0
 20
1.0
 30
0.0
  9
$UCSORTHOREF
  2

  9
$UCSORTHOVIEW
 70
     0
  9
$UCSORGTOP
 10
0.0
 20
0.0
 30
0.0
  9
$UCSORGBOTTOM
 10
0.0
 20
0.0
 30
0.0
  9
$UCSORGLEFT
 10
0.0
 20
0.0
 30
0.0
  9
$UCSORGRIGHT
 10
0.0
 20
0.0
 30
0.0
  9
$UCSORGFRONT
 10
0.0
 20
0.0
 30
0.0
  9
$UCSORGBACK
 10
0.0
 20
0.0
 30
0.0
  9
$PUCSBASE
  2

  9
$PUCSNAME
  2

  9
$PUCSORG
 10
0.0
 20
0.0
 30
0.0
  9
$PUCSXDIR
 10
1.0
 20
0.0
 30
0.0
  9
$PUCSYDIR
 10
0.0
 20
1.0
 30
0.0
  9
$PUCSORTHOREF
  2

  9
$PUCSORTHOVIEW
 70
     0
  9
$PUCSORGTOP
 10
0.0
 20
0.0
 30
0.0
  9
$PUCSORGBOTTOM
 10
0.0
 20
0.0
 30
0.0
  9
$PUCSORGLEFT
 10
0.0
 20
0.0
 30
0.0
  9
$PUCSORGRIGHT
 10
0.0
 20
0.0
 30
0.0
  9
$PUCSORGFRONT
 10
0.0
 20
0.0
 30
0.0
  9
$PUCSORGBACK
 10
0.0
 20
0.0
 30
0.0
  9
$USERI1
 70
     0
  9
$USERI2
 70
     0
  9
$USERI3
 70
     0
  9
$USERI4
 70
     0
  9
$USERI5
 70
     0
  9
$USERR1
 40
0.0
  9
$USERR2
 40
0.0
  9
$USERR3
 40
0.0
  9
$USERR4
 40
0.0
  9
$USERR5
 40
0.0
  9
$WORLDVIEW
 70
     1
  9
$SHADEDGE
 70
     3
  9
$SHADEDIF
 70
    70
  9
$TILEMODE
 70
     1
  9
$MAXACTVP
 70
    64
  9
$PINSBASE
 10
0.0
 20
0.0
 30
0.0
  9
$PLIMCHECK
 70
     0
  9
$PEXTMIN
 10
1.000000E+20
 20
1.000000E+20
 30
0.0
  9
$PEXTMAX
 10
-1.000000E+20
 20
-1.000000E+20
 30
0.0
  9
$PLIMMIN
 10
0.0
 20
0.0
  9
$PLIMMAX
 10
12.0
 20
9.0
  9
$UNITMODE
 70
     0
  9
$VISRETAIN
 70
     1
  9
$PLINEGEN
 70
     0
  9
$PSLTSCALE
 70
     1
  9
$TREEDEPTH
 70
  3020
  9
$CMLSTYLE
  2
Standard
  9
$CMLJUST
 70
     0
  9
$CMLSCALE
 40
20.0
  9
$PROXYGRAPHICS
 70
     1
  9
$MEASUREMENT
 70
     1
  9
$CELWEIGHT
370
    -1
  9
$ENDCAPS
280
     0
  9
$JOINSTYLE
280
     0
  9
$LWDISPLAY
290
     0
  9
$INSUNITS
 70
     4
  9
$HYPERLINKBASE
  1

  9
$STYLESHEET
  1

  9
$XEDIT
290
     1
  9
$CEPSNTYPE
380
     0
  9
$PSTYLEMODE
290
     1
  9
$FINGERPRINTGUID
  2
{1996C34A-CDDB-41E6-B54A-96C04861B60D}
  9
$VERSIONGUID
  2
{FAEB1C32-E019-11D5-929B-00C0DF256EC4}
  9
$EXTNAMES
290
     1
  9
$PSVPSCALE
 40
0.0
  9
$OLESTARTUP
290
     0
  0
ENDSEC
  0
SECTION
  2
CLASSES
  0
CLASS
  1
ACDBDICTIONARYWDFLT
  2
AcDbDictionaryWithDefault
  3
ObjectDBX Classes
 90
        0
280
     0
281
     0
  0
CLASS
  1
VISUALSTYLE
  2
AcDbVisualStyle
  3
ObjectDBX Classes
 90
     4095
280
     0
281
     0
  0
CLASS
  1
SCALE
  2
AcDbScale
  3
ObjectDBX Classes
 90
     1153
280
     0
281
     0
  0
CLASS
  1
DICTIONARYVAR
  2
AcDbDictionaryVar
  3
ObjectDBX Classes
 90
        0
280
     0
281
     0
  0
CLASS
  1
ACDBPLACEHOLDER
  2
AcDbPlaceHolder
  3
ObjectDBX Classes
 90
        0
280
     0
281
     0
  0
CLASS
  1
LAYOUT
  2
AcDbLayout
  3
ObjectDBX Classes
 90
        0
280
     0
281
     0
  0
ENDSEC
  0
SECTION
  2
TABLES
  0
TABLE
  2
VPORT
  5
8
330
0
100
AcDbSymbolTable
 70
     1
  0
VPORT
  5
29
330
8
100
AcDbSymbolTableRecord
100
AcDbViewportTableRecord
  2
*Active
 70
     0
 10
0.0
 20
0.0
 11
1.0
 21
1.0
 12
144.852463
 22
104.51297
 13
0.0
 23
0.0
 14
1.0
 24
1.0
 15
0.0
 25
0.0
 16
0.0
 26
0.0
 36
1.0
 17
0.0
 27
0.0
 37
0.0
 40
211.389905
 41
1.691288
 42
50.0
 43
0.0
 44
0.0
 50
0.0
 51
0.0
 71
     0
 72
   100
 73
     1
 74
     3
 75
     0
 76
     0
 77
     0
 78
     0
281
     0
 65
     1
110
0.0
120
0.0
130
0.0
111
1.0
121
0.0
131
0.0
112
0.0
122
1.0
132
0.0
 79
     0
146
0.0
  0
ENDTAB
  0
TABLE
  2
LTYPE
  5
5
330
0
100
AcDbSymbolTable
 70
     5
  0
LTYPE
  5
14
330
5
100
AcDbSymbolTableRecord
100
AcDbLinetypeTableRecord
  2
ByBlock
 70
     0
  3

 72
    65
 73
     0
 40
0.0
  0
LTYPE
  5
15
330
5
100
AcDbSymbolTableRecord
100
AcDbLinetypeTableRecord
  2
ByLayer
 70
     0
  3

 72
    65
 73
     0
 40
0.0
  0
LTYPE
  5
16
330
5
100
AcDbSymbolTableRecord
100
AcDbLinetypeTableRecord
  2
Continuous
 70
     0
  3
Solid line
 72
    65
 73
     0
 40
0.0
  0
LTYPE
  5
5D
330
5
100
AcDbSymbolTableRecord
100
AcDbLinetypeTableRecord
  2
DASHED
 70
     0
  3
DASHED
 72
    83
 73
     2
 40
0.75
 49
0.5
 74
     0
 49
-0.25
 74
     0
  0
LTYPE
  5
5E
330
5
100
AcDbSymbolTableRecord
100
AcDbLinetypeTableRecord
  2
HIDDEN
 70
     0
  3
HIDDEN
 72
    83
 73
     2
 40
0.375
 49
0.25
 74
     0
 49
-0.125
 74
     0
  0
LTYPE
  5
5F
330
5
100
AcDbSymbolTableRecord
100
AcDbLinetypeTableRecord
  2
CENTER
 70
     0
  3
CENTER
 72
    83
 73
     4
 40
2.0
 49
1.25
 74
     0
 49
-0.25
 74
     0
 49
0.25
 74
     0
 49
-0.25
 74
     0
  0
LTYPE
  5
60
330
5
100
AcDbSymbolTableRecord
100
AcDbLinetypeTableRecord
  2
PHANTOM
 70
     0
  3
PHANTOM
 72
    83
 73
     6
 40
2.5
 49
1.25
 74
     0
 49
-0.25
 74
     0
 49
0.25
 74
     0
 49
-0.25
 74
     0
 49
0.25
 74
     0
 49
-0.25
 74
     0
  0
ENDTAB
  0
TABLE
  2
LAYER
  5
2
330
0
100
AcDbSymbolTable
 70
     2
  0
LAYER
  5
10
330
2
100
AcDbSymbolTableRecord
100
AcDbLayerTableRecord
  2
0
 70
     0
 62
     7
  6
Continuous
370
    -3
390
F
  0
LAYER
  5
61
330
2
100
AcDbSymbolTableRecord
100
AcDbLayerTableRecord
  2
001
 70
     0
 62
     7
  6
Continuous
370
    -3
390
F
  0
ENDTAB
  0
TABLE
  2
STYLE
  5
3
330
0
100
AcDbSymbolTable
 70
     2
  0
STYLE
  5
11
330
3
100
AcDbSymbolTableRecord
100
AcDbTextStyleTableRecord
  2
Standard
 70
     0
 40
0.0
 41
1.0
 50
0.0
 71
     0
 42
0.2
  3
TXT
  4
BIGFONT
  0
STYLE
  5
62
330
3
100
AcDbSymbolTableRecord
100
AcDbTextStyleTableRecord
  2
TATEGAKI
 70
     4
 40
1.0
 41
1.0
 50
0.0
 71
     0
 42
0.2
  3
TXT
  4
BIGFONT
  0
ENDTAB
  0
TABLE
  2
VIEW
  5
6
330
0
100
AcDbSymbolTable
 70
     0
  0
ENDTAB
  0
TABLE
  2
UCS
  5
7
330
0
100
AcDbSymbolTable
 70
     0
  0
ENDTAB
  0
TABLE
  2
APPID
  5
9
330
0
100
AcDbSymbolTable
 70
     1
  0
APPID
  5
12
330
9
100
AcDbSymbolTableRecord
100
AcDbRegAppTableRecord
  2
ACAD
 70
     0
  0
ENDTAB
  0
TABLE
  2
DIMSTYLE
  5
A
330
0
100
AcDbSymbolTable
 70
     2
100
AcDbDimStyleTable
  0
DIMSTYLE
105
27
330
A
100
AcDbSymbolTableRecord
100
AcDbDimStyleTableRecord
  2
ISO-25
 70
     0
 41
2.5
 42
0.625
 43
3.75
 44
1.25
 73
     0
 74
     0
 77
     1
 78
     8
140
2.5
141
2.5
143
0.03937
147
0.625
171
     3
172
     1
271
     2
272
     2
274
     3
278
    44
283
     0
284
     8
340
11
  0
DIMSTYLE
105
63
102
{ACAD_REACTORS
330
1CE
330
1CF
330
1D0
330
1D1
330
1D2
330
1D4
330
1D5
330
1D6
330
1D7
330
1D8
330
1D9
330
1DA
330
1DB
330
1DC
330
1DD
330
1DE
102
}
330
A
100
AcDbSymbolTableRecord
100
AcDbDimStyleTableRecord
  2
Standard
 70
     0
 41
1.5
 42
0.0
 44
0.5
 73
     0
 74
     0
 77
     1
 78
     8
 79
     2
140
4.0
146
0.8
147
1.0
172
     1
179
     1
271
     1
340
11
  0
ENDTAB
  0
TABLE
  2
BLOCK_RECORD
  5
1
330
0
100
AcDbSymbolTable
 70
    22
  0
BLOCK_RECORD
  5
1F
330
1
100
AcDbSymbolTableRecord
100
AcDbBlockTableRecord
  2
*Model_Space
340
22
  0
BLOCK_RECORD
  5
1B
330
1
100
AcDbSymbolTableRecord
100
AcDbBlockTableRecord
  2
*Paper_Space
340
1E
  0
BLOCK_RECORD
  5
23
330
1
100
AcDbSymbolTableRecord
100
AcDbBlockTableRecord
  2
*Paper_Space0
340
26
  0
BLOCK_RECORD
  5
64
330
1
100
AcDbSymbolTableRecord
100
AcDbBlockTableRecord
  2
JZB-1
340
0
102
{BLKREFS
331
1CA
102
}
  0
BLOCK_RECORD
  5
6F
330
1
100
AcDbSymbolTableRecord
100
AcDbBlockTableRecord
  2
JZB-2
340
0
102
{BLKREFS
331
1CB
102
}
  0
BLOCK_RECORD
  5
7A
330
1
100
AcDbSymbolTableRecord
100
AcDbBlockTableRecord
  2
JZB-3
340
0
102
{BLKREFS
331
1CC
102
}
  0
BLOCK_RECORD
  5
80
330
1
100
AcDbSymbolTableRecord
100
AcDbBlockTableRecord
  2
JZB-4
340
0
102
{BLKREFS
331
1CD
102
}
  0
BLOCK_RECORD
  5
86
330
1
100
AcDbSymbolTableRecord
100
AcDbBlockTableRecord
  2
*D5
340
0
  0
BLOCK_RECORD
  5
9A
330
1
100
AcDbSymbolTableRecord
100
AcDbBlockTableRecord
  2
*D6
340
0
  0
BLOCK_RECORD
  5
AE
330
1
100
AcDbSymbolTableRecord
100
AcDbBlockTableRecord
  2
*D7
340
0
  0
BLOCK_RECORD
  5
C2
330
1
100
AcDbSymbolTableRecord
100
AcDbBlockTableRecord
  2
*D8
340
0
  0
BLOCK_RECORD
  5
D8
330
1
100
AcDbSymbolTableRecord
100
AcDbBlockTableRecord
  2
*D9
340
0
  0
BLOCK_RECORD
  5
EC
330
1
100
AcDbSymbolTableRecord
100
AcDbBlockTableRecord
  2
DIM-5
340
0
102
{BLKREFS
331
1D3
102
}
  0
BLOCK_RECORD
  5
FA
330
1
100
AcDbSymbolTableRecord
100
AcDbBlockTableRecord
  2
*D11
340
0
  0
BLOCK_RECORD
  5
10F
330
1
100
AcDbSymbolTableRecord
100
AcDbBlockTableRecord
  2
*D12
340
0
  0
BLOCK_RECORD
  5
125
330
1
100
AcDbSymbolTableRecord
100
AcDbBlockTableRecord
  2
*D13
340
0
  0
BLOCK_RECORD
  5
13B
330
1
100
AcDbSymbolTableRecord
100
AcDbBlockTableRecord
  2
*D14
340
0
  0
BLOCK_RECORD
  5
151
330
1
100
AcDbSymbolTableRecord
100
AcDbBlockTableRecord
  2
*D15
340
0
  0
BLOCK_RECORD
  5
15E
330
1
100
AcDbSymbolTableRecord
100
AcDbBlockTableRecord
  2
*D16
340
0
  0
BLOCK_RECORD
  5
16B
330
1
100
AcDbSymbolTableRecord
100
AcDbBlockTableRecord
  2
*D17
340
0
  0
BLOCK_RECORD
  5
178
330
1
100
AcDbSymbolTableRecord
100
AcDbBlockTableRecord
  2
*D18
340
0
  0
BLOCK_RECORD
  5
18C
330
1
100
AcDbSymbolTableRecord
100
AcDbBlockTableRecord
  2
*D19
340
0
  0
BLOCK_RECORD
  5
1A0
330
1
100
AcDbSymbolTableRecord
100
AcDbBlockTableRecord
  2
*D20
340
0
  0
BLOCK_RECORD
  5
1B4
330
1
100
AcDbSymbolTableRecord
100
AcDbBlockTableRecord
  2
*D21
340
0
  0
ENDTAB
  0
ENDSEC
  0
SECTION
  2
BLOCKS
  0
BLOCK
  5
20
330
1F
100
AcDbEntity
  8
0
100
AcDbBlockBegin
  2
*Model_Space
 70
     0
 10
0.0
 20
0.0
 30
0.0
  3
*Model_Space
  1

  0
ENDBLK
  5
21
330
1F
100
AcDbEntity
  8
0
100
AcDbBlockEnd
  0
BLOCK
  5
1C
330
1B
100
AcDbEntity
 67
     1
  8
0
100
AcDbBlockBegin
  2
*Paper_Space
 70
     0
 10
0.0
 20
0.0
 30
0.0
  3
*Paper_Space
  1

  0
ENDBLK
  5
1D
330
1B
100
AcDbEntity
 67
     1
  8
0
100
AcDbBlockEnd
  0
BLOCK
  5
24
330
23
100
AcDbEntity
  8
0
100
AcDbBlockBegin
  2
*Paper_Space0
 70
     0
 10
0.0
 20
0.0
 30
0.0
  3
*Paper_Space0
  1

  0
ENDBLK
  5
25
330
23
100
AcDbEntity
  8
0
100
AcDbBlockEnd
  0
BLOCK
  5
65
330
64
100
AcDbEntity
  8
0
100
AcDbBlockBegin
  2
JZB-1
 70
     0
 10
0.0
 20
0.0
 30
0.0
  3
JZB-1
  1

  0
LINE
  5
67
330
64
100
AcDbEntity
  8
001
 62
     2
370
    30
100
AcDbLine
 10
99.770186
 20
141.157751
 30
0.0
 11
99.419707
 21
143.440402
 31
0.0
  0
LINE
  5
68
330
64
100
AcDbEntity
  8
001
 62
     2
370
    30
100
AcDbLine
 10
101.92226
 20
140.319949
 30
0.0
 11
99.770186
 21
141.157751
 31
0.0
  0
LINE
  5
69
330
64
100
AcDbEntity
  8
001
 62
     2
370
    30
100
AcDbLine
 10
103.723855
 20
141.764798
 30
0.0
 11
101.92226
 21
140.319949
 31
0.0
  0
LINE
  5
6A
330
64
100
AcDbEntity
  8
001
 62
     2
370
    30
100
AcDbLine
 10
103.373376
 20
144.04745
 30
0.0
 11
103.723855
 21
141.764798
 31
0.0
  0
LINE
  5
6B
330
64
100
AcDbEntity
  8
001
 62
     2
370
    30
100
AcDbLine
 10
101.221302
 20
144.885252
 30
0.0
 11
103.373376
 21
144.04745
 31
0.0
  0
LINE
  5
6C
330
64
100
AcDbEntity
  8
001
 62
     2
370
    30
100
AcDbLine
 10
99.419707
 20
143.440402
 30
0.0
 11
101.221302
 21
144.885252
 31
0.0
  0
CIRCLE
  5
6D
330
64
100
AcDbEntity
  8
001
 62
     2
370
    30
100
AcDbCircle
 10
101.571781
 20
142.6026
 30
0.0
 40
3.3235
  0
CIRCLE
  5
6E
330
64
100
AcDbEntity
  8
001
 62
     2
370
    30
100
AcDbCircle
 10
101.571781
 20
142.6026
 30
0.0
 40
4.0
  0
ENDBLK
  5
66
330
64
100
AcDbEntity
  8
0
100
AcDbBlockEnd
  0
BLOCK
  5
70
330
6F
100
AcDbEntity
  8
0
100
AcDbBlockBegin
  2
JZB-2
 70
     0
 10
0.0
 20
0.0
 30
0.0
  3
JZB-2
  1

  0
LINE
  5
72
330
6F
100
AcDbEntity
  8
001
 62
     2
370
    30
100
AcDbLine
 10
85.770186
 20
141.157751
 30
0.0
 11
85.419707
 21
143.440402
 31
0.0
  0
LINE
  5
73
330
6F
100
AcDbEntity
  8
001
 62
     2
370
    30
100
AcDbLine
 10
87.92226
 20
140.319949
 30
0.0
 11
85.770186
 21
141.157751
 31
0.0
  0
LINE
  5
74
330
6F
100
AcDbEntity
  8
001
 62
     2
370
    30
100
AcDbLine
 10
89.723855
 20
141.764798
 30
0.0
 11
87.92226
 21
140.319949
 31
0.0
  0
LINE
  5
75
330
6F
100
AcDbEntity
  8
001
 62
     2
370
    30
100
AcDbLine
 10
89.373376
 20
144.04745
 30
0.0
 11
89.723855
 21
141.764798
 31
0.0
  0
LINE
  5
76
330
6F
100
AcDbEntity
  8
001
 62
     2
370
    30
100
AcDbLine
 10
87.221302
 20
144.885252
 30
0.0
 11
89.373376
 21
144.04745
 31
0.0
  0
LINE
  5
77
330
6F
100
AcDbEntity
  8
001
 62
     2
370
    30
100
AcDbLine
 10
85.419707
 20
143.440402
 30
0.0
 11
87.221302
 21
144.885252
 31
0.0
  0
CIRCLE
  5
78
330
6F
100
AcDbEntity
  8
001
 62
     2
370
    30
100
AcDbCircle
 10
87.571781
 20
142.6026
 30
0.0
 40
3.3235
  0
CIRCLE
  5
79
330
6F
100
AcDbEntity
  8
001
 62
     2
370
    30
100
AcDbCircle
 10
87.571781
 20
142.6026
 30
0.0
 40
4.0
  0
ENDBLK
  5
71
330
6F
100
AcDbEntity
  8
0
100
AcDbBlockEnd
  0
BLOCK
  5
7B
330
7A
100
AcDbEntity
  8
0
100
AcDbBlockBegin
  2
JZB-3
 70
     0
 10
0.0
 20
0.0
 30
0.0
  3
JZB-3
  1

  0
LINE
  5
7D
330
7A
100
AcDbEntity
  8
001
 62
     2
370
    30
100
AcDbLine
 10
105.14727
 20
54.586598
 30
0.0
 11
104.895281
 21
54.838588
 31
0.0
  0
LINE
  5
7E
330
7A
100
AcDbEntity
  8
001
 62
     2
370
    30
100
AcDbLine
 10
98.248281
 20
54.838588
 30
0.0
 11
97.996245
 21
54.586552
 31
0.0
  0
LINE
  5
7F
330
7A
100
AcDbEntity
  8
001
 62
     2
370
    30
100
AcDbLine
 10
104.895281
 20
54.838588
 30
0.0
 11
98.248281
 21
54.838588
 31
0.0
  0
ENDBLK
  5
7C
330
7A
100
AcDbEntity
  8
0
100
AcDbBlockEnd
  0
BLOCK
  5
81
330
80
100
AcDbEntity
  8
0
100
AcDbBlockBegin
  2
JZB-4
 70
     0
 10
0.0
 20
0.0
 30
0.0
  3
JZB-4
  1

  0
LINE
  5
83
330
80
100
AcDbEntity
  8
001
 62
     2
370
    30
100
AcDbLine
 10
91.1478
 20
54.586069
 30
0.0
 11
90.895281
 21
54.838588
 31
0.0
  0
LINE
  5
84
330
80
100
AcDbEntity
  8
001
 62
     2
370
    30
100
AcDbLine
 10
84.248281
 20
54.838588
 30
0.0
 11
83.996218
 21
54.586525
 31
0.0
  0
LINE
  5
85
330
80
100
AcDbEntity
  8
001
 62
     2
370
    30
100
AcDbLine
 10
90.895281
 20
54.838588
 30
0.0
 11
84.248281
 21
54.838588
 31
0.0
  0
ENDBLK
  5
82
330
80
100
AcDbEntity
  8
0
100
AcDbBlockEnd
  0
BLOCK
  5
87
330
86
100
AcDbEntity
  8
0
100
AcDbBlockBegin
  2
*D5
 70
     1
 10
0.0
 20
0.0
 30
0.0
  3
*D5
  1

  0
LINE
  5
89
330
86
100
AcDbEntity
  8
001
370
     9
100
AcDbLine
 10
81.83973
 20
130.1026
 30
0.0
 11
50.260067
 21
130.1026
 31
0.0
  0
LINE
  5
8A
330
86
100
AcDbEntity
  8
001
370
     9
100
AcDbLine
 10
81.83973
 20
155.1026
 30
0.0
 11
50.260067
 21
155.1026
 31
0.0
  0
LINE
  5
8B
330
86
100
AcDbEntity
  8
001
370
     9
100
AcDbLine
 10
53.697567
 20
130.1026
 30
0.0
 11
53.697567
 21
155.1026
 31
0.0
  0
POLYLINE
  5
8C
330
86
100
AcDbEntity
  8
001
370
     9
100
AcDb2dPolyline
 66
     1
 10
0.0
 20
0.0
 30
0.0
  0
VERTEX
  5
8E
330
8C
100
AcDbEntity
  8
001
370
     9
100
AcDbVertex
100
AcDb2dVertex
 10
54.199971
 20
131.9776
 30
0.0
  0
VERTEX
  5
8F
330
8C
100
AcDbEntity
  8
001
370
     9
100
AcDbVertex
100
AcDb2dVertex
 10
53.697567
 20
130.1026
 30
0.0
  0
VERTEX
  5
90
330
8C
100
AcDbEntity
  8
001
370
     9
100
AcDbVertex
100
AcDb2dVertex
 10
53.195162
 20
131.9776
 30
0.0
  0
SEQEND
  5
8D
330
8C
100
AcDbEntity
  8
001
370
     9
  0
POLYLINE
  5
91
330
86
100
AcDbEntity
  8
001
370
     9
100
AcDb2dPolyline
 66
     1
 10
0.0
 20
0.0
 30
0.0
  0
VERTEX
  5
93
330
91
100
AcDbEntity
  8
001
370
     9
100
AcDbVertex
100
AcDb2dVertex
 10
53.195162
 20
153.2276
 30
0.0
  0
VERTEX
  5
94
330
91
100
AcDbEntity
  8
001
370
     9
100
AcDbVertex
100
AcDb2dVertex
 10
53.697567
 20
155.1026
 30
0.0
  0
VERTEX
  5
95
330
91
100
AcDbEntity
  8
001
370
     9
100
AcDbVertex
100
AcDb2dVertex
 10
54.199971
 20
153.2276
 30
0.0
  0
SEQEND
  5
92
330
91
100
AcDbEntity
  8
001
370
     9
  0
TEXT
  5
96
330
86
100
AcDbEntity
  8
001
370
    30
100
AcDbText
 10
52.447567
 20
135.1026
 30
0.0
 40
5.0
  1
%%c２５
 50
90.000003
 41
0.882353
100
AcDbText
  0
POINT
  5
97
330
86
100
AcDbEntity
  8
001
370
     9
100
AcDbPoint
 10
81.83973
 20
130.1026
 30
0.0
  0
POINT
  5
98
330
86
100
AcDbEntity
  8
001
370
     9
100
AcDbPoint
 10
81.83973
 20
155.1026
 30
0.0
  0
POINT
  5
99
330
86
100
AcDbEntity
  8
001
370
     9
100
AcDbPoint
 10
53.697567
 20
155.1026
 30
0.0
  0
ENDBLK
  5
88
330
86
100
AcDbEntity
  8
0
100
AcDbBlockEnd
  0
BLOCK
  5
9B
330
9A
100
AcDbEntity
  8
0
100
AcDbBlockBegin
  2
*D6
 70
     1
 10
0.0
 20
0.0
 30
0.0
  3
*D6
  1

  0
LINE
  5
9D
330
9A
100
AcDbEntity
  8
001
370
     9
100
AcDbLine
 10
108.571781
 20
122.6026
 30
0.0
 11
35.477136
 21
122.6026
 31
0.0
  0
LINE
  5
9E
330
9A
100
AcDbEntity
  8
001
370
     9
100
AcDbLine
 10
108.571781
 20
162.6026
 30
0.0
 11
35.477136
 21
162.6026
 31
0.0
  0
LINE
  5
9F
330
9A
100
AcDbEntity
  8
001
370
     9
100
AcDbLine
 10
38.914636
 20
122.6026
 30
0.0
 11
38.914636
 21
162.6026
 31
0.0
  0
POLYLINE
  5
A0
330
9A
100
AcDbEntity
  8
001
370
     9
100
AcDb2dPolyline
 66
     1
 10
0.0
 20
0.0
 30
0.0
  0
VERTEX
  5
A2
330
A0
100
AcDbEntity
  8
001
370
     9
100
AcDbVertex
100
AcDb2dVertex
 10
39.417041
 20
124.4776
 30
0.0
  0
VERTEX
  5
A3
330
A0
100
AcDbEntity
  8
001
370
     9
100
AcDbVertex
100
AcDb2dVertex
 10
38.914636
 20
122.6026
 30
0.0
  0
VERTEX
  5
A4
330
A0
100
AcDbEntity
  8
001
370
     9
100
AcDbVertex
100
AcDb2dVertex
 10
38.412232
 20
124.4776
 30
0.0
  0
SEQEND
  5
A1
330
A0
100
AcDbEntity
  8
001
370
     9
  0
POLYLINE
  5
A5
330
9A
100
AcDbEntity
  8
001
370
     9
100
AcDb2dPolyline
 66
     1
 10
0.0
 20
0.0
 30
0.0
  0
VERTEX
  5
A7
330
A5
100
AcDbEntity
  8
001
370
     9
100
AcDbVertex
100
AcDb2dVertex
 10
38.412232
 20
160.7276
 30
0.0
  0
VERTEX
  5
A8
330
A5
100
AcDbEntity
  8
001
370
     9
100
AcDbVertex
100
AcDb2dVertex
 10
38.914636
 20
162.6026
 30
0.0
  0
VERTEX
  5
A9
330
A5
100
AcDbEntity
  8
001
370
     9
100
AcDbVertex
100
AcDb2dVertex
 10
39.417041
 20
160.7276
 30
0.0
  0
SEQEND
  5
A6
330
A5
100
AcDbEntity
  8
001
370
     9
  0
TEXT
  5
AA
330
9A
100
AcDbEntity
  8
001
370
    30
100
AcDbText
 10
37.664636
 20
135.1026
 30
0.0
 40
5.0
  1
%%c４０
 50
90.000003
 41
0.882353
100
AcDbText
  0
POINT
  5
AB
330
9A
100
AcDbEntity
  8
001
370
     9
100
AcDbPoint
 10
108.571781
 20
122.6026
 30
0.0
  0
POINT
  5
AC
330
9A
100
AcDbEntity
  8
001
370
     9
100
AcDbPoint
 10
108.571781
 20
162.6026
 30
0.0
  0
POINT
  5
AD
330
9A
100
AcDbEntity
  8
001
370
     9
100
AcDbPoint
 10
38.914636
 20
162.6026
 30
0.0
  0
ENDBLK
  5
9C
330
9A
100
AcDbEntity
  8
0
100
AcDbBlockEnd
  0
BLOCK
  5
AF
330
AE
100
AcDbEntity
  8
0
100
AcDbBlockBegin
  2
*D7
 70
     1
 10
0.0
 20
0.0
 30
0.0
  3
*D7
  1

  0
LINE
  5
B1
330
AE
100
AcDbEntity
  8
001
370
     9
100
AcDbLine
 10
107.571781
 20
123.6026
 30
0.0
 11
107.571781
 21
96.849099
 31
0.0
  0
LINE
  5
B2
330
AE
100
AcDbEntity
  8
001
370
     9
100
AcDbLine
 10
77.571781
 20
132.989352
 30
0.0
 11
77.571781
 21
96.849099
 31
0.0
  0
LINE
  5
B3
330
AE
100
AcDbEntity
  8
001
370
     9
100
AcDbLine
 10
107.571781
 20
100.286599
 30
0.0
 11
77.571781
 21
100.286599
 31
0.0
  0
POLYLINE
  5
B4
330
AE
100
AcDbEntity
  8
001
370
     9
100
AcDb2dPolyline
 66
     1
 10
0.0
 20
0.0
 30
0.0
  0
VERTEX
  5
B6
330
B4
100
AcDbEntity
  8
001
370
     9
100
AcDbVertex
100
AcDb2dVertex
 10
105.696781
 20
100.789003
 30
0.0
  0
VERTEX
  5
B7
330
B4
100
AcDbEntity
  8
001
370
     9
100
AcDbVertex
100
AcDb2dVertex
 10
107.571781
 20
100.286599
 30
0.0
  0
VERTEX
  5
B8
330
B4
100
AcDbEntity
  8
001
370
     9
100
AcDbVertex
100
AcDb2dVertex
 10
105.696781
 20
99.784194
 30
0.0
  0
SEQEND
  5
B5
330
B4
100
AcDbEntity
  8
001
370
     9
  0
POLYLINE
  5
B9
330
AE
100
AcDbEntity
  8
001
370
     9
100
AcDb2dPolyline
 66
     1
 10
0.0
 20
0.0
 30
0.0
  0
VERTEX
  5
BB
330
B9
100
AcDbEntity
  8
001
370
     9
100
AcDbVertex
100
AcDb2dVertex
 10
79.446781
 20
99.784194
 30
0.0
  0
VERTEX
  5
BC
330
B9
100
AcDbEntity
  8
001
370
     9
100
AcDbVertex
100
AcDb2dVertex
 10
77.571781
 20
100.286599
 30
0.0
  0
VERTEX
  5
BD
330
B9
100
AcDbEntity
  8
001
370
     9
100
AcDbVertex
100
AcDb2dVertex
 10
79.446781
 20
100.789003
 30
0.0
  0
SEQEND
  5
BA
330
B9
100
AcDbEntity
  8
001
370
     9
  0
TEXT
  5
BE
330
AE
100
AcDbEntity
  8
001
370
    30
100
AcDbText
 10
87.571781
 20
101.536599
 30
0.0
 40
5.0
  1
３０
 41
0.833333
100
AcDbText
  0
POINT
  5
BF
330
AE
100
AcDbEntity
  8
001
370
     9
100
AcDbPoint
 10
107.571781
 20
123.6026
 30
0.0
  0
POINT
  5
C0
330
AE
100
AcDbEntity
  8
001
370
     9
100
AcDbPoint
 10
77.571781
 20
132.989352
 30
0.0
  0
POINT
  5
C1
330
AE
100
AcDbEntity
  8
001
370
     9
100
AcDbPoint
 10
77.571781
 20
100.286599
 30
0.0
  0
ENDBLK
  5
B0
330
AE
100
AcDbEntity
  8
0
100
AcDbBlockEnd
  0
BLOCK
  5
C3
330
C2
100
AcDbEntity
  8
0
100
AcDbBlockBegin
  2
*D8
 70
     1
 10
0.0
 20
0.0
 30
0.0
  3
*D8
  1

  0
LINE
  5
C5
330
C2
100
AcDbEntity
  8
001
370
     9
100
AcDbLine
 10
112.571781
 20
123.6026
 30
0.0
 11
112.571781
 21
96.849099
 31
0.0
  0
LINE
  5
C6
330
C2
100
AcDbEntity
  8
001
370
     9
100
AcDbLine
 10
107.571781
 20
123.6026
 30
0.0
 11
107.571781
 21
96.849099
 31
0.0
  0
LINE
  5
C7
330
C2
100
AcDbEntity
  8
001
370
     9
100
AcDbLine
 10
112.571781
 20
100.286599
 30
0.0
 11
107.571781
 21
100.286599
 31
0.0
  0
POLYLINE
  5
C8
330
C2
100
AcDbEntity
  8
001
370
     9
100
AcDb2dPolyline
 66
     1
 10
0.0
 20
0.0
 30
0.0
  0
VERTEX
  5
CA
330
C8
100
AcDbEntity
  8
001
370
     9
100
AcDbVertex
100
AcDb2dVertex
 10
114.446781
 20
99.784194
 30
0.0
  0
VERTEX
  5
CB
330
C8
100
AcDbEntity
  8
001
370
     9
100
AcDbVertex
100
AcDb2dVertex
 10
112.571781
 20
100.286599
 30
0.0
  0
VERTEX
  5
CC
330
C8
100
AcDbEntity
  8
001
370
     9
100
AcDbVertex
100
AcDb2dVertex
 10
114.446781
 20
100.789003
 30
0.0
  0
SEQEND
  5
C9
330
C8
100
AcDbEntity
  8
001
370
     9
  0
POLYLINE
  5
CD
330
C2
100
AcDbEntity
  8
001
370
     9
100
AcDb2dPolyline
 66
     1
 10
0.0
 20
0.0
 30
0.0
  0
VERTEX
  5
CF
330
CD
100
AcDbEntity
  8
001
370
     9
100
AcDbVertex
100
AcDb2dVertex
 10
105.696781
 20
100.789003
 30
0.0
  0
VERTEX
  5
D0
330
CD
100
AcDbEntity
  8
001
370
     9
100
AcDbVertex
100
AcDb2dVertex
 10
107.571781
 20
100.286599
 30
0.0
  0
VERTEX
  5
D1
330
CD
100
AcDbEntity
  8
001
370
     9
100
AcDbVertex
100
AcDb2dVertex
 10
105.696781
 20
99.784194
 30
0.0
  0
SEQEND
  5
CE
330
CD
100
AcDbEntity
  8
001
370
     9
  0
TEXT
  5
D2
330
C2
100
AcDbEntity
  8
001
370
    30
100
AcDbText
 10
107.571781
 20
101.536599
 30
0.0
 40
5.0
  1
５
 41
0.833333
100
AcDbText
  0
POINT
  5
D3
330
C2
100
AcDbEntity
  8
001
370
     9
100
AcDbPoint
 10
112.571781
 20
123.6026
 30
0.0
  0
POINT
  5
D4
330
C2
100
AcDbEntity
  8
001
370
     9
100
AcDbPoint
 10
107.571781
 20
123.6026
 30
0.0
  0
POINT
  5
D5
330
C2
100
AcDbEntity
  8
001
370
     9
100
AcDbPoint
 10
107.571781
 20
100.286599
 30
0.0
  0
LINE
  5
D6
330
C2
100
AcDbEntity
  8
001
370
     9
100
AcDbLine
 10
112.571781
 20
100.286599
 30
0.0
 11
115.696781
 21
100.286599
 31
0.0
  0
LINE
  5
D7
330
C2
100
AcDbEntity
  8
001
370
     9
100
AcDbLine
 10
107.571781
 20
100.286599
 30
0.0
 11
104.446781
 21
100.286599
 31
0.0
  0
ENDBLK
  5
C4
330
C2
100
AcDbEntity
  8
0
100
AcDbBlockEnd
  0
BLOCK
  5
D9
330
D8
100
AcDbEntity
  8
0
100
AcDbBlockBegin
  2
*D9
 70
     1
 10
0.0
 20
0.0
 30
0.0
  3
*D9
  1

  0
LINE
  5
DB
330
D8
100
AcDbEntity
  8
001
370
     9
100
AcDbLine
 10
77.571781
 20
132.989352
 30
0.0
 11
77.571781
 21
85.896605
 31
0.0
  0
LINE
  5
DC
330
D8
100
AcDbEntity
  8
001
370
     9
100
AcDbLine
 10
192.571781
 20
128.6026
 30
0.0
 11
192.571781
 21
85.896605
 31
0.0
  0
LINE
  5
DD
330
D8
100
AcDbEntity
  8
001
370
     9
100
AcDbLine
 10
77.571781
 20
89.334105
 30
0.0
 11
192.571781
 21
89.334105
 31
0.0
  0
POLYLINE
  5
DE
330
D8
100
AcDbEntity
  8
001
370
     9
100
AcDb2dPolyline
 66
     1
 10
0.0
 20
0.0
 30
0.0
  0
VERTEX
  5
E0
330
DE
100
AcDbEntity
  8
001
370
     9
100
AcDbVertex
100
AcDb2dVertex
 10
79.446781
 20
88.8317
 30
0.0
  0
VERTEX
  5
E1
330
DE
100
AcDbEntity
  8
001
370
     9
100
AcDbVertex
100
AcDb2dVertex
 10
77.571781
 20
89.334105
 30
0.0
  0
VERTEX
  5
E2
330
DE
100
AcDbEntity
  8
001
370
     9
100
AcDbVertex
100
AcDb2dVertex
 10
79.446781
 20
89.836509
 30
0.0
  0
SEQEND
  5
DF
330
DE
100
AcDbEntity
  8
001
370
     9
  0
POLYLINE
  5
E3
330
D8
100
AcDbEntity
  8
001
370
     9
100
AcDb2dPolyline
 66
     1
 10
0.0
 20
0.0
 30
0.0
  0
VERTEX
  5
E5
330
E3
100
AcDbEntity
  8
001
370
     9
100
AcDbVertex
100
AcDb2dVertex
 10
190.696781
 20
89.836509
 30
0.0
  0
VERTEX
  5
E6
330
E3
100
AcDbEntity
  8
001
370
     9
100
AcDbVertex
100
AcDb2dVertex
 10
192.571781
 20
89.334105
 30
0.0
  0
VERTEX
  5
E7
330
E3
100
AcDbEntity
  8
001
370
     9
100
AcDbVertex
100
AcDb2dVertex
 10
190.696781
 20
88.8317
 30
0.0
  0
SEQEND
  5
E4
330
E3
100
AcDbEntity
  8
001
370
     9
  0
TEXT
  5
E8
330
D8
100
AcDbEntity
  8
001
370
    30
100
AcDbText
 10
127.571781
 20
90.584105
 30
0.0
 40
5.0
  1
１１５
 41
0.833333
100
AcDbText
  0
POINT
  5
E9
330
D8
100
AcDbEntity
  8
001
370
     9
100
AcDbPoint
 10
77.571781
 20
132.989352
 30
0.0
  0
POINT
  5
EA
330
D8
100
AcDbEntity
  8
001
370
     9
100
AcDbPoint
 10
192.571781
 20
128.6026
 30
0.0
  0
POINT
  5
EB
330
D8
100
AcDbEntity
  8
001
370
     9
100
AcDbPoint
 10
192.571781
 20
89.334105
 30
0.0
  0
ENDBLK
  5
DA
330
D8
100
AcDbEntity
  8
0
100
AcDbBlockEnd
  0
BLOCK
  5
ED
330
EC
100
AcDbEntity
  8
0
100
AcDbBlockBegin
  2
DIM-5
 70
     0
 10
0.0
 20
0.0
 30
0.0
  3
DIM-5
  1

  0
TEXT
  5
EF
330
EC
100
AcDbEntity
  8
001
370
    30
100
AcDbText
 10
3.292465
 20
100.900721
 30
0.0
 40
5.0
  1
２－Ｍ８×１．２５，貫通
 41
0.833333
100
AcDbText
  0
POLYLINE
  5
F0
330
EC
100
AcDbEntity
  8
001
370
     9
100
AcDb2dPolyline
 66
     1
 10
0.0
 20
0.0
 30
0.0
  0
VERTEX
  5
F2
330
F0
100
AcDbEntity
  8
001
370
     9
100
AcDbVertex
100
AcDb2dVertex
 10
86.228411
 20
137.877889
 30
0.0
  0
VERTEX
  5
F3
330
F0
100
AcDbEntity
  8
001
370
     9
100
AcDbVertex
100
AcDb2dVertex
 10
87.571781
 20
139.2791
 30
0.0
  0
VERTEX
  5
F4
330
F0
100
AcDbEntity
  8
001
370
     9
100
AcDbVertex
100
AcDb2dVertex
 10
87.108994
 20
137.393931
 30
0.0
  0
SEQEND
  5
F1
330
F0
100
AcDbEntity
  8
001
370
     9
  0
POLYLINE
  5
F5
330
EC
100
AcDbEntity
  8
001
370
     9
100
AcDb2dPolyline
 66
     1
 10
0.0
 20
0.0
 30
0.0
  0
VERTEX
  5
F7
330
F5
100
AcDbEntity
  8
001
370
     9
100
AcDbVertex
100
AcDb2dVertex
 10
87.571781
 20
139.2791
 30
0.0
  0
VERTEX
  5
F8
330
F5
100
AcDbEntity
  8
001
370
     9
100
AcDbVertex
100
AcDb2dVertex
 10
65.792465
 20
99.650721
 30
0.0
  0
VERTEX
  5
F9
330
F5
100
AcDbEntity
  8
001
370
     9
100
AcDbVertex
100
AcDb2dVertex
 10
0.792465
 20
99.650721
 30
0.0
  0
SEQEND
  5
F6
330
F5
100
AcDbEntity
  8
001
370
     9
  0
ENDBLK
  5
EE
330
EC
100
AcDbEntity
  8
0
100
AcDbBlockEnd
  0
BLOCK
  5
FB
330
FA
100
AcDbEntity
  8
0
100
AcDbBlockBegin
  2
*D11
 70
     1
 10
0.0
 20
0.0
 30
0.0
  3
*D11
  1

  0
LINE
  5
FD
330
FA
100
AcDbEntity
  8
001
370
     9
100
AcDbLine
 10
190.571781
 20
126.6026
 30
0.0
 11
221.249673
 21
126.6026
 31
0.0
  0
LINE
  5
FE
330
FA
100
AcDbEntity
  8
001
370
     9
100
AcDbLine
 10
190.571781
 20
158.6026
 30
0.0
 11
221.249673
 21
158.6026
 31
0.0
  0
LINE
  5
FF
330
FA
100
AcDbEntity
  8
001
370
     9
100
AcDbLine
 10
217.812173
 20
126.6026
 30
0.0
 11
217.812173
 21
158.6026
 31
0.0
  0
POLYLINE
  5
100
330
FA
100
AcDbEntity
  8
001
370
     9
100
AcDb2dPolyline
 66
     1
 10
0.0
 20
0.0
 30
0.0
  0
VERTEX
  5
102
330
100
100
AcDbEntity
  8
001
370
     9
100
AcDbVertex
100
AcDb2dVertex
 10
218.314578
 20
128.4776
 30
0.0
  0
VERTEX
  5
103
330
100
100
AcDbEntity
  8
001
370
     9
100
AcDbVertex
100
AcDb2dVertex
 10
217.812173
 20
126.6026
 30
0.0
  0
VERTEX
  5
104
330
100
100
AcDbEntity
  8
001
370
     9
100
AcDbVertex
100
AcDb2dVertex
 10
217.309769
 20
128.4776
 30
0.0
  0
SEQEND
  5
101
330
100
100
AcDbEntity
  8
001
370
     9
  0
POLYLINE
  5
105
330
FA
100
AcDbEntity
  8
001
370
     9
100
AcDb2dPolyline
 66
     1
 10
0.0
 20
0.0
 30
0.0
  0
VERTEX
  5
107
330
105
100
AcDbEntity
  8
001
370
     9
100
AcDbVertex
100
AcDb2dVertex
 10
217.309769
 20
156.7276
 30
0.0
  0
VERTEX
  5
108
330
105
100
AcDbEntity
  8
001
370
     9
100
AcDbVertex
100
AcDb2dVertex
 10
217.812173
 20
158.6026
 30
0.0
  0
VERTEX
  5
109
330
105
100
AcDbEntity
  8
001
370
     9
100
AcDbVertex
100
AcDb2dVertex
 10
218.314578
 20
156.7276
 30
0.0
  0
SEQEND
  5
106
330
105
100
AcDbEntity
  8
001
370
     9
  0
TEXT
  5
10A
330
FA
100
AcDbEntity
  8
001
370
    30
100
AcDbText
 10
216.562173
 20
131.1026
 30
0.0
 40
5.0
  1
%%c３２
 50
90.000003
 41
0.882353
100
AcDbText
  0
TEXT
  5
10B
330
FA
100
AcDbEntity
  8
001
370
    30
100
AcDbText
 10
216.062173
 20
146.1026
 30
0.0
 40
4.0
  1
ｈ７
 50
90.000003
 41
0.833333
100
AcDbText
  0
POINT
  5
10C
330
FA
100
AcDbEntity
  8
001
370
     9
100
AcDbPoint
 10
190.571781
 20
126.6026
 30
0.0
  0
POINT
  5
10D
330
FA
100
AcDbEntity
  8
001
370
     9
100
AcDbPoint
 10
190.571781
 20
158.6026
 30
0.0
  0
POINT
  5
10E
330
FA
100
AcDbEntity
  8
001
370
     9
100
AcDbPoint
 10
217.812173
 20
158.6026
 30
0.0
  0
ENDBLK
  5
FC
330
FA
100
AcDbEntity
  8
0
100
AcDbBlockEnd
  0
BLOCK
  5
110
330
10F
100
AcDbEntity
  8
0
100
AcDbBlockBegin
  2
*D12
 70
     1
 10
0.0
 20
0.0
 30
0.0
  3
*D12
  1

  0
LINE
  5
112
330
10F
100
AcDbEntity
  8
001
370
     9
100
AcDbLine
 10
87.571781
 20
59.409453
 30
0.0
 11
87.571781
 21
72.372012
 31
0.0
  0
LINE
  5
113
330
10F
100
AcDbEntity
  8
001
370
     9
100
AcDbLine
 10
77.571781
 20
51.982757
 30
0.0
 11
77.571781
 21
72.372012
 31
0.0
  0
LINE
  5
114
330
10F
100
AcDbEntity
  8
001
370
     9
100
AcDbLine
 10
87.571781
 20
68.934512
 30
0.0
 11
77.571781
 21
68.934512
 31
0.0
  0
POLYLINE
  5
115
330
10F
100
AcDbEntity
  8
001
370
     9
100
AcDb2dPolyline
 66
     1
 10
0.0
 20
0.0
 30
0.0
  0
VERTEX
  5
117
330
115
100
AcDbEntity
  8
001
370
     9
100
AcDbVertex
100
AcDb2dVertex
 10
89.446781
 20
68.432107
 30
0.0
  0
VERTEX
  5
118
330
115
100
AcDbEntity
  8
001
370
     9
100
AcDbVertex
100
AcDb2dVertex
 10
87.571781
 20
68.934512
 30
0.0
  0
VERTEX
  5
119
330
115
100
AcDbEntity
  8
001
370
     9
100
AcDbVertex
100
AcDb2dVertex
 10
89.446781
 20
69.436917
 30
0.0
  0
SEQEND
  5
116
330
115
100
AcDbEntity
  8
001
370
     9
  0
POLYLINE
  5
11A
330
10F
100
AcDbEntity
  8
001
370
     9
100
AcDb2dPolyline
 66
     1
 10
0.0
 20
0.0
 30
0.0
  0
VERTEX
  5
11C
330
11A
100
AcDbEntity
  8
001
370
     9
100
AcDbVertex
100
AcDb2dVertex
 10
75.696781
 20
69.436917
 30
0.0
  0
VERTEX
  5
11D
330
11A
100
AcDbEntity
  8
001
370
     9
100
AcDbVertex
100
AcDb2dVertex
 10
77.571781
 20
68.934512
 30
0.0
  0
VERTEX
  5
11E
330
11A
100
AcDbEntity
  8
001
370
     9
100
AcDbVertex
100
AcDb2dVertex
 10
75.696781
 20
68.432107
 30
0.0
  0
SEQEND
  5
11B
330
11A
100
AcDbEntity
  8
001
370
     9
  0
TEXT
  5
11F
330
10F
100
AcDbEntity
  8
001
370
    30
100
AcDbText
 10
77.571781
 20
70.184512
 30
0.0
 40
5.0
  1
１０
 41
0.833333
100
AcDbText
  0
POINT
  5
120
330
10F
100
AcDbEntity
  8
001
370
     9
100
AcDbPoint
 10
87.571781
 20
59.409453
 30
0.0
  0
POINT
  5
121
330
10F
100
AcDbEntity
  8
001
370
     9
100
AcDbPoint
 10
77.571781
 20
51.982757
 30
0.0
  0
POINT
  5
122
330
10F
100
AcDbEntity
  8
001
370
     9
100
AcDbPoint
 10
77.571781
 20
68.934512
 30
0.0
  0
LINE
  5
123
330
10F
100
AcDbEntity
  8
001
370
     9
100
AcDbLine
 10
87.571781
 20
68.934512
 30
0.0
 11
90.696781
 21
68.934512
 31
0.0
  0
LINE
  5
124
330
10F
100
AcDbEntity
  8
001
370
     9
100
AcDbLine
 10
77.571781
 20
68.934512
 30
0.0
 11
74.446781
 21
68.934512
 31
0.0
  0
ENDBLK
  5
111
330
10F
100
AcDbEntity
  8
0
100
AcDbBlockEnd
  0
BLOCK
  5
126
330
125
100
AcDbEntity
  8
0
100
AcDbBlockBegin
  2
*D13
 70
     1
 10
0.0
 20
0.0
 30
0.0
  3
*D13
  1

  0
LINE
  5
128
330
125
100
AcDbEntity
  8
001
370
     9
100
AcDbLine
 10
101.571781
 20
59.409453
 30
0.0
 11
101.571781
 21
72.372012
 31
0.0
  0
LINE
  5
129
330
125
100
AcDbEntity
  8
001
370
     9
100
AcDbLine
 10
87.571781
 20
59.409453
 30
0.0
 11
87.571781
 21
72.372012
 31
0.0
  0
LINE
  5
12A
330
125
100
AcDbEntity
  8
001
370
     9
100
AcDbLine
 10
101.571781
 20
68.934512
 30
0.0
 11
87.571781
 21
68.934512
 31
0.0
  0
POLYLINE
  5
12B
330
125
100
AcDbEntity
  8
001
370
     9
100
AcDb2dPolyline
 66
     1
 10
0.0
 20
0.0
 30
0.0
  0
VERTEX
  5
12D
330
12B
100
AcDbEntity
  8
001
370
     9
100
AcDbVertex
100
AcDb2dVertex
 10
103.446781
 20
68.432107
 30
0.0
  0
VERTEX
  5
12E
330
12B
100
AcDbEntity
  8
001
370
     9
100
AcDbVertex
100
AcDb2dVertex
 10
101.571781
 20
68.934512
 30
0.0
  0
VERTEX
  5
12F
330
12B
100
AcDbEntity
  8
001
370
     9
100
AcDbVertex
100
AcDb2dVertex
 10
103.446781
 20
69.436917
 30
0.0
  0
SEQEND
  5
12C
330
12B
100
AcDbEntity
  8
001
370
     9
  0
POLYLINE
  5
130
330
125
100
AcDbEntity
  8
001
370
     9
100
AcDb2dPolyline
 66
     1
 10
0.0
 20
0.0
 30
0.0
  0
VERTEX
  5
132
330
130
100
AcDbEntity
  8
001
370
     9
100
AcDbVertex
100
AcDb2dVertex
 10
85.696781
 20
69.436917
 30
0.0
  0
VERTEX
  5
133
330
130
100
AcDbEntity
  8
001
370
     9
100
AcDbVertex
100
AcDb2dVertex
 10
87.571781
 20
68.934512
 30
0.0
  0
VERTEX
  5
134
330
130
100
AcDbEntity
  8
001
370
     9
100
AcDbVertex
100
AcDb2dVertex
 10
85.696781
 20
68.432107
 30
0.0
  0
SEQEND
  5
131
330
130
100
AcDbEntity
  8
001
370
     9
  0
TEXT
  5
135
330
125
100
AcDbEntity
  8
001
370
    30
100
AcDbText
 10
89.571781
 20
70.184512
 30
0.0
 40
5.0
  1
１４
 41
0.833333
100
AcDbText
  0
POINT
  5
136
330
125
100
AcDbEntity
  8
001
370
     9
100
AcDbPoint
 10
101.571781
 20
59.409453
 30
0.0
  0
POINT
  5
137
330
125
100
AcDbEntity
  8
001
370
     9
100
AcDbPoint
 10
87.571781
 20
59.409453
 30
0.0
  0
POINT
  5
138
330
125
100
AcDbEntity
  8
001
370
     9
100
AcDbPoint
 10
87.571781
 20
68.934512
 30
0.0
  0
LINE
  5
139
330
125
100
AcDbEntity
  8
001
370
     9
100
AcDbLine
 10
101.571781
 20
68.934512
 30
0.0
 11
104.696781
 21
68.934512
 31
0.0
  0
LINE
  5
13A
330
125
100
AcDbEntity
  8
001
370
     9
100
AcDbLine
 10
87.571781
 20
68.934512
 30
0.0
 11
84.446781
 21
68.934512
 31
0.0
  0
ENDBLK
  5
127
330
125
100
AcDbEntity
  8
0
100
AcDbBlockEnd
  0
BLOCK
  5
13C
330
13B
100
AcDbEntity
  8
0
100
AcDbBlockBegin
  2
*D14
 70
     1
 10
0.0
 20
0.0
 30
0.0
  3
*D14
  1

  0
LINE
  5
13E
330
13B
100
AcDbEntity
  8
001
370
     9
100
AcDbLine
 10
81.571781
 20
155.1026
 30
0.0
 11
81.571781
 21
175.36709
 31
0.0
  0
LINE
  5
13F
330
13B
100
AcDbEntity
  8
001
370
     9
100
AcDbLine
 10
77.571781
 20
152.215849
 30
0.0
 11
77.571781
 21
175.36709
 31
0.0
  0
LINE
  5
140
330
13B
100
AcDbEntity
  8
001
370
     9
100
AcDbLine
 10
81.571781
 20
171.92959
 30
0.0
 11
77.571781
 21
171.92959
 31
0.0
  0
POLYLINE
  5
141
330
13B
100
AcDbEntity
  8
001
370
     9
100
AcDb2dPolyline
 66
     1
 10
0.0
 20
0.0
 30
0.0
  0
VERTEX
  5
143
330
141
100
AcDbEntity
  8
001
370
     9
100
AcDbVertex
100
AcDb2dVertex
 10
83.446781
 20
171.427186
 30
0.0
  0
VERTEX
  5
144
330
141
100
AcDbEntity
  8
001
370
     9
100
AcDbVertex
100
AcDb2dVertex
 10
81.571781
 20
171.92959
 30
0.0
  0
VERTEX
  5
145
330
141
100
AcDbEntity
  8
001
370
     9
100
AcDbVertex
100
AcDb2dVertex
 10
83.446781
 20
172.431995
 30
0.0
  0
SEQEND
  5
142
330
141
100
AcDbEntity
  8
001
370
     9
  0
POLYLINE
  5
146
330
13B
100
AcDbEntity
  8
001
370
     9
100
AcDb2dPolyline
 66
     1
 10
0.0
 20
0.0
 30
0.0
  0
VERTEX
  5
148
330
146
100
AcDbEntity
  8
001
370
     9
100
AcDbVertex
100
AcDb2dVertex
 10
75.696781
 20
172.431995
 30
0.0
  0
VERTEX
  5
149
330
146
100
AcDbEntity
  8
001
370
     9
100
AcDbVertex
100
AcDb2dVertex
 10
77.571781
 20
171.92959
 30
0.0
  0
VERTEX
  5
14A
330
146
100
AcDbEntity
  8
001
370
     9
100
AcDbVertex
100
AcDb2dVertex
 10
75.696781
 20
171.427186
 30
0.0
  0
SEQEND
  5
147
330
146
100
AcDbEntity
  8
001
370
     9
  0
TEXT
  5
14B
330
13B
100
AcDbEntity
  8
001
370
    30
100
AcDbText
 10
58.196781
 20
173.17959
 30
0.0
 40
5.0
  1
（４）
 41
0.833333
100
AcDbText
  0
POINT
  5
14C
330
13B
100
AcDbEntity
  8
001
370
     9
100
AcDbPoint
 10
81.571781
 20
155.1026
 30
0.0
  0
POINT
  5
14D
330
13B
100
AcDbEntity
  8
001
370
     9
100
AcDbPoint
 10
77.571781
 20
152.215849
 30
0.0
  0
POINT
  5
14E
330
13B
100
AcDbEntity
  8
001
370
     9
100
AcDbPoint
 10
77.571781
 20
171.92959
 30
0.0
  0
LINE
  5
14F
330
13B
100
AcDbEntity
  8
001
370
     9
100
AcDbLine
 10
81.571781
 20
171.92959
 30
0.0
 11
84.696781
 21
171.92959
 31
0.0
  0
LINE
  5
150
330
13B
100
AcDbEntity
  8
001
370
     9
100
AcDbLine
 10
77.571781
 20
171.92959
 30
0.0
 11
54.446781
 21
171.92959
 31
0.0
  0
ENDBLK
  5
13D
330
13B
100
AcDbEntity
  8
0
100
AcDbBlockEnd
  0
BLOCK
  5
152
330
151
100
AcDbEntity
  8
0
100
AcDbBlockBegin
  2
*D15
 70
     1
 10
0.0
 20
0.0
 30
0.0
  3
*D15
  1

  0
LINE
  5
154
330
151
100
AcDbEntity
  8
001
370
     9
100
AcDbLine
 10
190.571781
 20
156.6026
 30
0.0
 11
192.141265
 21
157.842246
 31
0.0
  0
POLYLINE
  5
155
330
151
100
AcDbEntity
  8
001
370
     9
100
AcDb2dPolyline
 66
     1
 10
0.0
 20
0.0
 30
0.0
  0
VERTEX
  5
157
330
155
100
AcDbEntity
  8
001
370
     9
100
AcDbVertex
100
AcDb2dVertex
 10
193.924058
 20
158.610155
 30
0.0
  0
VERTEX
  5
158
330
155
100
AcDbEntity
  8
001
370
     9
100
AcDbVertex
100
AcDb2dVertex
 10
192.141265
 20
157.842246
 30
0.0
  0
VERTEX
  5
159
330
155
100
AcDbEntity
  8
001
370
     9
100
AcDbVertex
100
AcDb2dVertex
 10
193.301254
 20
159.398671
 30
0.0
  0
SEQEND
  5
156
330
155
100
AcDbEntity
  8
001
370
     9
  0
TEXT
  5
15A
330
151
100
AcDbEntity
  8
001
370
    30
100
AcDbText
 10
194.799732
 20
161.534897
 30
0.0
 40
5.0
  1
（Ｒ２）
 50
38.303189
 41
0.833333
100
AcDbText
  0
POINT
  5
15B
330
151
100
AcDbEntity
  8
001
370
     9
100
AcDbPoint
 10
192.141265
 20
157.842246
 30
0.0
  0
POINT
  5
15C
330
151
100
AcDbEntity
  8
001
370
     9
100
AcDbPoint
 10
190.571781
 20
156.6026
 30
0.0
  0
LINE
  5
15D
330
151
100
AcDbEntity
  8
001
370
     9
100
AcDbLine
 10
192.141265
 20
157.842246
 30
0.0
 11
214.21213
 21
175.274759
 31
0.0
  0
ENDBLK
  5
153
330
151
100
AcDbEntity
  8
0
100
AcDbBlockEnd
  0
BLOCK
  5
15F
330
15E
100
AcDbEntity
  8
0
100
AcDbBlockBegin
  2
*D16
 70
     1
 10
0.0
 20
0.0
 30
0.0
  3
*D16
  1

  0
LINE
  5
161
330
15E
100
AcDbEntity
  8
001
370
     9
100
AcDbLine
 10
78.571781
 20
32.75626
 30
0.0
 11
77.751922
 21
32.183693
 31
0.0
  0
POLYLINE
  5
162
330
15E
100
AcDbEntity
  8
001
370
     9
100
AcDb2dPolyline
 66
     1
 10
0.0
 20
0.0
 30
0.0
  0
VERTEX
  5
164
330
162
100
AcDbEntity
  8
001
370
     9
100
AcDbVertex
100
AcDb2dVertex
 10
75.927028
 20
31.522033
 30
0.0
  0
VERTEX
  5
165
330
162
100
AcDbEntity
  8
001
370
     9
100
AcDbVertex
100
AcDb2dVertex
 10
77.751922
 20
32.183693
 30
0.0
  0
VERTEX
  5
166
330
162
100
AcDbEntity
  8
001
370
     9
100
AcDbVertex
100
AcDb2dVertex
 10
76.502347
 20
30.698231
 30
0.0
  0
SEQEND
  5
163
330
162
100
AcDbEntity
  8
001
370
     9
  0
TEXT
  5
167
330
15E
100
AcDbEntity
  8
001
370
    30
100
AcDbText
 10
57.052161
 20
19.252219
 30
0.0
 40
5.0
  1
２－Ｒ１
 50
34.929359
 41
0.833333
100
AcDbText
  0
POINT
  5
168
330
15E
100
AcDbEntity
  8
001
370
     9
100
AcDbPoint
 10
77.751922
 20
32.183693
 30
0.0
  0
POINT
  5
169
330
15E
100
AcDbEntity
  8
001
370
     9
100
AcDbPoint
 10
78.571781
 20
32.75626
 30
0.0
  0
LINE
  5
16A
330
15E
100
AcDbEntity
  8
001
370
     9
100
AcDbLine
 10
77.751922
 20
32.183693
 30
0.0
 11
54.693399
 21
16.080274
 31
0.0
  0
ENDBLK
  5
160
330
15E
100
AcDbEntity
  8
0
100
AcDbBlockEnd
  0
BLOCK
  5
16C
330
16B
100
AcDbEntity
  8
0
100
AcDbBlockBegin
  2
*D17
 70
     1
 10
0.0
 20
0.0
 30
0.0
  3
*D17
  1

  0
LINE
  5
16E
330
16B
100
AcDbEntity
  8
001
370
     9
100
AcDbLine
 10
108.571781
 20
23.369508
 30
0.0
 11
107.981283
 21
22.562469
 31
0.0
  0
POLYLINE
  5
16F
330
16B
100
AcDbEntity
  8
001
370
     9
100
AcDb2dPolyline
 66
     1
 10
0.0
 20
0.0
 30
0.0
  0
VERTEX
  5
171
330
16F
100
AcDbEntity
  8
001
370
     9
100
AcDbVertex
100
AcDb2dVertex
 10
106.468639
 20
21.34594
 30
0.0
  0
VERTEX
  5
172
330
16F
100
AcDbEntity
  8
001
370
     9
100
AcDbVertex
100
AcDb2dVertex
 10
107.981283
 20
22.562469
 30
0.0
  0
VERTEX
  5
173
330
16F
100
AcDbEntity
  8
001
370
     9
100
AcDbVertex
100
AcDb2dVertex
 10
107.279559
 20
20.752602
 30
0.0
  0
SEQEND
  5
170
330
16F
100
AcDbEntity
  8
001
370
     9
  0
TEXT
  5
174
330
16B
100
AcDbEntity
  8
001
370
    30
100
AcDbText
 10
92.579094
 20
3.629015
 30
0.0
 40
5.0
  1
２－Ｒ１
 50
53.807639
 41
0.833333
100
AcDbText
  0
POINT
  5
175
330
16B
100
AcDbEntity
  8
001
370
     9
100
AcDbPoint
 10
107.981283
 20
22.562469
 30
0.0
  0
POINT
  5
176
330
16B
100
AcDbEntity
  8
001
370
     9
100
AcDbPoint
 10
108.571781
 20
23.369508
 30
0.0
  0
LINE
  5
177
330
16B
100
AcDbEntity
  8
001
370
     9
100
AcDbLine
 10
107.981283
 20
22.562469
 30
0.0
 11
91.373525
 21
-0.135504
 31
0.0
  0
ENDBLK
  5
16D
330
16B
100
AcDbEntity
  8
0
100
AcDbBlockEnd
  0
BLOCK
  5
179
330
178
100
AcDbEntity
  8
0
100
AcDbBlockBegin
  2
*D18
 70
     1
 10
0.0
 20
0.0
 30
0.0
  3
*D18
  1

  0
LINE
  5
17B
330
178
100
AcDbEntity
  8
001
370
     9
100
AcDbLine
 10
251.936139
 20
134.856634
 30
0.0
 11
251.936139
 21
99.952231
 31
0.0
  0
LINE
  5
17C
330
178
100
AcDbEntity
  8
001
370
     9
100
AcDbLine
 10
281.936139
 20
142.6026
 30
0.0
 11
281.936139
 21
99.952231
 31
0.0
  0
LINE
  5
17D
330
178
100
AcDbEntity
  8
001
370
     9
100
AcDbLine
 10
251.936139
 20
103.389731
 30
0.0
 11
281.936139
 21
103.389731
 31
0.0
  0
POLYLINE
  5
17E
330
178
100
AcDbEntity
  8
001
370
     9
100
AcDb2dPolyline
 66
     1
 10
0.0
 20
0.0
 30
0.0
  0
VERTEX
  5
180
330
17E
100
AcDbEntity
  8
001
370
     9
100
AcDbVertex
100
AcDb2dVertex
 10
253.811139
 20
102.887326
 30
0.0
  0
VERTEX
  5
181
330
17E
100
AcDbEntity
  8
001
370
     9
100
AcDbVertex
100
AcDb2dVertex
 10
251.936139
 20
103.389731
 30
0.0
  0
VERTEX
  5
182
330
17E
100
AcDbEntity
  8
001
370
     9
100
AcDbVertex
100
AcDb2dVertex
 10
253.811139
 20
103.892136
 30
0.0
  0
SEQEND
  5
17F
330
17E
100
AcDbEntity
  8
001
370
     9
  0
POLYLINE
  5
183
330
178
100
AcDbEntity
  8
001
370
     9
100
AcDb2dPolyline
 66
     1
 10
0.0
 20
0.0
 30
0.0
  0
VERTEX
  5
185
330
183
100
AcDbEntity
  8
001
370
     9
100
AcDbVertex
100
AcDb2dVertex
 10
280.061139
 20
103.892136
 30
0.0
  0
VERTEX
  5
186
330
183
100
AcDbEntity
  8
001
370
     9
100
AcDbVertex
100
AcDb2dVertex
 10
281.936139
 20
103.389731
 30
0.0
  0
VERTEX
  5
187
330
183
100
AcDbEntity
  8
001
370
     9
100
AcDbVertex
100
AcDb2dVertex
 10
280.061139
 20
102.887326
 30
0.0
  0
SEQEND
  5
184
330
183
100
AcDbEntity
  8
001
370
     9
  0
TEXT
  5
188
330
178
100
AcDbEntity
  8
001
370
    30
100
AcDbText
 10
261.936139
 20
104.639731
 30
0.0
 40
5.0
  1
３０
 41
0.833333
100
AcDbText
  0
POINT
  5
189
330
178
100
AcDbEntity
  8
001
370
     9
100
AcDbPoint
 10
251.936139
 20
134.856634
 30
0.0
  0
POINT
  5
18A
330
178
100
AcDbEntity
  8
001
370
     9
100
AcDbPoint
 10
281.936139
 20
142.6026
 30
0.0
  0
POINT
  5
18B
330
178
100
AcDbEntity
  8
001
370
     9
100
AcDbPoint
 10
281.936139
 20
103.389731
 30
0.0
  0
ENDBLK
  5
17A
330
178
100
AcDbEntity
  8
0
100
AcDbBlockEnd
  0
BLOCK
  5
18D
330
18C
100
AcDbEntity
  8
0
100
AcDbBlockBegin
  2
*D19
 70
     1
 10
0.0
 20
0.0
 30
0.0
  3
*D19
  1

  0
LINE
  5
18F
330
18C
100
AcDbEntity
  8
001
370
     9
100
AcDbLine
 10
112.571781
 20
123.6026
 30
0.0
 11
112.571781
 21
96.849099
 31
0.0
  0
LINE
  5
190
330
18C
100
AcDbEntity
  8
001
370
     9
100
AcDbLine
 10
192.571781
 20
128.6026
 30
0.0
 11
192.571781
 21
96.849099
 31
0.0
  0
LINE
  5
191
330
18C
100
AcDbEntity
  8
001
370
     9
100
AcDbLine
 10
112.571781
 20
100.286599
 30
0.0
 11
192.571781
 21
100.286599
 31
0.0
  0
POLYLINE
  5
192
330
18C
100
AcDbEntity
  8
001
370
     9
100
AcDb2dPolyline
 66
     1
 10
0.0
 20
0.0
 30
0.0
  0
VERTEX
  5
194
330
192
100
AcDbEntity
  8
001
370
     9
100
AcDbVertex
100
AcDb2dVertex
 10
114.446781
 20
99.784194
 30
0.0
  0
VERTEX
  5
195
330
192
100
AcDbEntity
  8
001
370
     9
100
AcDbVertex
100
AcDb2dVertex
 10
112.571781
 20
100.286599
 30
0.0
  0
VERTEX
  5
196
330
192
100
AcDbEntity
  8
001
370
     9
100
AcDbVertex
100
AcDb2dVertex
 10
114.446781
 20
100.789003
 30
0.0
  0
SEQEND
  5
193
330
192
100
AcDbEntity
  8
001
370
     9
  0
POLYLINE
  5
197
330
18C
100
AcDbEntity
  8
001
370
     9
100
AcDb2dPolyline
 66
     1
 10
0.0
 20
0.0
 30
0.0
  0
VERTEX
  5
199
330
197
100
AcDbEntity
  8
001
370
     9
100
AcDbVertex
100
AcDb2dVertex
 10
190.696781
 20
100.789003
 30
0.0
  0
VERTEX
  5
19A
330
197
100
AcDbEntity
  8
001
370
     9
100
AcDbVertex
100
AcDb2dVertex
 10
192.571781
 20
100.286599
 30
0.0
  0
VERTEX
  5
19B
330
197
100
AcDbEntity
  8
001
370
     9
100
AcDbVertex
100
AcDb2dVertex
 10
190.696781
 20
99.784194
 30
0.0
  0
SEQEND
  5
198
330
197
100
AcDbEntity
  8
001
370
     9
  0
TEXT
  5
19C
330
18C
100
AcDbEntity
  8
001
370
    30
100
AcDbText
 10
142.571781
 20
101.536599
 30
0.0
 40
5.0
  1
（８０）
 41
0.833333
100
AcDbText
  0
POINT
  5
19D
330
18C
100
AcDbEntity
  8
001
370
     9
100
AcDbPoint
 10
112.571781
 20
123.6026
 30
0.0
  0
POINT
  5
19E
330
18C
100
AcDbEntity
  8
001
370
     9
100
AcDbPoint
 10
192.571781
 20
128.6026
 30
0.0
  0
POINT
  5
19F
330
18C
100
AcDbEntity
  8
001
370
     9
100
AcDbPoint
 10
192.571781
 20
100.286599
 30
0.0
  0
ENDBLK
  5
18E
330
18C
100
AcDbEntity
  8
0
100
AcDbBlockEnd
  0
BLOCK
  5
1A1
330
1A0
100
AcDbEntity
  8
0
100
AcDbBlockBegin
  2
*D20
 70
     1
 10
0.0
 20
0.0
 30
0.0
  3
*D20
  1

  0
LINE
  5
1A3
330
1A0
100
AcDbEntity
  8
001
370
     9
100
AcDbLine
 10
81.33973
 20
154.968626
 30
0.0
 11
123.905741
 21
179.544123
 31
0.0
  0
ARC
  5
1A4
330
1A0
100
AcDbEntity
  8
001
370
     9
100
AcDbCircle
 10
59.921146
 20
142.6026
 30
0.0
 40
70.44554610238905
100
AcDbArc
 50
0.0
 51
30.0
  0
POLYLINE
  5
1A5
330
1A0
100
AcDbEntity
  8
001
370
     9
100
AcDb2dPolyline
 66
     1
 10
0.0
 20
0.0
 30
0.0
  0
VERTEX
  5
1A7
330
1A5
100
AcDbEntity
  8
001
370
     9
100
AcDbVertex
100
AcDb2dVertex
 10
121.406187
 20
175.943853
 30
0.0
  0
VERTEX
  5
1A8
330
1A5
100
AcDbEntity
  8
001
370
     9
100
AcDbVertex
100
AcDb2dVertex
 10
120.928778
 20
177.825373
 30
0.0
  0
VERTEX
  5
1A9
330
1A5
100
AcDbEntity
  8
001
370
     9
100
AcDbVertex
100
AcDb2dVertex
 10
122.282986
 20
176.434633
 30
0.0
  0
SEQEND
  5
1A6
330
1A5
100
AcDbEntity
  8
001
370
     9
  0
POLYLINE
  5
1AA
330
1A0
100
AcDbEntity
  8
001
370
     9
100
AcDb2dPolyline
 66
     1
 10
0.0
 20
0.0
 30
0.0
  0
VERTEX
  5
1AC
330
1AA
100
AcDbEntity
  8
001
370
     9
100
AcDbVertex
100
AcDb2dVertex
 10
130.8441
 20
144.48412
 30
0.0
  0
VERTEX
  5
1AD
330
1AA
100
AcDbEntity
  8
001
370
     9
100
AcDbVertex
100
AcDb2dVertex
 10
130.366692
 20
142.6026
 30
0.0
  0
VERTEX
  5
1AE
330
1AA
100
AcDbEntity
  8
001
370
     9
100
AcDbVertex
100
AcDb2dVertex
 10
129.83938
 20
144.470748
 30
0.0
  0
SEQEND
  5
1AB
330
1AA
100
AcDbEntity
  8
001
370
     9
  0
TEXT
  5
1AF
330
1A0
100
AcDbEntity
  8
001
370
    30
100
AcDbText
 10
123.596055
 20
176.396199
 30
0.0
 40
5.0
  1
３０%%d
 50
291.983893
 41
0.978261
100
AcDbText
  0
POINT
  5
1B0
330
1A0
100
AcDbEntity
  8
001
370
     9
100
AcDbPoint
 10
81.33973
 20
154.968626
 30
0.0
  0
POINT
  5
1B1
330
1A0
100
AcDbEntity
  8
001
370
     9
100
AcDbPoint
 10
59.921146
 20
142.6026
 30
0.0
  0
POINT
  5
1B2
330
1A0
100
AcDbEntity
  8
001
370
     9
100
AcDbPoint
 10
59.921146
 20
142.6026
 30
0.0
  0
POINT
  5
1B3
330
1A0
100
AcDbEntity
  8
001
370
     9
100
AcDbPoint
 10
71.575964
 20
142.6026
 30
0.0
  0
ENDBLK
  5
1A2
330
1A0
100
AcDbEntity
  8
0
100
AcDbBlockEnd
  0
BLOCK
  5
1B5
330
1B4
100
AcDbEntity
  8
0
100
AcDbBlockBegin
  2
*D21
 70
     1
 10
0.0
 20
0.0
 30
0.0
  3
*D21
  1

  0
LINE
  5
1B7
330
1B4
100
AcDbEntity
  8
001
370
     9
100
AcDbLine
 10
77.571781
 20
47.369508
 30
0.0
 11
51.118669
 21
47.369508
 31
0.0
  0
LINE
  5
1B8
330
1B4
100
AcDbEntity
  8
001
370
     9
100
AcDbLine
 10
77.571781
 20
37.369508
 30
0.0
 11
51.118669
 21
37.369508
 31
0.0
  0
LINE
  5
1B9
330
1B4
100
AcDbEntity
  8
001
370
     9
100
AcDbLine
 10
54.556169
 20
47.369508
 30
0.0
 11
54.556169
 21
37.369508
 31
0.0
  0
POLYLINE
  5
1BA
330
1B4
100
AcDbEntity
  8
001
370
     9
100
AcDb2dPolyline
 66
     1
 10
0.0
 20
0.0
 30
0.0
  0
VERTEX
  5
1BC
330
1BA
100
AcDbEntity
  8
001
370
     9
100
AcDbVertex
100
AcDb2dVertex
 10
55.058574
 20
49.244508
 30
0.0
  0
VERTEX
  5
1BD
330
1BA
100
AcDbEntity
  8
001
370
     9
100
AcDbVertex
100
AcDb2dVertex
 10
54.556169
 20
47.369508
 30
0.0
  0
VERTEX
  5
1BE
330
1BA
100
AcDbEntity
  8
001
370
     9
100
AcDbVertex
100
AcDb2dVertex
 10
54.053764
 20
49.244508
 30
0.0
  0
SEQEND
  5
1BB
330
1BA
100
AcDbEntity
  8
001
370
     9
  0
POLYLINE
  5
1BF
330
1B4
100
AcDbEntity
  8
001
370
     9
100
AcDb2dPolyline
 66
     1
 10
0.0
 20
0.0
 30
0.0
  0
VERTEX
  5
1C1
330
1BF
100
AcDbEntity
  8
001
370
     9
100
AcDbVertex
100
AcDb2dVertex
 10
54.053764
 20
35.494508
 30
0.0
  0
VERTEX
  5
1C2
330
1BF
100
AcDbEntity
  8
001
370
     9
100
AcDbVertex
100
AcDb2dVertex
 10
54.556169
 20
37.369508
 30
0.0
  0
VERTEX
  5
1C3
330
1BF
100
AcDbEntity
  8
001
370
     9
100
AcDbVertex
100
AcDb2dVertex
 10
55.058574
 20
35.494508
 30
0.0
  0
SEQEND
  5
1C0
330
1BF
100
AcDbEntity
  8
001
370
     9
  0
TEXT
  5
1C4
330
1B4
100
AcDbEntity
  8
001
370
    30
100
AcDbText
 10
53.306169
 20
54.997558
 30
0.0
 40
5.0
  1
%%c１０
 50
90.000003
 41
0.882353
100
AcDbText
  0
POINT
  5
1C5
330
1B4
100
AcDbEntity
  8
001
370
     9
100
AcDbPoint
 10
77.571781
 20
47.369508
 30
0.0
  0
POINT
  5
1C6
330
1B4
100
AcDbEntity
  8
001
370
     9
100
AcDbPoint
 10
77.571781
 20
37.369508
 30
0.0
  0
POINT
  5
1C7
330
1B4
100
AcDbEntity
  8
001
370
     9
100
AcDbPoint
 10
54.556169
 20
37.369508
 30
0.0
  0
LINE
  5
1C8
330
1B4
100
AcDbEntity
  8
001
370
     9
100
AcDbLine
 10
54.556169
 20
47.369508
 30
0.0
 11
54.556169
 21
73.747558
 31
0.0
  0
LINE
  5
1C9
330
1B4
100
AcDbEntity
  8
001
370
     9
100
AcDbLine
 10
54.556169
 20
37.369508
 30
0.0
 11
54.556169
 21
34.244508
 31
0.0
  0
ENDBLK
  5
1B6
330
1B4
100
AcDbEntity
  8
0
100
AcDbBlockEnd
  0
ENDSEC
  0
SECTION
  2
ENTITIES
  0
INSERT
  5
1CA
330
1F
100
AcDbEntity
  8
001
  6
ByBlock
 62
     0
370
    -2
100
AcDbBlockReference
  2
JZB-1
 10
0.0
 20
0.0
 30
0.0
  0
INSERT
  5
1CB
330
1F
100
AcDbEntity
  8
001
  6
ByBlock
 62
     0
370
    -2
100
AcDbBlockReference
  2
JZB-2
 10
0.0
 20
0.0
 30
0.0
  0
INSERT
  5
1CC
330
1F
100
AcDbEntity
  8
001
  6
ByBlock
 62
     0
370
    -2
100
AcDbBlockReference
  2
JZB-3
 10
0.0
 20
0.0
 30
0.0
  0
INSERT
  5
1CD
330
1F
100
AcDbEntity
  8
001
  6
ByBlock
 62
     0
370
    -2
100
AcDbBlockReference
  2
JZB-4
 10
0.0
 20
0.0
 30
0.0
  0
DIMENSION
  5
1CE
330
1F
100
AcDbEntity
  8
001
370
     9
100
AcDbDimension
  2
*D5
 10
53.697567
 20
155.1026
 30
0.0
 11
49.947566
 21
142.6026
 31
0.0
 70
   160
 71
     5
 42
-1.0
  3
Standard
100
AcDbAlignedDimension
 13
81.83973
 23
130.1026
 33
0.0
 14
81.83973
 24
155.1026
 34
0.0
 50
90.0
100
AcDbRotatedDimension
  0
DIMENSION
  5
1CF
330
1F
100
AcDbEntity
  8
001
370
     9
100
AcDbDimension
  2
*D6
 10
38.914636
 20
162.6026
 30
0.0
 11
35.164636
 21
142.6026
 31
0.0
 70
   160
 71
     5
 42
-1.0
  3
Standard
100
AcDbAlignedDimension
 13
108.571781
 23
122.6026
 33
0.0
 14
108.571781
 24
162.6026
 34
0.0
 50
90.0
100
AcDbRotatedDimension
  0
DIMENSION
  5
1D0
330
1F
100
AcDbEntity
  8
001
370
     9
100
AcDbDimension
  2
*D7
 10
77.571781
 20
100.286599
 30
0.0
 11
92.571781
 21
104.036599
 31
0.0
 70
   160
 71
     5
 42
-1.0
  3
Standard
100
AcDbAlignedDimension
 13
107.571781
 23
123.6026
 33
0.0
 14
77.571781
 24
132.989352
 34
0.0
 50
180.0
100
AcDbRotatedDimension
  0
DIMENSION
  5
1D1
330
1F
100
AcDbEntity
  8
001
370
     9
100
AcDbDimension
  2
*D8
 10
107.571781
 20
100.286599
 30
0.0
 11
110.071781
 21
104.036599
 31
0.0
 70
   160
 71
     5
 42
-1.0
  3
Standard
100
AcDbAlignedDimension
 13
112.571781
 23
123.6026
 33
0.0
 14
107.571781
 24
123.6026
 34
0.0
 50
180.0
100
AcDbRotatedDimension
  0
DIMENSION
  5
1D2
330
1F
100
AcDbEntity
  8
001
370
     9
100
AcDbDimension
  2
*D9
 10
192.571781
 20
89.334105
 30
0.0
 11
135.071781
 21
93.084105
 31
0.0
 70
   160
 71
     5
 42
-1.0
  3
Standard
100
AcDbAlignedDimension
 13
77.571781
 23
132.989352
 33
0.0
 14
192.571781
 24
128.6026
 34
0.0
100
AcDbRotatedDimension
  0
INSERT
  5
1D3
330
1F
100
AcDbEntity
  8
001
  6
ByBlock
 62
     0
370
    -2
100
AcDbBlockReference
  2
DIM-5
 10
0.0
 20
0.0
 30
0.0
  0
DIMENSION
  5
1D4
330
1F
100
AcDbEntity
  8
001
370
     9
100
AcDbDimension
  2
*D11
 10
217.812173
 20
158.6026
 30
0.0
 11
214.062173
 21
142.6026
 31
0.0
 70
   160
 71
     5
 42
-1.0
  3
Standard
100
AcDbAlignedDimension
 13
190.571781
 23
126.6026
 33
0.0
 14
190.571781
 24
158.6026
 34
0.0
 50
90.0
100
AcDbRotatedDimension
  0
DIMENSION
  5
1D5
330
1F
100
AcDbEntity
  8
001
370
     9
100
AcDbDimension
  2
*D12
 10
77.571781
 20
68.934512
 30
0.0
 11
82.571781
 21
72.684512
 31
0.0
 70
   160
 71
     5
 42
-1.0
  3
Standard
100
AcDbAlignedDimension
 13
87.571781
 23
59.409453
 33
0.0
 14
77.571781
 24
51.982757
 34
0.0
 50
180.0
100
AcDbRotatedDimension
  0
DIMENSION
  5
1D6
330
1F
100
AcDbEntity
  8
001
370
     9
100
AcDbDimension
  2
*D13
 10
87.571781
 20
68.934512
 30
0.0
 11
94.571781
 21
72.684512
 31
0.0
 70
   160
 71
     5
 42
-1.0
  3
Standard
100
AcDbAlignedDimension
 13
101.571781
 23
59.409453
 33
0.0
 14
87.571781
 24
59.409453
 34
0.0
 50
180.0
100
AcDbRotatedDimension
  0
DIMENSION
  5
1D7
330
1F
100
AcDbEntity
  8
001
370
     9
100
AcDbDimension
  2
*D14
 10
77.571781
 20
171.92959
 30
0.0
 11
65.696781
 21
175.67959
 31
0.0
 70
   160
 71
     5
 42
-1.0
  3
Standard
100
AcDbAlignedDimension
 13
81.571781
 23
155.1026
 33
0.0
 14
77.571781
 24
152.215849
 34
0.0
 50
180.0
100
AcDbRotatedDimension
  0
DIMENSION
  5
1D8
330
1F
100
AcDbEntity
  8
001
370
     9
100
AcDbDimension
  2
*D15
 10
190.571781
 20
156.6026
 30
0.0
 11
201.097594
 21
169.694979
 31
0.0
 70
   164
 71
     5
 42
-1.0
  3
Standard
100
AcDbRadialDimension
 15
192.141265
 25
157.842246
 35
0.0
 40
0.0
  0
DIMENSION
  5
1D9
330
1F
100
AcDbEntity
  8
001
370
     9
100
AcDbDimension
  2
*D16
 10
78.571781
 20
32.75626
 30
0.0
 11
63.819332
 21
27.027526
 31
0.0
 70
   164
 71
     5
 42
-1.0
  3
Standard
100
AcDbRadialDimension
 15
77.751922
 25
32.183693
 35
0.0
 40
0.0
  0
DIMENSION
  5
1DA
330
1F
100
AcDbEntity
  8
001
370
     9
100
AcDbDimension
  2
*D17
 10
108.571781
 20
23.369508
 30
0.0
 11
96.466477
 21
13.17565
 31
0.0
 70
   164
 71
     5
 42
-1.0
  3
Standard
100
AcDbRadialDimension
 15
107.981283
 25
22.562469
 35
0.0
 40
0.0
  0
DIMENSION
  5
1DB
330
1F
100
AcDbEntity
  8
001
370
     9
100
AcDbDimension
  2
*D18
 10
281.936139
 20
103.389731
 30
0.0
 11
266.936139
 21
107.139731
 31
0.0
 70
   160
 71
     5
 42
-1.0
  3
Standard
100
AcDbAlignedDimension
 13
251.936139
 23
134.856634
 33
0.0
 14
281.936139
 24
142.6026
 34
0.0
100
AcDbRotatedDimension
  0
DIMENSION
  5
1DC
330
1F
100
AcDbEntity
  8
001
370
     9
100
AcDbDimension
  2
*D19
 10
192.571781
 20
100.286599
 30
0.0
 11
152.571781
 21
104.036599
 31
0.0
 70
   160
 71
     5
 42
-1.0
  3
Standard
100
AcDbAlignedDimension
 13
112.571781
 23
123.6026
 33
0.0
 14
192.571781
 24
128.6026
 34
0.0
100
AcDbRotatedDimension
  0
DIMENSION
  5
1DD
330
1F
100
AcDbEntity
  8
001
370
     9
100
AcDbDimension
  2
*D20
 10
59.921146
 20
142.6026
 30
0.0
 11
128.721872
 21
170.377395
 31
0.0
 70
    34
 71
     5
 42
-1.0
  3
Standard
100
AcDb2LineAngularDimension
 13
81.33973
 23
154.968626
 33
0.0
 14
59.921146
 24
142.6026
 34
0.0
 15
71.575964
 25
142.6026
 35
0.0
 16
127.966318
 26
160.835249
 36
0.0
  0
DIMENSION
  5
1DE
330
1F
100
AcDbEntity
  8
001
370
     9
100
AcDbDimension
  2
*D21
 10
54.556169
 20
37.369508
 30
0.0
 11
50.806169
 21
62.497558
 31
0.0
 70
   160
 71
     5
 42
-1.0
  3
Standard
100
AcDbAlignedDimension
 13
77.571781
 23
47.369508
 33
0.0
 14
77.571781
 24
37.369508
 34
0.0
 50
270.0
100
AcDbRotatedDimension
  0
ARC
  5
1DF
330
1F
100
AcDbEntity
  8
001
 62
   253
370
    50
100
AcDbCircle
 10
108.571781
 20
123.6026
 30
0.0
 40
1.0
100
AcDbArc
 50
180.0
 51
270.0
  0
ARC
  5
1E0
330
1F
100
AcDbEntity
  8
001
 62
   253
370
    50
100
AcDbCircle
 10
108.571781
 20
161.6026
 30
0.0
 40
1.0
100
AcDbArc
 50
90.0
 51
180.0
  0
LINE
  5
1E1
330
1F
100
AcDbEntity
  8
001
 62
   253
370
    50
100
AcDbLine
 10
107.571781
 20
123.6026
 30
0.0
 11
107.571781
 21
161.6026
 31
0.0
  0
ARC
  5
1E2
330
1F
100
AcDbEntity
  8
001
 62
   253
370
    50
100
AcDbCircle
 10
111.571781
 20
161.6026
 30
0.0
 40
1.0
100
AcDbArc
 50
0.0
 51
90.0
  0
ARC
  5
1E3
330
1F
100
AcDbEntity
  8
001
 62
   253
370
    50
100
AcDbCircle
 10
111.571781
 20
123.6026
 30
0.0
 40
1.0
100
AcDbArc
 50
270.0
 51
0.0
  0
LINE
  5
1E4
330
1F
100
AcDbEntity
  8
001
 62
   253
370
    50
100
AcDbLine
 10
112.571781
 20
161.6026
 30
0.0
 11
112.571781
 21
123.6026
 31
0.0
  0
LINE
  5
1E5
330
1F
100
AcDbEntity
  8
001
 62
   253
370
    50
100
AcDbLine
 10
111.571781
 20
162.6026
 30
0.0
 11
108.571781
 21
162.6026
 31
0.0
  0
LINE
  5
1E6
330
1F
100
AcDbEntity
  8
001
 62
   253
370
    50
100
AcDbLine
 10
108.571781
 20
122.6026
 30
0.0
 11
111.571781
 21
122.6026
 31
0.0
  0
LINE
  5
1E7
330
1F
100
AcDbEntity
  8
001
 62
   253
370
    50
100
AcDbLine
 10
115.571781
 20
158.1026
 30
0.0
 11
112.571781
 21
158.1026
 31
0.0
  0
LINE
  5
1E8
330
1F
100
AcDbEntity
  8
001
 62
   253
370
    50
100
AcDbLine
 10
112.571781
 20
127.1026
 30
0.0
 11
115.571781
 21
127.1026
 31
0.0
  0
LINE
  5
1E9
330
1F
100
AcDbEntity
  8
001
 62
   253
370
    50
100
AcDbLine
 10
112.571781
 20
135.950533
 30
0.0
 11
115.571781
 21
135.950533
 31
0.0
  0
LINE
  5
1EA
330
1F
100
AcDbEntity
  8
001
 62
   253
370
    50
100
AcDbLine
 10
115.571781
 20
149.254668
 30
0.0
 11
112.571781
 21
149.254668
 31
0.0
  0
LINE
  5
1EB
330
1F
100
AcDbEntity
  8
001
 62
   253
370
    50
100
AcDbLine
 10
190.571781
 20
158.6026
 30
0.0
 11
115.571781
 21
158.6026
 31
0.0
  0
LINE
  5
1EC
330
1F
100
AcDbEntity
  8
001
 62
   253
370
    50
100
AcDbLine
 10
115.571781
 20
126.6026
 30
0.0
 11
190.571781
 21
126.6026
 31
0.0
  0
LINE
  5
1ED
330
1F
100
AcDbEntity
  8
001
 62
   253
370
    50
100
AcDbLine
 10
115.571781
 20
134.856634
 30
0.0
 11
190.571781
 21
134.856634
 31
0.0
  0
LINE
  5
1EE
330
1F
100
AcDbEntity
  8
001
 62
   253
370
    50
100
AcDbLine
 10
190.571781
 20
150.348567
 30
0.0
 11
115.571781
 21
150.348567
 31
0.0
  0
ARC
  5
1EF
330
1F
100
AcDbEntity
  8
001
 62
   253
370
    50
100
AcDbCircle
 10
190.571781
 20
156.6026
 30
0.0
 40
2.0
100
AcDbArc
 50
0.0
 51
90.0
  0
ARC
  5
1F0
330
1F
100
AcDbEntity
  8
001
 62
   253
370
    50
100
AcDbCircle
 10
190.571781
 20
128.6026
 30
0.0
 40
2.0
100
AcDbArc
 50
270.0
 51
0.0
  0
POLYLINE
  5
1F1
330
1F
100
AcDbEntity
  8
001
 62
   253
370
    50
100
AcDb2dPolyline
 66
     1
 10
0.0
 20
0.0
 30
0.0
  0
VERTEX
  5
1F3
330
1F1
100
AcDbEntity
  8
001
 62
   253
370
    50
100
AcDbVertex
100
AcDb2dVertex
 10
190.571781
 20
134.856634
 30
0.0
  0
VERTEX
  5
1F4
330
1F1
100
AcDbEntity
  8
001
 62
   253
370
    50
100
AcDbVertex
100
AcDb2dVertex
 10
190.633168
 20
134.859391
 30
0.0
  0
VERTEX
  5
1F5
330
1F1
100
AcDbEntity
  8
001
 62
   253
370
    50
100
AcDbVertex
100
AcDb2dVertex
 10
190.694345
 20
134.864401
 30
0.0
  0
VERTEX
  5
1F6
330
1F1
100
AcDbEntity
  8
001
 62
   253
370
    50
100
AcDbVertex
100
AcDb2dVertex
 10
190.856029
 20
134.898084
 30
0.0
  0
VERTEX
  5
1F7
330
1F1
100
AcDbEntity
  8
001
 62
   253
370
    50
100
AcDbVertex
100
AcDb2dVertex
 10
191.010721
 20
134.957863
 30
0.0
  0
VERTEX
  5
1F8
330
1F1
100
AcDbEntity
  8
001
 62
   253
370
    50
100
AcDbVertex
100
AcDb2dVertex
 10
191.110741
 20
135.010711
 30
0.0
  0
VERTEX
  5
1F9
330
1F1
100
AcDbEntity
  8
001
 62
   253
370
    50
100
AcDbVertex
100
AcDb2dVertex
 10
191.205618
 20
135.071889
 30
0.0
  0
VERTEX
  5
1FA
330
1F1
100
AcDbEntity
  8
001
 62
   253
370
    50
100
AcDbVertex
100
AcDb2dVertex
 10
191.297812
 20
135.142508
 30
0.0
  0
VERTEX
  5
1FB
330
1F1
100
AcDbEntity
  8
001
 62
   253
370
    50
100
AcDbVertex
100
AcDb2dVertex
 10
191.384613
 20
135.219793
 30
0.0
  0
VERTEX
  5
1FC
330
1F1
100
AcDbEntity
  8
001
 62
   253
370
    50
100
AcDbVertex
100
AcDb2dVertex
 10
191.507858
 20
135.349203
 30
0.0
  0
VERTEX
  5
1FD
330
1F1
100
AcDbEntity
  8
001
 62
   253
370
    50
100
AcDbVertex
100
AcDb2dVertex
 10
191.619422
 20
135.488891
 30
0.0
  0
VERTEX
  5
1FE
330
1F1
100
AcDbEntity
  8
001
 62
   253
370
    50
100
AcDbVertex
100
AcDb2dVertex
 10
191.722741
 20
135.640331
 30
0.0
  0
VERTEX
  5
1FF
330
1F1
100
AcDbEntity
  8
001
 62
   253
370
    50
100
AcDbVertex
100
AcDb2dVertex
 10
191.815859
 20
135.798227
 30
0.0
  0
VERTEX
  5
200
330
1F1
100
AcDbEntity
  8
001
 62
   253
370
    50
100
AcDbVertex
100
AcDb2dVertex
 10
191.895335
 20
135.951826
 30
0.0
  0
VERTEX
  5
201
330
1F1
100
AcDbEntity
  8
001
 62
   253
370
    50
100
AcDbVertex
100
AcDb2dVertex
 10
191.967397
 20
136.109033
 30
0.0
  0
VERTEX
  5
202
330
1F1
100
AcDbEntity
  8
001
 62
   253
370
    50
100
AcDbVertex
100
AcDb2dVertex
 10
192.032746
 20
136.269233
 30
0.0
  0
VERTEX
  5
203
330
1F1
100
AcDbEntity
  8
001
 62
   253
370
    50
100
AcDbVertex
100
AcDb2dVertex
 10
192.091964
 20
136.431803
 30
0.0
  0
VERTEX
  5
204
330
1F1
100
AcDbEntity
  8
001
 62
   253
370
    50
100
AcDbVertex
100
AcDb2dVertex
 10
192.196278
 20
136.769675
 30
0.0
  0
VERTEX
  5
205
330
1F1
100
AcDbEntity
  8
001
 62
   253
370
    50
100
AcDbVertex
100
AcDb2dVertex
 10
192.281454
 20
137.113038
 30
0.0
  0
VERTEX
  5
206
330
1F1
100
AcDbEntity
  8
001
 62
   253
370
    50
100
AcDbVertex
100
AcDb2dVertex
 10
192.368444
 20
137.559769
 30
0.0
  0
VERTEX
  5
207
330
1F1
100
AcDbEntity
  8
001
 62
   253
370
    50
100
AcDbVertex
100
AcDb2dVertex
 10
192.434025
 20
138.010111
 30
0.0
  0
VERTEX
  5
208
330
1F1
100
AcDbEntity
  8
001
 62
   253
370
    50
100
AcDbVertex
100
AcDb2dVertex
 10
192.482031
 20
138.463681
 30
0.0
  0
VERTEX
  5
209
330
1F1
100
AcDbEntity
  8
001
 62
   253
370
    50
100
AcDbVertex
100
AcDb2dVertex
 10
192.515723
 20
138.918541
 30
0.0
  0
VERTEX
  5
20A
330
1F1
100
AcDbEntity
  8
001
 62
   253
370
    50
100
AcDbVertex
100
AcDb2dVertex
 10
192.538407
 20
139.373992
 30
0.0
  0
VERTEX
  5
20B
330
1F1
100
AcDbEntity
  8
001
 62
   253
370
    50
100
AcDbVertex
100
AcDb2dVertex
 10
192.553205
 20
139.829768
 30
0.0
  0
VERTEX
  5
20C
330
1F1
100
AcDbEntity
  8
001
 62
   253
370
    50
100
AcDbVertex
100
AcDb2dVertex
 10
192.566287
 20
140.522861
 30
0.0
  0
VERTEX
  5
20D
330
1F1
100
AcDbEntity
  8
001
 62
   253
370
    50
100
AcDbVertex
100
AcDb2dVertex
 10
192.571733
 20
141.216061
 30
0.0
  0
VERTEX
  5
20E
330
1F1
100
AcDbEntity
  8
001
 62
   253
370
    50
100
AcDbVertex
100
AcDb2dVertex
 10
192.572794
 20
141.909333
 30
0.0
  0
VERTEX
  5
20F
330
1F1
100
AcDbEntity
  8
001
 62
   253
370
    50
100
AcDbVertex
100
AcDb2dVertex
 10
192.571781
 20
142.6026
 30
0.0
  0
SEQEND
  5
1F2
330
1F1
100
AcDbEntity
  8
001
370
    50
  0
LINE
  5
210
330
1F
100
AcDbEntity
  8
001
 62
   253
370
    50
100
AcDbLine
 10
192.571781
 20
156.6026
 30
0.0
 11
192.571781
 21
128.6026
 31
0.0
  0
POLYLINE
  5
211
330
1F
100
AcDbEntity
  8
001
 62
   253
370
    50
100
AcDb2dPolyline
 66
     1
 10
0.0
 20
0.0
 30
0.0
  0
VERTEX
  5
213
330
211
100
AcDbEntity
  8
001
 62
   253
370
    50
100
AcDbVertex
100
AcDb2dVertex
 10
192.571781
 20
142.6026
 30
0.0
  0
VERTEX
  5
214
330
211
100
AcDbEntity
  8
001
 62
   253
370
    50
100
AcDbVertex
100
AcDb2dVertex
 10
192.57217
 20
143.602607
 30
0.0
  0
VERTEX
  5
215
330
211
100
AcDbEntity
  8
001
 62
   253
370
    50
100
AcDbVertex
100
AcDb2dVertex
 10
192.566724
 20
144.6026
 30
0.0
  0
VERTEX
  5
216
330
211
100
AcDbEntity
  8
001
 62
   253
370
    50
100
AcDbVertex
100
AcDb2dVertex
 10
192.559619
 20
145.103059
 30
0.0
  0
VERTEX
  5
217
330
211
100
AcDbEntity
  8
001
 62
   253
370
    50
100
AcDbVertex
100
AcDb2dVertex
 10
192.54669
 20
145.603387
 30
0.0
  0
VERTEX
  5
218
330
211
100
AcDbEntity
  8
001
 62
   253
370
    50
100
AcDbVertex
100
AcDb2dVertex
 10
192.525036
 20
146.103292
 30
0.0
  0
VERTEX
  5
219
330
211
100
AcDbEntity
  8
001
 62
   253
370
    50
100
AcDbVertex
100
AcDb2dVertex
 10
192.491717
 20
146.6026
 30
0.0
  0
VERTEX
  5
21A
330
211
100
AcDbEntity
  8
001
 62
   253
370
    50
100
AcDbVertex
100
AcDb2dVertex
 10
192.443442
 20
147.100751
 30
0.0
  0
VERTEX
  5
21B
330
211
100
AcDbEntity
  8
001
 62
   253
370
    50
100
AcDbVertex
100
AcDb2dVertex
 10
192.375521
 20
147.596494
 30
0.0
  0
VERTEX
  5
21C
330
211
100
AcDbEntity
  8
001
 62
   253
370
    50
100
AcDbVertex
100
AcDb2dVertex
 10
192.33209
 20
147.845469
 30
0.0
  0
VERTEX
  5
21D
330
211
100
AcDbEntity
  8
001
 62
   253
370
    50
100
AcDbVertex
100
AcDb2dVertex
 10
192.281363
 20
148.093062
 30
0.0
  0
VERTEX
  5
21E
330
211
100
AcDbEntity
  8
001
 62
   253
370
    50
100
AcDbVertex
100
AcDb2dVertex
 10
192.222349
 20
148.338731
 30
0.0
  0
VERTEX
  5
21F
330
211
100
AcDbEntity
  8
001
 62
   253
370
    50
100
AcDbVertex
100
AcDb2dVertex
 10
192.153946
 20
148.58194
 30
0.0
  0
VERTEX
  5
220
330
211
100
AcDbEntity
  8
001
 62
   253
370
    50
100
AcDbVertex
100
AcDb2dVertex
 10
192.090766
 20
148.776857
 30
0.0
  0
VERTEX
  5
221
330
211
100
AcDbEntity
  8
001
 62
   253
370
    50
100
AcDbVertex
100
AcDb2dVertex
 10
192.019784
 20
148.969074
 30
0.0
  0
VERTEX
  5
222
330
211
100
AcDbEntity
  8
001
 62
   253
370
    50
100
AcDbVertex
100
AcDb2dVertex
 10
191.939396
 20
149.159358
 30
0.0
  0
VERTEX
  5
223
330
211
100
AcDbEntity
  8
001
 62
   253
370
    50
100
AcDbVertex
100
AcDb2dVertex
 10
191.849045
 20
149.345099
 30
0.0
  0
VERTEX
  5
224
330
211
100
AcDbEntity
  8
001
 62
   253
370
    50
100
AcDbVertex
100
AcDb2dVertex
 10
191.748213
 20
149.523883
 30
0.0
  0
VERTEX
  5
225
330
211
100
AcDbEntity
  8
001
 62
   253
370
    50
100
AcDbVertex
100
AcDb2dVertex
 10
191.634861
 20
149.695112
 30
0.0
  0
VERTEX
  5
226
330
211
100
AcDbEntity
  8
001
 62
   253
370
    50
100
AcDbVertex
100
AcDb2dVertex
 10
191.503812
 20
149.860664
 30
0.0
  0
VERTEX
  5
227
330
211
100
AcDbEntity
  8
001
 62
   253
370
    50
100
AcDbVertex
100
AcDb2dVertex
 10
191.356539
 20
150.011592
 30
0.0
  0
VERTEX
  5
228
330
211
100
AcDbEntity
  8
001
 62
   253
370
    50
100
AcDbVertex
100
AcDb2dVertex
 10
191.280785
 20
150.076575
 30
0.0
  0
VERTEX
  5
229
330
211
100
AcDbEntity
  8
001
 62
   253
370
    50
100
AcDbVertex
100
AcDb2dVertex
 10
191.20101
 20
150.136548
 30
0.0
  0
VERTEX
  5
22A
330
211
100
AcDbEntity
  8
001
 62
   253
370
    50
100
AcDbVertex
100
AcDb2dVertex
 10
191.115503
 20
150.191767
 30
0.0
  0
VERTEX
  5
22B
330
211
100
AcDbEntity
  8
001
 62
   253
370
    50
100
AcDbVertex
100
AcDb2dVertex
 10
191.025931
 20
150.240066
 30
0.0
  0
VERTEX
  5
22C
330
211
100
AcDbEntity
  8
001
 62
   253
370
    50
100
AcDbVertex
100
AcDb2dVertex
 10
190.934184
 20
150.279879
 30
0.0
  0
VERTEX
  5
22D
330
211
100
AcDbEntity
  8
001
 62
   253
370
    50
100
AcDbVertex
100
AcDb2dVertex
 10
190.839201
 20
150.311403
 30
0.0
  0
VERTEX
  5
22E
330
211
100
AcDbEntity
  8
001
 62
   253
370
    50
100
AcDbVertex
100
AcDb2dVertex
 10
190.737886
 20
150.334518
 30
0.0
  0
VERTEX
  5
22F
330
211
100
AcDbEntity
  8
001
 62
   253
370
    50
100
AcDbVertex
100
AcDb2dVertex
 10
190.634833
 20
150.346513
 30
0.0
  0
VERTEX
  5
230
330
211
100
AcDbEntity
  8
001
 62
   253
370
    50
100
AcDbVertex
100
AcDb2dVertex
 10
190.603319
 20
150.347832
 30
0.0
  0
VERTEX
  5
231
330
211
100
AcDbEntity
  8
001
 62
   253
370
    50
100
AcDbVertex
100
AcDb2dVertex
 10
190.571781
 20
150.348567
 30
0.0
  0
SEQEND
  5
212
330
211
100
AcDbEntity
  8
001
370
    50
  0
LINE
  5
232
330
1F
100
AcDbEntity
  8
001
 62
   253
370
    50
100
AcDbLine
 10
115.571781
 20
135.950533
 30
0.0
 11
115.571781
 21
126.6026
 31
0.0
  0
LINE
  5
233
330
1F
100
AcDbEntity
  8
001
 62
   253
370
    50
100
AcDbLine
 10
115.571781
 20
158.6026
 30
0.0
 11
115.571781
 21
149.254668
 31
0.0
  0
POLYLINE
  5
234
330
1F
100
AcDbEntity
  8
001
 62
   253
370
    50
100
AcDb2dPolyline
 66
     1
 10
0.0
 20
0.0
 30
0.0
  0
VERTEX
  5
236
330
234
100
AcDbEntity
  8
001
 62
   253
370
    50
100
AcDbVertex
100
AcDb2dVertex
 10
86.094698
 20
138.609507
 30
0.0
  0
VERTEX
  5
237
330
234
100
AcDbEntity
  8
001
 62
   253
370
    50
100
AcDbVertex
100
AcDb2dVertex
 10
85.990592
 20
138.653732
 30
0.0
  0
VERTEX
  5
238
330
234
100
AcDbEntity
  8
001
 62
   253
370
    50
100
AcDbVertex
100
AcDb2dVertex
 10
85.887106
 20
138.70267
 30
0.0
  0
VERTEX
  5
239
330
234
100
AcDbEntity
  8
001
 62
   253
370
    50
100
AcDbVertex
100
AcDb2dVertex
 10
85.81487
 20
138.744398
 30
0.0
  0
VERTEX
  5
23A
330
234
100
AcDbEntity
  8
001
 62
   253
370
    50
100
AcDbVertex
100
AcDb2dVertex
 10
85.753497
 20
138.79794
 30
0.0
  0
VERTEX
  5
23B
330
234
100
AcDbEntity
  8
001
 62
   253
370
    50
100
AcDbVertex
100
AcDb2dVertex
 10
85.72587
 20
138.83657
 30
0.0
  0
VERTEX
  5
23C
330
234
100
AcDbEntity
  8
001
 62
   253
370
    50
100
AcDbVertex
100
AcDb2dVertex
 10
85.701821
 20
138.878378
 30
0.0
  0
SEQEND
  5
235
330
234
100
AcDbEntity
  8
001
370
    50
  0
POLYLINE
  5
23D
330
1F
100
AcDbEntity
  8
001
 62
   253
370
    50
100
AcDb2dPolyline
 66
     1
 10
0.0
 20
0.0
 30
0.0
  0
VERTEX
  5
23F
330
23D
100
AcDbEntity
  8
001
 62
   253
370
    50
100
AcDbVertex
100
AcDb2dVertex
 10
90.091017
 20
139.173106
 30
0.0
  0
VERTEX
  5
240
330
23D
100
AcDbEntity
  8
001
 62
   253
370
    50
100
AcDbVertex
100
AcDb2dVertex
 10
90.207259
 20
139.266418
 30
0.0
  0
VERTEX
  5
241
330
23D
100
AcDbEntity
  8
001
 62
   253
370
    50
100
AcDbVertex
100
AcDb2dVertex
 10
90.310961
 20
139.354436
 30
0.0
  0
VERTEX
  5
242
330
23D
100
AcDbEntity
  8
001
 62
   253
370
    50
100
AcDbVertex
100
AcDb2dVertex
 10
90.361591
 20
139.402022
 30
0.0
  0
VERTEX
  5
243
330
23D
100
AcDbEntity
  8
001
 62
   253
370
    50
100
AcDbVertex
100
AcDb2dVertex
 10
90.422729
 20
139.46495
 30
0.0
  0
VERTEX
  5
244
330
23D
100
AcDbEntity
  8
001
 62
   253
370
    50
100
AcDbVertex
100
AcDb2dVertex
 10
90.439612
 20
139.483569
 30
0.0
  0
VERTEX
  5
245
330
23D
100
AcDbEntity
  8
001
 62
   253
370
    50
100
AcDbVertex
100
AcDb2dVertex
 10
90.446645
 20
139.495659
 30
0.0
  0
VERTEX
  5
246
330
23D
100
AcDbEntity
  8
001
 62
   253
370
    50
100
AcDbVertex
100
AcDb2dVertex
 10
90.430834
 20
139.493285
 30
0.0
  0
VERTEX
  5
247
330
23D
100
AcDbEntity
  8
001
 62
   253
370
    50
100
AcDbVertex
100
AcDb2dVertex
 10
90.400685
 20
139.479412
 30
0.0
  0
VERTEX
  5
248
330
23D
100
AcDbEntity
  8
001
 62
   253
370
    50
100
AcDbVertex
100
AcDb2dVertex
 10
90.317757
 20
139.429218
 30
0.0
  0
VERTEX
  5
249
330
23D
100
AcDbEntity
  8
001
 62
   253
370
    50
100
AcDbVertex
100
AcDb2dVertex
 10
90.260914
 20
139.38377
 30
0.0
  0
VERTEX
  5
24A
330
23D
100
AcDbEntity
  8
001
 62
   253
370
    50
100
AcDbVertex
100
AcDb2dVertex
 10
89.988888
 20
139.210854
 30
0.0
  0
VERTEX
  5
24B
330
23D
100
AcDbEntity
  8
001
 62
   253
370
    50
100
AcDbVertex
100
AcDb2dVertex
 10
89.665211
 20
139.05671
 30
0.0
  0
VERTEX
  5
24C
330
23D
100
AcDbEntity
  8
001
 62
   253
370
    50
100
AcDbVertex
100
AcDb2dVertex
 10
89.42764
 20
138.959857
 30
0.0
  0
VERTEX
  5
24D
330
23D
100
AcDbEntity
  8
001
 62
   253
370
    50
100
AcDbVertex
100
AcDb2dVertex
 10
89.190417
 20
138.879498
 30
0.0
  0
VERTEX
  5
24E
330
23D
100
AcDbEntity
  8
001
 62
   253
370
    50
100
AcDbVertex
100
AcDb2dVertex
 10
89.112895
 20
138.857157
 30
0.0
  0
VERTEX
  5
24F
330
23D
100
AcDbEntity
  8
001
 62
   253
370
    50
100
AcDbVertex
100
AcDb2dVertex
 10
89.034745
 20
138.835646
 30
0.0
  0
SEQEND
  5
23E
330
23D
100
AcDbEntity
  8
001
370
    50
  0
LINE
  5
250
330
1F
100
AcDbEntity
  8
001
 62
   253
370
    50
100
AcDbLine
 10
89.034745
 20
138.835646
 30
0.0
 11
88.689253
 21
138.761864
 31
0.0
  0
POLYLINE
  5
251
330
1F
100
AcDbEntity
  8
001
 62
   253
370
    50
100
AcDb2dPolyline
 66
     1
 10
0.0
 20
0.0
 30
0.0
  0
VERTEX
  5
253
330
251
100
AcDbEntity
  8
001
 62
   253
370
    50
100
AcDbVertex
100
AcDb2dVertex
 10
90.091017
 20
139.173106
 30
0.0
  0
VERTEX
  5
254
330
251
100
AcDbEntity
  8
001
 62
   253
370
    50
100
AcDbVertex
100
AcDb2dVertex
 10
89.974753
 20
139.097713
 30
0.0
  0
VERTEX
  5
255
330
251
100
AcDbEntity
  8
001
 62
   253
370
    50
100
AcDbVertex
100
AcDb2dVertex
 10
89.85622
 20
139.026213
 30
0.0
  0
VERTEX
  5
256
330
251
100
AcDbEntity
  8
001
 62
   253
370
    50
100
AcDbVertex
100
AcDb2dVertex
 10
89.71879
 20
138.954383
 30
0.0
  0
VERTEX
  5
257
330
251
100
AcDbEntity
  8
001
 62
   253
370
    50
100
AcDbVertex
100
AcDb2dVertex
 10
89.577287
 20
138.890623
 30
0.0
  0
VERTEX
  5
258
330
251
100
AcDbEntity
  8
001
 62
   253
370
    50
100
AcDbVertex
100
AcDb2dVertex
 10
89.432614
 20
138.83312
 30
0.0
  0
VERTEX
  5
259
330
251
100
AcDbEntity
  8
001
 62
   253
370
    50
100
AcDbVertex
100
AcDb2dVertex
 10
89.286005
 20
138.780835
 30
0.0
  0
VERTEX
  5
25A
330
251
100
AcDbEntity
  8
001
 62
   253
370
    50
100
AcDbVertex
100
AcDb2dVertex
 10
88.981194
 20
138.686515
 30
0.0
  0
VERTEX
  5
25B
330
251
100
AcDbEntity
  8
001
 62
   253
370
    50
100
AcDbVertex
100
AcDb2dVertex
 10
88.671786
 20
138.608348
 30
0.0
  0
VERTEX
  5
25C
330
251
100
AcDbEntity
  8
001
 62
   253
370
    50
100
AcDbVertex
100
AcDb2dVertex
 10
88.420476
 20
138.556788
 30
0.0
  0
VERTEX
  5
25D
330
251
100
AcDbEntity
  8
001
 62
   253
370
    50
100
AcDbVertex
100
AcDb2dVertex
 10
88.167341
 20
138.515192
 30
0.0
  0
VERTEX
  5
25E
330
251
100
AcDbEntity
  8
001
 62
   253
370
    50
100
AcDbVertex
100
AcDb2dVertex
 10
87.91061
 20
138.483361
 30
0.0
  0
VERTEX
  5
25F
330
251
100
AcDbEntity
  8
001
 62
   253
370
    50
100
AcDbVertex
100
AcDb2dVertex
 10
87.652856
 20
138.461876
 30
0.0
  0
VERTEX
  5
260
330
251
100
AcDbEntity
  8
001
 62
   253
370
    50
100
AcDbVertex
100
AcDb2dVertex
 10
87.39618
 20
138.450775
 30
0.0
  0
VERTEX
  5
261
330
251
100
AcDbEntity
  8
001
 62
   253
370
    50
100
AcDbVertex
100
AcDb2dVertex
 10
87.139101
 20
138.448934
 30
0.0
  0
VERTEX
  5
262
330
251
100
AcDbEntity
  8
001
 62
   253
370
    50
100
AcDbVertex
100
AcDb2dVertex
 10
86.88191
 20
138.456668
 30
0.0
  0
VERTEX
  5
263
330
251
100
AcDbEntity
  8
001
 62
   253
370
    50
100
AcDbVertex
100
AcDb2dVertex
 10
86.626011
 20
138.480289
 30
0.0
  0
VERTEX
  5
264
330
251
100
AcDbEntity
  8
001
 62
   253
370
    50
100
AcDbVertex
100
AcDb2dVertex
 10
86.495711
 20
138.50097
 30
0.0
  0
VERTEX
  5
265
330
251
100
AcDbEntity
  8
001
 62
   253
370
    50
100
AcDbVertex
100
AcDb2dVertex
 10
86.36653
 20
138.528028
 30
0.0
  0
VERTEX
  5
266
330
251
100
AcDbEntity
  8
001
 62
   253
370
    50
100
AcDbVertex
100
AcDb2dVertex
 10
86.239299
 20
138.561584
 30
0.0
  0
VERTEX
  5
267
330
251
100
AcDbEntity
  8
001
 62
   253
370
    50
100
AcDbVertex
100
AcDb2dVertex
 10
86.114272
 20
138.602366
 30
0.0
  0
VERTEX
  5
268
330
251
100
AcDbEntity
  8
001
 62
   253
370
    50
100
AcDbVertex
100
AcDb2dVertex
 10
86.10448
 20
138.605924
 30
0.0
  0
VERTEX
  5
269
330
251
100
AcDbEntity
  8
001
 62
   253
370
    50
100
AcDbVertex
100
AcDb2dVertex
 10
86.094698
 20
138.609507
 30
0.0
  0
SEQEND
  5
252
330
251
100
AcDbEntity
  8
001
370
    50
  0
LINE
  5
26A
330
1F
100
AcDbEntity
  8
001
 62
   253
370
    50
100
AcDbLine
 10
83.669288
 20
143.480411
 30
0.0
 11
83.665101
 21
143.464057
 31
0.0
  0
POLYLINE
  5
26B
330
1F
100
AcDbEntity
  8
001
 62
   253
370
    50
100
AcDb2dPolyline
 66
     1
 10
0.0
 20
0.0
 30
0.0
  0
VERTEX
  5
26D
330
26B
100
AcDbEntity
  8
001
 62
   253
370
    50
100
AcDbVertex
100
AcDb2dVertex
 10
83.665101
 20
143.464057
 30
0.0
  0
VERTEX
  5
26E
330
26B
100
AcDbEntity
  8
001
 62
   253
370
    50
100
AcDbVertex
100
AcDb2dVertex
 10
83.610508
 20
143.196176
 30
0.0
  0
VERTEX
  5
26F
330
26B
100
AcDbEntity
  8
001
 62
   253
370
    50
100
AcDbVertex
100
AcDb2dVertex
 10
83.567143
 20
142.926564
 30
0.0
  0
VERTEX
  5
270
330
26B
100
AcDbEntity
  8
001
 62
   253
370
    50
100
AcDbVertex
100
AcDb2dVertex
 10
83.54361
 20
142.64
 30
0.0
  0
VERTEX
  5
271
330
26B
100
AcDbEntity
  8
001
 62
   253
370
    50
100
AcDbVertex
100
AcDb2dVertex
 10
83.543824
 20
142.352364
 30
0.0
  0
VERTEX
  5
272
330
26B
100
AcDbEntity
  8
001
 62
   253
370
    50
100
AcDbVertex
100
AcDb2dVertex
 10
83.552918
 20
142.197293
 30
0.0
  0
VERTEX
  5
273
330
26B
100
AcDbEntity
  8
001
 62
   253
370
    50
100
AcDbVertex
100
AcDb2dVertex
 10
83.565321
 20
142.042468
 30
0.0
  0
SEQEND
  5
26C
330
26B
100
AcDbEntity
  8
001
370
    50
  0
POLYLINE
  5
274
330
1F
100
AcDbEntity
  8
001
 62
   253
370
    50
100
AcDb2dPolyline
 66
     1
 10
0.0
 20
0.0
 30
0.0
  0
VERTEX
  5
276
330
274
100
AcDbEntity
  8
001
 62
   253
370
    50
100
AcDbVertex
100
AcDb2dVertex
 10
83.565321
 20
142.042468
 30
0.0
  0
VERTEX
  5
277
330
274
100
AcDbEntity
  8
001
 62
   253
370
    50
100
AcDbVertex
100
AcDb2dVertex
 10
83.589989
 20
141.865823
 30
0.0
  0
VERTEX
  5
278
330
274
100
AcDbEntity
  8
001
 62
   253
370
    50
100
AcDbVertex
100
AcDb2dVertex
 10
83.619257
 20
141.689978
 30
0.0
  0
VERTEX
  5
279
330
274
100
AcDbEntity
  8
001
 62
   253
370
    50
100
AcDbVertex
100
AcDb2dVertex
 10
83.699207
 20
141.356495
 30
0.0
  0
VERTEX
  5
27A
330
274
100
AcDbEntity
  8
001
 62
   253
370
    50
100
AcDbVertex
100
AcDb2dVertex
 10
83.808955
 20
141.031125
 30
0.0
  0
VERTEX
  5
27B
330
274
100
AcDbEntity
  8
001
 62
   253
370
    50
100
AcDbVertex
100
AcDb2dVertex
 10
83.942368
 20
140.721454
 30
0.0
  0
VERTEX
  5
27C
330
274
100
AcDbEntity
  8
001
 62
   253
370
    50
100
AcDbVertex
100
AcDb2dVertex
 10
84.100317
 20
140.423756
 30
0.0
  0
VERTEX
  5
27D
330
274
100
AcDbEntity
  8
001
 62
   253
370
    50
100
AcDbVertex
100
AcDb2dVertex
 10
84.287922
 20
140.132208
 30
0.0
  0
VERTEX
  5
27E
330
274
100
AcDbEntity
  8
001
 62
   253
370
    50
100
AcDbVertex
100
AcDb2dVertex
 10
84.4996
 20
139.857602
 30
0.0
  0
VERTEX
  5
27F
330
274
100
AcDbEntity
  8
001
 62
   253
370
    50
100
AcDbVertex
100
AcDb2dVertex
 10
84.729321
 20
139.606224
 30
0.0
  0
VERTEX
  5
280
330
274
100
AcDbEntity
  8
001
 62
   253
370
    50
100
AcDbVertex
100
AcDb2dVertex
 10
84.978842
 20
139.374322
 30
0.0
  0
VERTEX
  5
281
330
274
100
AcDbEntity
  8
001
 62
   253
370
    50
100
AcDbVertex
100
AcDb2dVertex
 10
85.25432
 20
139.157645
 30
0.0
  0
VERTEX
  5
282
330
274
100
AcDbEntity
  8
001
 62
   253
370
    50
100
AcDbVertex
100
AcDb2dVertex
 10
85.547458
 20
138.966128
 30
0.0
  0
VERTEX
  5
283
330
274
100
AcDbEntity
  8
001
 62
   253
370
    50
100
AcDbVertex
100
AcDb2dVertex
 10
85.624377
 20
138.921793
 30
0.0
  0
VERTEX
  5
284
330
274
100
AcDbEntity
  8
001
 62
   253
370
    50
100
AcDbVertex
100
AcDb2dVertex
 10
85.701821
 20
138.878378
 30
0.0
  0
SEQEND
  5
275
330
274
100
AcDbEntity
  8
001
370
    50
  0
POLYLINE
  5
285
330
1F
100
AcDbEntity
  8
001
 62
   253
370
    50
100
AcDb2dPolyline
 66
     1
 10
0.0
 20
0.0
 30
0.0
  0
VERTEX
  5
287
330
285
100
AcDbEntity
  8
001
 62
   253
370
    50
100
AcDbVertex
100
AcDb2dVertex
 10
100.094698
 20
138.609507
 30
0.0
  0
VERTEX
  5
288
330
285
100
AcDbEntity
  8
001
 62
   253
370
    50
100
AcDbVertex
100
AcDb2dVertex
 10
99.990592
 20
138.653732
 30
0.0
  0
VERTEX
  5
289
330
285
100
AcDbEntity
  8
001
 62
   253
370
    50
100
AcDbVertex
100
AcDb2dVertex
 10
99.887106
 20
138.70267
 30
0.0
  0
VERTEX
  5
28A
330
285
100
AcDbEntity
  8
001
 62
   253
370
    50
100
AcDbVertex
100
AcDb2dVertex
 10
99.81487
 20
138.744398
 30
0.0
  0
VERTEX
  5
28B
330
285
100
AcDbEntity
  8
001
 62
   253
370
    50
100
AcDbVertex
100
AcDb2dVertex
 10
99.753497
 20
138.79794
 30
0.0
  0
VERTEX
  5
28C
330
285
100
AcDbEntity
  8
001
 62
   253
370
    50
100
AcDbVertex
100
AcDb2dVertex
 10
99.72587
 20
138.83657
 30
0.0
  0
VERTEX
  5
28D
330
285
100
AcDbEntity
  8
001
 62
   253
370
    50
100
AcDbVertex
100
AcDb2dVertex
 10
99.701821
 20
138.878378
 30
0.0
  0
SEQEND
  5
286
330
285
100
AcDbEntity
  8
001
370
    50
  0
POLYLINE
  5
28E
330
1F
100
AcDbEntity
  8
001
 62
   253
370
    50
100
AcDb2dPolyline
 66
     1
 10
0.0
 20
0.0
 30
0.0
  0
VERTEX
  5
290
330
28E
100
AcDbEntity
  8
001
 62
   253
370
    50
100
AcDbVertex
100
AcDb2dVertex
 10
104.091017
 20
139.173106
 30
0.0
  0
VERTEX
  5
291
330
28E
100
AcDbEntity
  8
001
 62
   253
370
    50
100
AcDbVertex
100
AcDb2dVertex
 10
104.207259
 20
139.266418
 30
0.0
  0
VERTEX
  5
292
330
28E
100
AcDbEntity
  8
001
 62
   253
370
    50
100
AcDbVertex
100
AcDb2dVertex
 10
104.310961
 20
139.354436
 30
0.0
  0
VERTEX
  5
293
330
28E
100
AcDbEntity
  8
001
 62
   253
370
    50
100
AcDbVertex
100
AcDb2dVertex
 10
104.361591
 20
139.402022
 30
0.0
  0
VERTEX
  5
294
330
28E
100
AcDbEntity
  8
001
 62
   253
370
    50
100
AcDbVertex
100
AcDb2dVertex
 10
104.422729
 20
139.46495
 30
0.0
  0
VERTEX
  5
295
330
28E
100
AcDbEntity
  8
001
 62
   253
370
    50
100
AcDbVertex
100
AcDb2dVertex
 10
104.439612
 20
139.483569
 30
0.0
  0
VERTEX
  5
296
330
28E
100
AcDbEntity
  8
001
 62
   253
370
    50
100
AcDbVertex
100
AcDb2dVertex
 10
104.446645
 20
139.495659
 30
0.0
  0
VERTEX
  5
297
330
28E
100
AcDbEntity
  8
001
 62
   253
370
    50
100
AcDbVertex
100
AcDb2dVertex
 10
104.430834
 20
139.493285
 30
0.0
  0
VERTEX
  5
298
330
28E
100
AcDbEntity
  8
001
 62
   253
370
    50
100
AcDbVertex
100
AcDb2dVertex
 10
104.400685
 20
139.479412
 30
0.0
  0
VERTEX
  5
299
330
28E
100
AcDbEntity
  8
001
 62
   253
370
    50
100
AcDbVertex
100
AcDb2dVertex
 10
104.317757
 20
139.429218
 30
0.0
  0
VERTEX
  5
29A
330
28E
100
AcDbEntity
  8
001
 62
   253
370
    50
100
AcDbVertex
100
AcDb2dVertex
 10
104.260914
 20
139.38377
 30
0.0
  0
VERTEX
  5
29B
330
28E
100
AcDbEntity
  8
001
 62
   253
370
    50
100
AcDbVertex
100
AcDb2dVertex
 10
103.988888
 20
139.210854
 30
0.0
  0
VERTEX
  5
29C
330
28E
100
AcDbEntity
  8
001
 62
   253
370
    50
100
AcDbVertex
100
AcDb2dVertex
 10
103.665211
 20
139.05671
 30
0.0
  0
VERTEX
  5
29D
330
28E
100
AcDbEntity
  8
001
 62
   253
370
    50
100
AcDbVertex
100
AcDb2dVertex
 10
103.42764
 20
138.959857
 30
0.0
  0
VERTEX
  5
29E
330
28E
100
AcDbEntity
  8
001
 62
   253
370
    50
100
AcDbVertex
100
AcDb2dVertex
 10
103.190417
 20
138.879498
 30
0.0
  0
VERTEX
  5
29F
330
28E
100
AcDbEntity
  8
001
 62
   253
370
    50
100
AcDbVertex
100
AcDb2dVertex
 10
103.112895
 20
138.857157
 30
0.0
  0
VERTEX
  5
2A0
330
28E
100
AcDbEntity
  8
001
 62
   253
370
    50
100
AcDbVertex
100
AcDb2dVertex
 10
103.034745
 20
138.835646
 30
0.0
  0
SEQEND
  5
28F
330
28E
100
AcDbEntity
  8
001
370
    50
  0
LINE
  5
2A1
330
1F
100
AcDbEntity
  8
001
 62
   253
370
    50
100
AcDbLine
 10
103.034745
 20
138.835646
 30
0.0
 11
102.689253
 21
138.761864
 31
0.0
  0
POLYLINE
  5
2A2
330
1F
100
AcDbEntity
  8
001
 62
   253
370
    50
100
AcDb2dPolyline
 66
     1
 10
0.0
 20
0.0
 30
0.0
  0
VERTEX
  5
2A4
330
2A2
100
AcDbEntity
  8
001
 62
   253
370
    50
100
AcDbVertex
100
AcDb2dVertex
 10
104.091017
 20
139.173106
 30
0.0
  0
VERTEX
  5
2A5
330
2A2
100
AcDbEntity
  8
001
 62
   253
370
    50
100
AcDbVertex
100
AcDb2dVertex
 10
103.974753
 20
139.097713
 30
0.0
  0
VERTEX
  5
2A6
330
2A2
100
AcDbEntity
  8
001
 62
   253
370
    50
100
AcDbVertex
100
AcDb2dVertex
 10
103.85622
 20
139.026213
 30
0.0
  0
VERTEX
  5
2A7
330
2A2
100
AcDbEntity
  8
001
 62
   253
370
    50
100
AcDbVertex
100
AcDb2dVertex
 10
103.71879
 20
138.954383
 30
0.0
  0
VERTEX
  5
2A8
330
2A2
100
AcDbEntity
  8
001
 62
   253
370
    50
100
AcDbVertex
100
AcDb2dVertex
 10
103.577287
 20
138.890623
 30
0.0
  0
VERTEX
  5
2A9
330
2A2
100
AcDbEntity
  8
001
 62
   253
370
    50
100
AcDbVertex
100
AcDb2dVertex
 10
103.432614
 20
138.83312
 30
0.0
  0
VERTEX
  5
2AA
330
2A2
100
AcDbEntity
  8
001
 62
   253
370
    50
100
AcDbVertex
100
AcDb2dVertex
 10
103.286005
 20
138.780835
 30
0.0
  0
VERTEX
  5
2AB
330
2A2
100
AcDbEntity
  8
001
 62
   253
370
    50
100
AcDbVertex
100
AcDb2dVertex
 10
102.981194
 20
138.686515
 30
0.0
  0
VERTEX
  5
2AC
330
2A2
100
AcDbEntity
  8
001
 62
   253
370
    50
100
AcDbVertex
100
AcDb2dVertex
 10
102.671786
 20
138.608348
 30
0.0
  0
VERTEX
  5
2AD
330
2A2
100
AcDbEntity
  8
001
 62
   253
370
    50
100
AcDbVertex
100
AcDb2dVertex
 10
102.420476
 20
138.556788
 30
0.0
  0
VERTEX
  5
2AE
330
2A2
100
AcDbEntity
  8
001
 62
   253
370
    50
100
AcDbVertex
100
AcDb2dVertex
 10
102.167341
 20
138.515192
 30
0.0
  0
VERTEX
  5
2AF
330
2A2
100
AcDbEntity
  8
001
 62
   253
370
    50
100
AcDbVertex
100
AcDb2dVertex
 10
101.91061
 20
138.483361
 30
0.0
  0
VERTEX
  5
2B0
330
2A2
100
AcDbEntity
  8
001
 62
   253
370
    50
100
AcDbVertex
100
AcDb2dVertex
 10
101.652856
 20
138.461876
 30
0.0
  0
VERTEX
  5
2B1
330
2A2
100
AcDbEntity
  8
001
 62
   253
370
    50
100
AcDbVertex
100
AcDb2dVertex
 10
101.39618
 20
138.450775
 30
0.0
  0
VERTEX
  5
2B2
330
2A2
100
AcDbEntity
  8
001
 62
   253
370
    50
100
AcDbVertex
100
AcDb2dVertex
 10
101.139101
 20
138.448934
 30
0.0
  0
VERTEX
  5
2B3
330
2A2
100
AcDbEntity
  8
001
 62
   253
370
    50
100
AcDbVertex
100
AcDb2dVertex
 10
100.88191
 20
138.456668
 30
0.0
  0
VERTEX
  5
2B4
330
2A2
100
AcDbEntity
  8
001
 62
   253
370
    50
100
AcDbVertex
100
AcDb2dVertex
 10
100.626011
 20
138.480289
 30
0.0
  0
VERTEX
  5
2B5
330
2A2
100
AcDbEntity
  8
001
 62
   253
370
    50
100
AcDbVertex
100
AcDb2dVertex
 10
100.495711
 20
138.50097
 30
0.0
  0
VERTEX
  5
2B6
330
2A2
100
AcDbEntity
  8
001
 62
   253
370
    50
100
AcDbVertex
100
AcDb2dVertex
 10
100.36653
 20
138.528028
 30
0.0
  0
VERTEX
  5
2B7
330
2A2
100
AcDbEntity
  8
001
 62
   253
370
    50
100
AcDbVertex
100
AcDb2dVertex
 10
100.239299
 20
138.561584
 30
0.0
  0
VERTEX
  5
2B8
330
2A2
100
AcDbEntity
  8
001
 62
   253
370
    50
100
AcDbVertex
100
AcDb2dVertex
 10
100.114272
 20
138.602366
 30
0.0
  0
VERTEX
  5
2B9
330
2A2
100
AcDbEntity
  8
001
 62
   253
370
    50
100
AcDbVertex
100
AcDb2dVertex
 10
100.10448
 20
138.605924
 30
0.0
  0
VERTEX
  5
2BA
330
2A2
100
AcDbEntity
  8
001
 62
   253
370
    50
100
AcDbVertex
100
AcDb2dVertex
 10
100.094698
 20
138.609507
 30
0.0
  0
SEQEND
  5
2A3
330
2A2
100
AcDbEntity
  8
001
370
    50
  0
LINE
  5
2BB
330
1F
100
AcDbEntity
  8
001
 62
   253
370
    50
100
AcDbLine
 10
97.669288
 20
143.480411
 30
0.0
 11
97.665101
 21
143.464057
 31
0.0
  0
POLYLINE
  5
2BC
330
1F
100
AcDbEntity
  8
001
 62
   253
370
    50
100
AcDb2dPolyline
 66
     1
 10
0.0
 20
0.0
 30
0.0
  0
VERTEX
  5
2BE
330
2BC
100
AcDbEntity
  8
001
 62
   253
370
    50
100
AcDbVertex
100
AcDb2dVertex
 10
97.665101
 20
143.464057
 30
0.0
  0
VERTEX
  5
2BF
330
2BC
100
AcDbEntity
  8
001
 62
   253
370
    50
100
AcDbVertex
100
AcDb2dVertex
 10
97.610508
 20
143.196176
 30
0.0
  0
VERTEX
  5
2C0
330
2BC
100
AcDbEntity
  8
001
 62
   253
370
    50
100
AcDbVertex
100
AcDb2dVertex
 10
97.567143
 20
142.926564
 30
0.0
  0
VERTEX
  5
2C1
330
2BC
100
AcDbEntity
  8
001
 62
   253
370
    50
100
AcDbVertex
100
AcDb2dVertex
 10
97.54361
 20
142.64
 30
0.0
  0
VERTEX
  5
2C2
330
2BC
100
AcDbEntity
  8
001
 62
   253
370
    50
100
AcDbVertex
100
AcDb2dVertex
 10
97.543824
 20
142.352364
 30
0.0
  0
VERTEX
  5
2C3
330
2BC
100
AcDbEntity
  8
001
 62
   253
370
    50
100
AcDbVertex
100
AcDb2dVertex
 10
97.552918
 20
142.197293
 30
0.0
  0
VERTEX
  5
2C4
330
2BC
100
AcDbEntity
  8
001
 62
   253
370
    50
100
AcDbVertex
100
AcDb2dVertex
 10
97.565321
 20
142.042468
 30
0.0
  0
SEQEND
  5
2BD
330
2BC
100
AcDbEntity
  8
001
370
    50
  0
POLYLINE
  5
2C5
330
1F
100
AcDbEntity
  8
001
 62
   253
370
    50
100
AcDb2dPolyline
 66
     1
 10
0.0
 20
0.0
 30
0.0
  0
VERTEX
  5
2C7
330
2C5
100
AcDbEntity
  8
001
 62
   253
370
    50
100
AcDbVertex
100
AcDb2dVertex
 10
97.565321
 20
142.042468
 30
0.0
  0
VERTEX
  5
2C8
330
2C5
100
AcDbEntity
  8
001
 62
   253
370
    50
100
AcDbVertex
100
AcDb2dVertex
 10
97.589989
 20
141.865823
 30
0.0
  0
VERTEX
  5
2C9
330
2C5
100
AcDbEntity
  8
001
 62
   253
370
    50
100
AcDbVertex
100
AcDb2dVertex
 10
97.619257
 20
141.689978
 30
0.0
  0
VERTEX
  5
2CA
330
2C5
100
AcDbEntity
  8
001
 62
   253
370
    50
100
AcDbVertex
100
AcDb2dVertex
 10
97.699207
 20
141.356495
 30
0.0
  0
VERTEX
  5
2CB
330
2C5
100
AcDbEntity
  8
001
 62
   253
370
    50
100
AcDbVertex
100
AcDb2dVertex
 10
97.808955
 20
141.031125
 30
0.0
  0
VERTEX
  5
2CC
330
2C5
100
AcDbEntity
  8
001
 62
   253
370
    50
100
AcDbVertex
100
AcDb2dVertex
 10
97.942368
 20
140.721454
 30
0.0
  0
VERTEX
  5
2CD
330
2C5
100
AcDbEntity
  8
001
 62
   253
370
    50
100
AcDbVertex
100
AcDb2dVertex
 10
98.100317
 20
140.423756
 30
0.0
  0
VERTEX
  5
2CE
330
2C5
100
AcDbEntity
  8
001
 62
   253
370
    50
100
AcDbVertex
100
AcDb2dVertex
 10
98.287922
 20
140.132208
 30
0.0
  0
VERTEX
  5
2CF
330
2C5
100
AcDbEntity
  8
001
 62
   253
370
    50
100
AcDbVertex
100
AcDb2dVertex
 10
98.4996
 20
139.857602
 30
0.0
  0
VERTEX
  5
2D0
330
2C5
100
AcDbEntity
  8
001
 62
   253
370
    50
100
AcDbVertex
100
AcDb2dVertex
 10
98.729321
 20
139.606224
 30
0.0
  0
VERTEX
  5
2D1
330
2C5
100
AcDbEntity
  8
001
 62
   253
370
    50
100
AcDbVertex
100
AcDb2dVertex
 10
98.978842
 20
139.374322
 30
0.0
  0
VERTEX
  5
2D2
330
2C5
100
AcDbEntity
  8
001
 62
   253
370
    50
100
AcDbVertex
100
AcDb2dVertex
 10
99.25432
 20
139.157645
 30
0.0
  0
VERTEX
  5
2D3
330
2C5
100
AcDbEntity
  8
001
 62
   253
370
    50
100
AcDbVertex
100
AcDb2dVertex
 10
99.547458
 20
138.966128
 30
0.0
  0
VERTEX
  5
2D4
330
2C5
100
AcDbEntity
  8
001
 62
   253
370
    50
100
AcDbVertex
100
AcDb2dVertex
 10
99.624377
 20
138.921793
 30
0.0
  0
VERTEX
  5
2D5
330
2C5
100
AcDbEntity
  8
001
 62
   253
370
    50
100
AcDbVertex
100
AcDb2dVertex
 10
99.701821
 20
138.878378
 30
0.0
  0
SEQEND
  5
2C6
330
2C5
100
AcDbEntity
  8
001
370
    50
  0
LINE
  5
2D6
330
1F
100
AcDbEntity
  8
001
 62
   253
370
    50
100
AcDbLine
 10
107.571781
 20
155.1026
 30
0.0
 11
81.83973
 21
155.1026
 31
0.0
  0
LINE
  5
2D7
330
1F
100
AcDbEntity
  8
001
 62
   253
370
    50
100
AcDbLine
 10
81.83973
 20
130.1026
 30
0.0
 11
107.571781
 21
130.1026
 31
0.0
  0
POLYLINE
  5
2D8
330
1F
100
AcDbEntity
  8
001
 62
   253
370
    50
100
AcDb2dPolyline
 66
     1
 10
0.0
 20
0.0
 30
0.0
  0
VERTEX
  5
2DA
330
2D8
100
AcDbEntity
  8
001
 62
   253
370
    50
100
AcDbVertex
100
AcDb2dVertex
 10
104.091017
 20
139.173106
 30
0.0
  0
VERTEX
  5
2DB
330
2D8
100
AcDbEntity
  8
001
 62
   253
370
    50
100
AcDbVertex
100
AcDb2dVertex
 10
104.186893
 20
139.22708
 30
0.0
  0
VERTEX
  5
2DC
330
2D8
100
AcDbEntity
  8
001
 62
   253
370
    50
100
AcDbVertex
100
AcDb2dVertex
 10
104.282021
 20
139.282332
 30
0.0
  0
VERTEX
  5
2DD
330
2D8
100
AcDbEntity
  8
001
 62
   253
370
    50
100
AcDbVertex
100
AcDb2dVertex
 10
104.459945
 20
139.394474
 30
0.0
  0
VERTEX
  5
2DE
330
2D8
100
AcDbEntity
  8
001
 62
   253
370
    50
100
AcDbVertex
100
AcDb2dVertex
 10
104.632464
 20
139.514884
 30
0.0
  0
VERTEX
  5
2DF
330
2D8
100
AcDbEntity
  8
001
 62
   253
370
    50
100
AcDbVertex
100
AcDb2dVertex
 10
104.799375
 20
139.642587
 30
0.0
  0
VERTEX
  5
2E0
330
2D8
100
AcDbEntity
  8
001
 62
   253
370
    50
100
AcDbVertex
100
AcDb2dVertex
 10
104.960334
 20
139.777694
 30
0.0
  0
VERTEX
  5
2E1
330
2D8
100
AcDbEntity
  8
001
 62
   253
370
    50
100
AcDbVertex
100
AcDb2dVertex
 10
105.195624
 20
140.000821
 30
0.0
  0
VERTEX
  5
2E2
330
2D8
100
AcDbEntity
  8
001
 62
   253
370
    50
100
AcDbVertex
100
AcDb2dVertex
 10
105.413622
 20
140.241029
 30
0.0
  0
VERTEX
  5
2E3
330
2D8
100
AcDbEntity
  8
001
 62
   253
370
    50
100
AcDbVertex
100
AcDb2dVertex
 10
105.612765
 20
140.497599
 30
0.0
  0
VERTEX
  5
2E4
330
2D8
100
AcDbEntity
  8
001
 62
   253
370
    50
100
AcDbVertex
100
AcDb2dVertex
 10
105.790505
 20
140.769324
 30
0.0
  0
VERTEX
  5
2E5
330
2D8
100
AcDbEntity
  8
001
 62
   253
370
    50
100
AcDbVertex
100
AcDb2dVertex
 10
105.933644
 20
141.032682
 30
0.0
  0
VERTEX
  5
2E6
330
2D8
100
AcDbEntity
  8
001
 62
   253
370
    50
100
AcDbVertex
100
AcDb2dVertex
 10
106.055471
 20
141.306603
 30
0.0
  0
VERTEX
  5
2E7
330
2D8
100
AcDbEntity
  8
001
 62
   253
370
    50
100
AcDbVertex
100
AcDb2dVertex
 10
106.155076
 20
141.590266
 30
0.0
  0
VERTEX
  5
2E8
330
2D8
100
AcDbEntity
  8
001
 62
   253
370
    50
100
AcDbVertex
100
AcDb2dVertex
 10
106.230438
 20
141.881238
 30
0.0
  0
VERTEX
  5
2E9
330
2D8
100
AcDbEntity
  8
001
 62
   253
370
    50
100
AcDbVertex
100
AcDb2dVertex
 10
106.280343
 20
142.179676
 30
0.0
  0
VERTEX
  5
2EA
330
2D8
100
AcDbEntity
  8
001
 62
   253
370
    50
100
AcDbVertex
100
AcDb2dVertex
 10
106.304058
 20
142.481411
 30
0.0
  0
VERTEX
  5
2EB
330
2D8
100
AcDbEntity
  8
001
 62
   253
370
    50
100
AcDbVertex
100
AcDb2dVertex
 10
106.30165
 20
142.784185
 30
0.0
  0
VERTEX
  5
2EC
330
2D8
100
AcDbEntity
  8
001
 62
   253
370
    50
100
AcDbVertex
100
AcDb2dVertex
 10
106.272721
 20
143.08549
 30
0.0
  0
VERTEX
  5
2ED
330
2D8
100
AcDbEntity
  8
001
 62
   253
370
    50
100
AcDbVertex
100
AcDb2dVertex
 10
106.222132
 20
143.361172
 30
0.0
  0
VERTEX
  5
2EE
330
2D8
100
AcDbEntity
  8
001
 62
   253
370
    50
100
AcDbVertex
100
AcDb2dVertex
 10
106.149679
 20
143.631975
 30
0.0
  0
VERTEX
  5
2EF
330
2D8
100
AcDbEntity
  8
001
 62
   253
370
    50
100
AcDbVertex
100
AcDb2dVertex
 10
106.056808
 20
143.895739
 30
0.0
  0
VERTEX
  5
2F0
330
2D8
100
AcDbEntity
  8
001
 62
   253
370
    50
100
AcDbVertex
100
AcDb2dVertex
 10
105.944149
 20
144.151637
 30
0.0
  0
VERTEX
  5
2F1
330
2D8
100
AcDbEntity
  8
001
 62
   253
370
    50
100
AcDbVertex
100
AcDb2dVertex
 10
105.806077
 20
144.409354
 30
0.0
  0
VERTEX
  5
2F2
330
2D8
100
AcDbEntity
  8
001
 62
   253
370
    50
100
AcDbVertex
100
AcDb2dVertex
 10
105.648899
 20
144.655935
 30
0.0
  0
VERTEX
  5
2F3
330
2D8
100
AcDbEntity
  8
001
 62
   253
370
    50
100
AcDbVertex
100
AcDb2dVertex
 10
105.474672
 20
144.890009
 30
0.0
  0
VERTEX
  5
2F4
330
2D8
100
AcDbEntity
  8
001
 62
   253
370
    50
100
AcDbVertex
100
AcDb2dVertex
 10
105.284393
 20
145.111213
 30
0.0
  0
VERTEX
  5
2F5
330
2D8
100
AcDbEntity
  8
001
 62
   253
370
    50
100
AcDbVertex
100
AcDb2dVertex
 10
105.0481
 20
145.348035
 30
0.0
  0
VERTEX
  5
2F6
330
2D8
100
AcDbEntity
  8
001
 62
   253
370
    50
100
AcDbVertex
100
AcDb2dVertex
 10
104.794545
 20
145.566367
 30
0.0
  0
VERTEX
  5
2F7
330
2D8
100
AcDbEntity
  8
001
 62
   253
370
    50
100
AcDbVertex
100
AcDb2dVertex
 10
104.525572
 20
145.765954
 30
0.0
  0
VERTEX
  5
2F8
330
2D8
100
AcDbEntity
  8
001
 62
   253
370
    50
100
AcDbVertex
100
AcDb2dVertex
 10
104.243174
 20
145.946014
 30
0.0
  0
VERTEX
  5
2F9
330
2D8
100
AcDbEntity
  8
001
 62
   253
370
    50
100
AcDbVertex
100
AcDb2dVertex
 10
103.900177
 20
146.130211
 30
0.0
  0
VERTEX
  5
2FA
330
2D8
100
AcDbEntity
  8
001
 62
   253
370
    50
100
AcDbVertex
100
AcDb2dVertex
 10
103.543855
 20
146.287323
 30
0.0
  0
VERTEX
  5
2FB
330
2D8
100
AcDbEntity
  8
001
 62
   253
370
    50
100
AcDbVertex
100
AcDb2dVertex
 10
103.175358
 20
146.417721
 30
0.0
  0
VERTEX
  5
2FC
330
2D8
100
AcDbEntity
  8
001
 62
   253
370
    50
100
AcDbVertex
100
AcDb2dVertex
 10
102.798274
 20
146.520306
 30
0.0
  0
VERTEX
  5
2FD
330
2D8
100
AcDbEntity
  8
001
 62
   253
370
    50
100
AcDbVertex
100
AcDb2dVertex
 10
102.519581
 20
146.577246
 30
0.0
  0
VERTEX
  5
2FE
330
2D8
100
AcDbEntity
  8
001
 62
   253
370
    50
100
AcDbVertex
100
AcDb2dVertex
 10
102.238282
 20
146.619327
 30
0.0
  0
VERTEX
  5
2FF
330
2D8
100
AcDbEntity
  8
001
 62
   253
370
    50
100
AcDbVertex
100
AcDb2dVertex
 10
101.953897
 20
146.646782
 30
0.0
  0
VERTEX
  5
300
330
2D8
100
AcDbEntity
  8
001
 62
   253
370
    50
100
AcDbVertex
100
AcDb2dVertex
 10
101.668461
 20
146.659415
 30
0.0
  0
VERTEX
  5
301
330
2D8
100
AcDbEntity
  8
001
 62
   253
370
    50
100
AcDbVertex
100
AcDb2dVertex
 10
101.383566
 20
146.657214
 30
0.0
  0
VERTEX
  5
302
330
2D8
100
AcDbEntity
  8
001
 62
   253
370
    50
100
AcDbVertex
100
AcDb2dVertex
 10
101.099191
 20
146.640048
 30
0.0
  0
VERTEX
  5
303
330
2D8
100
AcDbEntity
  8
001
 62
   253
370
    50
100
AcDbVertex
100
AcDb2dVertex
 10
100.811876
 20
146.607166
 30
0.0
  0
VERTEX
  5
304
330
2D8
100
AcDbEntity
  8
001
 62
   253
370
    50
100
AcDbVertex
100
AcDb2dVertex
 10
100.526733
 20
146.558892
 30
0.0
  0
VERTEX
  5
305
330
2D8
100
AcDbEntity
  8
001
 62
   253
370
    50
100
AcDbVertex
100
AcDb2dVertex
 10
100.244276
 20
146.49537
 30
0.0
  0
VERTEX
  5
306
330
2D8
100
AcDbEntity
  8
001
 62
   253
370
    50
100
AcDbVertex
100
AcDb2dVertex
 10
99.965653
 20
146.416717
 30
0.0
  0
VERTEX
  5
307
330
2D8
100
AcDbEntity
  8
001
 62
   253
370
    50
100
AcDbVertex
100
AcDb2dVertex
 10
99.693336
 20
146.323534
 30
0.0
  0
VERTEX
  5
308
330
2D8
100
AcDbEntity
  8
001
 62
   253
370
    50
100
AcDbVertex
100
AcDb2dVertex
 10
99.426654
 20
146.215294
 30
0.0
  0
VERTEX
  5
309
330
2D8
100
AcDbEntity
  8
001
 62
   253
370
    50
100
AcDbVertex
100
AcDb2dVertex
 10
99.167746
 20
146.092517
 30
0.0
  0
VERTEX
  5
30A
330
2D8
100
AcDbEntity
  8
001
 62
   253
370
    50
100
AcDbVertex
100
AcDb2dVertex
 10
98.916349
 20
145.95501
 30
0.0
  0
VERTEX
  5
30B
330
2D8
100
AcDbEntity
  8
001
 62
   253
370
    50
100
AcDbVertex
100
AcDb2dVertex
 10
98.673094
 20
145.802882
 30
0.0
  0
VERTEX
  5
30C
330
2D8
100
AcDbEntity
  8
001
 62
   253
370
    50
100
AcDbVertex
100
AcDb2dVertex
 10
98.439312
 20
145.636527
 30
0.0
  0
VERTEX
  5
30D
330
2D8
100
AcDbEntity
  8
001
 62
   253
370
    50
100
AcDbVertex
100
AcDb2dVertex
 10
98.217189
 20
145.457042
 30
0.0
  0
VERTEX
  5
30E
330
2D8
100
AcDbEntity
  8
001
 62
   253
370
    50
100
AcDbVertex
100
AcDb2dVertex
 10
98.007076
 20
145.263737
 30
0.0
  0
VERTEX
  5
30F
330
2D8
100
AcDbEntity
  8
001
 62
   253
370
    50
100
AcDbVertex
100
AcDb2dVertex
 10
97.777349
 20
145.019215
 30
0.0
  0
VERTEX
  5
310
330
2D8
100
AcDbEntity
  8
001
 62
   253
370
    50
100
AcDbVertex
100
AcDb2dVertex
 10
97.567123
 20
144.757309
 30
0.0
  0
VERTEX
  5
311
330
2D8
100
AcDbEntity
  8
001
 62
   253
370
    50
100
AcDbVertex
100
AcDb2dVertex
 10
97.37779
 20
144.47885
 30
0.0
  0
VERTEX
  5
312
330
2D8
100
AcDbEntity
  8
001
 62
   253
370
    50
100
AcDbVertex
100
AcDb2dVertex
 10
97.215617
 20
144.184518
 30
0.0
  0
VERTEX
  5
313
330
2D8
100
AcDbEntity
  8
001
 62
   253
370
    50
100
AcDbVertex
100
AcDb2dVertex
 10
97.12352
 20
143.977899
 30
0.0
  0
VERTEX
  5
314
330
2D8
100
AcDbEntity
  8
001
 62
   253
370
    50
100
AcDbVertex
100
AcDb2dVertex
 10
97.039151
 20
143.767666
 30
0.0
  0
SEQEND
  5
2D9
330
2D8
100
AcDbEntity
  8
001
370
    50
  0
POLYLINE
  5
315
330
1F
100
AcDbEntity
  8
001
 62
   253
370
    50
100
AcDb2dPolyline
 66
     1
 10
0.0
 20
0.0
 30
0.0
  0
VERTEX
  5
317
330
315
100
AcDbEntity
  8
001
 62
   253
370
    50
100
AcDbVertex
100
AcDb2dVertex
 10
97.039151
 20
143.767666
 30
0.0
  0
VERTEX
  5
318
330
315
100
AcDbEntity
  8
001
 62
   253
370
    50
100
AcDbVertex
100
AcDb2dVertex
 10
96.97259
 20
143.549615
 30
0.0
  0
VERTEX
  5
319
330
315
100
AcDbEntity
  8
001
 62
   253
370
    50
100
AcDbVertex
100
AcDb2dVertex
 10
96.914911
 20
143.329384
 30
0.0
  0
VERTEX
  5
31A
330
315
100
AcDbEntity
  8
001
 62
   253
370
    50
100
AcDbVertex
100
AcDb2dVertex
 10
96.873364
 20
143.10608
 30
0.0
  0
VERTEX
  5
31B
330
315
100
AcDbEntity
  8
001
 62
   253
370
    50
100
AcDbVertex
100
AcDb2dVertex
 10
96.847998
 20
142.880092
 30
0.0
  0
VERTEX
  5
31C
330
315
100
AcDbEntity
  8
001
 62
   253
370
    50
100
AcDbVertex
100
AcDb2dVertex
 10
96.837329
 20
142.585213
 30
0.0
  0
VERTEX
  5
31D
330
315
100
AcDbEntity
  8
001
 62
   253
370
    50
100
AcDbVertex
100
AcDb2dVertex
 10
96.851497
 20
142.290545
 30
0.0
  0
VERTEX
  5
31E
330
315
100
AcDbEntity
  8
001
 62
   253
370
    50
100
AcDbVertex
100
AcDb2dVertex
 10
96.890471
 20
141.99835
 30
0.0
  0
VERTEX
  5
31F
330
315
100
AcDbEntity
  8
001
 62
   253
370
    50
100
AcDbVertex
100
AcDb2dVertex
 10
96.954026
 20
141.710518
 30
0.0
  0
VERTEX
  5
320
330
315
100
AcDbEntity
  8
001
 62
   253
370
    50
100
AcDbVertex
100
AcDb2dVertex
 10
97.036832
 20
141.442667
 30
0.0
  0
VERTEX
  5
321
330
315
100
AcDbEntity
  8
001
 62
   253
370
    50
100
AcDbVertex
100
AcDb2dVertex
 10
97.140165
 20
141.182023
 30
0.0
  0
VERTEX
  5
322
330
315
100
AcDbEntity
  8
001
 62
   253
370
    50
100
AcDbVertex
100
AcDb2dVertex
 10
97.262314
 20
140.930493
 30
0.0
  0
VERTEX
  5
323
330
315
100
AcDbEntity
  8
001
 62
   253
370
    50
100
AcDbVertex
100
AcDb2dVertex
 10
97.402529
 20
140.688593
 30
0.0
  0
VERTEX
  5
324
330
315
100
AcDbEntity
  8
001
 62
   253
370
    50
100
AcDbVertex
100
AcDb2dVertex
 10
97.575002
 20
140.436822
 30
0.0
  0
VERTEX
  5
325
330
315
100
AcDbEntity
  8
001
 62
   253
370
    50
100
AcDbVertex
100
AcDb2dVertex
 10
97.765943
 20
140.198676
 30
0.0
  0
VERTEX
  5
326
330
315
100
AcDbEntity
  8
001
 62
   253
370
    50
100
AcDbVertex
100
AcDb2dVertex
 10
97.973263
 20
139.975119
 30
0.0
  0
VERTEX
  5
327
330
315
100
AcDbEntity
  8
001
 62
   253
370
    50
100
AcDbVertex
100
AcDb2dVertex
 10
98.195739
 20
139.766718
 30
0.0
  0
VERTEX
  5
328
330
315
100
AcDbEntity
  8
001
 62
   253
370
    50
100
AcDbVertex
100
AcDb2dVertex
 10
98.471747
 20
139.54422
 30
0.0
  0
VERTEX
  5
329
330
315
100
AcDbEntity
  8
001
 62
   253
370
    50
100
AcDbVertex
100
AcDb2dVertex
 10
98.763852
 20
139.342958
 30
0.0
  0
VERTEX
  5
32A
330
315
100
AcDbEntity
  8
001
 62
   253
370
    50
100
AcDbVertex
100
AcDb2dVertex
 10
99.070449
 20
139.162683
 30
0.0
  0
VERTEX
  5
32B
330
315
100
AcDbEntity
  8
001
 62
   253
370
    50
100
AcDbVertex
100
AcDb2dVertex
 10
99.389569
 20
139.006381
 30
0.0
  0
VERTEX
  5
32C
330
315
100
AcDbEntity
  8
001
 62
   253
370
    50
100
AcDbVertex
100
AcDb2dVertex
 10
99.545044
 20
138.940856
 30
0.0
  0
VERTEX
  5
32D
330
315
100
AcDbEntity
  8
001
 62
   253
370
    50
100
AcDbVertex
100
AcDb2dVertex
 10
99.701821
 20
138.878378
 30
0.0
  0
SEQEND
  5
316
330
315
100
AcDbEntity
  8
001
370
    50
  0
POLYLINE
  5
32E
330
1F
100
AcDbEntity
  8
001
 62
   253
370
    50
100
AcDb2dPolyline
 66
     1
 10
0.0
 20
0.0
 30
0.0
  0
VERTEX
  5
330
330
32E
100
AcDbEntity
  8
001
 62
   253
370
    50
100
AcDbVertex
100
AcDb2dVertex
 10
90.091017
 20
139.173106
 30
0.0
  0
VERTEX
  5
331
330
32E
100
AcDbEntity
  8
001
 62
   253
370
    50
100
AcDbVertex
100
AcDb2dVertex
 10
90.264144
 20
139.273345
 30
0.0
  0
VERTEX
  5
332
330
32E
100
AcDbEntity
  8
001
 62
   253
370
    50
100
AcDbVertex
100
AcDb2dVertex
 10
90.43447
 20
139.378038
 30
0.0
  0
VERTEX
  5
333
330
32E
100
AcDbEntity
  8
001
 62
   253
370
    50
100
AcDbVertex
100
AcDb2dVertex
 10
90.603888
 20
139.493693
 30
0.0
  0
VERTEX
  5
334
330
32E
100
AcDbEntity
  8
001
 62
   253
370
    50
100
AcDbVertex
100
AcDb2dVertex
 10
90.767686
 20
139.617346
 30
0.0
  0
VERTEX
  5
335
330
32E
100
AcDbEntity
  8
001
 62
   253
370
    50
100
AcDbVertex
100
AcDb2dVertex
 10
90.925889
 20
139.747816
 30
0.0
  0
VERTEX
  5
336
330
32E
100
AcDbEntity
  8
001
 62
   253
370
    50
100
AcDbVertex
100
AcDb2dVertex
 10
91.078101
 20
139.885187
 30
0.0
  0
VERTEX
  5
337
330
32E
100
AcDbEntity
  8
001
 62
   253
370
    50
100
AcDbVertex
100
AcDb2dVertex
 10
91.306541
 20
140.118349
 30
0.0
  0
VERTEX
  5
338
330
32E
100
AcDbEntity
  8
001
 62
   253
370
    50
100
AcDbVertex
100
AcDb2dVertex
 10
91.516484
 20
140.368479
 30
0.0
  0
VERTEX
  5
339
330
32E
100
AcDbEntity
  8
001
 62
   253
370
    50
100
AcDbVertex
100
AcDb2dVertex
 10
91.706398
 20
140.634796
 30
0.0
  0
VERTEX
  5
33A
330
32E
100
AcDbEntity
  8
001
 62
   253
370
    50
100
AcDbVertex
100
AcDb2dVertex
 10
91.873571
 20
140.915816
 30
0.0
  0
VERTEX
  5
33B
330
32E
100
AcDbEntity
  8
001
 62
   253
370
    50
100
AcDbVertex
100
AcDb2dVertex
 10
92.003125
 20
141.181304
 30
0.0
  0
VERTEX
  5
33C
330
32E
100
AcDbEntity
  8
001
 62
   253
370
    50
100
AcDbVertex
100
AcDb2dVertex
 10
92.111204
 20
141.456285
 30
0.0
  0
VERTEX
  5
33D
330
32E
100
AcDbEntity
  8
001
 62
   253
370
    50
100
AcDbVertex
100
AcDb2dVertex
 10
92.197007
 20
141.739847
 30
0.0
  0
VERTEX
  5
33E
330
32E
100
AcDbEntity
  8
001
 62
   253
370
    50
100
AcDbVertex
100
AcDb2dVertex
 10
92.258741
 20
142.029534
 30
0.0
  0
VERTEX
  5
33F
330
32E
100
AcDbEntity
  8
001
 62
   253
370
    50
100
AcDbVertex
100
AcDb2dVertex
 10
92.295255
 20
142.325107
 30
0.0
  0
VERTEX
  5
340
330
32E
100
AcDbEntity
  8
001
 62
   253
370
    50
100
AcDbVertex
100
AcDb2dVertex
 10
92.306173
 20
142.622804
 30
0.0
  0
VERTEX
  5
341
330
32E
100
AcDbEntity
  8
001
 62
   253
370
    50
100
AcDbVertex
100
AcDb2dVertex
 10
92.291749
 20
142.920336
 30
0.0
  0
VERTEX
  5
342
330
32E
100
AcDbEntity
  8
001
 62
   253
370
    50
100
AcDbVertex
100
AcDb2dVertex
 10
92.251801
 20
143.215442
 30
0.0
  0
VERTEX
  5
343
330
32E
100
AcDbEntity
  8
001
 62
   253
370
    50
100
AcDbVertex
100
AcDb2dVertex
 10
92.191039
 20
143.488462
 30
0.0
  0
VERTEX
  5
344
330
32E
100
AcDbEntity
  8
001
 62
   253
370
    50
100
AcDbVertex
100
AcDb2dVertex
 10
92.108869
 20
143.755864
 30
0.0
  0
VERTEX
  5
345
330
32E
100
AcDbEntity
  8
001
 62
   253
370
    50
100
AcDbVertex
100
AcDb2dVertex
 10
92.006839
 20
144.015552
 30
0.0
  0
VERTEX
  5
346
330
32E
100
AcDbEntity
  8
001
 62
   253
370
    50
100
AcDbVertex
100
AcDb2dVertex
 10
91.885621
 20
144.266822
 30
0.0
  0
VERTEX
  5
347
330
32E
100
AcDbEntity
  8
001
 62
   253
370
    50
100
AcDbVertex
100
AcDb2dVertex
 10
91.737039
 20
144.522785
 30
0.0
  0
VERTEX
  5
348
330
32E
100
AcDbEntity
  8
001
 62
   253
370
    50
100
AcDbVertex
100
AcDb2dVertex
 10
91.569554
 20
144.766853
 30
0.0
  0
VERTEX
  5
349
330
32E
100
AcDbEntity
  8
001
 62
   253
370
    50
100
AcDbVertex
100
AcDb2dVertex
 10
91.385244
 20
144.997772
 30
0.0
  0
VERTEX
  5
34A
330
32E
100
AcDbEntity
  8
001
 62
   253
370
    50
100
AcDbVertex
100
AcDb2dVertex
 10
91.18518
 20
145.215163
 30
0.0
  0
VERTEX
  5
34B
330
32E
100
AcDbEntity
  8
001
 62
   253
370
    50
100
AcDbVertex
100
AcDb2dVertex
 10
90.936645
 20
145.448115
 30
0.0
  0
VERTEX
  5
34C
330
32E
100
AcDbEntity
  8
001
 62
   253
370
    50
100
AcDbVertex
100
AcDb2dVertex
 10
90.671126
 20
145.661626
 30
0.0
  0
VERTEX
  5
34D
330
32E
100
AcDbEntity
  8
001
 62
   253
370
    50
100
AcDbVertex
100
AcDb2dVertex
 10
90.39038
 20
145.855564
 30
0.0
  0
VERTEX
  5
34E
330
32E
100
AcDbEntity
  8
001
 62
   253
370
    50
100
AcDbVertex
100
AcDb2dVertex
 10
90.096631
 20
146.029044
 30
0.0
  0
VERTEX
  5
34F
330
32E
100
AcDbEntity
  8
001
 62
   253
370
    50
100
AcDbVertex
100
AcDb2dVertex
 10
89.862234
 20
146.148587
 30
0.0
  0
VERTEX
  5
350
330
32E
100
AcDbEntity
  8
001
 62
   253
370
    50
100
AcDbVertex
100
AcDb2dVertex
 10
89.62191
 20
146.255677
 30
0.0
  0
VERTEX
  5
351
330
32E
100
AcDbEntity
  8
001
 62
   253
370
    50
100
AcDbVertex
100
AcDb2dVertex
 10
89.375119
 20
146.350821
 30
0.0
  0
VERTEX
  5
352
330
32E
100
AcDbEntity
  8
001
 62
   253
370
    50
100
AcDbVertex
100
AcDb2dVertex
 10
89.123837
 20
146.433395
 30
0.0
  0
VERTEX
  5
353
330
32E
100
AcDbEntity
  8
001
 62
   253
370
    50
100
AcDbVertex
100
AcDb2dVertex
 10
88.868814
 20
146.503316
 30
0.0
  0
VERTEX
  5
354
330
32E
100
AcDbEntity
  8
001
 62
   253
370
    50
100
AcDbVertex
100
AcDb2dVertex
 10
88.610623
 20
146.560423
 30
0.0
  0
VERTEX
  5
355
330
32E
100
AcDbEntity
  8
001
 62
   253
370
    50
100
AcDbVertex
100
AcDb2dVertex
 10
88.328668
 20
146.607581
 30
0.0
  0
VERTEX
  5
356
330
32E
100
AcDbEntity
  8
001
 62
   253
370
    50
100
AcDbVertex
100
AcDb2dVertex
 10
88.044592
 20
146.639709
 30
0.0
  0
VERTEX
  5
357
330
32E
100
AcDbEntity
  8
001
 62
   253
370
    50
100
AcDbVertex
100
AcDb2dVertex
 10
87.758055
 20
146.657003
 30
0.0
  0
VERTEX
  5
358
330
32E
100
AcDbEntity
  8
001
 62
   253
370
    50
100
AcDbVertex
100
AcDb2dVertex
 10
87.471008
 20
146.659333
 30
0.0
  0
VERTEX
  5
359
330
32E
100
AcDbEntity
  8
001
 62
   253
370
    50
100
AcDbVertex
100
AcDb2dVertex
 10
87.185175
 20
146.646729
 30
0.0
  0
VERTEX
  5
35A
330
32E
100
AcDbEntity
  8
001
 62
   253
370
    50
100
AcDbVertex
100
AcDb2dVertex
 10
86.900414
 20
146.619038
 30
0.0
  0
VERTEX
  5
35B
330
32E
100
AcDbEntity
  8
001
 62
   253
370
    50
100
AcDbVertex
100
AcDb2dVertex
 10
86.61464
 20
146.575596
 30
0.0
  0
VERTEX
  5
35C
330
32E
100
AcDbEntity
  8
001
 62
   253
370
    50
100
AcDbVertex
100
AcDb2dVertex
 10
86.331618
 20
146.516794
 30
0.0
  0
VERTEX
  5
35D
330
32E
100
AcDbEntity
  8
001
 62
   253
370
    50
100
AcDbVertex
100
AcDb2dVertex
 10
86.051942
 20
146.442791
 30
0.0
  0
VERTEX
  5
35E
330
32E
100
AcDbEntity
  8
001
 62
   253
370
    50
100
AcDbVertex
100
AcDb2dVertex
 10
85.776694
 20
146.353713
 30
0.0
  0
VERTEX
  5
35F
330
32E
100
AcDbEntity
  8
001
 62
   253
370
    50
100
AcDbVertex
100
AcDb2dVertex
 10
85.508364
 20
146.250243
 30
0.0
  0
VERTEX
  5
360
330
32E
100
AcDbEntity
  8
001
 62
   253
370
    50
100
AcDbVertex
100
AcDb2dVertex
 10
85.246325
 20
146.131789
 30
0.0
  0
VERTEX
  5
361
330
32E
100
AcDbEntity
  8
001
 62
   253
370
    50
100
AcDbVertex
100
AcDb2dVertex
 10
84.993177
 20
145.999184
 30
0.0
  0
VERTEX
  5
362
330
32E
100
AcDbEntity
  8
001
 62
   253
370
    50
100
AcDbVertex
100
AcDb2dVertex
 10
84.74815
 20
145.852042
 30
0.0
  0
VERTEX
  5
363
330
32E
100
AcDbEntity
  8
001
 62
   253
370
    50
100
AcDbVertex
100
AcDb2dVertex
 10
84.511795
 20
145.690426
 30
0.0
  0
VERTEX
  5
364
330
32E
100
AcDbEntity
  8
001
 62
   253
370
    50
100
AcDbVertex
100
AcDb2dVertex
 10
84.285826
 20
145.514724
 30
0.0
  0
VERTEX
  5
365
330
32E
100
AcDbEntity
  8
001
 62
   253
370
    50
100
AcDbVertex
100
AcDb2dVertex
 10
84.072423
 20
145.326025
 30
0.0
  0
VERTEX
  5
366
330
32E
100
AcDbEntity
  8
001
 62
   253
370
    50
100
AcDbVertex
100
AcDb2dVertex
 10
83.871127
 20
145.124116
 30
0.0
  0
VERTEX
  5
367
330
32E
100
AcDbEntity
  8
001
 62
   253
370
    50
100
AcDbVertex
100
AcDb2dVertex
 10
83.65603
 20
144.876011
 30
0.0
  0
VERTEX
  5
368
330
32E
100
AcDbEntity
  8
001
 62
   253
370
    50
100
AcDbVertex
100
AcDb2dVertex
 10
83.463924
 20
144.610489
 30
0.0
  0
VERTEX
  5
369
330
32E
100
AcDbEntity
  8
001
 62
   253
370
    50
100
AcDbVertex
100
AcDb2dVertex
 10
83.297347
 20
144.327788
 30
0.0
  0
VERTEX
  5
36A
330
32E
100
AcDbEntity
  8
001
 62
   253
370
    50
100
AcDbVertex
100
AcDb2dVertex
 10
83.14552
 20
144.035948
 30
0.0
  0
SEQEND
  5
32F
330
32E
100
AcDbEntity
  8
001
370
    50
  0
POLYLINE
  5
36B
330
1F
100
AcDbEntity
  8
001
 62
   253
370
    50
100
AcDb2dPolyline
 66
     1
 10
0.0
 20
0.0
 30
0.0
  0
VERTEX
  5
36D
330
36B
100
AcDbEntity
  8
001
 62
   253
370
    50
100
AcDbVertex
100
AcDb2dVertex
 10
83.14552
 20
144.035948
 30
0.0
  0
VERTEX
  5
36E
330
36B
100
AcDbEntity
  8
001
 62
   253
370
    50
100
AcDbVertex
100
AcDb2dVertex
 10
83.064179
 20
143.830132
 30
0.0
  0
VERTEX
  5
36F
330
36B
100
AcDbEntity
  8
001
 62
   253
370
    50
100
AcDbVertex
100
AcDb2dVertex
 10
82.990948
 20
143.621611
 30
0.0
  0
VERTEX
  5
370
330
36B
100
AcDbEntity
  8
001
 62
   253
370
    50
100
AcDbVertex
100
AcDb2dVertex
 10
82.93198
 20
143.40709
 30
0.0
  0
VERTEX
  5
371
330
36B
100
AcDbEntity
  8
001
 62
   253
370
    50
100
AcDbVertex
100
AcDb2dVertex
 10
82.887662
 20
143.188819
 30
0.0
  0
VERTEX
  5
372
330
36B
100
AcDbEntity
  8
001
 62
   253
370
    50
100
AcDbVertex
100
AcDb2dVertex
 10
82.856783
 20
142.969011
 30
0.0
  0
VERTEX
  5
373
330
36B
100
AcDbEntity
  8
001
 62
   253
370
    50
100
AcDbVertex
100
AcDb2dVertex
 10
82.839845
 20
142.747804
 30
0.0
  0
VERTEX
  5
374
330
36B
100
AcDbEntity
  8
001
 62
   253
370
    50
100
AcDbVertex
100
AcDb2dVertex
 10
82.840041
 20
142.45676
 30
0.0
  0
VERTEX
  5
375
330
36B
100
AcDbEntity
  8
001
 62
   253
370
    50
100
AcDbVertex
100
AcDb2dVertex
 10
82.865016
 20
142.166611
 30
0.0
  0
VERTEX
  5
376
330
36B
100
AcDbEntity
  8
001
 62
   253
370
    50
100
AcDbVertex
100
AcDb2dVertex
 10
82.913717
 20
141.879912
 30
0.0
  0
VERTEX
  5
377
330
36B
100
AcDbEntity
  8
001
 62
   253
370
    50
100
AcDbVertex
100
AcDb2dVertex
 10
82.985864
 20
141.598303
 30
0.0
  0
VERTEX
  5
378
330
36B
100
AcDbEntity
  8
001
 62
   253
370
    50
100
AcDbVertex
100
AcDb2dVertex
 10
83.077657
 20
141.332353
 30
0.0
  0
VERTEX
  5
379
330
36B
100
AcDbEntity
  8
001
 62
   253
370
    50
100
AcDbVertex
100
AcDb2dVertex
 10
83.189719
 20
141.074232
 30
0.0
  0
VERTEX
  5
37A
330
36B
100
AcDbEntity
  8
001
 62
   253
370
    50
100
AcDbVertex
100
AcDb2dVertex
 10
83.320214
 20
140.825791
 30
0.0
  0
VERTEX
  5
37B
330
36B
100
AcDbEntity
  8
001
 62
   253
370
    50
100
AcDbVertex
100
AcDb2dVertex
 10
83.468363
 20
140.587489
 30
0.0
  0
VERTEX
  5
37C
330
36B
100
AcDbEntity
  8
001
 62
   253
370
    50
100
AcDbVertex
100
AcDb2dVertex
 10
83.650964
 20
140.337644
 30
0.0
  0
VERTEX
  5
37D
330
36B
100
AcDbEntity
  8
001
 62
   253
370
    50
100
AcDbVertex
100
AcDb2dVertex
 10
83.851865
 20
140.102183
 30
0.0
  0
VERTEX
  5
37E
330
36B
100
AcDbEntity
  8
001
 62
   253
370
    50
100
AcDbVertex
100
AcDb2dVertex
 10
84.068985
 20
139.881956
 30
0.0
  0
VERTEX
  5
37F
330
36B
100
AcDbEntity
  8
001
 62
   253
370
    50
100
AcDbVertex
100
AcDb2dVertex
 10
84.300991
 20
139.677532
 30
0.0
  0
VERTEX
  5
380
330
36B
100
AcDbEntity
  8
001
 62
   253
370
    50
100
AcDbVertex
100
AcDb2dVertex
 10
84.588316
 20
139.459976
 30
0.0
  0
VERTEX
  5
381
330
36B
100
AcDbEntity
  8
001
 62
   253
370
    50
100
AcDbVertex
100
AcDb2dVertex
 10
84.891427
 20
139.264702
 30
0.0
  0
VERTEX
  5
382
330
36B
100
AcDbEntity
  8
001
 62
   253
370
    50
100
AcDbVertex
100
AcDb2dVertex
 10
85.208833
 20
139.091435
 30
0.0
  0
VERTEX
  5
383
330
36B
100
AcDbEntity
  8
001
 62
   253
370
    50
100
AcDbVertex
100
AcDb2dVertex
 10
85.538068
 20
138.942511
 30
0.0
  0
VERTEX
  5
384
330
36B
100
AcDbEntity
  8
001
 62
   253
370
    50
100
AcDbVertex
100
AcDb2dVertex
 10
85.619791
 20
138.910052
 30
0.0
  0
VERTEX
  5
385
330
36B
100
AcDbEntity
  8
001
 62
   253
370
    50
100
AcDbVertex
100
AcDb2dVertex
 10
85.701821
 20
138.878378
 30
0.0
  0
SEQEND
  5
36C
330
36B
100
AcDbEntity
  8
001
370
    50
  0
ARC
  5
386
330
1F
100
AcDbEntity
  8
001
 62
   253
370
    50
100
AcDbCircle
 10
81.83973
 20
131.1026
 30
0.0
 40
1.000000000000004
100
AcDbArc
 50
240.0
 51
270.0
  0
ARC
  5
387
330
1F
100
AcDbEntity
  8
001
 62
   253
370
    50
100
AcDbCircle
 10
81.83973
 20
154.1026
 30
0.0
 40
1.000000000000004
100
AcDbArc
 50
90.0
 51
120.0
  0
LINE
  5
388
330
1F
100
AcDbEntity
  8
001
 62
   253
370
    50
100
AcDbLine
 10
81.33973
 20
154.968626
 30
0.0
 11
78.071781
 21
153.081874
 31
0.0
  0
LINE
  5
389
330
1F
100
AcDbEntity
  8
001
 62
   253
370
    50
100
AcDbLine
 10
78.071781
 20
132.123326
 30
0.0
 11
81.33973
 21
130.236575
 31
0.0
  0
ARC
  5
38A
330
1F
100
AcDbEntity
  8
001
 62
   253
370
    50
100
AcDbCircle
 10
78.571781
 20
132.989352
 30
0.0
 40
1.0
100
AcDbArc
 50
180.0
 51
240.0
  0
ARC
  5
38B
330
1F
100
AcDbEntity
  8
001
 62
   253
370
    50
100
AcDbCircle
 10
78.571781
 20
152.215849
 30
0.0
 40
1.0
100
AcDbArc
 50
120.0
 51
180.0
  0
LINE
  5
38C
330
1F
100
AcDbEntity
  8
001
 62
   253
370
    50
100
AcDbLine
 10
77.571781
 20
132.989352
 30
0.0
 11
77.571781
 21
152.215849
 31
0.0
  0
ARC
  5
38D
330
1F
100
AcDbEntity
  8
001
 62
   253
370
    50
100
AcDbCircle
 10
108.571781
 20
23.369508
 30
0.0
 40
1.0
100
AcDbArc
 50
180.0
 51
270.0
  0
ARC
  5
38E
330
1F
100
AcDbEntity
  8
001
 62
   253
370
    50
100
AcDbCircle
 10
108.571781
 20
61.369508
 30
0.0
 40
1.0
100
AcDbArc
 50
90.0
 51
180.0
  0
LINE
  5
38F
330
1F
100
AcDbEntity
  8
001
 62
   253
370
    50
100
AcDbLine
 10
107.571781
 20
61.369508
 30
0.0
 11
107.571781
 21
23.369508
 31
0.0
  0
ARC
  5
390
330
1F
100
AcDbEntity
  8
001
 62
   253
370
    50
100
AcDbCircle
 10
111.571781
 20
61.369508
 30
0.0
 40
1.0
100
AcDbArc
 50
0.0
 51
90.0
  0
ARC
  5
391
330
1F
100
AcDbEntity
  8
001
 62
   253
370
    50
100
AcDbCircle
 10
111.571781
 20
23.369508
 30
0.0
 40
1.0
100
AcDbArc
 50
270.0
 51
0.0
  0
LINE
  5
392
330
1F
100
AcDbEntity
  8
001
 62
   253
370
    50
100
AcDbLine
 10
112.571781
 20
23.369508
 30
0.0
 11
112.571781
 21
61.369508
 31
0.0
  0
LINE
  5
393
330
1F
100
AcDbEntity
  8
001
 62
   253
370
    50
100
AcDbLine
 10
111.571781
 20
62.369508
 30
0.0
 11
108.571781
 21
62.369508
 31
0.0
  0
LINE
  5
394
330
1F
100
AcDbEntity
  8
001
 62
   253
370
    50
100
AcDbLine
 10
108.571781
 20
22.369508
 30
0.0
 11
111.571781
 21
22.369508
 31
0.0
  0
LINE
  5
395
330
1F
100
AcDbEntity
  8
001
 62
   253
370
    50
100
AcDbLine
 10
115.571781
 20
26.369508
 30
0.0
 11
190.571781
 21
26.369508
 31
0.0
  0
LINE
  5
396
330
1F
100
AcDbEntity
  8
001
 62
   253
370
    50
100
AcDbLine
 10
115.571781
 20
56.369508
 30
0.0
 11
115.571781
 21
26.369508
 31
0.0
  0
ARC
  5
397
330
1F
100
AcDbEntity
  8
001
 62
   253
370
    50
100
AcDbCircle
 10
190.571781
 20
28.369508
 30
0.0
 40
2.0
100
AcDbArc
 50
270.0
 51
0.0
  0
LINE
  5
398
330
1F
100
AcDbEntity
  8
001
 62
   253
370
    50
100
AcDbLine
 10
192.571781
 20
56.369508
 30
0.0
 11
192.571781
 21
28.369508
 31
0.0
  0
LINE
  5
399
330
1F
100
AcDbEntity
  8
001
 62
   253
370
    50
100
AcDbLine
 10
112.571781
 20
26.869508
 30
0.0
 11
115.571781
 21
26.869508
 31
0.0
  0
LINE
  5
39A
330
1F
100
AcDbEntity
  8
001
 62
   253
370
    50
100
AcDbLine
 10
112.571781
 20
56.369508
 30
0.0
 11
192.571781
 21
56.369508
 31
0.0
  0
POLYLINE
  5
39B
330
1F
100
AcDbEntity
  8
001
 62
   253
370
    50
100
AcDb2dPolyline
 66
     1
 10
0.0
 20
0.0
 30
0.0
  0
VERTEX
  5
39D
330
39B
100
AcDbEntity
  8
001
 62
   253
370
    50
100
AcDbVertex
100
AcDb2dVertex
 10
96.836774
 20
54.869508
 30
0.0
  0
VERTEX
  5
39E
330
39B
100
AcDbEntity
  8
001
 62
   253
370
    50
100
AcDbVertex
100
AcDb2dVertex
 10
96.84346
 20
54.867673
 30
0.0
  0
VERTEX
  5
39F
330
39B
100
AcDbEntity
  8
001
 62
   253
370
    50
100
AcDbVertex
100
AcDb2dVertex
 10
96.850147
 20
54.865838
 30
0.0
  0
VERTEX
  5
3A0
330
39B
100
AcDbEntity
  8
001
 62
   253
370
    50
100
AcDbVertex
100
AcDb2dVertex
 10
96.902069
 20
54.851673
 30
0.0
  0
VERTEX
  5
3A1
330
39B
100
AcDbEntity
  8
001
 62
   253
370
    50
100
AcDbVertex
100
AcDb2dVertex
 10
96.954026
 20
54.837635
 30
0.0
  0
VERTEX
  5
3A2
330
39B
100
AcDbEntity
  8
001
 62
   253
370
    50
100
AcDbVertex
100
AcDb2dVertex
 10
97.045585
 20
54.813223
 30
0.0
  0
VERTEX
  5
3A3
330
39B
100
AcDbEntity
  8
001
 62
   253
370
    50
100
AcDbVertex
100
AcDb2dVertex
 10
97.137249
 20
54.789203
 30
0.0
  0
VERTEX
  5
3A4
330
39B
100
AcDbEntity
  8
001
 62
   253
370
    50
100
AcDbVertex
100
AcDb2dVertex
 10
97.269781
 20
54.755228
 30
0.0
  0
VERTEX
  5
3A5
330
39B
100
AcDbEntity
  8
001
 62
   253
370
    50
100
AcDbVertex
100
AcDb2dVertex
 10
97.402529
 20
54.722102
 30
0.0
  0
VERTEX
  5
3A6
330
39B
100
AcDbEntity
  8
001
 62
   253
370
    50
100
AcDbVertex
100
AcDb2dVertex
 10
97.581894
 20
54.678798
 30
0.0
  0
VERTEX
  5
3A7
330
39B
100
AcDbEntity
  8
001
 62
   253
370
    50
100
AcDbVertex
100
AcDb2dVertex
 10
97.76164
 20
54.637099
 30
0.0
  0
VERTEX
  5
3A8
330
39B
100
AcDbEntity
  8
001
 62
   253
370
    50
100
AcDbVertex
100
AcDb2dVertex
 10
97.978424
 20
54.589102
 30
0.0
  0
VERTEX
  5
3A9
330
39B
100
AcDbEntity
  8
001
 62
   253
370
    50
100
AcDbVertex
100
AcDb2dVertex
 10
98.195739
 20
54.54357
 30
0.0
  0
VERTEX
  5
3AA
330
39B
100
AcDbEntity
  8
001
 62
   253
370
    50
100
AcDbVertex
100
AcDb2dVertex
 10
98.476073
 20
54.488731
 30
0.0
  0
VERTEX
  5
3AB
330
39B
100
AcDbEntity
  8
001
 62
   253
370
    50
100
AcDbVertex
100
AcDb2dVertex
 10
98.757208
 20
54.438098
 30
0.0
  0
VERTEX
  5
3AC
330
39B
100
AcDbEntity
  8
001
 62
   253
370
    50
100
AcDbVertex
100
AcDb2dVertex
 10
99.072929
 20
54.386506
 30
0.0
  0
VERTEX
  5
3AD
330
39B
100
AcDbEntity
  8
001
 62
   253
370
    50
100
AcDbVertex
100
AcDb2dVertex
 10
99.389569
 20
54.341025
 30
0.0
  0
VERTEX
  5
3AE
330
39B
100
AcDbEntity
  8
001
 62
   253
370
    50
100
AcDbVertex
100
AcDb2dVertex
 10
99.54564
 20
54.321002
 30
0.0
  0
VERTEX
  5
3AF
330
39B
100
AcDbEntity
  8
001
 62
   253
370
    50
100
AcDbVertex
100
AcDb2dVertex
 10
99.701821
 20
54.301824
 30
0.0
  0
SEQEND
  5
39C
330
39B
100
AcDbEntity
  8
001
370
    50
  0
POLYLINE
  5
3B0
330
1F
100
AcDbEntity
  8
001
 62
   253
370
    50
100
AcDb2dPolyline
 66
     1
 10
0.0
 20
0.0
 30
0.0
  0
VERTEX
  5
3B2
330
3B0
100
AcDbEntity
  8
001
 62
   253
370
    50
100
AcDbVertex
100
AcDb2dVertex
 10
82.836774
 20
54.869508
 30
0.0
  0
VERTEX
  5
3B3
330
3B0
100
AcDbEntity
  8
001
 62
   253
370
    50
100
AcDbVertex
100
AcDb2dVertex
 10
82.850101
 20
54.865853
 30
0.0
  0
VERTEX
  5
3B4
330
3B0
100
AcDbEntity
  8
001
 62
   253
370
    50
100
AcDbVertex
100
AcDb2dVertex
 10
82.863429
 20
54.862203
 30
0.0
  0
VERTEX
  5
3B5
330
3B0
100
AcDbEntity
  8
001
 62
   253
370
    50
100
AcDbVertex
100
AcDb2dVertex
 10
82.924622
 20
54.84556
 30
0.0
  0
VERTEX
  5
3B6
330
3B0
100
AcDbEntity
  8
001
 62
   253
370
    50
100
AcDbVertex
100
AcDb2dVertex
 10
82.985864
 20
54.829098
 30
0.0
  0
VERTEX
  5
3B7
330
3B0
100
AcDbEntity
  8
001
 62
   253
370
    50
100
AcDbVertex
100
AcDb2dVertex
 10
83.086209
 20
54.802527
 30
0.0
  0
VERTEX
  5
3B8
330
3B0
100
AcDbEntity
  8
001
 62
   253
370
    50
100
AcDbVertex
100
AcDb2dVertex
 10
83.186677
 20
54.776428
 30
0.0
  0
VERTEX
  5
3B9
330
3B0
100
AcDbEntity
  8
001
 62
   253
370
    50
100
AcDbVertex
100
AcDb2dVertex
 10
83.327399
 20
54.740738
 30
0.0
  0
VERTEX
  5
3BA
330
3B0
100
AcDbEntity
  8
001
 62
   253
370
    50
100
AcDbVertex
100
AcDb2dVertex
 10
83.468363
 20
54.706012
 30
0.0
  0
VERTEX
  5
3BB
330
3B0
100
AcDbEntity
  8
001
 62
   253
370
    50
100
AcDbVertex
100
AcDb2dVertex
 10
83.657659
 20
54.661013
 30
0.0
  0
VERTEX
  5
3BC
330
3B0
100
AcDbEntity
  8
001
 62
   253
370
    50
100
AcDbVertex
100
AcDb2dVertex
 10
83.847375
 20
54.617817
 30
0.0
  0
VERTEX
  5
3BD
330
3B0
100
AcDbEntity
  8
001
 62
   253
370
    50
100
AcDbVertex
100
AcDb2dVertex
 10
84.073898
 20
54.568778
 30
0.0
  0
VERTEX
  5
3BE
330
3B0
100
AcDbEntity
  8
001
 62
   253
370
    50
100
AcDbVertex
100
AcDb2dVertex
 10
84.300991
 20
54.522449
 30
0.0
  0
VERTEX
  5
3BF
330
3B0
100
AcDbEntity
  8
001
 62
   253
370
    50
100
AcDbVertex
100
AcDb2dVertex
 10
84.5923
 20
54.467257
 30
0.0
  0
VERTEX
  5
3C0
330
3B0
100
AcDbEntity
  8
001
 62
   253
370
    50
100
AcDbVertex
100
AcDb2dVertex
 10
84.884456
 20
54.41669
 30
0.0
  0
VERTEX
  5
3C1
330
3B0
100
AcDbEntity
  8
001
 62
   253
370
    50
100
AcDbVertex
100
AcDb2dVertex
 10
85.210803
 20
54.365956
 30
0.0
  0
VERTEX
  5
3C2
330
3B0
100
AcDbEntity
  8
001
 62
   253
370
    50
100
AcDbVertex
100
AcDb2dVertex
 10
85.538068
 20
54.321652
 30
0.0
  0
VERTEX
  5
3C3
330
3B0
100
AcDbEntity
  8
001
 62
   253
370
    50
100
AcDbVertex
100
AcDb2dVertex
 10
85.619931
 20
54.311628
 30
0.0
  0
VERTEX
  5
3C4
330
3B0
100
AcDbEntity
  8
001
 62
   253
370
    50
100
AcDbVertex
100
AcDb2dVertex
 10
85.701821
 20
54.301824
 30
0.0
  0
SEQEND
  5
3B1
330
3B0
100
AcDbEntity
  8
001
370
    50
  0
LINE
  5
3C5
330
1F
100
AcDbEntity
  8
001
 62
   253
370
    50
100
AcDbLine
 10
82.845825
 20
54.869508
 30
0.0
 11
81.83973
 21
54.869508
 31
0.0
  0
LINE
  5
3C6
330
1F
100
AcDbEntity
  8
001
 62
   253
370
    50
100
AcDbLine
 10
96.849026
 20
54.869508
 30
0.0
 11
92.305903
 21
54.869508
 31
0.0
  0
LINE
  5
3C7
330
1F
100
AcDbEntity
  8
001
 62
   253
370
    50
100
AcDbLine
 10
107.571781
 20
54.869508
 30
0.0
 11
106.297533
 21
54.869508
 31
0.0
  0
LINE
  5
3C8
330
1F
100
AcDbEntity
  8
001
 62
   253
370
    50
100
AcDbLine
 10
81.83973
 20
29.869508
 30
0.0
 11
107.571781
 21
29.869508
 31
0.0
  0
POLYLINE
  5
3C9
330
1F
100
AcDbEntity
  8
001
 62
   253
370
    50
100
AcDb2dPolyline
 66
     1
 10
0.0
 20
0.0
 30
0.0
  0
VERTEX
  5
3CB
330
3C9
100
AcDbEntity
  8
001
 62
   253
370
    50
100
AcDbVertex
100
AcDb2dVertex
 10
104.091017
 20
54.389848
 30
0.0
  0
VERTEX
  5
3CC
330
3C9
100
AcDbEntity
  8
001
 62
   253
370
    50
100
AcDbVertex
100
AcDb2dVertex
 10
103.973713
 20
54.367858
 30
0.0
  0
VERTEX
  5
3CD
330
3C9
100
AcDbEntity
  8
001
 62
   253
370
    50
100
AcDbVertex
100
AcDb2dVertex
 10
103.85622
 20
54.346964
 30
0.0
  0
VERTEX
  5
3CE
330
3C9
100
AcDbEntity
  8
001
 62
   253
370
    50
100
AcDbVertex
100
AcDb2dVertex
 10
103.667711
 20
54.317602
 30
0.0
  0
VERTEX
  5
3CF
330
3C9
100
AcDbEntity
  8
001
 62
   253
370
    50
100
AcDbVertex
100
AcDb2dVertex
 10
103.478559
 20
54.292491
 30
0.0
  0
VERTEX
  5
3D0
330
3C9
100
AcDbEntity
  8
001
 62
   253
370
    50
100
AcDbVertex
100
AcDb2dVertex
 10
103.279449
 20
54.269387
 30
0.0
  0
VERTEX
  5
3D1
330
3C9
100
AcDbEntity
  8
001
 62
   253
370
    50
100
AcDbVertex
100
AcDb2dVertex
 10
103.080053
 20
54.249003
 30
0.0
  0
VERTEX
  5
3D2
330
3C9
100
AcDbEntity
  8
001
 62
   253
370
    50
100
AcDbVertex
100
AcDb2dVertex
 10
102.876012
 20
54.230528
 30
0.0
  0
VERTEX
  5
3D3
330
3C9
100
AcDbEntity
  8
001
 62
   253
370
    50
100
AcDbVertex
100
AcDb2dVertex
 10
102.671786
 20
54.214167
 30
0.0
  0
VERTEX
  5
3D4
330
3C9
100
AcDbEntity
  8
001
 62
   253
370
    50
100
AcDbVertex
100
AcDb2dVertex
 10
102.418772
 20
54.196624
 30
0.0
  0
VERTEX
  5
3D5
330
3C9
100
AcDbEntity
  8
001
 62
   253
370
    50
100
AcDbVertex
100
AcDb2dVertex
 10
102.165559
 20
54.182275
 30
0.0
  0
VERTEX
  5
3D6
330
3C9
100
AcDbEntity
  8
001
 62
   253
370
    50
100
AcDbVertex
100
AcDb2dVertex
 10
101.90927
 20
54.171259
 30
0.0
  0
VERTEX
  5
3D7
330
3C9
100
AcDbEntity
  8
001
 62
   253
370
    50
100
AcDbVertex
100
AcDb2dVertex
 10
101.652856
 20
54.163761
 30
0.0
  0
VERTEX
  5
3D8
330
3C9
100
AcDbEntity
  8
001
 62
   253
370
    50
100
AcDbVertex
100
AcDb2dVertex
 10
101.396001
 20
54.159734
 30
0.0
  0
VERTEX
  5
3D9
330
3C9
100
AcDbEntity
  8
001
 62
   253
370
    50
100
AcDbVertex
100
AcDb2dVertex
 10
101.139101
 20
54.15921
 30
0.0
  0
VERTEX
  5
3DA
330
3C9
100
AcDbEntity
  8
001
 62
   253
370
    50
100
AcDbVertex
100
AcDb2dVertex
 10
100.965302
 20
54.160959
 30
0.0
  0
VERTEX
  5
3DB
330
3C9
100
AcDbEntity
  8
001
 62
   253
370
    50
100
AcDbVertex
100
AcDb2dVertex
 10
100.791573
 20
54.164938
 30
0.0
  0
VERTEX
  5
3DC
330
3C9
100
AcDbEntity
  8
001
 62
   253
370
    50
100
AcDbVertex
100
AcDb2dVertex
 10
100.619196
 20
54.171636
 30
0.0
  0
VERTEX
  5
3DD
330
3C9
100
AcDbEntity
  8
001
 62
   253
370
    50
100
AcDbVertex
100
AcDb2dVertex
 10
100.44686
 20
54.181351
 30
0.0
  0
VERTEX
  5
3DE
330
3C9
100
AcDbEntity
  8
001
 62
   253
370
    50
100
AcDbVertex
100
AcDb2dVertex
 10
100.280161
 20
54.194157
 30
0.0
  0
VERTEX
  5
3DF
330
3C9
100
AcDbEntity
  8
001
 62
   253
370
    50
100
AcDbVertex
100
AcDb2dVertex
 10
100.114272
 20
54.212148
 30
0.0
  0
VERTEX
  5
3E0
330
3C9
100
AcDbEntity
  8
001
 62
   253
370
    50
100
AcDbVertex
100
AcDb2dVertex
 10
100.000905
 20
54.228176
 30
0.0
  0
VERTEX
  5
3E1
330
3C9
100
AcDbEntity
  8
001
 62
   253
370
    50
100
AcDbVertex
100
AcDb2dVertex
 10
99.887106
 20
54.245557
 30
0.0
  0
VERTEX
  5
3E2
330
3C9
100
AcDbEntity
  8
001
 62
   253
370
    50
100
AcDbVertex
100
AcDb2dVertex
 10
99.819005
 20
54.25712
 30
0.0
  0
VERTEX
  5
3E3
330
3C9
100
AcDbEntity
  8
001
 62
   253
370
    50
100
AcDbVertex
100
AcDb2dVertex
 10
99.753497
 20
54.276421
 30
0.0
  0
VERTEX
  5
3E4
330
3C9
100
AcDbEntity
  8
001
 62
   253
370
    50
100
AcDbVertex
100
AcDb2dVertex
 10
99.727404
 20
54.288428
 30
0.0
  0
VERTEX
  5
3E5
330
3C9
100
AcDbEntity
  8
001
 62
   253
370
    50
100
AcDbVertex
100
AcDb2dVertex
 10
99.701821
 20
54.301824
 30
0.0
  0
SEQEND
  5
3CA
330
3C9
100
AcDbEntity
  8
001
370
    50
  0
POLYLINE
  5
3E6
330
1F
100
AcDbEntity
  8
001
 62
   253
370
    50
100
AcDb2dPolyline
 66
     1
 10
0.0
 20
0.0
 30
0.0
  0
VERTEX
  5
3E8
330
3E6
100
AcDbEntity
  8
001
 62
   253
370
    50
100
AcDbVertex
100
AcDb2dVertex
 10
104.091017
 20
54.389848
 30
0.0
  0
VERTEX
  5
3E9
330
3E6
100
AcDbEntity
  8
001
 62
   253
370
    50
100
AcDbVertex
100
AcDb2dVertex
 10
104.186544
 20
54.405009
 30
0.0
  0
VERTEX
  5
3EA
330
3E6
100
AcDbEntity
  8
001
 62
   253
370
    50
100
AcDbVertex
100
AcDb2dVertex
 10
104.282021
 20
54.420476
 30
0.0
  0
VERTEX
  5
3EB
330
3E6
100
AcDbEntity
  8
001
 62
   253
370
    50
100
AcDbVertex
100
AcDb2dVertex
 10
104.456732
 20
54.450276
 30
0.0
  0
VERTEX
  5
3EC
330
3E6
100
AcDbEntity
  8
001
 62
   253
370
    50
100
AcDbVertex
100
AcDb2dVertex
 10
104.631126
 20
54.48189
 30
0.0
  0
VERTEX
  5
3ED
330
3E6
100
AcDbEntity
  8
001
 62
   253
370
    50
100
AcDbVertex
100
AcDb2dVertex
 10
104.79587
 20
54.513293
 30
0.0
  0
VERTEX
  5
3EE
330
3E6
100
AcDbEntity
  8
001
 62
   253
370
    50
100
AcDbVertex
100
AcDb2dVertex
 10
104.960334
 20
54.546123
 30
0.0
  0
VERTEX
  5
3EF
330
3E6
100
AcDbEntity
  8
001
 62
   253
370
    50
100
AcDbVertex
100
AcDb2dVertex
 10
105.184845
 20
54.593363
 30
0.0
  0
VERTEX
  5
3F0
330
3E6
100
AcDbEntity
  8
001
 62
   253
370
    50
100
AcDbVertex
100
AcDb2dVertex
 10
105.408791
 20
54.643223
 30
0.0
  0
VERTEX
  5
3F1
330
3E6
100
AcDbEntity
  8
001
 62
   253
370
    50
100
AcDbVertex
100
AcDb2dVertex
 10
105.599865
 20
54.687876
 30
0.0
  0
VERTEX
  5
3F2
330
3E6
100
AcDbEntity
  8
001
 62
   253
370
    50
100
AcDbVertex
100
AcDb2dVertex
 10
105.790505
 20
54.734341
 30
0.0
  0
VERTEX
  5
3F3
330
3E6
100
AcDbEntity
  8
001
 62
   253
370
    50
100
AcDbVertex
100
AcDb2dVertex
 10
105.921715
 20
54.767419
 30
0.0
  0
VERTEX
  5
3F4
330
3E6
100
AcDbEntity
  8
001
 62
   253
370
    50
100
AcDbVertex
100
AcDb2dVertex
 10
106.052717
 20
54.80131
 30
0.0
  0
VERTEX
  5
3F5
330
3E6
100
AcDbEntity
  8
001
 62
   253
370
    50
100
AcDbVertex
100
AcDb2dVertex
 10
106.14163
 20
54.824797
 30
0.0
  0
VERTEX
  5
3F6
330
3E6
100
AcDbEntity
  8
001
 62
   253
370
    50
100
AcDbVertex
100
AcDb2dVertex
 10
106.230438
 20
54.848676
 30
0.0
  0
VERTEX
  5
3F7
330
3E6
100
AcDbEntity
  8
001
 62
   253
370
    50
100
AcDbVertex
100
AcDb2dVertex
 10
106.268618
 20
54.859073
 30
0.0
  0
VERTEX
  5
3F8
330
3E6
100
AcDbEntity
  8
001
 62
   253
370
    50
100
AcDbVertex
100
AcDb2dVertex
 10
106.306788
 20
54.869508
 30
0.0
  0
SEQEND
  5
3E7
330
3E6
100
AcDbEntity
  8
001
370
    50
  0
POLYLINE
  5
3F9
330
1F
100
AcDbEntity
  8
001
 62
   253
370
    50
100
AcDb2dPolyline
 66
     1
 10
0.0
 20
0.0
 30
0.0
  0
VERTEX
  5
3FB
330
3F9
100
AcDbEntity
  8
001
 62
   253
370
    50
100
AcDbVertex
100
AcDb2dVertex
 10
90.091017
 20
54.389848
 30
0.0
  0
VERTEX
  5
3FC
330
3F9
100
AcDbEntity
  8
001
 62
   253
370
    50
100
AcDbVertex
100
AcDb2dVertex
 10
89.973713
 20
54.367858
 30
0.0
  0
VERTEX
  5
3FD
330
3F9
100
AcDbEntity
  8
001
 62
   253
370
    50
100
AcDbVertex
100
AcDb2dVertex
 10
89.85622
 20
54.346964
 30
0.0
  0
VERTEX
  5
3FE
330
3F9
100
AcDbEntity
  8
001
 62
   253
370
    50
100
AcDbVertex
100
AcDb2dVertex
 10
89.667711
 20
54.317602
 30
0.0
  0
VERTEX
  5
3FF
330
3F9
100
AcDbEntity
  8
001
 62
   253
370
    50
100
AcDbVertex
100
AcDb2dVertex
 10
89.478559
 20
54.292491
 30
0.0
  0
VERTEX
  5
400
330
3F9
100
AcDbEntity
  8
001
 62
   253
370
    50
100
AcDbVertex
100
AcDb2dVertex
 10
89.279449
 20
54.269387
 30
0.0
  0
VERTEX
  5
401
330
3F9
100
AcDbEntity
  8
001
 62
   253
370
    50
100
AcDbVertex
100
AcDb2dVertex
 10
89.080053
 20
54.249003
 30
0.0
  0
VERTEX
  5
402
330
3F9
100
AcDbEntity
  8
001
 62
   253
370
    50
100
AcDbVertex
100
AcDb2dVertex
 10
88.876012
 20
54.230528
 30
0.0
  0
VERTEX
  5
403
330
3F9
100
AcDbEntity
  8
001
 62
   253
370
    50
100
AcDbVertex
100
AcDb2dVertex
 10
88.671786
 20
54.214167
 30
0.0
  0
VERTEX
  5
404
330
3F9
100
AcDbEntity
  8
001
 62
   253
370
    50
100
AcDbVertex
100
AcDb2dVertex
 10
88.418772
 20
54.196624
 30
0.0
  0
VERTEX
  5
405
330
3F9
100
AcDbEntity
  8
001
 62
   253
370
    50
100
AcDbVertex
100
AcDb2dVertex
 10
88.165559
 20
54.182275
 30
0.0
  0
VERTEX
  5
406
330
3F9
100
AcDbEntity
  8
001
 62
   253
370
    50
100
AcDbVertex
100
AcDb2dVertex
 10
87.90927
 20
54.171259
 30
0.0
  0
VERTEX
  5
407
330
3F9
100
AcDbEntity
  8
001
 62
   253
370
    50
100
AcDbVertex
100
AcDb2dVertex
 10
87.652856
 20
54.163761
 30
0.0
  0
VERTEX
  5
408
330
3F9
100
AcDbEntity
  8
001
 62
   253
370
    50
100
AcDbVertex
100
AcDb2dVertex
 10
87.396001
 20
54.159734
 30
0.0
  0
VERTEX
  5
409
330
3F9
100
AcDbEntity
  8
001
 62
   253
370
    50
100
AcDbVertex
100
AcDb2dVertex
 10
87.139101
 20
54.15921
 30
0.0
  0
VERTEX
  5
40A
330
3F9
100
AcDbEntity
  8
001
 62
   253
370
    50
100
AcDbVertex
100
AcDb2dVertex
 10
86.965302
 20
54.160959
 30
0.0
  0
VERTEX
  5
40B
330
3F9
100
AcDbEntity
  8
001
 62
   253
370
    50
100
AcDbVertex
100
AcDb2dVertex
 10
86.791573
 20
54.164938
 30
0.0
  0
VERTEX
  5
40C
330
3F9
100
AcDbEntity
  8
001
 62
   253
370
    50
100
AcDbVertex
100
AcDb2dVertex
 10
86.619196
 20
54.171636
 30
0.0
  0
VERTEX
  5
40D
330
3F9
100
AcDbEntity
  8
001
 62
   253
370
    50
100
AcDbVertex
100
AcDb2dVertex
 10
86.44686
 20
54.181351
 30
0.0
  0
VERTEX
  5
40E
330
3F9
100
AcDbEntity
  8
001
 62
   253
370
    50
100
AcDbVertex
100
AcDb2dVertex
 10
86.280161
 20
54.194157
 30
0.0
  0
VERTEX
  5
40F
330
3F9
100
AcDbEntity
  8
001
 62
   253
370
    50
100
AcDbVertex
100
AcDb2dVertex
 10
86.114272
 20
54.212148
 30
0.0
  0
VERTEX
  5
410
330
3F9
100
AcDbEntity
  8
001
 62
   253
370
    50
100
AcDbVertex
100
AcDb2dVertex
 10
86.000905
 20
54.228176
 30
0.0
  0
VERTEX
  5
411
330
3F9
100
AcDbEntity
  8
001
 62
   253
370
    50
100
AcDbVertex
100
AcDb2dVertex
 10
85.887106
 20
54.245557
 30
0.0
  0
VERTEX
  5
412
330
3F9
100
AcDbEntity
  8
001
 62
   253
370
    50
100
AcDbVertex
100
AcDb2dVertex
 10
85.819005
 20
54.25712
 30
0.0
  0
VERTEX
  5
413
330
3F9
100
AcDbEntity
  8
001
 62
   253
370
    50
100
AcDbVertex
100
AcDb2dVertex
 10
85.753497
 20
54.276421
 30
0.0
  0
VERTEX
  5
414
330
3F9
100
AcDbEntity
  8
001
 62
   253
370
    50
100
AcDbVertex
100
AcDb2dVertex
 10
85.727404
 20
54.288428
 30
0.0
  0
VERTEX
  5
415
330
3F9
100
AcDbEntity
  8
001
 62
   253
370
    50
100
AcDbVertex
100
AcDb2dVertex
 10
85.701821
 20
54.301824
 30
0.0
  0
SEQEND
  5
3FA
330
3F9
100
AcDbEntity
  8
001
370
    50
  0
POLYLINE
  5
416
330
1F
100
AcDbEntity
  8
001
 62
   253
370
    50
100
AcDb2dPolyline
 66
     1
 10
0.0
 20
0.0
 30
0.0
  0
VERTEX
  5
418
330
416
100
AcDbEntity
  8
001
 62
   253
370
    50
100
AcDbVertex
100
AcDb2dVertex
 10
90.091017
 20
54.389848
 30
0.0
  0
VERTEX
  5
419
330
416
100
AcDbEntity
  8
001
 62
   253
370
    50
100
AcDbVertex
100
AcDb2dVertex
 10
90.262833
 20
54.417619
 30
0.0
  0
VERTEX
  5
41A
330
416
100
AcDbEntity
  8
001
 62
   253
370
    50
100
AcDbVertex
100
AcDb2dVertex
 10
90.43447
 20
54.446437
 30
0.0
  0
VERTEX
  5
41B
330
416
100
AcDbEntity
  8
001
 62
   253
370
    50
100
AcDbVertex
100
AcDb2dVertex
 10
90.600608
 20
54.476163
 30
0.0
  0
VERTEX
  5
41C
330
416
100
AcDbEntity
  8
001
 62
   253
370
    50
100
AcDbVertex
100
AcDb2dVertex
 10
90.766442
 20
54.507557
 30
0.0
  0
VERTEX
  5
41D
330
416
100
AcDbEntity
  8
001
 62
   253
370
    50
100
AcDbVertex
100
AcDb2dVertex
 10
90.922399
 20
54.538434
 30
0.0
  0
VERTEX
  5
41E
330
416
100
AcDbEntity
  8
001
 62
   253
370
    50
100
AcDbVertex
100
AcDb2dVertex
 10
91.078101
 20
54.570562
 30
0.0
  0
VERTEX
  5
41F
330
416
100
AcDbEntity
  8
001
 62
   253
370
    50
100
AcDbVertex
100
AcDb2dVertex
 10
91.295129
 20
54.617575
 30
0.0
  0
VERTEX
  5
420
330
416
100
AcDbEntity
  8
001
 62
   253
370
    50
100
AcDbVertex
100
AcDb2dVertex
 10
91.511619
 20
54.667014
 30
0.0
  0
VERTEX
  5
421
330
416
100
AcDbEntity
  8
001
 62
   253
370
    50
100
AcDbVertex
100
AcDb2dVertex
 10
91.692792
 20
54.710289
 30
0.0
  0
VERTEX
  5
422
330
416
100
AcDbEntity
  8
001
 62
   253
370
    50
100
AcDbVertex
100
AcDb2dVertex
 10
91.873571
 20
54.755176
 30
0.0
  0
VERTEX
  5
423
330
416
100
AcDbEntity
  8
001
 62
   253
370
    50
100
AcDbVertex
100
AcDb2dVertex
 10
91.99129
 20
54.78531
 30
0.0
  0
VERTEX
  5
424
330
416
100
AcDbEntity
  8
001
 62
   253
370
    50
100
AcDbVertex
100
AcDb2dVertex
 10
92.10884
 20
54.816097
 30
0.0
  0
VERTEX
  5
425
330
416
100
AcDbEntity
  8
001
 62
   253
370
    50
100
AcDbVertex
100
AcDb2dVertex
 10
92.183827
 20
54.836094
 30
0.0
  0
VERTEX
  5
426
330
416
100
AcDbEntity
  8
001
 62
   253
370
    50
100
AcDbVertex
100
AcDb2dVertex
 10
92.258741
 20
54.856365
 30
0.0
  0
VERTEX
  5
427
330
416
100
AcDbEntity
  8
001
 62
   253
370
    50
100
AcDbVertex
100
AcDb2dVertex
 10
92.282767
 20
54.862929
 30
0.0
  0
VERTEX
  5
428
330
416
100
AcDbEntity
  8
001
 62
   253
370
    50
100
AcDbVertex
100
AcDb2dVertex
 10
92.306788
 20
54.869508
 30
0.0
  0
SEQEND
  5
417
330
416
100
AcDbEntity
  8
001
370
    50
  0
ARC
  5
429
330
1F
100
AcDbEntity
  8
001
 62
   253
370
    50
100
AcDbCircle
 10
81.83973
 20
30.869508
 30
0.0
 40
1.000000000000004
100
AcDbArc
 50
240.0
 51
270.0
  0
ARC
  5
42A
330
1F
100
AcDbEntity
  8
001
 62
   253
370
    50
100
AcDbCircle
 10
81.83973
 20
53.869508
 30
0.0
 40
1.000000000000004
100
AcDbArc
 50
90.0
 51
120.0
  0
LINE
  5
42B
330
1F
100
AcDbEntity
  8
001
 62
   253
370
    50
100
AcDbLine
 10
81.33973
 20
54.735534
 30
0.0
 11
78.071781
 21
52.848782
 31
0.0
  0
LINE
  5
42C
330
1F
100
AcDbEntity
  8
001
 62
   253
370
    50
100
AcDbLine
 10
78.071781
 20
31.890234
 30
0.0
 11
81.33973
 21
30.003483
 31
0.0
  0
ARC
  5
42D
330
1F
100
AcDbEntity
  8
001
 62
   253
370
    50
100
AcDbCircle
 10
78.571781
 20
32.75626
 30
0.0
 40
1.0
100
AcDbArc
 50
180.0
 51
240.0
  0
ARC
  5
42E
330
1F
100
AcDbEntity
  8
001
 62
   253
370
    50
100
AcDbCircle
 10
78.571781
 20
51.982757
 30
0.0
 40
1.0
100
AcDbArc
 50
120.0
 51
180.0
  0
LINE
  5
42F
330
1F
100
AcDbEntity
  8
001
 62
   253
370
    50
100
AcDbLine
 10
77.571781
 20
51.982757
 30
0.0
 11
77.571781
 21
32.75626
 31
0.0
  0
ARC
  5
430
330
1F
100
AcDbEntity
  8
001
 62
   253
370
    50
100
AcDbCircle
 10
265.936139
 20
142.6026
 30
0.0
 40
15.99999999999999
100
AcDbArc
 50
208.955024
 51
151.044976
  0
LINE
  5
431
330
1F
100
AcDbEntity
  8
001
 62
   253
370
    50
100
AcDbLine
 10
251.936139
 20
134.856634
 30
0.0
 11
251.936139
 21
150.348567
 31
0.0
  0
CIRCLE
  5
432
330
1F
100
AcDbEntity
  8
001
 62
   253
370
    50
100
AcDbCircle
 10
265.936139
 20
142.6026
 30
0.0
 40
5.207106781186543
  0
CIRCLE
  5
433
330
1F
100
AcDbEntity
  8
001
 62
   253
370
    50
100
AcDbCircle
 10
265.936139
 20
142.6026
 30
0.0
 40
4.999999999999993
  0
CIRCLE
  5
434
330
1F
100
AcDbEntity
  8
001
 62
   253
370
    50
100
AcDbCircle
 10
265.936139
 20
142.6026
 30
0.0
 40
20.0
  0
LINE
  5
435
330
1F
100
AcDbEntity
  8
001
  6
CENTER
370
     9
100
AcDbLine
 10
71.575964
 20
142.6026
 30
0.0
 11
198.732262
 21
142.6026
 31
0.0
  0
LINE
  5
436
330
1F
100
AcDbEntity
  8
001
  6
CENTER
370
     9
100
AcDbLine
 10
71.575964
 20
42.369508
 30
0.0
 11
198.732262
 21
42.369508
 31
0.0
  0
LINE
  5
437
330
1F
100
AcDbEntity
  8
001
  6
CENTER
370
     9
100
AcDbLine
 10
241.866496
 20
142.6026
 30
0.0
 11
288.912469
 21
142.6026
 31
0.0
  0
LINE
  5
438
330
1F
100
AcDbEntity
  8
001
  6
CENTER
370
     9
100
AcDbLine
 10
265.936139
 20
118.535768
 30
0.0
 11
265.936139
 21
166.650968
 31
0.0
  0
LINE
  5
439
330
1F
100
AcDbEntity
  8
001
  6
DASHED
370
    50
100
AcDbLine
 10
77.571781
 20
47.369508
 30
0.0
 11
192.571781
 21
47.369508
 31
0.0
  0
LINE
  5
43A
330
1F
100
AcDbEntity
  8
001
  6
DASHED
370
    50
100
AcDbLine
 10
77.571781
 20
37.369508
 30
0.0
 11
192.571781
 21
37.369508
 31
0.0
  0
LINE
  5
43B
330
1F
100
AcDbEntity
  8
001
  6
CENTER
370
     9
100
AcDbLine
 10
87.571781
 20
59.409453
 30
0.0
 11
87.571781
 21
44.859201
 31
0.0
  0
LINE
  5
43C
330
1F
100
AcDbEntity
  8
001
  6
CENTER
370
     9
100
AcDbLine
 10
101.571781
 20
59.409453
 30
0.0
 11
101.571781
 21
44.859201
 31
0.0
  0
LINE
  5
43D
330
1F
100
AcDbEntity
  8
001
  6
DASHED
370
    30
100
AcDbLine
 10
97.571781
 20
54.681195
 30
0.0
 11
97.571781
 21
47.369508
 31
0.0
  0
LINE
  5
43E
330
1F
100
AcDbEntity
  8
001
  6
DASHED
370
    30
100
AcDbLine
 10
105.571781
 20
54.681192
 30
0.0
 11
105.571781
 21
47.369508
 31
0.0
  0
LINE
  5
43F
330
1F
100
AcDbEntity
  8
001
  6
DASHED
370
    30
100
AcDbLine
 10
104.971781
 20
54.548464
 30
0.0
 11
104.971781
 21
47.369508
 31
0.0
  0
LINE
  5
440
330
1F
100
AcDbEntity
  8
001
  6
DASHED
370
    30
100
AcDbLine
 10
98.171781
 20
54.548464
 30
0.0
 11
98.171781
 21
47.369508
 31
0.0
  0
LINE
  5
441
330
1F
100
AcDbEntity
  8
001
  6
DASHED
370
    30
100
AcDbLine
 10
83.571781
 20
54.681195
 30
0.0
 11
83.571781
 21
47.369508
 31
0.0
  0
LINE
  5
442
330
1F
100
AcDbEntity
  8
001
  6
DASHED
370
    30
100
AcDbLine
 10
91.571781
 20
54.681192
 30
0.0
 11
91.571781
 21
47.369508
 31
0.0
  0
LINE
  5
443
330
1F
100
AcDbEntity
  8
001
  6
DASHED
370
    30
100
AcDbLine
 10
90.971781
 20
54.548464
 30
0.0
 11
90.971781
 21
47.369508
 31
0.0
  0
LINE
  5
444
330
1F
100
AcDbEntity
  8
001
  6
DASHED
370
    30
100
AcDbLine
 10
84.171781
 20
54.548464
 30
0.0
 11
84.171781
 21
47.369508
 31
0.0
  0
TEXT
  5
445
330
1F
100
AcDbEntity
  8
001
370
    30
100
AcDbText
 10
32.838262
 20
199.16144
 30
0.0
 40
10.0
  1
オイルッシャー　ＫＪＤ３２Ｓ０８
 41
0.833333
100
AcDbText
  0
LINE
  5
446
330
1F
100
AcDbEntity
  8
001
370
     9
100
AcDbLine
 10
115.571781
 20
150.348567
 30
0.0
 11
190.571781
 21
134.856634
 31
0.0
  0
LINE
  5
447
330
1F
100
AcDbEntity
  8
001
370
     9
100
AcDbLine
 10
190.571781
 20
150.348567
 30
0.0
 11
115.571781
 21
134.856634
 31
0.0
  0
ENDSEC
  0
SECTION
  2
OBJECTS
  0
DICTIONARY
  5
C
330
0
100
AcDbDictionary
281
     1
  3
ACAD_GROUP
350
D
  3
ACAD_LAYOUT
350
1A
  3
ACAD_MLEADERSTYLE
350
44B
  3
ACAD_MLINESTYLE
350
17
  3
ACAD_PLOTSETTINGS
350
19
  3
ACAD_PLOTSTYLENAME
350
E
  3
ACAD_SCALELIST
350
3B
  3
ACAD_TABLESTYLE
350
44A
  3
ACAD_VISUALSTYLE
350
2A
  3
AcDbVariableDictionary
350
448
  0
DICTIONARY
  5
D
102
{ACAD_REACTORS
330
C
102
}
330
C
100
AcDbDictionary
281
     1
  0
DICTIONARY
  5
1A
102
{ACAD_REACTORS
330
C
102
}
330
C
100
AcDbDictionary
281
     1
  3
Layout1
350
1E
  3
Layout2
350
26
  3
Model
350
22
  0
DICTIONARY
  5
44B
102
{ACAD_REACTORS
330
C
102
}
330
C
100
AcDbDictionary
281
     1
  0
DICTIONARY
  5
17
102
{ACAD_REACTORS
330
C
102
}
330
C
100
AcDbDictionary
281
     1
  3
Standard
350
18
  0
DICTIONARY
  5
19
102
{ACAD_REACTORS
330
C
102
}
330
C
100
AcDbDictionary
281
     1
  0
ACDBDICTIONARYWDFLT
  5
E
102
{ACAD_REACTORS
330
C
102
}
330
C
100
AcDbDictionary
281
     1
  3
Normal
350
F
100
AcDbDictionaryWithDefault
340
F
  0
DICTIONARY
  5
3B
102
{ACAD_REACTORS
330
C
102
}
330
C
100
AcDbDictionary
281
     1
  3
A0
350
3C
  3
A1
350
3D
  3
A2
350
3E
  3
A3
350
3F
  3
A4
350
40
  3
A5
350
41
  3
A6
350
42
  3
A7
350
43
  3
A8
350
44
  3
A9
350
45
  3
B0
350
46
  3
B1
350
47
  3
B2
350
48
  3
B3
350
49
  3
B4
350
4A
  3
B5
350
4B
  3
B6
350
4C
  3
B7
350
4D
  3
B8
350
4E
  3
B9
350
4F
  3
C0
350
50
  3
C1
350
51
  3
C2
350
52
  3
C3
350
53
  3
C4
350
54
  3
C5
350
55
  3
C6
350
56
  3
C7
350
57
  3
C8
350
58
  3
C9
350
59
  3
D0
350
5A
  3
D1
350
5B
  3
D2
350
5C
  0
DICTIONARY
  5
44A
102
{ACAD_REACTORS
330
C
102
}
330
C
100
AcDbDictionary
281
     1
  0
DICTIONARY
  5
2A
102
{ACAD_REACTORS
330
C
102
}
330
C
100
AcDbDictionary
281
     1
  3
2dWireframe
350
2F
  3
3D Hidden
350
31
  3
3dWireframe
350
30
  3
Basic
350
32
  3
Brighten
350
36
  3
ColorChange
350
3A
  3
Conceptual
350
34
  3
Dim
350
35
  3
Facepattern
350
39
  3
Flat
350
2B
  3
FlatWithEdges
350
2C
  3
Gouraud
350
2D
  3
GouraudWithEdges
350
2E
  3
Linepattern
350
38
  3
Realistic
350
33
  3
Thicken
350
37
  0
DICTIONARY
  5
448
102
{ACAD_REACTORS
330
C
102
}
330
C
100
AcDbDictionary
281
     1
  3
CANNOSCALE
350
449
  3
PSOLHEIGHT
350
44D
  3
PSOLWIDTH
350
44C
  0
LAYOUT
  5
1E
102
{ACAD_REACTORS
330
1A
102
}
330
1A
100
AcDbPlotSettings
  1

  2
none_device
  4

  6

 40
0.0
 41
0.0
 42
0.0
 43
0.0
 44
0.0
 45
0.0
 46
0.0
 47
0.0
 48
0.0
 49
0.0
140
0.0
141
0.0
142
1.0
143
1.0
 70
   688
 72
     0
 73
     0
 74
     5
  7

 75
    16
147
1.0
148
0.0
149
0.0
100
AcDbLayout
  1
Layout1
 70
     1
 71
     1
 10
0.0
 20
0.0
 11
12.0
 21
9.0
 12
0.0
 22
0.0
 32
0.0
 14
1.000000E+20
 24
1.000000E+20
 34
0.0
 15
-1.000000E+20
 25
-1.000000E+20
 35
0.0
146
0.0
 13
0.0
 23
0.0
 33
0.0
 16
1.0
 26
0.0
 36
0.0
 17
0.0
 27
1.0
 37
0.0
 76
     0
330
1B
  0
LAYOUT
  5
26
102
{ACAD_REACTORS
330
1A
102
}
330
1A
100
AcDbPlotSettings
  1

  2
none_device
  4

  6

 40
0.0
 41
0.0
 42
0.0
 43
0.0
 44
0.0
 45
0.0
 46
0.0
 47
0.0
 48
0.0
 49
0.0
140
0.0
141
0.0
142
1.0
143
1.0
 70
   688
 72
     0
 73
     0
 74
     5
  7

 75
    16
147
1.0
148
0.0
149
0.0
100
AcDbLayout
  1
Layout2
 70
     1
 71
     2
 10
0.0
 20
0.0
 11
0.0
 21
0.0
 12
0.0
 22
0.0
 32
0.0
 14
0.0
 24
0.0
 34
0.0
 15
0.0
 25
0.0
 35
0.0
146
0.0
 13
0.0
 23
0.0
 33
0.0
 16
1.0
 26
0.0
 36
0.0
 17
0.0
 27
1.0
 37
0.0
 76
     0
330
23
  0
LAYOUT
  5
22
102
{ACAD_REACTORS
330
1A
102
}
330
1A
100
AcDbPlotSettings
  1

  2
none_device
  4

  6

 40
0.0
 41
0.0
 42
0.0
 43
0.0
 44
0.0
 45
0.0
 46
0.0
 47
0.0
 48
0.0
 49
0.0
140
0.0
141
0.0
142
1.0
143
1.0
 70
  1712
 72
     0
 73
     0
 74
     0
  7

 75
     0
147
1.0
148
0.0
149
0.0
100
AcDbLayout
  1
Model
 70
     1
 71
     0
 10
0.0
 20
0.0
 11
12.0
 21
9.0
 12
0.0
 22
0.0
 32
0.0
 14
0.79245
 24
-0.135498
 34
0.0
 15
288.912476
 25
209.161438
 35
0.0
146
0.0
 13
0.0
 23
0.0
 33
0.0
 16
1.0
 26
0.0
 36
0.0
 17
0.0
 27
1.0
 37
0.0
 76
     0
330
1F
331
29
  0
MLINESTYLE
  5
18
102
{ACAD_REACTORS
330
17
102
}
330
17
100
AcDbMlineStyle
  2
Standard
 70
     0
  3

 62
   256
 51
90.0
 52
90.0
 71
     2
 49
0.5
 62
   256
  6
BYLAYER
 49
-0.5
 62
   256
  6
BYLAYER
  0
ACDBPLACEHOLDER
  5
F
102
{ACAD_REACTORS
330
E
102
}
330
E
  0
SCALE
  5
3C
102
{ACAD_REACTORS
330
3B
102
}
330
3B
100
AcDbScale
 70
     0
300
1:1
140
1.0
141
1.0
290
     1
  0
SCALE
  5
3D
102
{ACAD_REACTORS
330
3B
102
}
330
3B
100
AcDbScale
 70
     0
300
1:2
140
1.0
141
2.0
290
     0
  0
SCALE
  5
3E
102
{ACAD_REACTORS
330
3B
102
}
330
3B
100
AcDbScale
 70
     0
300
1:4
140
1.0
141
4.0
290
     0
  0
SCALE
  5
3F
102
{ACAD_REACTORS
330
3B
102
}
330
3B
100
AcDbScale
 70
     0
300
1:5
140
1.0
141
5.0
290
     0
  0
SCALE
  5
40
102
{ACAD_REACTORS
330
3B
102
}
330
3B
100
AcDbScale
 70
     0
300
1:8
140
1.0
141
8.0
290
     0
  0
SCALE
  5
41
102
{ACAD_REACTORS
330
3B
102
}
330
3B
100
AcDbScale
 70
     0
300
1:10
140
1.0
141
10.0
290
     0
  0
SCALE
  5
42
102
{ACAD_REACTORS
330
3B
102
}
330
3B
100
AcDbScale
 70
     0
300
1:16
140
1.0
141
16.0
290
     0
  0
SCALE
  5
43
102
{ACAD_REACTORS
330
3B
102
}
330
3B
100
AcDbScale
 70
     0
300
1:20
140
1.0
141
20.0
290
     0
  0
SCALE
  5
44
102
{ACAD_REACTORS
330
3B
102
}
330
3B
100
AcDbScale
 70
     0
300
1:30
140
1.0
141
30.0
290
     0
  0
SCALE
  5
45
102
{ACAD_REACTORS
330
3B
102
}
330
3B
100
AcDbScale
 70
     0
300
1:40
140
1.0
141
40.0
290
     0
  0
SCALE
  5
46
102
{ACAD_REACTORS
330
3B
102
}
330
3B
100
AcDbScale
 70
     0
300
1:50
140
1.0
141
50.0
290
     0
  0
SCALE
  5
47
102
{ACAD_REACTORS
330
3B
102
}
330
3B
100
AcDbScale
 70
     0
300
1:100
140
1.0
141
100.0
290
     0
  0
SCALE
  5
48
102
{ACAD_REACTORS
330
3B
102
}
330
3B
100
AcDbScale
 70
     0
300
2:1
140
2.0
141
1.0
290
     0
  0
SCALE
  5
49
102
{ACAD_REACTORS
330
3B
102
}
330
3B
100
AcDbScale
 70
     0
300
4:1
140
4.0
141
1.0
290
     0
  0
SCALE
  5
4A
102
{ACAD_REACTORS
330
3B
102
}
330
3B
100
AcDbScale
 70
     0
300
8:1
140
8.0
141
1.0
290
     0
  0
SCALE
  5
4B
102
{ACAD_REACTORS
330
3B
102
}
330
3B
100
AcDbScale
 70
     0
300
10:1
140
10.0
141
1.0
290
     0
  0
SCALE
  5
4C
102
{ACAD_REACTORS
330
3B
102
}
330
3B
100
AcDbScale
 70
     0
300
100:1
140
100.0
141
1.0
290
     0
  0
SCALE
  5
4D
102
{ACAD_REACTORS
330
3B
102
}
330
3B
100
AcDbScale
 70
     0
300
1/128" = 1'-0"
140
0.007812
141
12.0
290
     0
  0
SCALE
  5
4E
102
{ACAD_REACTORS
330
3B
102
}
330
3B
100
AcDbScale
 70
     0
300
1/64" = 1'-0"
140
0.015625
141
12.0
290
     0
  0
SCALE
  5
4F
102
{ACAD_REACTORS
330
3B
102
}
330
3B
100
AcDbScale
 70
     0
300
1/32" = 1'-0"
140
0.03125
141
12.0
290
     0
  0
SCALE
  5
50
102
{ACAD_REACTORS
330
3B
102
}
330
3B
100
AcDbScale
 70
     0
300
1/16" = 1'-0"
140
0.0625
141
12.0
290
     0
  0
SCALE
  5
51
102
{ACAD_REACTORS
330
3B
102
}
330
3B
100
AcDbScale
 70
     0
300
3/32" = 1'-0"
140
0.09375
141
12.0
290
     0
  0
SCALE
  5
52
102
{ACAD_REACTORS
330
3B
102
}
330
3B
100
AcDbScale
 70
     0
300
1/8" = 1'-0"
140
0.125
141
12.0
290
     0
  0
SCALE
  5
53
102
{ACAD_REACTORS
330
3B
102
}
330
3B
100
AcDbScale
 70
     0
300
3/16" = 1'-0"
140
0.1875
141
12.0
290
     0
  0
SCALE
  5
54
102
{ACAD_REACTORS
330
3B
102
}
330
3B
100
AcDbScale
 70
     0
300
1/4" = 1'-0"
140
0.25
141
12.0
290
     0
  0
SCALE
  5
55
102
{ACAD_REACTORS
330
3B
102
}
330
3B
100
AcDbScale
 70
     0
300
3/8" = 1'-0"
140
0.375
141
12.0
290
     0
  0
SCALE
  5
56
102
{ACAD_REACTORS
330
3B
102
}
330
3B
100
AcDbScale
 70
     0
300
1/2" = 1'-0"
140
0.5
141
12.0
290
     0
  0
SCALE
  5
57
102
{ACAD_REACTORS
330
3B
102
}
330
3B
100
AcDbScale
 70
     0
300
3/4" = 1'-0"
140
0.75
141
12.0
290
     0
  0
SCALE
  5
58
102
{ACAD_REACTORS
330
3B
102
}
330
3B
100
AcDbScale
 70
     0
300
1" = 1'-0"
140
1.0
141
12.0
290
     0
  0
SCALE
  5
59
102
{ACAD_REACTORS
330
3B
102
}
330
3B
100
AcDbScale
 70
     0
300
1-1/2" = 1'-0"
140
1.5
141
12.0
290
     0
  0
SCALE
  5
5A
102
{ACAD_REACTORS
330
3B
102
}
330
3B
100
AcDbScale
 70
     0
300
3" = 1'-0"
140
3.0
141
12.0
290
     0
  0
SCALE
  5
5B
102
{ACAD_REACTORS
330
3B
102
}
330
3B
100
AcDbScale
 70
     0
300
6" = 1'-0"
140
6.0
141
12.0
290
     0
  0
SCALE
  5
5C
102
{ACAD_REACTORS
330
3B
102
}
330
3B
100
AcDbScale
 70
     0
300
1'-0" = 1'-0"
140
12.0
141
12.0
290
     0
  0
VISUALSTYLE
  5
2F
102
{ACAD_REACTORS
330
2A
102
}
330
2A
100
AcDbVisualStyle
  2
2dWireframe
 70
     4
 71
     0
 72
     2
 73
     0
 90
        0
 40
-0.6
 41
-30.0
 62
     5
 63
     7
 74
     1
 91
        4
 64
     7
 65
   257
 75
     1
175
     1
 42
1.0
 92
        0
 66
   257
 43
1.0
 76
     1
 77
     6
 78
     2
 67
     7
 79
     5
170
     0
171
     0
290
     0
174
     0
 93
        1
 44
0.0
173
     0
291
     0
 45
0.0
1001
ACAD
1000
AcDbSavedByObjectVersion
1070
     0
  0
VISUALSTYLE
  5
31
102
{ACAD_REACTORS
330
2A
102
}
330
2A
100
AcDbVisualStyle
  2
3D Hidden
 70
     6
 71
     1
 72
     2
 73
     2
 90
        0
 40
-0.6
 41
-30.0
 62
     5
 63
     7
 74
     2
 91
        2
 64
     7
 65
   257
 75
     2
175
     1
 42
40.0
 92
        0
 66
   257
 43
1.0
 76
     1
 77
     6
 78
     2
 67
     7
 79
     3
170
     0
171
     0
290
     0
174
     0
 93
        1
 44
0.0
173
     0
291
     0
 45
0.0
1001
ACAD
1000
AcDbSavedByObjectVersion
1070
     0
  0
VISUALSTYLE
  5
30
102
{ACAD_REACTORS
330
2A
102
}
330
2A
100
AcDbVisualStyle
  2
3dWireframe
 70
     5
 71
     0
 72
     2
 73
     0
 90
        0
 40
-0.6
 41
-30.0
 62
     5
 63
     7
 74
     1
 91
        4
 64
     7
 65
   257
 75
     1
175
     1
 42
1.0
 92
        0
 66
   257
 43
1.0
 76
     1
 77
     6
 78
     2
 67
     7
 79
     5
170
     0
171
     0
290
     0
174
     0
 93
        1
 44
0.0
173
     0
291
     0
 45
0.0
1001
ACAD
1000
AcDbSavedByObjectVersion
1070
     0
  0
VISUALSTYLE
  5
32
102
{ACAD_REACTORS
330
2A
102
}
330
2A
100
AcDbVisualStyle
  2
Basic
 70
     7
 71
     1
 72
     0
 73
     1
 90
        0
 40
-0.6
 41
-30.0
 62
     5
 63
     7
 74
     0
 91
        4
 64
     7
 65
   257
 75
     1
175
     1
 42
1.0
 92
        8
 66
     7
 43
1.0
 76
     1
 77
     6
 78
     2
 67
     7
 79
     5
170
     0
171
     0
290
     0
174
     0
 93
        1
 44
0.0
173
     0
291
     1
 45
0.0
1001
ACAD
1000
AcDbSavedByObjectVersion
1070
     0
  0
VISUALSTYLE
  5
36
102
{ACAD_REACTORS
330
2A
102
}
330
2A
100
AcDbVisualStyle
  2
Brighten
 70
    12
 71
     2
 72
     2
 73
     0
 90
        0
 40
-0.6
 41
-30.0
 62
     5
 63
     7
 74
     1
 91
        4
 64
     7
 65
   257
 75
     1
175
     1
 42
1.0
 92
        8
 66
     7
 43
1.0
 76
     1
 77
     6
 78
     2
 67
     7
 79
     5
170
     0
171
     0
290
     0
174
     0
 93
        1
 44
50.0
173
     0
291
     1
 45
0.0
1001
ACAD
1000
AcDbSavedByObjectVersion
1070
     0
  0
VISUALSTYLE
  5
3A
102
{ACAD_REACTORS
330
2A
102
}
330
2A
100
AcDbVisualStyle
  2
ColorChange
 70
    16
 71
     2
 72
     2
 73
     3
 90
        0
 40
-0.6
 41
-30.0
 62
     5
 63
     8
 74
     1
 91
        4
 64
     7
 65
   257
 75
     1
175
     1
 42
1.0
 92
        8
 66
     8
 43
1.0
 76
     1
 77
     6
 78
     2
 67
     7
 79
     5
170
     0
171
     0
290
     0
174
     0
 93
        1
 44
0.0
173
     0
291
     1
 45
0.0
1001
ACAD
1000
AcDbSavedByObjectVersion
1070
     0
  0
VISUALSTYLE
  5
34
102
{ACAD_REACTORS
330
2A
102
}
330
2A
100
AcDbVisualStyle
  2
Conceptual
 70
     9
 71
     3
 72
     2
 73
     0
 90
        0
 40
-0.6
 41
-30.0
 62
     5
 63
     7
 74
     2
 91
        2
 64
     7
 65
   257
 75
     1
175
     1
 42
40.0
 92
        8
 66
     7
 43
1.0
 76
     1
 77
     6
 78
     2
 67
     7
 79
     3
170
     0
171
     0
290
     0
174
     0
 93
        1
 44
0.0
173
     0
291
     0
 45
0.0
1001
ACAD
1000
AcDbSavedByObjectVersion
1070
     0
  0
VISUALSTYLE
  5
35
102
{ACAD_REACTORS
330
2A
102
}
330
2A
100
AcDbVisualStyle
  2
Dim
 70
    11
 71
     2
 72
     2
 73
     0
 90
        0
 40
-0.6
 41
-30.0
 62
     5
 63
     7
 74
     1
 91
        4
 64
     7
 65
   257
 75
     1
175
     1
 42
1.0
 92
        8
 66
     7
 43
1.0
 76
     1
 77
     6
 78
     2
 67
     7
 79
     5
170
     0
171
     0
290
     0
174
     0
 93
        1
 44
-50.0
173
     0
291
     1
 45
0.0
1001
ACAD
1000
AcDbSavedByObjectVersion
1070
     0
  0
VISUALSTYLE
  5
39
102
{ACAD_REACTORS
330
2A
102
}
330
2A
100
AcDbVisualStyle
  2
Facepattern
 70
    15
 71
     2
 72
     2
 73
     0
 90
        0
 40
-0.6
 41
-30.0
 62
     5
 63
     7
 74
     1
 91
        4
 64
     7
 65
   257
 75
     1
175
     1
 42
1.0
 92
        8
 66
     7
 43
1.0
 76
     1
 77
     6
 78
     2
 67
     7
 79
     5
170
     0
171
     0
290
     0
174
     0
 93
        1
 44
0.0
173
     0
291
     1
 45
0.0
1001
ACAD
1000
AcDbSavedByObjectVersion
1070
     0
  0
VISUALSTYLE
  5
2B
102
{ACAD_REACTORS
330
2A
102
}
330
2A
100
AcDbVisualStyle
  2
Flat
 70
     0
 71
     2
 72
     1
 73
     1
 90
        2
 40
-0.6
 41
30.0
 62
     5
 63
     7
 74
     0
 91
        4
 64
     7
 65
   257
 75
     1
175
     1
 42
1.0
 92
        8
 66
     7
 43
1.0
 76
     1
 77
     6
 78
     2
 67
     7
 79
     5
170
     0
171
     0
290
     0
174
     0
 93
       13
 44
0.0
173
     0
291
     1
 45
0.0
1001
ACAD
1000
AcDbSavedByObjectVersion
1070
     0
  0
VISUALSTYLE
  5
2C
102
{ACAD_REACTORS
330
2A
102
}
330
2A
100
AcDbVisualStyle
  2
FlatWithEdges
 70
     1
 71
     2
 72
     1
 73
     1
 90
        2
 40
-0.6
 41
30.0
 62
     5
 63
     7
 74
     1
 91
        4
 64
     7
 65
   257
 75
     1
175
     1
 42
1.0
 92
        0
 66
   257
 43
1.0
 76
     1
 77
     6
 78
     2
 67
     7
 79
     5
170
     0
171
     0
290
     0
174
     0
 93
       13
 44
0.0
173
     0
291
     1
 45
0.0
1001
ACAD
1000
AcDbSavedByObjectVersion
1070
     0
  0
VISUALSTYLE
  5
2D
102
{ACAD_REACTORS
330
2A
102
}
330
2A
100
AcDbVisualStyle
  2
Gouraud
 70
     2
 71
     2
 72
     2
 73
     1
 90
        2
 40
-0.6
 41
30.0
 62
     5
 63
     7
 74
     0
 91
        4
 64
     7
 65
   257
 75
     1
175
     1
 42
1.0
 92
        0
 66
     7
 43
1.0
 76
     1
 77
     6
 78
     2
 67
     7
 79
     5
170
     0
171
     0
290
     0
174
     0
 93
       13
 44
0.0
173
     0
291
     1
 45
0.0
1001
ACAD
1000
AcDbSavedByObjectVersion
1070
     0
  0
VISUALSTYLE
  5
2E
102
{ACAD_REACTORS
330
2A
102
}
330
2A
100
AcDbVisualStyle
  2
GouraudWithEdges
 70
     3
 71
     2
 72
     2
 73
     1
 90
        2
 40
-0.6
 41
30.0
 62
     5
 63
     7
 74
     1
 91
        4
 64
     7
 65
   257
 75
     1
175
     1
 42
1.0
 92
        0
 66
   257
 43
1.0
 76
     1
 77
     6
 78
     2
 67
     7
 79
     5
170
     0
171
     0
290
     0
174
     0
 93
       13
 44
0.0
173
     0
291
     1
 45
0.0
1001
ACAD
1000
AcDbSavedByObjectVersion
1070
     0
  0
VISUALSTYLE
  5
38
102
{ACAD_REACTORS
330
2A
102
}
330
2A
100
AcDbVisualStyle
  2
Linepattern
 70
    14
 71
     2
 72
     2
 73
     0
 90
        0
 40
-0.6
 41
-30.0
 62
     5
 63
     7
 74
     1
 91
        4
 64
     7
 65
   257
 75
     7
175
     7
 42
1.0
 92
        8
 66
     7
 43
1.0
 76
     1
 77
     6
 78
     2
 67
     7
 79
     5
170
     0
171
     0
290
     0
174
     0
 93
        1
 44
0.0
173
     0
291
     1
 45
0.0
1001
ACAD
1000
AcDbSavedByObjectVersion
1070
     0
  0
VISUALSTYLE
  5
33
102
{ACAD_REACTORS
330
2A
102
}
330
2A
100
AcDbVisualStyle
  2
Realistic
 70
     8
 71
     2
 72
     2
 73
     0
 90
        0
 40
-0.6
 41
-30.0
 62
     5
 63
     7
 74
     1
 91
        0
 64
     7
 65
   257
 75
     1
175
     1
 42
1.0
 92
        8
 66
     8
 43
1.0
 76
     1
 77
     6
 78
     2
 67
     7
 79
     5
170
     0
171
     0
290
     0
174
     0
 93
       13
 44
0.0
173
     0
291
     0
 45
0.0
1001
ACAD
1000
AcDbSavedByObjectVersion
1070
     0
  0
VISUALSTYLE
  5
37
102
{ACAD_REACTORS
330
2A
102
}
330
2A
100
AcDbVisualStyle
  2
Thicken
 70
    13
 71
     2
 72
     2
 73
     0
 90
        0
 40
-0.6
 41
-30.0
 62
     5
 63
     7
 74
     1
 91
        4
 64
     7
 65
   257
 75
     1
175
     1
 42
1.0
 92
       12
 66
     7
 43
1.0
 76
     1
 77
     6
 78
     2
 67
     7
 79
     5
170
     0
171
     0
290
     0
174
     0
 93
        1
 44
0.0
173
     0
291
     1
 45
0.0
1001
ACAD
1000
AcDbSavedByObjectVersion
1070
     0
  0
DICTIONARYVAR
  5
449
102
{ACAD_REACTORS
330
448
102
}
330
448
100
DictionaryVariables
280
     0
  1
1:1
  0
DICTIONARYVAR
  5
44D
102
{ACAD_REACTORS
330
448
102
}
330
448
100
DictionaryVariables
280
     0
  1
80.000000
  0
DICTIONARYVAR
  5
44C
102
{ACAD_REACTORS
330
448
102
}
330
448
100
DictionaryVariables
280
     0
  1
5.000000
  0
ENDSEC
  0
EOF
