  0
SECTION
  2
HEADER
  9
$ACADVER
  1
AC1015
  9
$ACADMAINTVER
 70
     6
  9
$DWGCODEPAGE
  3
ANSI_932
  9
$INSBASE
 10
0.0
 20
0.0
 30
0.0
  9
$EXTMIN
 10
6.356934
 20
1.221008
 30
0.0
  9
$EXTMAX
 10
294.476959
 20
209.161438
 30
0.0
  9
$LIMMIN
 10
0.0
 20
0.0
  9
$LIMMAX
 10
12.0
 20
9.0
  9
$ORTHOMODE
 70
     0
  9
$REGENMODE
 70
     1
  9
$FILLMODE
 70
     1
  9
$QTEXTMODE
 70
     0
  9
$MIRRTEXT
 70
     1
  9
$LTSCALE
 40
3.553201
  9
$ATTMODE
 70
     1
  9
$TEXTSIZE
 40
3.2
  9
$TRACEWID
 40
1.0
  9
$TEXTSTYLE
  7
Standard
  9
$CLAYER
  8
0
  9
$CELTYPE
  6
ByLayer
  9
$CECOLOR
 62
   256
  9
$CELTSCALE
 40
1.0
  9
$DISPSILH
 70
     0
  9
$DIMSCALE
 40
1.0
  9
$DIMASZ
 40
2.5
  9
$DIMEXO
 40
0.625
  9
$DIMDLI
 40
3.75
  9
$DIMRND
 40
0.0
  9
$DIMDLE
 40
0.0
  9
$DIMEXE
 40
1.25
  9
$DIMTP
 40
0.0
  9
$DIMTM
 40
0.0
  9
$DIMTXT
 40
2.5
  9
$DIMCEN
 40
0.09
  9
$DIMTSZ
 40
0.0
  9
$DIMTOL
 70
     0
  9
$DIMLIM
 70
     0
  9
$DIMTIH
 70
     0
  9
$DIMTOH
 70
     0
  9
$DIMSE1
 70
     0
  9
$DIMSE2
 70
     0
  9
$DIMTAD
 70
     0
  9
$DIMZIN
 70
     8
  9
$DIMBLK
  1

  9
$DIMASO
 70
     1
  9
$DIMSHO
 70
     0
  9
$DIMPOST
  1

  9
$DIMAPOST
  1

  9
$DIMALT
 70
     0
  9
$DIMALTD
 70
     3
  9
$DIMALTF
 40
0.03937
  9
$DIMLFAC
 40
1.0
  9
$DIMTOFL
 70
     1
  9
$DIMTVP
 40
0.0
  9
$DIMTIX
 70
     0
  9
$DIMSOXD
 70
     0
  9
$DIMSAH
 70
     0
  9
$DIMBLK1
  1

  9
$DIMBLK2
  1

  9
$DIMSTYLE
  2
ISO-25
  9
$DIMCLRD
 70
     0
  9
$DIMCLRE
 70
     0
  9
$DIMCLRT
 70
     0
  9
$DIMTFAC
 40
1.0
  9
$DIMGAP
 40
0.625
  9
$DIMJUST
 70
     0
  9
$DIMSD1
 70
     0
  9
$DIMSD2
 70
     0
  9
$DIMTOLJ
 70
     0
  9
$DIMTZIN
 70
     8
  9
$DIMALTZ
 70
     0
  9
$DIMALTTZ
 70
     0
  9
$DIMUPT
 70
     0
  9
$DIMDEC
 70
     2
  9
$DIMTDEC
 70
     2
  9
$DIMALTU
 70
     2
  9
$DIMALTTD
 70
     3
  9
$DIMTXSTY
  7
Standard
  9
$DIMAUNIT
 70
     0
  9
$DIMADEC
 70
     0
  9
$DIMALTRND
 40
0.0
  9
$DIMAZIN
 70
     0
  9
$DIMDSEP
 70
    44
  9
$DIMATFIT
 70
     3
  9
$DIMFRAC
 70
     0
  9
$DIMLDRBLK
  1

  9
$DIMLUNIT
 70
     2
  9
$DIMLWD
 70
    -2
  9
$DIMLWE
 70
    -2
  9
$DIMTMOVE
 70
     0
  9
$LUNITS
 70
     2
  9
$LUPREC
 70
     4
  9
$SKETCHINC
 40
1.0
  9
$FILLETRAD
 40
0.0
  9
$AUNITS
 70
     0
  9
$AUPREC
 70
     0
  9
$MENU
  1
.
  9
$ELEVATION
 40
0.0
  9
$PELEVATION
 40
0.0
  9
$THICKNESS
 40
0.0
  9
$LIMCHECK
 70
     0
  9
$CHAMFERA
 40
10.0
  9
$CHAMFERB
 40
10.0
  9
$CHAMFERC
 40
20.0
  9
$CHAMFERD
 40
0.0
  9
$SKPOLY
 70
     0
  9
$TDCREATE
 40
2455405.447476852
  9
$TDUCREATE
 40
2455405.072476852
  9
$TDUPDATE
 40
2455405.447476863
  9
$TDUUPDATE
 40
2455405.072476863
  9
$TDINDWG
 40
0.0000000116
  9
$TDUSRTIMER
 40
0.0000000116
  9
$USRTIMER
 70
     1
  9
$ANGBASE
 50
0.0
  9
$ANGDIR
 70
     0
  9
$PDMODE
 70
     0
  9
$PDSIZE
 40
0.0
  9
$PLINEWID
 40
0.0
  9
$SPLFRAME
 70
     0
  9
$SPLINETYPE
 70
     6
  9
$SPLINESEGS
 70
     8
  9
$HANDSEED
  5
44E
  9
$SURFTAB1
 70
     6
  9
$SURFTAB2
 70
     6
  9
$SURFTYPE
 70
     6
  9
$SURFU
 70
     6
  9
$SURFV
 70
     6
  9
$UCSBASE
  2

  9
$UCSNAME
  2

  9
$UCSORG
 10
0.0
 20
0.0
 30
0.0
  9
$UCSXDIR
 10
1.0
 20
0.0
 30
0.0
  9
$UCSYDIR
 10
0.0
 20
1.0
 30
0.0
  9
$UCSORTHOREF
  2

  9
$UCSORTHOVIEW
 70
     0
  9
$UCSORGTOP
 10
0.0
 20
0.0
 30
0.0
  9
$UCSORGBOTTOM
 10
0.0
 20
0.0
 30
0.0
  9
$UCSORGLEFT
 10
0.0
 20
0.0
 30
0.0
  9
$UCSORGRIGHT
 10
0.0
 20
0.0
 30
0.0
  9
$UCSORGFRONT
 10
0.0
 20
0.0
 30
0.0
  9
$UCSORGBACK
 10
0.0
 20
0.0
 30
0.0
  9
$PUCSBASE
  2

  9
$PUCSNAME
  2

  9
$PUCSORG
 10
0.0
 20
0.0
 30
0.0
  9
$PUCSXDIR
 10
1.0
 20
0.0
 30
0.0
  9
$PUCSYDIR
 10
0.0
 20
1.0
 30
0.0
  9
$PUCSORTHOREF
  2

  9
$PUCSORTHOVIEW
 70
     0
  9
$PUCSORGTOP
 10
0.0
 20
0.0
 30
0.0
  9
$PUCSORGBOTTOM
 10
0.0
 20
0.0
 30
0.0
  9
$PUCSORGLEFT
 10
0.0
 20
0.0
 30
0.0
  9
$PUCSORGRIGHT
 10
0.0
 20
0.0
 30
0.0
  9
$PUCSORGFRONT
 10
0.0
 20
0.0
 30
0.0
  9
$PUCSORGBACK
 10
0.0
 20
0.0
 30
0.0
  9
$USERI1
 70
     0
  9
$USERI2
 70
     0
  9
$USERI3
 70
     0
  9
$USERI4
 70
     0
  9
$USERI5
 70
     0
  9
$USERR1
 40
0.0
  9
$USERR2
 40
0.0
  9
$USERR3
 40
0.0
  9
$USERR4
 40
0.0
  9
$USERR5
 40
0.0
  9
$WORLDVIEW
 70
     1
  9
$SHADEDGE
 70
     3
  9
$SHADEDIF
 70
    70
  9
$TILEMODE
 70
     1
  9
$MAXACTVP
 70
    64
  9
$PINSBASE
 10
0.0
 20
0.0
 30
0.0
  9
$PLIMCHECK
 70
     0
  9
$PEXTMIN
 10
1.000000E+20
 20
1.000000E+20
 30
0.0
  9
$PEXTMAX
 10
-1.000000E+20
 20
-1.000000E+20
 30
0.0
  9
$PLIMMIN
 10
0.0
 20
0.0
  9
$PLIMMAX
 10
12.0
 20
9.0
  9
$UNITMODE
 70
     0
  9
$VISRETAIN
 70
     1
  9
$PLINEGEN
 70
     0
  9
$PSLTSCALE
 70
     1
  9
$TREEDEPTH
 70
  3020
  9
$CMLSTYLE
  2
Standard
  9
$CMLJUST
 70
     0
  9
$CMLSCALE
 40
20.0
  9
$PROXYGRAPHICS
 70
     1
  9
$MEASUREMENT
 70
     1
  9
$CELWEIGHT
370
    -1
  9
$ENDCAPS
280
     0
  9
$JOINSTYLE
280
     0
  9
$LWDISPLAY
290
     0
  9
$INSUNITS
 70
     4
  9
$HYPERLINKBASE
  1

  9
$STYLESHEET
  1

  9
$XEDIT
290
     1
  9
$CEPSNTYPE
380
     0
  9
$PSTYLEMODE
290
     1
  9
$FINGERPRINTGUID
  2
{D0C3AE71-41AC-45A5-9C86-9644AC6D4519}
  9
$VERSIONGUID
  2
{FAEB1C32-E019-11D5-929B-00C0DF256EC4}
  9
$EXTNAMES
290
     1
  9
$PSVPSCALE
 40
0.0
  9
$OLESTARTUP
290
     0
  0
ENDSEC
  0
SECTION
  2
CLASSES
  0
CLASS
  1
ACDBDICTIONARYWDFLT
  2
AcDbDictionaryWithDefault
  3
ObjectDBX Classes
 90
        0
280
     0
281
     0
  0
CLASS
  1
VISUALSTYLE
  2
AcDbVisualStyle
  3
ObjectDBX Classes
 90
     4095
280
     0
281
     0
  0
CLASS
  1
SCALE
  2
AcDbScale
  3
ObjectDBX Classes
 90
     1153
280
     0
281
     0
  0
CLASS
  1
DICTIONARYVAR
  2
AcDbDictionaryVar
  3
ObjectDBX Classes
 90
        0
280
     0
281
     0
  0
CLASS
  1
ACDBPLACEHOLDER
  2
AcDbPlaceHolder
  3
ObjectDBX Classes
 90
        0
280
     0
281
     0
  0
CLASS
  1
LAYOUT
  2
AcDbLayout
  3
ObjectDBX Classes
 90
        0
280
     0
281
     0
  0
ENDSEC
  0
SECTION
  2
TABLES
  0
TABLE
  2
VPORT
  5
8
330
0
100
AcDbSymbolTable
 70
     1
  0
VPORT
  5
29
330
8
100
AcDbSymbolTableRecord
100
AcDbViewportTableRecord
  2
*Active
 70
     0
 10
0.0
 20
0.0
 11
1.0
 21
1.0
 12
150.416946
 22
105.191223
 13
0.0
 23
0.0
 14
1.0
 24
1.0
 15
0.0
 25
0.0
 16
0.0
 26
0.0
 36
1.0
 17
0.0
 27
0.0
 37
0.0
 40
210.019834
 41
1.691288
 42
50.0
 43
0.0
 44
0.0
 50
0.0
 51
0.0
 71
     0
 72
   100
 73
     1
 74
     3
 75
     0
 76
     0
 77
     0
 78
     0
281
     0
 65
     1
110
0.0
120
0.0
130
0.0
111
1.0
121
0.0
131
0.0
112
0.0
122
1.0
132
0.0
 79
     0
146
0.0
  0
ENDTAB
  0
TABLE
  2
LTYPE
  5
5
330
0
100
AcDbSymbolTable
 70
     5
  0
LTYPE
  5
14
330
5
100
AcDbSymbolTableRecord
100
AcDbLinetypeTableRecord
  2
ByBlock
 70
     0
  3

 72
    65
 73
     0
 40
0.0
  0
LTYPE
  5
15
330
5
100
AcDbSymbolTableRecord
100
AcDbLinetypeTableRecord
  2
ByLayer
 70
     0
  3

 72
    65
 73
     0
 40
0.0
  0
LTYPE
  5
16
330
5
100
AcDbSymbolTableRecord
100
AcDbLinetypeTableRecord
  2
Continuous
 70
     0
  3
Solid line
 72
    65
 73
     0
 40
0.0
  0
LTYPE
  5
5D
330
5
100
AcDbSymbolTableRecord
100
AcDbLinetypeTableRecord
  2
DASHED
 70
     0
  3
DASHED
 72
    83
 73
     2
 40
0.75
 49
0.5
 74
     0
 49
-0.25
 74
     0
  0
LTYPE
  5
5E
330
5
100
AcDbSymbolTableRecord
100
AcDbLinetypeTableRecord
  2
HIDDEN
 70
     0
  3
HIDDEN
 72
    83
 73
     2
 40
0.375
 49
0.25
 74
     0
 49
-0.125
 74
     0
  0
LTYPE
  5
5F
330
5
100
AcDbSymbolTableRecord
100
AcDbLinetypeTableRecord
  2
CENTER
 70
     0
  3
CENTER
 72
    83
 73
     4
 40
2.0
 49
1.25
 74
     0
 49
-0.25
 74
     0
 49
0.25
 74
     0
 49
-0.25
 74
     0
  0
LTYPE
  5
60
330
5
100
AcDbSymbolTableRecord
100
AcDbLinetypeTableRecord
  2
PHANTOM
 70
     0
  3
PHANTOM
 72
    83
 73
     6
 40
2.5
 49
1.25
 74
     0
 49
-0.25
 74
     0
 49
0.25
 74
     0
 49
-0.25
 74
     0
 49
0.25
 74
     0
 49
-0.25
 74
     0
  0
ENDTAB
  0
TABLE
  2
LAYER
  5
2
330
0
100
AcDbSymbolTable
 70
     2
  0
LAYER
  5
10
330
2
100
AcDbSymbolTableRecord
100
AcDbLayerTableRecord
  2
0
 70
     0
 62
     7
  6
Continuous
370
    -3
390
F
  0
LAYER
  5
61
330
2
100
AcDbSymbolTableRecord
100
AcDbLayerTableRecord
  2
001
 70
     0
 62
     7
  6
Continuous
370
    -3
390
F
  0
ENDTAB
  0
TABLE
  2
STYLE
  5
3
330
0
100
AcDbSymbolTable
 70
     2
  0
STYLE
  5
11
330
3
100
AcDbSymbolTableRecord
100
AcDbTextStyleTableRecord
  2
Standard
 70
     0
 40
0.0
 41
1.0
 50
0.0
 71
     0
 42
0.2
  3
TXT
  4
BIGFONT
  0
STYLE
  5
62
330
3
100
AcDbSymbolTableRecord
100
AcDbTextStyleTableRecord
  2
TATEGAKI
 70
     4
 40
1.0
 41
1.0
 50
0.0
 71
     0
 42
0.2
  3
TXT
  4
BIGFONT
  0
ENDTAB
  0
TABLE
  2
VIEW
  5
6
330
0
100
AcDbSymbolTable
 70
     0
  0
ENDTAB
  0
TABLE
  2
UCS
  5
7
330
0
100
AcDbSymbolTable
 70
     0
  0
ENDTAB
  0
TABLE
  2
APPID
  5
9
330
0
100
AcDbSymbolTable
 70
     1
  0
APPID
  5
12
330
9
100
AcDbSymbolTableRecord
100
AcDbRegAppTableRecord
  2
ACAD
 70
     0
  0
ENDTAB
  0
TABLE
  2
DIMSTYLE
  5
A
330
0
100
AcDbSymbolTable
 70
     2
100
AcDbDimStyleTable
  0
DIMSTYLE
105
27
330
A
100
AcDbSymbolTableRecord
100
AcDbDimStyleTableRecord
  2
ISO-25
 70
     0
 41
2.5
 42
0.625
 43
3.75
 44
1.25
 73
     0
 74
     0
 77
     1
 78
     8
140
2.5
141
2.5
143
0.03937
147
0.625
171
     3
172
     1
271
     2
272
     2
274
     3
278
    44
283
     0
284
     8
340
11
  0
DIMSTYLE
105
63
102
{ACAD_REACTORS
330
1CE
330
1CF
330
1D0
330
1D1
330
1D2
330
1D4
330
1D5
330
1D6
330
1D7
330
1D8
330
1D9
330
1DA
330
1DB
330
1DC
330
1DD
330
1DE
102
}
330
A
100
AcDbSymbolTableRecord
100
AcDbDimStyleTableRecord
  2
Standard
 70
     0
 41
1.5
 42
0.0
 44
0.5
 73
     0
 74
     0
 77
     1
 78
     8
 79
     2
140
4.0
146
0.8
147
1.0
172
     1
179
     1
271
     1
340
11
  0
ENDTAB
  0
TABLE
  2
BLOCK_RECORD
  5
1
330
0
100
AcDbSymbolTable
 70
    22
  0
BLOCK_RECORD
  5
1F
330
1
100
AcDbSymbolTableRecord
100
AcDbBlockTableRecord
  2
*Model_Space
340
22
  0
BLOCK_RECORD
  5
1B
330
1
100
AcDbSymbolTableRecord
100
AcDbBlockTableRecord
  2
*Paper_Space
340
1E
  0
BLOCK_RECORD
  5
23
330
1
100
AcDbSymbolTableRecord
100
AcDbBlockTableRecord
  2
*Paper_Space0
340
26
  0
BLOCK_RECORD
  5
64
330
1
100
AcDbSymbolTableRecord
100
AcDbBlockTableRecord
  2
JZB-1
340
0
102
{BLKREFS
331
1CA
102
}
  0
BLOCK_RECORD
  5
6F
330
1
100
AcDbSymbolTableRecord
100
AcDbBlockTableRecord
  2
JZB-2
340
0
102
{BLKREFS
331
1CB
102
}
  0
BLOCK_RECORD
  5
7A
330
1
100
AcDbSymbolTableRecord
100
AcDbBlockTableRecord
  2
JZB-3
340
0
102
{BLKREFS
331
1CC
102
}
  0
BLOCK_RECORD
  5
80
330
1
100
AcDbSymbolTableRecord
100
AcDbBlockTableRecord
  2
JZB-4
340
0
102
{BLKREFS
331
1CD
102
}
  0
BLOCK_RECORD
  5
86
330
1
100
AcDbSymbolTableRecord
100
AcDbBlockTableRecord
  2
*D5
340
0
  0
BLOCK_RECORD
  5
9A
330
1
100
AcDbSymbolTableRecord
100
AcDbBlockTableRecord
  2
*D6
340
0
  0
BLOCK_RECORD
  5
AE
330
1
100
AcDbSymbolTableRecord
100
AcDbBlockTableRecord
  2
*D7
340
0
  0
BLOCK_RECORD
  5
C2
330
1
100
AcDbSymbolTableRecord
100
AcDbBlockTableRecord
  2
*D8
340
0
  0
BLOCK_RECORD
  5
D8
330
1
100
AcDbSymbolTableRecord
100
AcDbBlockTableRecord
  2
*D9
340
0
  0
BLOCK_RECORD
  5
EC
330
1
100
AcDbSymbolTableRecord
100
AcDbBlockTableRecord
  2
DIM-5
340
0
102
{BLKREFS
331
1D3
102
}
  0
BLOCK_RECORD
  5
FA
330
1
100
AcDbSymbolTableRecord
100
AcDbBlockTableRecord
  2
*D11
340
0
  0
BLOCK_RECORD
  5
10F
330
1
100
AcDbSymbolTableRecord
100
AcDbBlockTableRecord
  2
*D12
340
0
  0
BLOCK_RECORD
  5
125
330
1
100
AcDbSymbolTableRecord
100
AcDbBlockTableRecord
  2
*D13
340
0
  0
BLOCK_RECORD
  5
13B
330
1
100
AcDbSymbolTableRecord
100
AcDbBlockTableRecord
  2
*D14
340
0
  0
BLOCK_RECORD
  5
151
330
1
100
AcDbSymbolTableRecord
100
AcDbBlockTableRecord
  2
*D15
340
0
  0
BLOCK_RECORD
  5
15E
330
1
100
AcDbSymbolTableRecord
100
AcDbBlockTableRecord
  2
*D16
340
0
  0
BLOCK_RECORD
  5
16B
330
1
100
AcDbSymbolTableRecord
100
AcDbBlockTableRecord
  2
*D17
340
0
  0
BLOCK_RECORD
  5
178
330
1
100
AcDbSymbolTableRecord
100
AcDbBlockTableRecord
  2
*D18
340
0
  0
BLOCK_RECORD
  5
18C
330
1
100
AcDbSymbolTableRecord
100
AcDbBlockTableRecord
  2
*D19
340
0
  0
BLOCK_RECORD
  5
1A0
330
1
100
AcDbSymbolTableRecord
100
AcDbBlockTableRecord
  2
*D20
340
0
  0
BLOCK_RECORD
  5
1B4
330
1
100
AcDbSymbolTableRecord
100
AcDbBlockTableRecord
  2
*D21
340
0
  0
ENDTAB
  0
ENDSEC
  0
SECTION
  2
BLOCKS
  0
BLOCK
  5
20
330
1F
100
AcDbEntity
  8
0
100
AcDbBlockBegin
  2
*Model_Space
 70
     0
 10
0.0
 20
0.0
 30
0.0
  3
*Model_Space
  1

  0
ENDBLK
  5
21
330
1F
100
AcDbEntity
  8
0
100
AcDbBlockEnd
  0
BLOCK
  5
1C
330
1B
100
AcDbEntity
 67
     1
  8
0
100
AcDbBlockBegin
  2
*Paper_Space
 70
     0
 10
0.0
 20
0.0
 30
0.0
  3
*Paper_Space
  1

  0
ENDBLK
  5
1D
330
1B
100
AcDbEntity
 67
     1
  8
0
100
AcDbBlockEnd
  0
BLOCK
  5
24
330
23
100
AcDbEntity
  8
0
100
AcDbBlockBegin
  2
*Paper_Space0
 70
     0
 10
0.0
 20
0.0
 30
0.0
  3
*Paper_Space0
  1

  0
ENDBLK
  5
25
330
23
100
AcDbEntity
  8
0
100
AcDbBlockEnd
  0
BLOCK
  5
65
330
64
100
AcDbEntity
  8
0
100
AcDbBlockBegin
  2
JZB-1
 70
     0
 10
0.0
 20
0.0
 30
0.0
  3
JZB-1
  1

  0
LINE
  5
67
330
64
100
AcDbEntity
  8
001
 62
     2
370
    30
100
AcDbLine
 10
105.334665
 20
138.600109
 30
0.0
 11
104.984186
 21
140.88276
 31
0.0
  0
LINE
  5
68
330
64
100
AcDbEntity
  8
001
 62
     2
370
    30
100
AcDbLine
 10
107.486739
 20
137.762307
 30
0.0
 11
105.334665
 21
138.600109
 31
0.0
  0
LINE
  5
69
330
64
100
AcDbEntity
  8
001
 62
     2
370
    30
100
AcDbLine
 10
109.288334
 20
139.207156
 30
0.0
 11
107.486739
 21
137.762307
 31
0.0
  0
LINE
  5
6A
330
64
100
AcDbEntity
  8
001
 62
     2
370
    30
100
AcDbLine
 10
108.937854
 20
141.489808
 30
0.0
 11
109.288334
 21
139.207156
 31
0.0
  0
LINE
  5
6B
330
64
100
AcDbEntity
  8
001
 62
     2
370
    30
100
AcDbLine
 10
106.785781
 20
142.32761
 30
0.0
 11
108.937854
 21
141.489808
 31
0.0
  0
LINE
  5
6C
330
64
100
AcDbEntity
  8
001
 62
     2
370
    30
100
AcDbLine
 10
104.984186
 20
140.88276
 30
0.0
 11
106.785781
 21
142.32761
 31
0.0
  0
CIRCLE
  5
6D
330
64
100
AcDbEntity
  8
001
 62
     2
370
    30
100
AcDbCircle
 10
107.13626
 20
140.044958
 30
0.0
 40
3.3235
  0
CIRCLE
  5
6E
330
64
100
AcDbEntity
  8
001
 62
     2
370
    30
100
AcDbCircle
 10
107.13626
 20
140.044958
 30
0.0
 40
4.0
  0
ENDBLK
  5
66
330
64
100
AcDbEntity
  8
0
100
AcDbBlockEnd
  0
BLOCK
  5
70
330
6F
100
AcDbEntity
  8
0
100
AcDbBlockBegin
  2
JZB-2
 70
     0
 10
0.0
 20
0.0
 30
0.0
  3
JZB-2
  1

  0
LINE
  5
72
330
6F
100
AcDbEntity
  8
001
 62
     2
370
    30
100
AcDbLine
 10
91.334665
 20
138.600109
 30
0.0
 11
90.984186
 21
140.88276
 31
0.0
  0
LINE
  5
73
330
6F
100
AcDbEntity
  8
001
 62
     2
370
    30
100
AcDbLine
 10
93.486739
 20
137.762307
 30
0.0
 11
91.334665
 21
138.600109
 31
0.0
  0
LINE
  5
74
330
6F
100
AcDbEntity
  8
001
 62
     2
370
    30
100
AcDbLine
 10
95.288334
 20
139.207156
 30
0.0
 11
93.486739
 21
137.762307
 31
0.0
  0
LINE
  5
75
330
6F
100
AcDbEntity
  8
001
 62
     2
370
    30
100
AcDbLine
 10
94.937854
 20
141.489808
 30
0.0
 11
95.288334
 21
139.207156
 31
0.0
  0
LINE
  5
76
330
6F
100
AcDbEntity
  8
001
 62
     2
370
    30
100
AcDbLine
 10
92.785781
 20
142.32761
 30
0.0
 11
94.937854
 21
141.489808
 31
0.0
  0
LINE
  5
77
330
6F
100
AcDbEntity
  8
001
 62
     2
370
    30
100
AcDbLine
 10
90.984186
 20
140.88276
 30
0.0
 11
92.785781
 21
142.32761
 31
0.0
  0
CIRCLE
  5
78
330
6F
100
AcDbEntity
  8
001
 62
     2
370
    30
100
AcDbCircle
 10
93.13626
 20
140.044958
 30
0.0
 40
3.3235
  0
CIRCLE
  5
79
330
6F
100
AcDbEntity
  8
001
 62
     2
370
    30
100
AcDbCircle
 10
93.13626
 20
140.044958
 30
0.0
 40
4.0
  0
ENDBLK
  5
71
330
6F
100
AcDbEntity
  8
0
100
AcDbBlockEnd
  0
BLOCK
  5
7B
330
7A
100
AcDbEntity
  8
0
100
AcDbBlockBegin
  2
JZB-3
 70
     0
 10
0.0
 20
0.0
 30
0.0
  3
JZB-3
  1

  0
LINE
  5
7D
330
7A
100
AcDbEntity
  8
001
 62
     2
370
    30
100
AcDbLine
 10
110.711749
 20
55.943106
 30
0.0
 11
110.45976
 21
56.195095
 31
0.0
  0
LINE
  5
7E
330
7A
100
AcDbEntity
  8
001
 62
     2
370
    30
100
AcDbLine
 10
103.81276
 20
56.195095
 30
0.0
 11
103.560724
 21
55.943059
 31
0.0
  0
LINE
  5
7F
330
7A
100
AcDbEntity
  8
001
 62
     2
370
    30
100
AcDbLine
 10
110.45976
 20
56.195095
 30
0.0
 11
103.81276
 21
56.195095
 31
0.0
  0
ENDBLK
  5
7C
330
7A
100
AcDbEntity
  8
0
100
AcDbBlockEnd
  0
BLOCK
  5
81
330
80
100
AcDbEntity
  8
0
100
AcDbBlockBegin
  2
JZB-4
 70
     0
 10
0.0
 20
0.0
 30
0.0
  3
JZB-4
  1

  0
LINE
  5
83
330
80
100
AcDbEntity
  8
001
 62
     2
370
    30
100
AcDbLine
 10
96.712278
 20
55.942577
 30
0.0
 11
96.45976
 21
56.195095
 31
0.0
  0
LINE
  5
84
330
80
100
AcDbEntity
  8
001
 62
     2
370
    30
100
AcDbLine
 10
89.81276
 20
56.195095
 30
0.0
 11
89.560697
 21
55.943032
 31
0.0
  0
LINE
  5
85
330
80
100
AcDbEntity
  8
001
 62
     2
370
    30
100
AcDbLine
 10
96.45976
 20
56.195095
 30
0.0
 11
89.81276
 21
56.195095
 31
0.0
  0
ENDBLK
  5
82
330
80
100
AcDbEntity
  8
0
100
AcDbBlockEnd
  0
BLOCK
  5
87
330
86
100
AcDbEntity
  8
0
100
AcDbBlockBegin
  2
*D5
 70
     1
 10
0.0
 20
0.0
 30
0.0
  3
*D5
  1

  0
LINE
  5
89
330
86
100
AcDbEntity
  8
001
370
     9
100
AcDbLine
 10
87.404209
 20
127.544958
 30
0.0
 11
55.824545
 21
127.544958
 31
0.0
  0
LINE
  5
8A
330
86
100
AcDbEntity
  8
001
370
     9
100
AcDbLine
 10
87.404209
 20
152.544958
 30
0.0
 11
55.824545
 21
152.544958
 31
0.0
  0
LINE
  5
8B
330
86
100
AcDbEntity
  8
001
370
     9
100
AcDbLine
 10
59.262045
 20
127.544958
 30
0.0
 11
59.262045
 21
152.544958
 31
0.0
  0
POLYLINE
  5
8C
330
86
100
AcDbEntity
  8
001
370
     9
100
AcDb2dPolyline
 66
     1
 10
0.0
 20
0.0
 30
0.0
  0
VERTEX
  5
8E
330
8C
100
AcDbEntity
  8
001
370
     9
100
AcDbVertex
100
AcDb2dVertex
 10
59.76445
 20
129.419958
 30
0.0
  0
VERTEX
  5
8F
330
8C
100
AcDbEntity
  8
001
370
     9
100
AcDbVertex
100
AcDb2dVertex
 10
59.262045
 20
127.544958
 30
0.0
  0
VERTEX
  5
90
330
8C
100
AcDbEntity
  8
001
370
     9
100
AcDbVertex
100
AcDb2dVertex
 10
58.759641
 20
129.419958
 30
0.0
  0
SEQEND
  5
8D
330
8C
100
AcDbEntity
  8
001
370
     9
  0
POLYLINE
  5
91
330
86
100
AcDbEntity
  8
001
370
     9
100
AcDb2dPolyline
 66
     1
 10
0.0
 20
0.0
 30
0.0
  0
VERTEX
  5
93
330
91
100
AcDbEntity
  8
001
370
     9
100
AcDbVertex
100
AcDb2dVertex
 10
58.759641
 20
150.669958
 30
0.0
  0
VERTEX
  5
94
330
91
100
AcDbEntity
  8
001
370
     9
100
AcDbVertex
100
AcDb2dVertex
 10
59.262045
 20
152.544958
 30
0.0
  0
VERTEX
  5
95
330
91
100
AcDbEntity
  8
001
370
     9
100
AcDbVertex
100
AcDb2dVertex
 10
59.76445
 20
150.669958
 30
0.0
  0
SEQEND
  5
92
330
91
100
AcDbEntity
  8
001
370
     9
  0
TEXT
  5
96
330
86
100
AcDbEntity
  8
001
370
    30
100
AcDbText
 10
58.012045
 20
132.544958
 30
0.0
 40
5.0
  1
%%c２５
 50
90.000003
 41
0.882353
100
AcDbText
  0
POINT
  5
97
330
86
100
AcDbEntity
  8
001
370
     9
100
AcDbPoint
 10
87.404209
 20
127.544958
 30
0.0
  0
POINT
  5
98
330
86
100
AcDbEntity
  8
001
370
     9
100
AcDbPoint
 10
87.404209
 20
152.544958
 30
0.0
  0
POINT
  5
99
330
86
100
AcDbEntity
  8
001
370
     9
100
AcDbPoint
 10
59.262045
 20
152.544958
 30
0.0
  0
ENDBLK
  5
88
330
86
100
AcDbEntity
  8
0
100
AcDbBlockEnd
  0
BLOCK
  5
9B
330
9A
100
AcDbEntity
  8
0
100
AcDbBlockBegin
  2
*D6
 70
     1
 10
0.0
 20
0.0
 30
0.0
  3
*D6
  1

  0
LINE
  5
9D
330
9A
100
AcDbEntity
  8
001
370
     9
100
AcDbLine
 10
114.13626
 20
120.044958
 30
0.0
 11
41.041615
 21
120.044958
 31
0.0
  0
LINE
  5
9E
330
9A
100
AcDbEntity
  8
001
370
     9
100
AcDbLine
 10
114.13626
 20
160.044958
 30
0.0
 11
41.041615
 21
160.044958
 31
0.0
  0
LINE
  5
9F
330
9A
100
AcDbEntity
  8
001
370
     9
100
AcDbLine
 10
44.479115
 20
120.044958
 30
0.0
 11
44.479115
 21
160.044958
 31
0.0
  0
POLYLINE
  5
A0
330
9A
100
AcDbEntity
  8
001
370
     9
100
AcDb2dPolyline
 66
     1
 10
0.0
 20
0.0
 30
0.0
  0
VERTEX
  5
A2
330
A0
100
AcDbEntity
  8
001
370
     9
100
AcDbVertex
100
AcDb2dVertex
 10
44.98152
 20
121.919958
 30
0.0
  0
VERTEX
  5
A3
330
A0
100
AcDbEntity
  8
001
370
     9
100
AcDbVertex
100
AcDb2dVertex
 10
44.479115
 20
120.044958
 30
0.0
  0
VERTEX
  5
A4
330
A0
100
AcDbEntity
  8
001
370
     9
100
AcDbVertex
100
AcDb2dVertex
 10
43.97671
 20
121.919958
 30
0.0
  0
SEQEND
  5
A1
330
A0
100
AcDbEntity
  8
001
370
     9
  0
POLYLINE
  5
A5
330
9A
100
AcDbEntity
  8
001
370
     9
100
AcDb2dPolyline
 66
     1
 10
0.0
 20
0.0
 30
0.0
  0
VERTEX
  5
A7
330
A5
100
AcDbEntity
  8
001
370
     9
100
AcDbVertex
100
AcDb2dVertex
 10
43.97671
 20
158.169958
 30
0.0
  0
VERTEX
  5
A8
330
A5
100
AcDbEntity
  8
001
370
     9
100
AcDbVertex
100
AcDb2dVertex
 10
44.479115
 20
160.044958
 30
0.0
  0
VERTEX
  5
A9
330
A5
100
AcDbEntity
  8
001
370
     9
100
AcDbVertex
100
AcDb2dVertex
 10
44.98152
 20
158.169958
 30
0.0
  0
SEQEND
  5
A6
330
A5
100
AcDbEntity
  8
001
370
     9
  0
TEXT
  5
AA
330
9A
100
AcDbEntity
  8
001
370
    30
100
AcDbText
 10
43.229115
 20
132.544958
 30
0.0
 40
5.0
  1
%%c４０
 50
90.000003
 41
0.882353
100
AcDbText
  0
POINT
  5
AB
330
9A
100
AcDbEntity
  8
001
370
     9
100
AcDbPoint
 10
114.13626
 20
120.044958
 30
0.0
  0
POINT
  5
AC
330
9A
100
AcDbEntity
  8
001
370
     9
100
AcDbPoint
 10
114.13626
 20
160.044958
 30
0.0
  0
POINT
  5
AD
330
9A
100
AcDbEntity
  8
001
370
     9
100
AcDbPoint
 10
44.479115
 20
160.044958
 30
0.0
  0
ENDBLK
  5
9C
330
9A
100
AcDbEntity
  8
0
100
AcDbBlockEnd
  0
BLOCK
  5
AF
330
AE
100
AcDbEntity
  8
0
100
AcDbBlockBegin
  2
*D7
 70
     1
 10
0.0
 20
0.0
 30
0.0
  3
*D7
  1

  0
LINE
  5
B1
330
AE
100
AcDbEntity
  8
001
370
     9
100
AcDbLine
 10
113.13626
 20
121.044958
 30
0.0
 11
113.13626
 21
94.291457
 31
0.0
  0
LINE
  5
B2
330
AE
100
AcDbEntity
  8
001
370
     9
100
AcDbLine
 10
83.13626
 20
130.43171
 30
0.0
 11
83.13626
 21
94.291457
 31
0.0
  0
LINE
  5
B3
330
AE
100
AcDbEntity
  8
001
370
     9
100
AcDbLine
 10
113.13626
 20
97.728957
 30
0.0
 11
83.13626
 21
97.728957
 31
0.0
  0
POLYLINE
  5
B4
330
AE
100
AcDbEntity
  8
001
370
     9
100
AcDb2dPolyline
 66
     1
 10
0.0
 20
0.0
 30
0.0
  0
VERTEX
  5
B6
330
B4
100
AcDbEntity
  8
001
370
     9
100
AcDbVertex
100
AcDb2dVertex
 10
111.26126
 20
98.231361
 30
0.0
  0
VERTEX
  5
B7
330
B4
100
AcDbEntity
  8
001
370
     9
100
AcDbVertex
100
AcDb2dVertex
 10
113.13626
 20
97.728957
 30
0.0
  0
VERTEX
  5
B8
330
B4
100
AcDbEntity
  8
001
370
     9
100
AcDbVertex
100
AcDb2dVertex
 10
111.26126
 20
97.226552
 30
0.0
  0
SEQEND
  5
B5
330
B4
100
AcDbEntity
  8
001
370
     9
  0
POLYLINE
  5
B9
330
AE
100
AcDbEntity
  8
001
370
     9
100
AcDb2dPolyline
 66
     1
 10
0.0
 20
0.0
 30
0.0
  0
VERTEX
  5
BB
330
B9
100
AcDbEntity
  8
001
370
     9
100
AcDbVertex
100
AcDb2dVertex
 10
85.01126
 20
97.226552
 30
0.0
  0
VERTEX
  5
BC
330
B9
100
AcDbEntity
  8
001
370
     9
100
AcDbVertex
100
AcDb2dVertex
 10
83.13626
 20
97.728957
 30
0.0
  0
VERTEX
  5
BD
330
B9
100
AcDbEntity
  8
001
370
     9
100
AcDbVertex
100
AcDb2dVertex
 10
85.01126
 20
98.231361
 30
0.0
  0
SEQEND
  5
BA
330
B9
100
AcDbEntity
  8
001
370
     9
  0
TEXT
  5
BE
330
AE
100
AcDbEntity
  8
001
370
    30
100
AcDbText
 10
93.13626
 20
98.978957
 30
0.0
 40
5.0
  1
３０
 41
0.833333
100
AcDbText
  0
POINT
  5
BF
330
AE
100
AcDbEntity
  8
001
370
     9
100
AcDbPoint
 10
113.13626
 20
121.044958
 30
0.0
  0
POINT
  5
C0
330
AE
100
AcDbEntity
  8
001
370
     9
100
AcDbPoint
 10
83.13626
 20
130.43171
 30
0.0
  0
POINT
  5
C1
330
AE
100
AcDbEntity
  8
001
370
     9
100
AcDbPoint
 10
83.13626
 20
97.728957
 30
0.0
  0
ENDBLK
  5
B0
330
AE
100
AcDbEntity
  8
0
100
AcDbBlockEnd
  0
BLOCK
  5
C3
330
C2
100
AcDbEntity
  8
0
100
AcDbBlockBegin
  2
*D8
 70
     1
 10
0.0
 20
0.0
 30
0.0
  3
*D8
  1

  0
LINE
  5
C5
330
C2
100
AcDbEntity
  8
001
370
     9
100
AcDbLine
 10
118.13626
 20
121.044958
 30
0.0
 11
118.13626
 21
94.291457
 31
0.0
  0
LINE
  5
C6
330
C2
100
AcDbEntity
  8
001
370
     9
100
AcDbLine
 10
113.13626
 20
121.044958
 30
0.0
 11
113.13626
 21
94.291457
 31
0.0
  0
LINE
  5
C7
330
C2
100
AcDbEntity
  8
001
370
     9
100
AcDbLine
 10
118.13626
 20
97.728957
 30
0.0
 11
113.13626
 21
97.728957
 31
0.0
  0
POLYLINE
  5
C8
330
C2
100
AcDbEntity
  8
001
370
     9
100
AcDb2dPolyline
 66
     1
 10
0.0
 20
0.0
 30
0.0
  0
VERTEX
  5
CA
330
C8
100
AcDbEntity
  8
001
370
     9
100
AcDbVertex
100
AcDb2dVertex
 10
120.01126
 20
97.226552
 30
0.0
  0
VERTEX
  5
CB
330
C8
100
AcDbEntity
  8
001
370
     9
100
AcDbVertex
100
AcDb2dVertex
 10
118.13626
 20
97.728957
 30
0.0
  0
VERTEX
  5
CC
330
C8
100
AcDbEntity
  8
001
370
     9
100
AcDbVertex
100
AcDb2dVertex
 10
120.01126
 20
98.231361
 30
0.0
  0
SEQEND
  5
C9
330
C8
100
AcDbEntity
  8
001
370
     9
  0
POLYLINE
  5
CD
330
C2
100
AcDbEntity
  8
001
370
     9
100
AcDb2dPolyline
 66
     1
 10
0.0
 20
0.0
 30
0.0
  0
VERTEX
  5
CF
330
CD
100
AcDbEntity
  8
001
370
     9
100
AcDbVertex
100
AcDb2dVertex
 10
111.26126
 20
98.231361
 30
0.0
  0
VERTEX
  5
D0
330
CD
100
AcDbEntity
  8
001
370
     9
100
AcDbVertex
100
AcDb2dVertex
 10
113.13626
 20
97.728957
 30
0.0
  0
VERTEX
  5
D1
330
CD
100
AcDbEntity
  8
001
370
     9
100
AcDbVertex
100
AcDb2dVertex
 10
111.26126
 20
97.226552
 30
0.0
  0
SEQEND
  5
CE
330
CD
100
AcDbEntity
  8
001
370
     9
  0
TEXT
  5
D2
330
C2
100
AcDbEntity
  8
001
370
    30
100
AcDbText
 10
113.13626
 20
98.978957
 30
0.0
 40
5.0
  1
５
 41
0.833333
100
AcDbText
  0
POINT
  5
D3
330
C2
100
AcDbEntity
  8
001
370
     9
100
AcDbPoint
 10
118.13626
 20
121.044958
 30
0.0
  0
POINT
  5
D4
330
C2
100
AcDbEntity
  8
001
370
     9
100
AcDbPoint
 10
113.13626
 20
121.044958
 30
0.0
  0
POINT
  5
D5
330
C2
100
AcDbEntity
  8
001
370
     9
100
AcDbPoint
 10
113.13626
 20
97.728957
 30
0.0
  0
LINE
  5
D6
330
C2
100
AcDbEntity
  8
001
370
     9
100
AcDbLine
 10
118.13626
 20
97.728957
 30
0.0
 11
121.26126
 21
97.728957
 31
0.0
  0
LINE
  5
D7
330
C2
100
AcDbEntity
  8
001
370
     9
100
AcDbLine
 10
113.13626
 20
97.728957
 30
0.0
 11
110.01126
 21
97.728957
 31
0.0
  0
ENDBLK
  5
C4
330
C2
100
AcDbEntity
  8
0
100
AcDbBlockEnd
  0
BLOCK
  5
D9
330
D8
100
AcDbEntity
  8
0
100
AcDbBlockBegin
  2
*D9
 70
     1
 10
0.0
 20
0.0
 30
0.0
  3
*D9
  1

  0
LINE
  5
DB
330
D8
100
AcDbEntity
  8
001
370
     9
100
AcDbLine
 10
83.13626
 20
130.43171
 30
0.0
 11
83.13626
 21
83.338963
 31
0.0
  0
LINE
  5
DC
330
D8
100
AcDbEntity
  8
001
370
     9
100
AcDbLine
 10
198.13626
 20
126.044958
 30
0.0
 11
198.13626
 21
83.338963
 31
0.0
  0
LINE
  5
DD
330
D8
100
AcDbEntity
  8
001
370
     9
100
AcDbLine
 10
83.13626
 20
86.776463
 30
0.0
 11
198.13626
 21
86.776463
 31
0.0
  0
POLYLINE
  5
DE
330
D8
100
AcDbEntity
  8
001
370
     9
100
AcDb2dPolyline
 66
     1
 10
0.0
 20
0.0
 30
0.0
  0
VERTEX
  5
E0
330
DE
100
AcDbEntity
  8
001
370
     9
100
AcDbVertex
100
AcDb2dVertex
 10
85.01126
 20
86.274058
 30
0.0
  0
VERTEX
  5
E1
330
DE
100
AcDbEntity
  8
001
370
     9
100
AcDbVertex
100
AcDb2dVertex
 10
83.13626
 20
86.776463
 30
0.0
  0
VERTEX
  5
E2
330
DE
100
AcDbEntity
  8
001
370
     9
100
AcDbVertex
100
AcDb2dVertex
 10
85.01126
 20
87.278867
 30
0.0
  0
SEQEND
  5
DF
330
DE
100
AcDbEntity
  8
001
370
     9
  0
POLYLINE
  5
E3
330
D8
100
AcDbEntity
  8
001
370
     9
100
AcDb2dPolyline
 66
     1
 10
0.0
 20
0.0
 30
0.0
  0
VERTEX
  5
E5
330
E3
100
AcDbEntity
  8
001
370
     9
100
AcDbVertex
100
AcDb2dVertex
 10
196.26126
 20
87.278867
 30
0.0
  0
VERTEX
  5
E6
330
E3
100
AcDbEntity
  8
001
370
     9
100
AcDbVertex
100
AcDb2dVertex
 10
198.13626
 20
86.776463
 30
0.0
  0
VERTEX
  5
E7
330
E3
100
AcDbEntity
  8
001
370
     9
100
AcDbVertex
100
AcDb2dVertex
 10
196.26126
 20
86.274058
 30
0.0
  0
SEQEND
  5
E4
330
E3
100
AcDbEntity
  8
001
370
     9
  0
TEXT
  5
E8
330
D8
100
AcDbEntity
  8
001
370
    30
100
AcDbText
 10
133.13626
 20
88.026463
 30
0.0
 40
5.0
  1
１１５
 41
0.833333
100
AcDbText
  0
POINT
  5
E9
330
D8
100
AcDbEntity
  8
001
370
     9
100
AcDbPoint
 10
83.13626
 20
130.43171
 30
0.0
  0
POINT
  5
EA
330
D8
100
AcDbEntity
  8
001
370
     9
100
AcDbPoint
 10
198.13626
 20
126.044958
 30
0.0
  0
POINT
  5
EB
330
D8
100
AcDbEntity
  8
001
370
     9
100
AcDbPoint
 10
198.13626
 20
86.776463
 30
0.0
  0
ENDBLK
  5
DA
330
D8
100
AcDbEntity
  8
0
100
AcDbBlockEnd
  0
BLOCK
  5
ED
330
EC
100
AcDbEntity
  8
0
100
AcDbBlockBegin
  2
DIM-5
 70
     0
 10
0.0
 20
0.0
 30
0.0
  3
DIM-5
  1

  0
TEXT
  5
EF
330
EC
100
AcDbEntity
  8
001
370
    30
100
AcDbText
 10
8.856944
 20
98.343079
 30
0.0
 40
5.0
  1
２－Ｍ８×１．２５，貫通
 41
0.833333
100
AcDbText
  0
POLYLINE
  5
F0
330
EC
100
AcDbEntity
  8
001
370
     9
100
AcDb2dPolyline
 66
     1
 10
0.0
 20
0.0
 30
0.0
  0
VERTEX
  5
F2
330
F0
100
AcDbEntity
  8
001
370
     9
100
AcDbVertex
100
AcDb2dVertex
 10
91.792889
 20
135.320248
 30
0.0
  0
VERTEX
  5
F3
330
F0
100
AcDbEntity
  8
001
370
     9
100
AcDbVertex
100
AcDb2dVertex
 10
93.13626
 20
136.721458
 30
0.0
  0
VERTEX
  5
F4
330
F0
100
AcDbEntity
  8
001
370
     9
100
AcDbVertex
100
AcDb2dVertex
 10
92.673472
 20
134.836289
 30
0.0
  0
SEQEND
  5
F1
330
F0
100
AcDbEntity
  8
001
370
     9
  0
POLYLINE
  5
F5
330
EC
100
AcDbEntity
  8
001
370
     9
100
AcDb2dPolyline
 66
     1
 10
0.0
 20
0.0
 30
0.0
  0
VERTEX
  5
F7
330
F5
100
AcDbEntity
  8
001
370
     9
100
AcDbVertex
100
AcDb2dVertex
 10
93.13626
 20
136.721458
 30
0.0
  0
VERTEX
  5
F8
330
F5
100
AcDbEntity
  8
001
370
     9
100
AcDbVertex
100
AcDb2dVertex
 10
71.356944
 20
97.093079
 30
0.0
  0
VERTEX
  5
F9
330
F5
100
AcDbEntity
  8
001
370
     9
100
AcDbVertex
100
AcDb2dVertex
 10
6.356944
 20
97.093079
 30
0.0
  0
SEQEND
  5
F6
330
F5
100
AcDbEntity
  8
001
370
     9
  0
ENDBLK
  5
EE
330
EC
100
AcDbEntity
  8
0
100
AcDbBlockEnd
  0
BLOCK
  5
FB
330
FA
100
AcDbEntity
  8
0
100
AcDbBlockBegin
  2
*D11
 70
     1
 10
0.0
 20
0.0
 30
0.0
  3
*D11
  1

  0
LINE
  5
FD
330
FA
100
AcDbEntity
  8
001
370
     9
100
AcDbLine
 10
196.13626
 20
124.044958
 30
0.0
 11
226.814152
 21
124.044958
 31
0.0
  0
LINE
  5
FE
330
FA
100
AcDbEntity
  8
001
370
     9
100
AcDbLine
 10
196.13626
 20
156.044958
 30
0.0
 11
226.814152
 21
156.044958
 31
0.0
  0
LINE
  5
FF
330
FA
100
AcDbEntity
  8
001
370
     9
100
AcDbLine
 10
223.376652
 20
124.044958
 30
0.0
 11
223.376652
 21
156.044958
 31
0.0
  0
POLYLINE
  5
100
330
FA
100
AcDbEntity
  8
001
370
     9
100
AcDb2dPolyline
 66
     1
 10
0.0
 20
0.0
 30
0.0
  0
VERTEX
  5
102
330
100
100
AcDbEntity
  8
001
370
     9
100
AcDbVertex
100
AcDb2dVertex
 10
223.879057
 20
125.919958
 30
0.0
  0
VERTEX
  5
103
330
100
100
AcDbEntity
  8
001
370
     9
100
AcDbVertex
100
AcDb2dVertex
 10
223.376652
 20
124.044958
 30
0.0
  0
VERTEX
  5
104
330
100
100
AcDbEntity
  8
001
370
     9
100
AcDbVertex
100
AcDb2dVertex
 10
222.874247
 20
125.919958
 30
0.0
  0
SEQEND
  5
101
330
100
100
AcDbEntity
  8
001
370
     9
  0
POLYLINE
  5
105
330
FA
100
AcDbEntity
  8
001
370
     9
100
AcDb2dPolyline
 66
     1
 10
0.0
 20
0.0
 30
0.0
  0
VERTEX
  5
107
330
105
100
AcDbEntity
  8
001
370
     9
100
AcDbVertex
100
AcDb2dVertex
 10
222.874247
 20
154.169958
 30
0.0
  0
VERTEX
  5
108
330
105
100
AcDbEntity
  8
001
370
     9
100
AcDbVertex
100
AcDb2dVertex
 10
223.376652
 20
156.044958
 30
0.0
  0
VERTEX
  5
109
330
105
100
AcDbEntity
  8
001
370
     9
100
AcDbVertex
100
AcDb2dVertex
 10
223.879057
 20
154.169958
 30
0.0
  0
SEQEND
  5
106
330
105
100
AcDbEntity
  8
001
370
     9
  0
TEXT
  5
10A
330
FA
100
AcDbEntity
  8
001
370
    30
100
AcDbText
 10
222.126652
 20
128.544958
 30
0.0
 40
5.0
  1
%%c３２
 50
90.000003
 41
0.882353
100
AcDbText
  0
TEXT
  5
10B
330
FA
100
AcDbEntity
  8
001
370
    30
100
AcDbText
 10
221.626652
 20
143.544958
 30
0.0
 40
4.0
  1
ｈ７
 50
90.000003
 41
0.833333
100
AcDbText
  0
POINT
  5
10C
330
FA
100
AcDbEntity
  8
001
370
     9
100
AcDbPoint
 10
196.13626
 20
124.044958
 30
0.0
  0
POINT
  5
10D
330
FA
100
AcDbEntity
  8
001
370
     9
100
AcDbPoint
 10
196.13626
 20
156.044958
 30
0.0
  0
POINT
  5
10E
330
FA
100
AcDbEntity
  8
001
370
     9
100
AcDbPoint
 10
223.376652
 20
156.044958
 30
0.0
  0
ENDBLK
  5
FC
330
FA
100
AcDbEntity
  8
0
100
AcDbBlockEnd
  0
BLOCK
  5
110
330
10F
100
AcDbEntity
  8
0
100
AcDbBlockBegin
  2
*D12
 70
     1
 10
0.0
 20
0.0
 30
0.0
  3
*D12
  1

  0
LINE
  5
112
330
10F
100
AcDbEntity
  8
001
370
     9
100
AcDbLine
 10
93.13626
 20
60.76596
 30
0.0
 11
93.13626
 21
73.72852
 31
0.0
  0
LINE
  5
113
330
10F
100
AcDbEntity
  8
001
370
     9
100
AcDbLine
 10
83.13626
 20
53.339264
 30
0.0
 11
83.13626
 21
73.72852
 31
0.0
  0
LINE
  5
114
330
10F
100
AcDbEntity
  8
001
370
     9
100
AcDbLine
 10
93.13626
 20
70.29102
 30
0.0
 11
83.13626
 21
70.29102
 31
0.0
  0
POLYLINE
  5
115
330
10F
100
AcDbEntity
  8
001
370
     9
100
AcDb2dPolyline
 66
     1
 10
0.0
 20
0.0
 30
0.0
  0
VERTEX
  5
117
330
115
100
AcDbEntity
  8
001
370
     9
100
AcDbVertex
100
AcDb2dVertex
 10
95.01126
 20
69.788615
 30
0.0
  0
VERTEX
  5
118
330
115
100
AcDbEntity
  8
001
370
     9
100
AcDbVertex
100
AcDb2dVertex
 10
93.13626
 20
70.29102
 30
0.0
  0
VERTEX
  5
119
330
115
100
AcDbEntity
  8
001
370
     9
100
AcDbVertex
100
AcDb2dVertex
 10
95.01126
 20
70.793424
 30
0.0
  0
SEQEND
  5
116
330
115
100
AcDbEntity
  8
001
370
     9
  0
POLYLINE
  5
11A
330
10F
100
AcDbEntity
  8
001
370
     9
100
AcDb2dPolyline
 66
     1
 10
0.0
 20
0.0
 30
0.0
  0
VERTEX
  5
11C
330
11A
100
AcDbEntity
  8
001
370
     9
100
AcDbVertex
100
AcDb2dVertex
 10
81.26126
 20
70.793424
 30
0.0
  0
VERTEX
  5
11D
330
11A
100
AcDbEntity
  8
001
370
     9
100
AcDbVertex
100
AcDb2dVertex
 10
83.13626
 20
70.29102
 30
0.0
  0
VERTEX
  5
11E
330
11A
100
AcDbEntity
  8
001
370
     9
100
AcDbVertex
100
AcDb2dVertex
 10
81.26126
 20
69.788615
 30
0.0
  0
SEQEND
  5
11B
330
11A
100
AcDbEntity
  8
001
370
     9
  0
TEXT
  5
11F
330
10F
100
AcDbEntity
  8
001
370
    30
100
AcDbText
 10
83.13626
 20
71.54102
 30
0.0
 40
5.0
  1
１０
 41
0.833333
100
AcDbText
  0
POINT
  5
120
330
10F
100
AcDbEntity
  8
001
370
     9
100
AcDbPoint
 10
93.13626
 20
60.76596
 30
0.0
  0
POINT
  5
121
330
10F
100
AcDbEntity
  8
001
370
     9
100
AcDbPoint
 10
83.13626
 20
53.339264
 30
0.0
  0
POINT
  5
122
330
10F
100
AcDbEntity
  8
001
370
     9
100
AcDbPoint
 10
83.13626
 20
70.29102
 30
0.0
  0
LINE
  5
123
330
10F
100
AcDbEntity
  8
001
370
     9
100
AcDbLine
 10
93.13626
 20
70.29102
 30
0.0
 11
96.26126
 21
70.29102
 31
0.0
  0
LINE
  5
124
330
10F
100
AcDbEntity
  8
001
370
     9
100
AcDbLine
 10
83.13626
 20
70.29102
 30
0.0
 11
80.01126
 21
70.29102
 31
0.0
  0
ENDBLK
  5
111
330
10F
100
AcDbEntity
  8
0
100
AcDbBlockEnd
  0
BLOCK
  5
126
330
125
100
AcDbEntity
  8
0
100
AcDbBlockBegin
  2
*D13
 70
     1
 10
0.0
 20
0.0
 30
0.0
  3
*D13
  1

  0
LINE
  5
128
330
125
100
AcDbEntity
  8
001
370
     9
100
AcDbLine
 10
107.13626
 20
60.76596
 30
0.0
 11
107.13626
 21
73.72852
 31
0.0
  0
LINE
  5
129
330
125
100
AcDbEntity
  8
001
370
     9
100
AcDbLine
 10
93.13626
 20
60.76596
 30
0.0
 11
93.13626
 21
73.72852
 31
0.0
  0
LINE
  5
12A
330
125
100
AcDbEntity
  8
001
370
     9
100
AcDbLine
 10
107.13626
 20
70.29102
 30
0.0
 11
93.13626
 21
70.29102
 31
0.0
  0
POLYLINE
  5
12B
330
125
100
AcDbEntity
  8
001
370
     9
100
AcDb2dPolyline
 66
     1
 10
0.0
 20
0.0
 30
0.0
  0
VERTEX
  5
12D
330
12B
100
AcDbEntity
  8
001
370
     9
100
AcDbVertex
100
AcDb2dVertex
 10
109.01126
 20
69.788615
 30
0.0
  0
VERTEX
  5
12E
330
12B
100
AcDbEntity
  8
001
370
     9
100
AcDbVertex
100
AcDb2dVertex
 10
107.13626
 20
70.29102
 30
0.0
  0
VERTEX
  5
12F
330
12B
100
AcDbEntity
  8
001
370
     9
100
AcDbVertex
100
AcDb2dVertex
 10
109.01126
 20
70.793424
 30
0.0
  0
SEQEND
  5
12C
330
12B
100
AcDbEntity
  8
001
370
     9
  0
POLYLINE
  5
130
330
125
100
AcDbEntity
  8
001
370
     9
100
AcDb2dPolyline
 66
     1
 10
0.0
 20
0.0
 30
0.0
  0
VERTEX
  5
132
330
130
100
AcDbEntity
  8
001
370
     9
100
AcDbVertex
100
AcDb2dVertex
 10
91.26126
 20
70.793424
 30
0.0
  0
VERTEX
  5
133
330
130
100
AcDbEntity
  8
001
370
     9
100
AcDbVertex
100
AcDb2dVertex
 10
93.13626
 20
70.29102
 30
0.0
  0
VERTEX
  5
134
330
130
100
AcDbEntity
  8
001
370
     9
100
AcDbVertex
100
AcDb2dVertex
 10
91.26126
 20
69.788615
 30
0.0
  0
SEQEND
  5
131
330
130
100
AcDbEntity
  8
001
370
     9
  0
TEXT
  5
135
330
125
100
AcDbEntity
  8
001
370
    30
100
AcDbText
 10
95.13626
 20
71.54102
 30
0.0
 40
5.0
  1
１４
 41
0.833333
100
AcDbText
  0
POINT
  5
136
330
125
100
AcDbEntity
  8
001
370
     9
100
AcDbPoint
 10
107.13626
 20
60.76596
 30
0.0
  0
POINT
  5
137
330
125
100
AcDbEntity
  8
001
370
     9
100
AcDbPoint
 10
93.13626
 20
60.76596
 30
0.0
  0
POINT
  5
138
330
125
100
AcDbEntity
  8
001
370
     9
100
AcDbPoint
 10
93.13626
 20
70.29102
 30
0.0
  0
LINE
  5
139
330
125
100
AcDbEntity
  8
001
370
     9
100
AcDbLine
 10
107.13626
 20
70.29102
 30
0.0
 11
110.26126
 21
70.29102
 31
0.0
  0
LINE
  5
13A
330
125
100
AcDbEntity
  8
001
370
     9
100
AcDbLine
 10
93.13626
 20
70.29102
 30
0.0
 11
90.01126
 21
70.29102
 31
0.0
  0
ENDBLK
  5
127
330
125
100
AcDbEntity
  8
0
100
AcDbBlockEnd
  0
BLOCK
  5
13C
330
13B
100
AcDbEntity
  8
0
100
AcDbBlockBegin
  2
*D14
 70
     1
 10
0.0
 20
0.0
 30
0.0
  3
*D14
  1

  0
LINE
  5
13E
330
13B
100
AcDbEntity
  8
001
370
     9
100
AcDbLine
 10
87.13626
 20
152.544958
 30
0.0
 11
87.13626
 21
172.809448
 31
0.0
  0
LINE
  5
13F
330
13B
100
AcDbEntity
  8
001
370
     9
100
AcDbLine
 10
83.13626
 20
149.658207
 30
0.0
 11
83.13626
 21
172.809448
 31
0.0
  0
LINE
  5
140
330
13B
100
AcDbEntity
  8
001
370
     9
100
AcDbLine
 10
87.13626
 20
169.371948
 30
0.0
 11
83.13626
 21
169.371948
 31
0.0
  0
POLYLINE
  5
141
330
13B
100
AcDbEntity
  8
001
370
     9
100
AcDb2dPolyline
 66
     1
 10
0.0
 20
0.0
 30
0.0
  0
VERTEX
  5
143
330
141
100
AcDbEntity
  8
001
370
     9
100
AcDbVertex
100
AcDb2dVertex
 10
89.01126
 20
168.869544
 30
0.0
  0
VERTEX
  5
144
330
141
100
AcDbEntity
  8
001
370
     9
100
AcDbVertex
100
AcDb2dVertex
 10
87.13626
 20
169.371948
 30
0.0
  0
VERTEX
  5
145
330
141
100
AcDbEntity
  8
001
370
     9
100
AcDbVertex
100
AcDb2dVertex
 10
89.01126
 20
169.874353
 30
0.0
  0
SEQEND
  5
142
330
141
100
AcDbEntity
  8
001
370
     9
  0
POLYLINE
  5
146
330
13B
100
AcDbEntity
  8
001
370
     9
100
AcDb2dPolyline
 66
     1
 10
0.0
 20
0.0
 30
0.0
  0
VERTEX
  5
148
330
146
100
AcDbEntity
  8
001
370
     9
100
AcDbVertex
100
AcDb2dVertex
 10
81.26126
 20
169.874353
 30
0.0
  0
VERTEX
  5
149
330
146
100
AcDbEntity
  8
001
370
     9
100
AcDbVertex
100
AcDb2dVertex
 10
83.13626
 20
169.371948
 30
0.0
  0
VERTEX
  5
14A
330
146
100
AcDbEntity
  8
001
370
     9
100
AcDbVertex
100
AcDb2dVertex
 10
81.26126
 20
168.869544
 30
0.0
  0
SEQEND
  5
147
330
146
100
AcDbEntity
  8
001
370
     9
  0
TEXT
  5
14B
330
13B
100
AcDbEntity
  8
001
370
    30
100
AcDbText
 10
63.76126
 20
170.621948
 30
0.0
 40
5.0
  1
（４）
 41
0.833333
100
AcDbText
  0
POINT
  5
14C
330
13B
100
AcDbEntity
  8
001
370
     9
100
AcDbPoint
 10
87.13626
 20
152.544958
 30
0.0
  0
POINT
  5
14D
330
13B
100
AcDbEntity
  8
001
370
     9
100
AcDbPoint
 10
83.13626
 20
149.658207
 30
0.0
  0
POINT
  5
14E
330
13B
100
AcDbEntity
  8
001
370
     9
100
AcDbPoint
 10
83.13626
 20
169.371948
 30
0.0
  0
LINE
  5
14F
330
13B
100
AcDbEntity
  8
001
370
     9
100
AcDbLine
 10
87.13626
 20
169.371948
 30
0.0
 11
90.26126
 21
169.371948
 31
0.0
  0
LINE
  5
150
330
13B
100
AcDbEntity
  8
001
370
     9
100
AcDbLine
 10
83.13626
 20
169.371948
 30
0.0
 11
60.01126
 21
169.371948
 31
0.0
  0
ENDBLK
  5
13D
330
13B
100
AcDbEntity
  8
0
100
AcDbBlockEnd
  0
BLOCK
  5
152
330
151
100
AcDbEntity
  8
0
100
AcDbBlockBegin
  2
*D15
 70
     1
 10
0.0
 20
0.0
 30
0.0
  3
*D15
  1

  0
LINE
  5
154
330
151
100
AcDbEntity
  8
001
370
     9
100
AcDbLine
 10
196.13626
 20
154.044958
 30
0.0
 11
197.76495
 21
155.20572
 31
0.0
  0
POLYLINE
  5
155
330
151
100
AcDbEntity
  8
001
370
     9
100
AcDb2dPolyline
 66
     1
 10
0.0
 20
0.0
 30
0.0
  0
VERTEX
  5
157
330
155
100
AcDbEntity
  8
001
370
     9
100
AcDbVertex
100
AcDb2dVertex
 10
199.583433
 20
155.884804
 30
0.0
  0
VERTEX
  5
158
330
155
100
AcDbEntity
  8
001
370
     9
100
AcDbVertex
100
AcDb2dVertex
 10
197.76495
 20
155.20572
 30
0.0
  0
VERTEX
  5
159
330
155
100
AcDbEntity
  8
001
370
     9
100
AcDbVertex
100
AcDb2dVertex
 10
199.000261
 20
156.703065
 30
0.0
  0
SEQEND
  5
156
330
155
100
AcDbEntity
  8
001
370
     9
  0
TEXT
  5
15A
330
151
100
AcDbEntity
  8
001
370
    30
100
AcDbText
 10
200.602233
 20
158.762818
 30
0.0
 40
5.0
  1
（Ｒ２）
 50
35.477345
 41
0.833333
100
AcDbText
  0
POINT
  5
15B
330
151
100
AcDbEntity
  8
001
370
     9
100
AcDbPoint
 10
197.76495
 20
155.20572
 30
0.0
  0
POINT
  5
15C
330
151
100
AcDbEntity
  8
001
370
     9
100
AcDbPoint
 10
196.13626
 20
154.044958
 30
0.0
  0
LINE
  5
15D
330
151
100
AcDbEntity
  8
001
370
     9
100
AcDbLine
 10
197.76495
 20
155.20572
 30
0.0
 11
220.668405
 21
171.528935
 31
0.0
  0
ENDBLK
  5
153
330
151
100
AcDbEntity
  8
0
100
AcDbBlockEnd
  0
BLOCK
  5
15F
330
15E
100
AcDbEntity
  8
0
100
AcDbBlockBegin
  2
*D16
 70
     1
 10
0.0
 20
0.0
 30
0.0
  3
*D16
  1

  0
LINE
  5
161
330
15E
100
AcDbEntity
  8
001
370
     9
100
AcDbLine
 10
84.13626
 20
34.112767
 30
0.0
 11
83.316401
 21
33.540201
 31
0.0
  0
POLYLINE
  5
162
330
15E
100
AcDbEntity
  8
001
370
     9
100
AcDb2dPolyline
 66
     1
 10
0.0
 20
0.0
 30
0.0
  0
VERTEX
  5
164
330
162
100
AcDbEntity
  8
001
370
     9
100
AcDbVertex
100
AcDb2dVertex
 10
81.491506
 20
32.878541
 30
0.0
  0
VERTEX
  5
165
330
162
100
AcDbEntity
  8
001
370
     9
100
AcDbVertex
100
AcDb2dVertex
 10
83.316401
 20
33.540201
 30
0.0
  0
VERTEX
  5
166
330
162
100
AcDbEntity
  8
001
370
     9
100
AcDbVertex
100
AcDb2dVertex
 10
82.066826
 20
32.054739
 30
0.0
  0
SEQEND
  5
163
330
162
100
AcDbEntity
  8
001
370
     9
  0
TEXT
  5
167
330
15E
100
AcDbEntity
  8
001
370
    30
100
AcDbText
 10
62.61664
 20
20.608727
 30
0.0
 40
5.0
  1
２－Ｒ１
 50
34.929359
 41
0.833333
100
AcDbText
  0
POINT
  5
168
330
15E
100
AcDbEntity
  8
001
370
     9
100
AcDbPoint
 10
83.316401
 20
33.540201
 30
0.0
  0
POINT
  5
169
330
15E
100
AcDbEntity
  8
001
370
     9
100
AcDbPoint
 10
84.13626
 20
34.112767
 30
0.0
  0
LINE
  5
16A
330
15E
100
AcDbEntity
  8
001
370
     9
100
AcDbLine
 10
83.316401
 20
33.540201
 30
0.0
 11
60.257878
 21
17.436781
 31
0.0
  0
ENDBLK
  5
160
330
15E
100
AcDbEntity
  8
0
100
AcDbBlockEnd
  0
BLOCK
  5
16C
330
16B
100
AcDbEntity
  8
0
100
AcDbBlockBegin
  2
*D17
 70
     1
 10
0.0
 20
0.0
 30
0.0
  3
*D17
  1

  0
LINE
  5
16E
330
16B
100
AcDbEntity
  8
001
370
     9
100
AcDbLine
 10
114.13626
 20
24.726016
 30
0.0
 11
113.545762
 21
23.918977
 31
0.0
  0
POLYLINE
  5
16F
330
16B
100
AcDbEntity
  8
001
370
     9
100
AcDb2dPolyline
 66
     1
 10
0.0
 20
0.0
 30
0.0
  0
VERTEX
  5
171
330
16F
100
AcDbEntity
  8
001
370
     9
100
AcDbVertex
100
AcDb2dVertex
 10
112.033118
 20
22.702447
 30
0.0
  0
VERTEX
  5
172
330
16F
100
AcDbEntity
  8
001
370
     9
100
AcDbVertex
100
AcDb2dVertex
 10
113.545762
 20
23.918977
 30
0.0
  0
VERTEX
  5
173
330
16F
100
AcDbEntity
  8
001
370
     9
100
AcDbVertex
100
AcDb2dVertex
 10
112.844038
 20
22.109109
 30
0.0
  0
SEQEND
  5
170
330
16F
100
AcDbEntity
  8
001
370
     9
  0
TEXT
  5
174
330
16B
100
AcDbEntity
  8
001
370
    30
100
AcDbText
 10
98.143573
 20
4.985522
 30
0.0
 40
5.0
  1
２－Ｒ１
 50
53.807639
 41
0.833333
100
AcDbText
  0
POINT
  5
175
330
16B
100
AcDbEntity
  8
001
370
     9
100
AcDbPoint
 10
113.545762
 20
23.918977
 30
0.0
  0
POINT
  5
176
330
16B
100
AcDbEntity
  8
001
370
     9
100
AcDbPoint
 10
114.13626
 20
24.726016
 30
0.0
  0
LINE
  5
177
330
16B
100
AcDbEntity
  8
001
370
     9
100
AcDbLine
 10
113.545762
 20
23.918977
 30
0.0
 11
96.938004
 21
1.221003
 31
0.0
  0
ENDBLK
  5
16D
330
16B
100
AcDbEntity
  8
0
100
AcDbBlockEnd
  0
BLOCK
  5
179
330
178
100
AcDbEntity
  8
0
100
AcDbBlockBegin
  2
*D18
 70
     1
 10
0.0
 20
0.0
 30
0.0
  3
*D18
  1

  0
LINE
  5
17B
330
178
100
AcDbEntity
  8
001
370
     9
100
AcDbLine
 10
257.500618
 20
132.298992
 30
0.0
 11
257.500618
 21
97.394589
 31
0.0
  0
LINE
  5
17C
330
178
100
AcDbEntity
  8
001
370
     9
100
AcDbLine
 10
287.500618
 20
140.044958
 30
0.0
 11
287.500618
 21
97.394589
 31
0.0
  0
LINE
  5
17D
330
178
100
AcDbEntity
  8
001
370
     9
100
AcDbLine
 10
257.500618
 20
100.832089
 30
0.0
 11
287.500618
 21
100.832089
 31
0.0
  0
POLYLINE
  5
17E
330
178
100
AcDbEntity
  8
001
370
     9
100
AcDb2dPolyline
 66
     1
 10
0.0
 20
0.0
 30
0.0
  0
VERTEX
  5
180
330
17E
100
AcDbEntity
  8
001
370
     9
100
AcDbVertex
100
AcDb2dVertex
 10
259.375618
 20
100.329684
 30
0.0
  0
VERTEX
  5
181
330
17E
100
AcDbEntity
  8
001
370
     9
100
AcDbVertex
100
AcDb2dVertex
 10
257.500618
 20
100.832089
 30
0.0
  0
VERTEX
  5
182
330
17E
100
AcDbEntity
  8
001
370
     9
100
AcDbVertex
100
AcDb2dVertex
 10
259.375618
 20
101.334494
 30
0.0
  0
SEQEND
  5
17F
330
17E
100
AcDbEntity
  8
001
370
     9
  0
POLYLINE
  5
183
330
178
100
AcDbEntity
  8
001
370
     9
100
AcDb2dPolyline
 66
     1
 10
0.0
 20
0.0
 30
0.0
  0
VERTEX
  5
185
330
183
100
AcDbEntity
  8
001
370
     9
100
AcDbVertex
100
AcDb2dVertex
 10
285.625618
 20
101.334494
 30
0.0
  0
VERTEX
  5
186
330
183
100
AcDbEntity
  8
001
370
     9
100
AcDbVertex
100
AcDb2dVertex
 10
287.500618
 20
100.832089
 30
0.0
  0
VERTEX
  5
187
330
183
100
AcDbEntity
  8
001
370
     9
100
AcDbVertex
100
AcDb2dVertex
 10
285.625618
 20
100.329684
 30
0.0
  0
SEQEND
  5
184
330
183
100
AcDbEntity
  8
001
370
     9
  0
TEXT
  5
188
330
178
100
AcDbEntity
  8
001
370
    30
100
AcDbText
 10
267.500618
 20
102.082089
 30
0.0
 40
5.0
  1
３０
 41
0.833333
100
AcDbText
  0
POINT
  5
189
330
178
100
AcDbEntity
  8
001
370
     9
100
AcDbPoint
 10
257.500618
 20
132.298992
 30
0.0
  0
POINT
  5
18A
330
178
100
AcDbEntity
  8
001
370
     9
100
AcDbPoint
 10
287.500618
 20
140.044958
 30
0.0
  0
POINT
  5
18B
330
178
100
AcDbEntity
  8
001
370
     9
100
AcDbPoint
 10
287.500618
 20
100.832089
 30
0.0
  0
ENDBLK
  5
17A
330
178
100
AcDbEntity
  8
0
100
AcDbBlockEnd
  0
BLOCK
  5
18D
330
18C
100
AcDbEntity
  8
0
100
AcDbBlockBegin
  2
*D19
 70
     1
 10
0.0
 20
0.0
 30
0.0
  3
*D19
  1

  0
LINE
  5
18F
330
18C
100
AcDbEntity
  8
001
370
     9
100
AcDbLine
 10
118.13626
 20
121.044958
 30
0.0
 11
118.13626
 21
94.291457
 31
0.0
  0
LINE
  5
190
330
18C
100
AcDbEntity
  8
001
370
     9
100
AcDbLine
 10
198.13626
 20
126.044958
 30
0.0
 11
198.13626
 21
94.291457
 31
0.0
  0
LINE
  5
191
330
18C
100
AcDbEntity
  8
001
370
     9
100
AcDbLine
 10
118.13626
 20
97.728957
 30
0.0
 11
198.13626
 21
97.728957
 31
0.0
  0
POLYLINE
  5
192
330
18C
100
AcDbEntity
  8
001
370
     9
100
AcDb2dPolyline
 66
     1
 10
0.0
 20
0.0
 30
0.0
  0
VERTEX
  5
194
330
192
100
AcDbEntity
  8
001
370
     9
100
AcDbVertex
100
AcDb2dVertex
 10
120.01126
 20
97.226552
 30
0.0
  0
VERTEX
  5
195
330
192
100
AcDbEntity
  8
001
370
     9
100
AcDbVertex
100
AcDb2dVertex
 10
118.13626
 20
97.728957
 30
0.0
  0
VERTEX
  5
196
330
192
100
AcDbEntity
  8
001
370
     9
100
AcDbVertex
100
AcDb2dVertex
 10
120.01126
 20
98.231361
 30
0.0
  0
SEQEND
  5
193
330
192
100
AcDbEntity
  8
001
370
     9
  0
POLYLINE
  5
197
330
18C
100
AcDbEntity
  8
001
370
     9
100
AcDb2dPolyline
 66
     1
 10
0.0
 20
0.0
 30
0.0
  0
VERTEX
  5
199
330
197
100
AcDbEntity
  8
001
370
     9
100
AcDbVertex
100
AcDb2dVertex
 10
196.26126
 20
98.231361
 30
0.0
  0
VERTEX
  5
19A
330
197
100
AcDbEntity
  8
001
370
     9
100
AcDbVertex
100
AcDb2dVertex
 10
198.13626
 20
97.728957
 30
0.0
  0
VERTEX
  5
19B
330
197
100
AcDbEntity
  8
001
370
     9
100
AcDbVertex
100
AcDb2dVertex
 10
196.26126
 20
97.226552
 30
0.0
  0
SEQEND
  5
198
330
197
100
AcDbEntity
  8
001
370
     9
  0
TEXT
  5
19C
330
18C
100
AcDbEntity
  8
001
370
    30
100
AcDbText
 10
148.13626
 20
98.978957
 30
0.0
 40
5.0
  1
（８０）
 41
0.833333
100
AcDbText
  0
POINT
  5
19D
330
18C
100
AcDbEntity
  8
001
370
     9
100
AcDbPoint
 10
118.13626
 20
121.044958
 30
0.0
  0
POINT
  5
19E
330
18C
100
AcDbEntity
  8
001
370
     9
100
AcDbPoint
 10
198.13626
 20
126.044958
 30
0.0
  0
POINT
  5
19F
330
18C
100
AcDbEntity
  8
001
370
     9
100
AcDbPoint
 10
198.13626
 20
97.728957
 30
0.0
  0
ENDBLK
  5
18E
330
18C
100
AcDbEntity
  8
0
100
AcDbBlockEnd
  0
BLOCK
  5
1A1
330
1A0
100
AcDbEntity
  8
0
100
AcDbBlockBegin
  2
*D20
 70
     1
 10
0.0
 20
0.0
 30
0.0
  3
*D20
  1

  0
LINE
  5
1A3
330
1A0
100
AcDbEntity
  8
001
370
     9
100
AcDbLine
 10
86.904209
 20
152.410984
 30
0.0
 11
129.47022
 21
176.986481
 31
0.0
  0
ARC
  5
1A4
330
1A0
100
AcDbEntity
  8
001
370
     9
100
AcDbCircle
 10
65.485625
 20
140.044958
 30
0.0
 40
70.44554610238905
100
AcDbArc
 50
0.0
 51
30.0
  0
POLYLINE
  5
1A5
330
1A0
100
AcDbEntity
  8
001
370
     9
100
AcDb2dPolyline
 66
     1
 10
0.0
 20
0.0
 30
0.0
  0
VERTEX
  5
1A7
330
1A5
100
AcDbEntity
  8
001
370
     9
100
AcDbVertex
100
AcDb2dVertex
 10
126.970665
 20
173.386211
 30
0.0
  0
VERTEX
  5
1A8
330
1A5
100
AcDbEntity
  8
001
370
     9
100
AcDbVertex
100
AcDb2dVertex
 10
126.493257
 20
175.267731
 30
0.0
  0
VERTEX
  5
1A9
330
1A5
100
AcDbEntity
  8
001
370
     9
100
AcDbVertex
100
AcDb2dVertex
 10
127.847465
 20
173.876991
 30
0.0
  0
SEQEND
  5
1A6
330
1A5
100
AcDbEntity
  8
001
370
     9
  0
POLYLINE
  5
1AA
330
1A0
100
AcDbEntity
  8
001
370
     9
100
AcDb2dPolyline
 66
     1
 10
0.0
 20
0.0
 30
0.0
  0
VERTEX
  5
1AC
330
1AA
100
AcDbEntity
  8
001
370
     9
100
AcDbVertex
100
AcDb2dVertex
 10
136.408579
 20
141.926478
 30
0.0
  0
VERTEX
  5
1AD
330
1AA
100
AcDbEntity
  8
001
370
     9
100
AcDbVertex
100
AcDb2dVertex
 10
135.931171
 20
140.044958
 30
0.0
  0
VERTEX
  5
1AE
330
1AA
100
AcDbEntity
  8
001
370
     9
100
AcDbVertex
100
AcDb2dVertex
 10
135.403859
 20
141.913106
 30
0.0
  0
SEQEND
  5
1AB
330
1AA
100
AcDbEntity
  8
001
370
     9
  0
TEXT
  5
1AF
330
1A0
100
AcDbEntity
  8
001
370
    30
100
AcDbText
 10
129.672634
 20
172.855462
 30
0.0
 40
5.0
  1
３０%%d
 50
291.102854
 41
0.978261
100
AcDbText
  0
POINT
  5
1B0
330
1A0
100
AcDbEntity
  8
001
370
     9
100
AcDbPoint
 10
86.904209
 20
152.410984
 30
0.0
  0
POINT
  5
1B1
330
1A0
100
AcDbEntity
  8
001
370
     9
100
AcDbPoint
 10
65.485625
 20
140.044958
 30
0.0
  0
POINT
  5
1B2
330
1A0
100
AcDbEntity
  8
001
370
     9
100
AcDbPoint
 10
65.485625
 20
140.044958
 30
0.0
  0
POINT
  5
1B3
330
1A0
100
AcDbEntity
  8
001
370
     9
100
AcDbPoint
 10
77.140443
 20
140.044958
 30
0.0
  0
ENDBLK
  5
1A2
330
1A0
100
AcDbEntity
  8
0
100
AcDbBlockEnd
  0
BLOCK
  5
1B5
330
1B4
100
AcDbEntity
  8
0
100
AcDbBlockBegin
  2
*D21
 70
     1
 10
0.0
 20
0.0
 30
0.0
  3
*D21
  1

  0
LINE
  5
1B7
330
1B4
100
AcDbEntity
  8
001
370
     9
100
AcDbLine
 10
83.13626
 20
49.726016
 30
0.0
 11
56.683148
 21
49.726016
 31
0.0
  0
LINE
  5
1B8
330
1B4
100
AcDbEntity
  8
001
370
     9
100
AcDbLine
 10
83.13626
 20
37.726016
 30
0.0
 11
56.683148
 21
37.726016
 31
0.0
  0
LINE
  5
1B9
330
1B4
100
AcDbEntity
  8
001
370
     9
100
AcDbLine
 10
60.120648
 20
49.726016
 30
0.0
 11
60.120648
 21
37.726016
 31
0.0
  0
POLYLINE
  5
1BA
330
1B4
100
AcDbEntity
  8
001
370
     9
100
AcDb2dPolyline
 66
     1
 10
0.0
 20
0.0
 30
0.0
  0
VERTEX
  5
1BC
330
1BA
100
AcDbEntity
  8
001
370
     9
100
AcDbVertex
100
AcDb2dVertex
 10
60.623053
 20
51.601016
 30
0.0
  0
VERTEX
  5
1BD
330
1BA
100
AcDbEntity
  8
001
370
     9
100
AcDbVertex
100
AcDb2dVertex
 10
60.120648
 20
49.726016
 30
0.0
  0
VERTEX
  5
1BE
330
1BA
100
AcDbEntity
  8
001
370
     9
100
AcDbVertex
100
AcDb2dVertex
 10
59.618243
 20
51.601016
 30
0.0
  0
SEQEND
  5
1BB
330
1BA
100
AcDbEntity
  8
001
370
     9
  0
POLYLINE
  5
1BF
330
1B4
100
AcDbEntity
  8
001
370
     9
100
AcDb2dPolyline
 66
     1
 10
0.0
 20
0.0
 30
0.0
  0
VERTEX
  5
1C1
330
1BF
100
AcDbEntity
  8
001
370
     9
100
AcDbVertex
100
AcDb2dVertex
 10
59.618243
 20
35.851016
 30
0.0
  0
VERTEX
  5
1C2
330
1BF
100
AcDbEntity
  8
001
370
     9
100
AcDbVertex
100
AcDb2dVertex
 10
60.120648
 20
37.726016
 30
0.0
  0
VERTEX
  5
1C3
330
1BF
100
AcDbEntity
  8
001
370
     9
100
AcDbVertex
100
AcDb2dVertex
 10
60.623053
 20
35.851016
 30
0.0
  0
SEQEND
  5
1C0
330
1BF
100
AcDbEntity
  8
001
370
     9
  0
TEXT
  5
1C4
330
1B4
100
AcDbEntity
  8
001
370
    30
100
AcDbText
 10
58.870648
 20
52.851016
 30
0.0
 40
5.0
  1
%%c１２
 50
90.000003
 41
0.882353
100
AcDbText
  0
POINT
  5
1C5
330
1B4
100
AcDbEntity
  8
001
370
     9
100
AcDbPoint
 10
83.13626
 20
49.726016
 30
0.0
  0
POINT
  5
1C6
330
1B4
100
AcDbEntity
  8
001
370
     9
100
AcDbPoint
 10
83.13626
 20
37.726016
 30
0.0
  0
POINT
  5
1C7
330
1B4
100
AcDbEntity
  8
001
370
     9
100
AcDbPoint
 10
60.120648
 20
37.726016
 30
0.0
  0
LINE
  5
1C8
330
1B4
100
AcDbEntity
  8
001
370
     9
100
AcDbLine
 10
60.120648
 20
49.726016
 30
0.0
 11
60.120648
 21
71.601016
 31
0.0
  0
LINE
  5
1C9
330
1B4
100
AcDbEntity
  8
001
370
     9
100
AcDbLine
 10
60.120648
 20
37.726016
 30
0.0
 11
60.120648
 21
34.601016
 31
0.0
  0
ENDBLK
  5
1B6
330
1B4
100
AcDbEntity
  8
0
100
AcDbBlockEnd
  0
ENDSEC
  0
SECTION
  2
ENTITIES
  0
INSERT
  5
1CA
330
1F
100
AcDbEntity
  8
001
  6
ByBlock
 62
     0
370
    -2
100
AcDbBlockReference
  2
JZB-1
 10
0.0
 20
0.0
 30
0.0
  0
INSERT
  5
1CB
330
1F
100
AcDbEntity
  8
001
  6
ByBlock
 62
     0
370
    -2
100
AcDbBlockReference
  2
JZB-2
 10
0.0
 20
0.0
 30
0.0
  0
INSERT
  5
1CC
330
1F
100
AcDbEntity
  8
001
  6
ByBlock
 62
     0
370
    -2
100
AcDbBlockReference
  2
JZB-3
 10
0.0
 20
0.0
 30
0.0
  0
INSERT
  5
1CD
330
1F
100
AcDbEntity
  8
001
  6
ByBlock
 62
     0
370
    -2
100
AcDbBlockReference
  2
JZB-4
 10
0.0
 20
0.0
 30
0.0
  0
DIMENSION
  5
1CE
330
1F
100
AcDbEntity
  8
001
370
     9
100
AcDbDimension
  2
*D5
 10
59.262045
 20
152.544958
 30
0.0
 11
55.512045
 21
140.044958
 31
0.0
 70
   160
 71
     5
 42
-1.0
  3
Standard
100
AcDbAlignedDimension
 13
87.404209
 23
127.544958
 33
0.0
 14
87.404209
 24
152.544958
 34
0.0
 50
90.0
100
AcDbRotatedDimension
  0
DIMENSION
  5
1CF
330
1F
100
AcDbEntity
  8
001
370
     9
100
AcDbDimension
  2
*D6
 10
44.479115
 20
160.044958
 30
0.0
 11
40.729115
 21
140.044958
 31
0.0
 70
   160
 71
     5
 42
-1.0
  3
Standard
100
AcDbAlignedDimension
 13
114.13626
 23
120.044958
 33
0.0
 14
114.13626
 24
160.044958
 34
0.0
 50
90.0
100
AcDbRotatedDimension
  0
DIMENSION
  5
1D0
330
1F
100
AcDbEntity
  8
001
370
     9
100
AcDbDimension
  2
*D7
 10
83.13626
 20
97.728957
 30
0.0
 11
98.13626
 21
101.478957
 31
0.0
 70
   160
 71
     5
 42
-1.0
  3
Standard
100
AcDbAlignedDimension
 13
113.13626
 23
121.044958
 33
0.0
 14
83.13626
 24
130.43171
 34
0.0
 50
180.0
100
AcDbRotatedDimension
  0
DIMENSION
  5
1D1
330
1F
100
AcDbEntity
  8
001
370
     9
100
AcDbDimension
  2
*D8
 10
113.13626
 20
97.728957
 30
0.0
 11
115.63626
 21
101.478957
 31
0.0
 70
   160
 71
     5
 42
-1.0
  3
Standard
100
AcDbAlignedDimension
 13
118.13626
 23
121.044958
 33
0.0
 14
113.13626
 24
121.044958
 34
0.0
 50
180.0
100
AcDbRotatedDimension
  0
DIMENSION
  5
1D2
330
1F
100
AcDbEntity
  8
001
370
     9
100
AcDbDimension
  2
*D9
 10
198.13626
 20
86.776463
 30
0.0
 11
140.63626
 21
90.526463
 31
0.0
 70
   160
 71
     5
 42
-1.0
  3
Standard
100
AcDbAlignedDimension
 13
83.13626
 23
130.43171
 33
0.0
 14
198.13626
 24
126.044958
 34
0.0
100
AcDbRotatedDimension
  0
INSERT
  5
1D3
330
1F
100
AcDbEntity
  8
001
  6
ByBlock
 62
     0
370
    -2
100
AcDbBlockReference
  2
DIM-5
 10
0.0
 20
0.0
 30
0.0
  0
DIMENSION
  5
1D4
330
1F
100
AcDbEntity
  8
001
370
     9
100
AcDbDimension
  2
*D11
 10
223.376652
 20
156.044958
 30
0.0
 11
219.626652
 21
140.044958
 31
0.0
 70
   160
 71
     5
 42
-1.0
  3
Standard
100
AcDbAlignedDimension
 13
196.13626
 23
124.044958
 33
0.0
 14
196.13626
 24
156.044958
 34
0.0
 50
90.0
100
AcDbRotatedDimension
  0
DIMENSION
  5
1D5
330
1F
100
AcDbEntity
  8
001
370
     9
100
AcDbDimension
  2
*D12
 10
83.13626
 20
70.29102
 30
0.0
 11
88.13626
 21
74.04102
 31
0.0
 70
   160
 71
     5
 42
-1.0
  3
Standard
100
AcDbAlignedDimension
 13
93.13626
 23
60.76596
 33
0.0
 14
83.13626
 24
53.339264
 34
0.0
 50
180.0
100
AcDbRotatedDimension
  0
DIMENSION
  5
1D6
330
1F
100
AcDbEntity
  8
001
370
     9
100
AcDbDimension
  2
*D13
 10
93.13626
 20
70.29102
 30
0.0
 11
100.13626
 21
74.04102
 31
0.0
 70
   160
 71
     5
 42
-1.0
  3
Standard
100
AcDbAlignedDimension
 13
107.13626
 23
60.76596
 33
0.0
 14
93.13626
 24
60.76596
 34
0.0
 50
180.0
100
AcDbRotatedDimension
  0
DIMENSION
  5
1D7
330
1F
100
AcDbEntity
  8
001
370
     9
100
AcDbDimension
  2
*D14
 10
83.13626
 20
169.371948
 30
0.0
 11
71.26126
 21
173.121948
 31
0.0
 70
   160
 71
     5
 42
-1.0
  3
Standard
100
AcDbAlignedDimension
 13
87.13626
 23
152.544958
 33
0.0
 14
83.13626
 24
149.658207
 34
0.0
 50
180.0
100
AcDbRotatedDimension
  0
DIMENSION
  5
1D8
330
1F
100
AcDbEntity
  8
001
370
     9
100
AcDbDimension
  2
*D15
 10
196.13626
 20
154.044958
 30
0.0
 11
207.294732
 21
166.602491
 31
0.0
 70
   164
 71
     5
 42
-1.0
  3
Standard
100
AcDbRadialDimension
 15
197.76495
 25
155.20572
 35
0.0
 40
0.0
  0
DIMENSION
  5
1D9
330
1F
100
AcDbEntity
  8
001
370
     9
100
AcDbDimension
  2
*D16
 10
84.13626
 20
34.112767
 30
0.0
 11
69.383811
 21
28.384034
 31
0.0
 70
   164
 71
     5
 42
-1.0
  3
Standard
100
AcDbRadialDimension
 15
83.316401
 25
33.540201
 35
0.0
 40
0.0
  0
DIMENSION
  5
1DA
330
1F
100
AcDbEntity
  8
001
370
     9
100
AcDbDimension
  2
*D17
 10
114.13626
 20
24.726016
 30
0.0
 11
102.030956
 21
14.532158
 31
0.0
 70
   164
 71
     5
 42
-1.0
  3
Standard
100
AcDbRadialDimension
 15
113.545762
 25
23.918977
 35
0.0
 40
0.0
  0
DIMENSION
  5
1DB
330
1F
100
AcDbEntity
  8
001
370
     9
100
AcDbDimension
  2
*D18
 10
287.500618
 20
100.832089
 30
0.0
 11
272.500618
 21
104.582089
 31
0.0
 70
   160
 71
     5
 42
-1.0
  3
Standard
100
AcDbAlignedDimension
 13
257.500618
 23
132.298992
 33
0.0
 14
287.500618
 24
140.044958
 34
0.0
100
AcDbRotatedDimension
  0
DIMENSION
  5
1DC
330
1F
100
AcDbEntity
  8
001
370
     9
100
AcDbDimension
  2
*D19
 10
198.13626
 20
97.728957
 30
0.0
 11
158.13626
 21
101.478957
 31
0.0
 70
   160
 71
     5
 42
-1.0
  3
Standard
100
AcDbAlignedDimension
 13
118.13626
 23
121.044958
 33
0.0
 14
198.13626
 24
126.044958
 34
0.0
100
AcDbRotatedDimension
  0
DIMENSION
  5
1DD
330
1F
100
AcDbEntity
  8
001
370
     9
100
AcDbDimension
  2
*D20
 10
65.485625
 20
140.044958
 30
0.0
 11
134.705298
 21
166.758553
 31
0.0
 70
    34
 71
     5
 42
-1.0
  3
Standard
100
AcDb2LineAngularDimension
 13
86.904209
 23
152.410984
 33
0.0
 14
65.485625
 24
140.044958
 34
0.0
 15
77.140443
 25
140.044958
 35
0.0
 16
133.530797
 26
158.277607
 36
0.0
  0
DIMENSION
  5
1DE
330
1F
100
AcDbEntity
  8
001
370
     9
100
AcDbDimension
  2
*D21
 10
60.120648
 20
37.726016
 30
0.0
 11
56.370648
 21
60.351016
 31
0.0
 70
   160
 71
     5
 42
-1.0
  3
Standard
100
AcDbAlignedDimension
 13
83.13626
 23
49.726016
 33
0.0
 14
83.13626
 24
37.726016
 34
0.0
 50
270.0
100
AcDbRotatedDimension
  0
ARC
  5
1DF
330
1F
100
AcDbEntity
  8
001
 62
   253
370
    50
100
AcDbCircle
 10
114.13626
 20
121.044958
 30
0.0
 40
1.0
100
AcDbArc
 50
180.0
 51
270.0
  0
ARC
  5
1E0
330
1F
100
AcDbEntity
  8
001
 62
   253
370
    50
100
AcDbCircle
 10
114.13626
 20
159.044958
 30
0.0
 40
1.0
100
AcDbArc
 50
90.0
 51
180.0
  0
LINE
  5
1E1
330
1F
100
AcDbEntity
  8
001
 62
   253
370
    50
100
AcDbLine
 10
113.13626
 20
121.044958
 30
0.0
 11
113.13626
 21
159.044958
 31
0.0
  0
ARC
  5
1E2
330
1F
100
AcDbEntity
  8
001
 62
   253
370
    50
100
AcDbCircle
 10
117.13626
 20
159.044958
 30
0.0
 40
1.0
100
AcDbArc
 50
0.0
 51
90.0
  0
ARC
  5
1E3
330
1F
100
AcDbEntity
  8
001
 62
   253
370
    50
100
AcDbCircle
 10
117.13626
 20
121.044958
 30
0.0
 40
1.0
100
AcDbArc
 50
270.0
 51
0.0
  0
LINE
  5
1E4
330
1F
100
AcDbEntity
  8
001
 62
   253
370
    50
100
AcDbLine
 10
118.13626
 20
159.044958
 30
0.0
 11
118.13626
 21
121.044958
 31
0.0
  0
LINE
  5
1E5
330
1F
100
AcDbEntity
  8
001
 62
   253
370
    50
100
AcDbLine
 10
117.13626
 20
160.044958
 30
0.0
 11
114.13626
 21
160.044958
 31
0.0
  0
LINE
  5
1E6
330
1F
100
AcDbEntity
  8
001
 62
   253
370
    50
100
AcDbLine
 10
114.13626
 20
120.044958
 30
0.0
 11
117.13626
 21
120.044958
 31
0.0
  0
LINE
  5
1E7
330
1F
100
AcDbEntity
  8
001
 62
   253
370
    50
100
AcDbLine
 10
121.13626
 20
155.544958
 30
0.0
 11
118.13626
 21
155.544958
 31
0.0
  0
LINE
  5
1E8
330
1F
100
AcDbEntity
  8
001
 62
   253
370
    50
100
AcDbLine
 10
118.13626
 20
124.544958
 30
0.0
 11
121.13626
 21
124.544958
 31
0.0
  0
LINE
  5
1E9
330
1F
100
AcDbEntity
  8
001
 62
   253
370
    50
100
AcDbLine
 10
118.13626
 20
133.392891
 30
0.0
 11
121.13626
 21
133.392891
 31
0.0
  0
LINE
  5
1EA
330
1F
100
AcDbEntity
  8
001
 62
   253
370
    50
100
AcDbLine
 10
121.13626
 20
146.697026
 30
0.0
 11
118.13626
 21
146.697026
 31
0.0
  0
LINE
  5
1EB
330
1F
100
AcDbEntity
  8
001
 62
   253
370
    50
100
AcDbLine
 10
196.13626
 20
156.044958
 30
0.0
 11
121.13626
 21
156.044958
 31
0.0
  0
LINE
  5
1EC
330
1F
100
AcDbEntity
  8
001
 62
   253
370
    50
100
AcDbLine
 10
121.13626
 20
124.044958
 30
0.0
 11
196.13626
 21
124.044958
 31
0.0
  0
LINE
  5
1ED
330
1F
100
AcDbEntity
  8
001
 62
   253
370
    50
100
AcDbLine
 10
121.13626
 20
132.298992
 30
0.0
 11
196.13626
 21
132.298992
 31
0.0
  0
LINE
  5
1EE
330
1F
100
AcDbEntity
  8
001
 62
   253
370
    50
100
AcDbLine
 10
196.13626
 20
147.790925
 30
0.0
 11
121.13626
 21
147.790925
 31
0.0
  0
ARC
  5
1EF
330
1F
100
AcDbEntity
  8
001
 62
   253
370
    50
100
AcDbCircle
 10
196.13626
 20
154.044958
 30
0.0
 40
2.0
100
AcDbArc
 50
0.0
 51
90.0
  0
ARC
  5
1F0
330
1F
100
AcDbEntity
  8
001
 62
   253
370
    50
100
AcDbCircle
 10
196.13626
 20
126.044958
 30
0.0
 40
2.0
100
AcDbArc
 50
270.0
 51
0.0
  0
POLYLINE
  5
1F1
330
1F
100
AcDbEntity
  8
001
 62
   253
370
    50
100
AcDb2dPolyline
 66
     1
 10
0.0
 20
0.0
 30
0.0
  0
VERTEX
  5
1F3
330
1F1
100
AcDbEntity
  8
001
 62
   253
370
    50
100
AcDbVertex
100
AcDb2dVertex
 10
196.13626
 20
132.298992
 30
0.0
  0
VERTEX
  5
1F4
330
1F1
100
AcDbEntity
  8
001
 62
   253
370
    50
100
AcDbVertex
100
AcDb2dVertex
 10
196.197647
 20
132.301749
 30
0.0
  0
VERTEX
  5
1F5
330
1F1
100
AcDbEntity
  8
001
 62
   253
370
    50
100
AcDbVertex
100
AcDb2dVertex
 10
196.258824
 20
132.306759
 30
0.0
  0
VERTEX
  5
1F6
330
1F1
100
AcDbEntity
  8
001
 62
   253
370
    50
100
AcDbVertex
100
AcDb2dVertex
 10
196.420508
 20
132.340442
 30
0.0
  0
VERTEX
  5
1F7
330
1F1
100
AcDbEntity
  8
001
 62
   253
370
    50
100
AcDbVertex
100
AcDb2dVertex
 10
196.5752
 20
132.400221
 30
0.0
  0
VERTEX
  5
1F8
330
1F1
100
AcDbEntity
  8
001
 62
   253
370
    50
100
AcDbVertex
100
AcDb2dVertex
 10
196.67522
 20
132.453069
 30
0.0
  0
VERTEX
  5
1F9
330
1F1
100
AcDbEntity
  8
001
 62
   253
370
    50
100
AcDbVertex
100
AcDb2dVertex
 10
196.770097
 20
132.514247
 30
0.0
  0
VERTEX
  5
1FA
330
1F1
100
AcDbEntity
  8
001
 62
   253
370
    50
100
AcDbVertex
100
AcDb2dVertex
 10
196.862291
 20
132.584866
 30
0.0
  0
VERTEX
  5
1FB
330
1F1
100
AcDbEntity
  8
001
 62
   253
370
    50
100
AcDbVertex
100
AcDb2dVertex
 10
196.949092
 20
132.662151
 30
0.0
  0
VERTEX
  5
1FC
330
1F1
100
AcDbEntity
  8
001
 62
   253
370
    50
100
AcDbVertex
100
AcDb2dVertex
 10
197.072336
 20
132.791561
 30
0.0
  0
VERTEX
  5
1FD
330
1F1
100
AcDbEntity
  8
001
 62
   253
370
    50
100
AcDbVertex
100
AcDb2dVertex
 10
197.183901
 20
132.931249
 30
0.0
  0
VERTEX
  5
1FE
330
1F1
100
AcDbEntity
  8
001
 62
   253
370
    50
100
AcDbVertex
100
AcDb2dVertex
 10
197.28722
 20
133.082689
 30
0.0
  0
VERTEX
  5
1FF
330
1F1
100
AcDbEntity
  8
001
 62
   253
370
    50
100
AcDbVertex
100
AcDb2dVertex
 10
197.380338
 20
133.240585
 30
0.0
  0
VERTEX
  5
200
330
1F1
100
AcDbEntity
  8
001
 62
   253
370
    50
100
AcDbVertex
100
AcDb2dVertex
 10
197.459814
 20
133.394185
 30
0.0
  0
VERTEX
  5
201
330
1F1
100
AcDbEntity
  8
001
 62
   253
370
    50
100
AcDbVertex
100
AcDb2dVertex
 10
197.531876
 20
133.551391
 30
0.0
  0
VERTEX
  5
202
330
1F1
100
AcDbEntity
  8
001
 62
   253
370
    50
100
AcDbVertex
100
AcDb2dVertex
 10
197.597225
 20
133.711591
 30
0.0
  0
VERTEX
  5
203
330
1F1
100
AcDbEntity
  8
001
 62
   253
370
    50
100
AcDbVertex
100
AcDb2dVertex
 10
197.656443
 20
133.874161
 30
0.0
  0
VERTEX
  5
204
330
1F1
100
AcDbEntity
  8
001
 62
   253
370
    50
100
AcDbVertex
100
AcDb2dVertex
 10
197.760757
 20
134.212033
 30
0.0
  0
VERTEX
  5
205
330
1F1
100
AcDbEntity
  8
001
 62
   253
370
    50
100
AcDbVertex
100
AcDb2dVertex
 10
197.845932
 20
134.555396
 30
0.0
  0
VERTEX
  5
206
330
1F1
100
AcDbEntity
  8
001
 62
   253
370
    50
100
AcDbVertex
100
AcDb2dVertex
 10
197.932923
 20
135.002127
 30
0.0
  0
VERTEX
  5
207
330
1F1
100
AcDbEntity
  8
001
 62
   253
370
    50
100
AcDbVertex
100
AcDb2dVertex
 10
197.998504
 20
135.452469
 30
0.0
  0
VERTEX
  5
208
330
1F1
100
AcDbEntity
  8
001
 62
   253
370
    50
100
AcDbVertex
100
AcDb2dVertex
 10
198.04651
 20
135.906039
 30
0.0
  0
VERTEX
  5
209
330
1F1
100
AcDbEntity
  8
001
 62
   253
370
    50
100
AcDbVertex
100
AcDb2dVertex
 10
198.080202
 20
136.360899
 30
0.0
  0
VERTEX
  5
20A
330
1F1
100
AcDbEntity
  8
001
 62
   253
370
    50
100
AcDbVertex
100
AcDb2dVertex
 10
198.102885
 20
136.81635
 30
0.0
  0
VERTEX
  5
20B
330
1F1
100
AcDbEntity
  8
001
 62
   253
370
    50
100
AcDbVertex
100
AcDb2dVertex
 10
198.117684
 20
137.272126
 30
0.0
  0
VERTEX
  5
20C
330
1F1
100
AcDbEntity
  8
001
 62
   253
370
    50
100
AcDbVertex
100
AcDb2dVertex
 10
198.130765
 20
137.965219
 30
0.0
  0
VERTEX
  5
20D
330
1F1
100
AcDbEntity
  8
001
 62
   253
370
    50
100
AcDbVertex
100
AcDb2dVertex
 10
198.136211
 20
138.658419
 30
0.0
  0
VERTEX
  5
20E
330
1F1
100
AcDbEntity
  8
001
 62
   253
370
    50
100
AcDbVertex
100
AcDb2dVertex
 10
198.137273
 20
139.351691
 30
0.0
  0
VERTEX
  5
20F
330
1F1
100
AcDbEntity
  8
001
 62
   253
370
    50
100
AcDbVertex
100
AcDb2dVertex
 10
198.13626
 20
140.044958
 30
0.0
  0
SEQEND
  5
1F2
330
1F1
100
AcDbEntity
  8
001
370
    50
  0
LINE
  5
210
330
1F
100
AcDbEntity
  8
001
 62
   253
370
    50
100
AcDbLine
 10
198.13626
 20
154.044958
 30
0.0
 11
198.13626
 21
126.044958
 31
0.0
  0
POLYLINE
  5
211
330
1F
100
AcDbEntity
  8
001
 62
   253
370
    50
100
AcDb2dPolyline
 66
     1
 10
0.0
 20
0.0
 30
0.0
  0
VERTEX
  5
213
330
211
100
AcDbEntity
  8
001
 62
   253
370
    50
100
AcDbVertex
100
AcDb2dVertex
 10
198.13626
 20
140.044958
 30
0.0
  0
VERTEX
  5
214
330
211
100
AcDbEntity
  8
001
 62
   253
370
    50
100
AcDbVertex
100
AcDb2dVertex
 10
198.136649
 20
141.044965
 30
0.0
  0
VERTEX
  5
215
330
211
100
AcDbEntity
  8
001
 62
   253
370
    50
100
AcDbVertex
100
AcDb2dVertex
 10
198.131203
 20
142.044958
 30
0.0
  0
VERTEX
  5
216
330
211
100
AcDbEntity
  8
001
 62
   253
370
    50
100
AcDbVertex
100
AcDb2dVertex
 10
198.124098
 20
142.545417
 30
0.0
  0
VERTEX
  5
217
330
211
100
AcDbEntity
  8
001
 62
   253
370
    50
100
AcDbVertex
100
AcDb2dVertex
 10
198.111169
 20
143.045745
 30
0.0
  0
VERTEX
  5
218
330
211
100
AcDbEntity
  8
001
 62
   253
370
    50
100
AcDbVertex
100
AcDb2dVertex
 10
198.089515
 20
143.54565
 30
0.0
  0
VERTEX
  5
219
330
211
100
AcDbEntity
  8
001
 62
   253
370
    50
100
AcDbVertex
100
AcDb2dVertex
 10
198.056196
 20
144.044958
 30
0.0
  0
VERTEX
  5
21A
330
211
100
AcDbEntity
  8
001
 62
   253
370
    50
100
AcDbVertex
100
AcDb2dVertex
 10
198.007921
 20
144.543109
 30
0.0
  0
VERTEX
  5
21B
330
211
100
AcDbEntity
  8
001
 62
   253
370
    50
100
AcDbVertex
100
AcDb2dVertex
 10
197.939999
 20
145.038852
 30
0.0
  0
VERTEX
  5
21C
330
211
100
AcDbEntity
  8
001
 62
   253
370
    50
100
AcDbVertex
100
AcDb2dVertex
 10
197.896569
 20
145.287827
 30
0.0
  0
VERTEX
  5
21D
330
211
100
AcDbEntity
  8
001
 62
   253
370
    50
100
AcDbVertex
100
AcDb2dVertex
 10
197.845842
 20
145.53542
 30
0.0
  0
VERTEX
  5
21E
330
211
100
AcDbEntity
  8
001
 62
   253
370
    50
100
AcDbVertex
100
AcDb2dVertex
 10
197.786828
 20
145.781089
 30
0.0
  0
VERTEX
  5
21F
330
211
100
AcDbEntity
  8
001
 62
   253
370
    50
100
AcDbVertex
100
AcDb2dVertex
 10
197.718424
 20
146.024298
 30
0.0
  0
VERTEX
  5
220
330
211
100
AcDbEntity
  8
001
 62
   253
370
    50
100
AcDbVertex
100
AcDb2dVertex
 10
197.655245
 20
146.219215
 30
0.0
  0
VERTEX
  5
221
330
211
100
AcDbEntity
  8
001
 62
   253
370
    50
100
AcDbVertex
100
AcDb2dVertex
 10
197.584263
 20
146.411432
 30
0.0
  0
VERTEX
  5
222
330
211
100
AcDbEntity
  8
001
 62
   253
370
    50
100
AcDbVertex
100
AcDb2dVertex
 10
197.503875
 20
146.601716
 30
0.0
  0
VERTEX
  5
223
330
211
100
AcDbEntity
  8
001
 62
   253
370
    50
100
AcDbVertex
100
AcDb2dVertex
 10
197.413524
 20
146.787457
 30
0.0
  0
VERTEX
  5
224
330
211
100
AcDbEntity
  8
001
 62
   253
370
    50
100
AcDbVertex
100
AcDb2dVertex
 10
197.312691
 20
146.966241
 30
0.0
  0
VERTEX
  5
225
330
211
100
AcDbEntity
  8
001
 62
   253
370
    50
100
AcDbVertex
100
AcDb2dVertex
 10
197.19934
 20
147.13747
 30
0.0
  0
VERTEX
  5
226
330
211
100
AcDbEntity
  8
001
 62
   253
370
    50
100
AcDbVertex
100
AcDb2dVertex
 10
197.068291
 20
147.303022
 30
0.0
  0
VERTEX
  5
227
330
211
100
AcDbEntity
  8
001
 62
   253
370
    50
100
AcDbVertex
100
AcDb2dVertex
 10
196.921018
 20
147.45395
 30
0.0
  0
VERTEX
  5
228
330
211
100
AcDbEntity
  8
001
 62
   253
370
    50
100
AcDbVertex
100
AcDb2dVertex
 10
196.845264
 20
147.518933
 30
0.0
  0
VERTEX
  5
229
330
211
100
AcDbEntity
  8
001
 62
   253
370
    50
100
AcDbVertex
100
AcDb2dVertex
 10
196.765489
 20
147.578906
 30
0.0
  0
VERTEX
  5
22A
330
211
100
AcDbEntity
  8
001
 62
   253
370
    50
100
AcDbVertex
100
AcDb2dVertex
 10
196.679982
 20
147.634125
 30
0.0
  0
VERTEX
  5
22B
330
211
100
AcDbEntity
  8
001
 62
   253
370
    50
100
AcDbVertex
100
AcDb2dVertex
 10
196.590409
 20
147.682424
 30
0.0
  0
VERTEX
  5
22C
330
211
100
AcDbEntity
  8
001
 62
   253
370
    50
100
AcDbVertex
100
AcDb2dVertex
 10
196.498663
 20
147.722237
 30
0.0
  0
VERTEX
  5
22D
330
211
100
AcDbEntity
  8
001
 62
   253
370
    50
100
AcDbVertex
100
AcDb2dVertex
 10
196.403679
 20
147.753761
 30
0.0
  0
VERTEX
  5
22E
330
211
100
AcDbEntity
  8
001
 62
   253
370
    50
100
AcDbVertex
100
AcDb2dVertex
 10
196.302365
 20
147.776876
 30
0.0
  0
VERTEX
  5
22F
330
211
100
AcDbEntity
  8
001
 62
   253
370
    50
100
AcDbVertex
100
AcDb2dVertex
 10
196.199311
 20
147.788871
 30
0.0
  0
VERTEX
  5
230
330
211
100
AcDbEntity
  8
001
 62
   253
370
    50
100
AcDbVertex
100
AcDb2dVertex
 10
196.167798
 20
147.79019
 30
0.0
  0
VERTEX
  5
231
330
211
100
AcDbEntity
  8
001
 62
   253
370
    50
100
AcDbVertex
100
AcDb2dVertex
 10
196.13626
 20
147.790925
 30
0.0
  0
SEQEND
  5
212
330
211
100
AcDbEntity
  8
001
370
    50
  0
LINE
  5
232
330
1F
100
AcDbEntity
  8
001
 62
   253
370
    50
100
AcDbLine
 10
121.13626
 20
133.392891
 30
0.0
 11
121.13626
 21
124.044958
 31
0.0
  0
LINE
  5
233
330
1F
100
AcDbEntity
  8
001
 62
   253
370
    50
100
AcDbLine
 10
121.13626
 20
156.044958
 30
0.0
 11
121.13626
 21
146.697026
 31
0.0
  0
POLYLINE
  5
234
330
1F
100
AcDbEntity
  8
001
 62
   253
370
    50
100
AcDb2dPolyline
 66
     1
 10
0.0
 20
0.0
 30
0.0
  0
VERTEX
  5
236
330
234
100
AcDbEntity
  8
001
 62
   253
370
    50
100
AcDbVertex
100
AcDb2dVertex
 10
91.659177
 20
136.051865
 30
0.0
  0
VERTEX
  5
237
330
234
100
AcDbEntity
  8
001
 62
   253
370
    50
100
AcDbVertex
100
AcDb2dVertex
 10
91.555071
 20
136.096091
 30
0.0
  0
VERTEX
  5
238
330
234
100
AcDbEntity
  8
001
 62
   253
370
    50
100
AcDbVertex
100
AcDb2dVertex
 10
91.451584
 20
136.145028
 30
0.0
  0
VERTEX
  5
239
330
234
100
AcDbEntity
  8
001
 62
   253
370
    50
100
AcDbVertex
100
AcDb2dVertex
 10
91.379349
 20
136.186756
 30
0.0
  0
VERTEX
  5
23A
330
234
100
AcDbEntity
  8
001
 62
   253
370
    50
100
AcDbVertex
100
AcDb2dVertex
 10
91.317976
 20
136.240298
 30
0.0
  0
VERTEX
  5
23B
330
234
100
AcDbEntity
  8
001
 62
   253
370
    50
100
AcDbVertex
100
AcDb2dVertex
 10
91.290349
 20
136.278928
 30
0.0
  0
VERTEX
  5
23C
330
234
100
AcDbEntity
  8
001
 62
   253
370
    50
100
AcDbVertex
100
AcDb2dVertex
 10
91.266299
 20
136.320736
 30
0.0
  0
SEQEND
  5
235
330
234
100
AcDbEntity
  8
001
370
    50
  0
POLYLINE
  5
23D
330
1F
100
AcDbEntity
  8
001
 62
   253
370
    50
100
AcDb2dPolyline
 66
     1
 10
0.0
 20
0.0
 30
0.0
  0
VERTEX
  5
23F
330
23D
100
AcDbEntity
  8
001
 62
   253
370
    50
100
AcDbVertex
100
AcDb2dVertex
 10
95.655496
 20
136.615464
 30
0.0
  0
VERTEX
  5
240
330
23D
100
AcDbEntity
  8
001
 62
   253
370
    50
100
AcDbVertex
100
AcDb2dVertex
 10
95.771738
 20
136.708776
 30
0.0
  0
VERTEX
  5
241
330
23D
100
AcDbEntity
  8
001
 62
   253
370
    50
100
AcDbVertex
100
AcDb2dVertex
 10
95.87544
 20
136.796794
 30
0.0
  0
VERTEX
  5
242
330
23D
100
AcDbEntity
  8
001
 62
   253
370
    50
100
AcDbVertex
100
AcDb2dVertex
 10
95.926069
 20
136.84438
 30
0.0
  0
VERTEX
  5
243
330
23D
100
AcDbEntity
  8
001
 62
   253
370
    50
100
AcDbVertex
100
AcDb2dVertex
 10
95.987208
 20
136.907308
 30
0.0
  0
VERTEX
  5
244
330
23D
100
AcDbEntity
  8
001
 62
   253
370
    50
100
AcDbVertex
100
AcDb2dVertex
 10
96.00409
 20
136.925927
 30
0.0
  0
VERTEX
  5
245
330
23D
100
AcDbEntity
  8
001
 62
   253
370
    50
100
AcDbVertex
100
AcDb2dVertex
 10
96.011124
 20
136.938017
 30
0.0
  0
VERTEX
  5
246
330
23D
100
AcDbEntity
  8
001
 62
   253
370
    50
100
AcDbVertex
100
AcDb2dVertex
 10
95.995313
 20
136.935643
 30
0.0
  0
VERTEX
  5
247
330
23D
100
AcDbEntity
  8
001
 62
   253
370
    50
100
AcDbVertex
100
AcDb2dVertex
 10
95.965164
 20
136.92177
 30
0.0
  0
VERTEX
  5
248
330
23D
100
AcDbEntity
  8
001
 62
   253
370
    50
100
AcDbVertex
100
AcDb2dVertex
 10
95.882236
 20
136.871576
 30
0.0
  0
VERTEX
  5
249
330
23D
100
AcDbEntity
  8
001
 62
   253
370
    50
100
AcDbVertex
100
AcDb2dVertex
 10
95.825393
 20
136.826128
 30
0.0
  0
VERTEX
  5
24A
330
23D
100
AcDbEntity
  8
001
 62
   253
370
    50
100
AcDbVertex
100
AcDb2dVertex
 10
95.553367
 20
136.653212
 30
0.0
  0
VERTEX
  5
24B
330
23D
100
AcDbEntity
  8
001
 62
   253
370
    50
100
AcDbVertex
100
AcDb2dVertex
 10
95.229689
 20
136.499068
 30
0.0
  0
VERTEX
  5
24C
330
23D
100
AcDbEntity
  8
001
 62
   253
370
    50
100
AcDbVertex
100
AcDb2dVertex
 10
94.992119
 20
136.402215
 30
0.0
  0
VERTEX
  5
24D
330
23D
100
AcDbEntity
  8
001
 62
   253
370
    50
100
AcDbVertex
100
AcDb2dVertex
 10
94.754895
 20
136.321856
 30
0.0
  0
VERTEX
  5
24E
330
23D
100
AcDbEntity
  8
001
 62
   253
370
    50
100
AcDbVertex
100
AcDb2dVertex
 10
94.677374
 20
136.299515
 30
0.0
  0
VERTEX
  5
24F
330
23D
100
AcDbEntity
  8
001
 62
   253
370
    50
100
AcDbVertex
100
AcDb2dVertex
 10
94.599224
 20
136.278004
 30
0.0
  0
SEQEND
  5
23E
330
23D
100
AcDbEntity
  8
001
370
    50
  0
LINE
  5
250
330
1F
100
AcDbEntity
  8
001
 62
   253
370
    50
100
AcDbLine
 10
94.599224
 20
136.278004
 30
0.0
 11
94.253732
 21
136.204222
 31
0.0
  0
POLYLINE
  5
251
330
1F
100
AcDbEntity
  8
001
 62
   253
370
    50
100
AcDb2dPolyline
 66
     1
 10
0.0
 20
0.0
 30
0.0
  0
VERTEX
  5
253
330
251
100
AcDbEntity
  8
001
 62
   253
370
    50
100
AcDbVertex
100
AcDb2dVertex
 10
95.655496
 20
136.615464
 30
0.0
  0
VERTEX
  5
254
330
251
100
AcDbEntity
  8
001
 62
   253
370
    50
100
AcDbVertex
100
AcDb2dVertex
 10
95.539232
 20
136.540071
 30
0.0
  0
VERTEX
  5
255
330
251
100
AcDbEntity
  8
001
 62
   253
370
    50
100
AcDbVertex
100
AcDb2dVertex
 10
95.420699
 20
136.468572
 30
0.0
  0
VERTEX
  5
256
330
251
100
AcDbEntity
  8
001
 62
   253
370
    50
100
AcDbVertex
100
AcDb2dVertex
 10
95.283269
 20
136.396741
 30
0.0
  0
VERTEX
  5
257
330
251
100
AcDbEntity
  8
001
 62
   253
370
    50
100
AcDbVertex
100
AcDb2dVertex
 10
95.141766
 20
136.332981
 30
0.0
  0
VERTEX
  5
258
330
251
100
AcDbEntity
  8
001
 62
   253
370
    50
100
AcDbVertex
100
AcDb2dVertex
 10
94.997092
 20
136.275478
 30
0.0
  0
VERTEX
  5
259
330
251
100
AcDbEntity
  8
001
 62
   253
370
    50
100
AcDbVertex
100
AcDb2dVertex
 10
94.850484
 20
136.223193
 30
0.0
  0
VERTEX
  5
25A
330
251
100
AcDbEntity
  8
001
 62
   253
370
    50
100
AcDbVertex
100
AcDb2dVertex
 10
94.545673
 20
136.128873
 30
0.0
  0
VERTEX
  5
25B
330
251
100
AcDbEntity
  8
001
 62
   253
370
    50
100
AcDbVertex
100
AcDb2dVertex
 10
94.236265
 20
136.050706
 30
0.0
  0
VERTEX
  5
25C
330
251
100
AcDbEntity
  8
001
 62
   253
370
    50
100
AcDbVertex
100
AcDb2dVertex
 10
93.984955
 20
135.999146
 30
0.0
  0
VERTEX
  5
25D
330
251
100
AcDbEntity
  8
001
 62
   253
370
    50
100
AcDbVertex
100
AcDb2dVertex
 10
93.731819
 20
135.95755
 30
0.0
  0
VERTEX
  5
25E
330
251
100
AcDbEntity
  8
001
 62
   253
370
    50
100
AcDbVertex
100
AcDb2dVertex
 10
93.475089
 20
135.925719
 30
0.0
  0
VERTEX
  5
25F
330
251
100
AcDbEntity
  8
001
 62
   253
370
    50
100
AcDbVertex
100
AcDb2dVertex
 10
93.217335
 20
135.904234
 30
0.0
  0
VERTEX
  5
260
330
251
100
AcDbEntity
  8
001
 62
   253
370
    50
100
AcDbVertex
100
AcDb2dVertex
 10
92.960659
 20
135.893133
 30
0.0
  0
VERTEX
  5
261
330
251
100
AcDbEntity
  8
001
 62
   253
370
    50
100
AcDbVertex
100
AcDb2dVertex
 10
92.70358
 20
135.891292
 30
0.0
  0
VERTEX
  5
262
330
251
100
AcDbEntity
  8
001
 62
   253
370
    50
100
AcDbVertex
100
AcDb2dVertex
 10
92.446389
 20
135.899026
 30
0.0
  0
VERTEX
  5
263
330
251
100
AcDbEntity
  8
001
 62
   253
370
    50
100
AcDbVertex
100
AcDb2dVertex
 10
92.19049
 20
135.922647
 30
0.0
  0
VERTEX
  5
264
330
251
100
AcDbEntity
  8
001
 62
   253
370
    50
100
AcDbVertex
100
AcDb2dVertex
 10
92.06019
 20
135.943328
 30
0.0
  0
VERTEX
  5
265
330
251
100
AcDbEntity
  8
001
 62
   253
370
    50
100
AcDbVertex
100
AcDb2dVertex
 10
91.931008
 20
135.970386
 30
0.0
  0
VERTEX
  5
266
330
251
100
AcDbEntity
  8
001
 62
   253
370
    50
100
AcDbVertex
100
AcDb2dVertex
 10
91.803778
 20
136.003942
 30
0.0
  0
VERTEX
  5
267
330
251
100
AcDbEntity
  8
001
 62
   253
370
    50
100
AcDbVertex
100
AcDb2dVertex
 10
91.67875
 20
136.044724
 30
0.0
  0
VERTEX
  5
268
330
251
100
AcDbEntity
  8
001
 62
   253
370
    50
100
AcDbVertex
100
AcDb2dVertex
 10
91.668959
 20
136.048282
 30
0.0
  0
VERTEX
  5
269
330
251
100
AcDbEntity
  8
001
 62
   253
370
    50
100
AcDbVertex
100
AcDb2dVertex
 10
91.659177
 20
136.051865
 30
0.0
  0
SEQEND
  5
252
330
251
100
AcDbEntity
  8
001
370
    50
  0
LINE
  5
26A
330
1F
100
AcDbEntity
  8
001
 62
   253
370
    50
100
AcDbLine
 10
89.233767
 20
140.922769
 30
0.0
 11
89.22958
 21
140.906415
 31
0.0
  0
POLYLINE
  5
26B
330
1F
100
AcDbEntity
  8
001
 62
   253
370
    50
100
AcDb2dPolyline
 66
     1
 10
0.0
 20
0.0
 30
0.0
  0
VERTEX
  5
26D
330
26B
100
AcDbEntity
  8
001
 62
   253
370
    50
100
AcDbVertex
100
AcDb2dVertex
 10
89.22958
 20
140.906415
 30
0.0
  0
VERTEX
  5
26E
330
26B
100
AcDbEntity
  8
001
 62
   253
370
    50
100
AcDbVertex
100
AcDb2dVertex
 10
89.174987
 20
140.638534
 30
0.0
  0
VERTEX
  5
26F
330
26B
100
AcDbEntity
  8
001
 62
   253
370
    50
100
AcDbVertex
100
AcDb2dVertex
 10
89.131622
 20
140.368922
 30
0.0
  0
VERTEX
  5
270
330
26B
100
AcDbEntity
  8
001
 62
   253
370
    50
100
AcDbVertex
100
AcDb2dVertex
 10
89.108089
 20
140.082358
 30
0.0
  0
VERTEX
  5
271
330
26B
100
AcDbEntity
  8
001
 62
   253
370
    50
100
AcDbVertex
100
AcDb2dVertex
 10
89.108303
 20
139.794722
 30
0.0
  0
VERTEX
  5
272
330
26B
100
AcDbEntity
  8
001
 62
   253
370
    50
100
AcDbVertex
100
AcDb2dVertex
 10
89.117397
 20
139.639651
 30
0.0
  0
VERTEX
  5
273
330
26B
100
AcDbEntity
  8
001
 62
   253
370
    50
100
AcDbVertex
100
AcDb2dVertex
 10
89.1298
 20
139.484826
 30
0.0
  0
SEQEND
  5
26C
330
26B
100
AcDbEntity
  8
001
370
    50
  0
POLYLINE
  5
274
330
1F
100
AcDbEntity
  8
001
 62
   253
370
    50
100
AcDb2dPolyline
 66
     1
 10
0.0
 20
0.0
 30
0.0
  0
VERTEX
  5
276
330
274
100
AcDbEntity
  8
001
 62
   253
370
    50
100
AcDbVertex
100
AcDb2dVertex
 10
89.1298
 20
139.484826
 30
0.0
  0
VERTEX
  5
277
330
274
100
AcDbEntity
  8
001
 62
   253
370
    50
100
AcDbVertex
100
AcDb2dVertex
 10
89.154468
 20
139.308181
 30
0.0
  0
VERTEX
  5
278
330
274
100
AcDbEntity
  8
001
 62
   253
370
    50
100
AcDbVertex
100
AcDb2dVertex
 10
89.183736
 20
139.132336
 30
0.0
  0
VERTEX
  5
279
330
274
100
AcDbEntity
  8
001
 62
   253
370
    50
100
AcDbVertex
100
AcDb2dVertex
 10
89.263685
 20
138.798853
 30
0.0
  0
VERTEX
  5
27A
330
274
100
AcDbEntity
  8
001
 62
   253
370
    50
100
AcDbVertex
100
AcDb2dVertex
 10
89.373434
 20
138.473483
 30
0.0
  0
VERTEX
  5
27B
330
274
100
AcDbEntity
  8
001
 62
   253
370
    50
100
AcDbVertex
100
AcDb2dVertex
 10
89.506847
 20
138.163812
 30
0.0
  0
VERTEX
  5
27C
330
274
100
AcDbEntity
  8
001
 62
   253
370
    50
100
AcDbVertex
100
AcDb2dVertex
 10
89.664796
 20
137.866114
 30
0.0
  0
VERTEX
  5
27D
330
274
100
AcDbEntity
  8
001
 62
   253
370
    50
100
AcDbVertex
100
AcDb2dVertex
 10
89.852401
 20
137.574567
 30
0.0
  0
VERTEX
  5
27E
330
274
100
AcDbEntity
  8
001
 62
   253
370
    50
100
AcDbVertex
100
AcDb2dVertex
 10
90.064079
 20
137.29996
 30
0.0
  0
VERTEX
  5
27F
330
274
100
AcDbEntity
  8
001
 62
   253
370
    50
100
AcDbVertex
100
AcDb2dVertex
 10
90.2938
 20
137.048582
 30
0.0
  0
VERTEX
  5
280
330
274
100
AcDbEntity
  8
001
 62
   253
370
    50
100
AcDbVertex
100
AcDb2dVertex
 10
90.543321
 20
136.81668
 30
0.0
  0
VERTEX
  5
281
330
274
100
AcDbEntity
  8
001
 62
   253
370
    50
100
AcDbVertex
100
AcDb2dVertex
 10
90.818799
 20
136.600003
 30
0.0
  0
VERTEX
  5
282
330
274
100
AcDbEntity
  8
001
 62
   253
370
    50
100
AcDbVertex
100
AcDb2dVertex
 10
91.111936
 20
136.408486
 30
0.0
  0
VERTEX
  5
283
330
274
100
AcDbEntity
  8
001
 62
   253
370
    50
100
AcDbVertex
100
AcDb2dVertex
 10
91.188856
 20
136.364151
 30
0.0
  0
VERTEX
  5
284
330
274
100
AcDbEntity
  8
001
 62
   253
370
    50
100
AcDbVertex
100
AcDb2dVertex
 10
91.266299
 20
136.320736
 30
0.0
  0
SEQEND
  5
275
330
274
100
AcDbEntity
  8
001
370
    50
  0
POLYLINE
  5
285
330
1F
100
AcDbEntity
  8
001
 62
   253
370
    50
100
AcDb2dPolyline
 66
     1
 10
0.0
 20
0.0
 30
0.0
  0
VERTEX
  5
287
330
285
100
AcDbEntity
  8
001
 62
   253
370
    50
100
AcDbVertex
100
AcDb2dVertex
 10
105.659177
 20
136.051865
 30
0.0
  0
VERTEX
  5
288
330
285
100
AcDbEntity
  8
001
 62
   253
370
    50
100
AcDbVertex
100
AcDb2dVertex
 10
105.555071
 20
136.096091
 30
0.0
  0
VERTEX
  5
289
330
285
100
AcDbEntity
  8
001
 62
   253
370
    50
100
AcDbVertex
100
AcDb2dVertex
 10
105.451584
 20
136.145028
 30
0.0
  0
VERTEX
  5
28A
330
285
100
AcDbEntity
  8
001
 62
   253
370
    50
100
AcDbVertex
100
AcDb2dVertex
 10
105.379349
 20
136.186756
 30
0.0
  0
VERTEX
  5
28B
330
285
100
AcDbEntity
  8
001
 62
   253
370
    50
100
AcDbVertex
100
AcDb2dVertex
 10
105.317976
 20
136.240298
 30
0.0
  0
VERTEX
  5
28C
330
285
100
AcDbEntity
  8
001
 62
   253
370
    50
100
AcDbVertex
100
AcDb2dVertex
 10
105.290349
 20
136.278928
 30
0.0
  0
VERTEX
  5
28D
330
285
100
AcDbEntity
  8
001
 62
   253
370
    50
100
AcDbVertex
100
AcDb2dVertex
 10
105.266299
 20
136.320736
 30
0.0
  0
SEQEND
  5
286
330
285
100
AcDbEntity
  8
001
370
    50
  0
POLYLINE
  5
28E
330
1F
100
AcDbEntity
  8
001
 62
   253
370
    50
100
AcDb2dPolyline
 66
     1
 10
0.0
 20
0.0
 30
0.0
  0
VERTEX
  5
290
330
28E
100
AcDbEntity
  8
001
 62
   253
370
    50
100
AcDbVertex
100
AcDb2dVertex
 10
109.655496
 20
136.615464
 30
0.0
  0
VERTEX
  5
291
330
28E
100
AcDbEntity
  8
001
 62
   253
370
    50
100
AcDbVertex
100
AcDb2dVertex
 10
109.771738
 20
136.708776
 30
0.0
  0
VERTEX
  5
292
330
28E
100
AcDbEntity
  8
001
 62
   253
370
    50
100
AcDbVertex
100
AcDb2dVertex
 10
109.87544
 20
136.796794
 30
0.0
  0
VERTEX
  5
293
330
28E
100
AcDbEntity
  8
001
 62
   253
370
    50
100
AcDbVertex
100
AcDb2dVertex
 10
109.926069
 20
136.84438
 30
0.0
  0
VERTEX
  5
294
330
28E
100
AcDbEntity
  8
001
 62
   253
370
    50
100
AcDbVertex
100
AcDb2dVertex
 10
109.987208
 20
136.907308
 30
0.0
  0
VERTEX
  5
295
330
28E
100
AcDbEntity
  8
001
 62
   253
370
    50
100
AcDbVertex
100
AcDb2dVertex
 10
110.00409
 20
136.925927
 30
0.0
  0
VERTEX
  5
296
330
28E
100
AcDbEntity
  8
001
 62
   253
370
    50
100
AcDbVertex
100
AcDb2dVertex
 10
110.011124
 20
136.938017
 30
0.0
  0
VERTEX
  5
297
330
28E
100
AcDbEntity
  8
001
 62
   253
370
    50
100
AcDbVertex
100
AcDb2dVertex
 10
109.995313
 20
136.935643
 30
0.0
  0
VERTEX
  5
298
330
28E
100
AcDbEntity
  8
001
 62
   253
370
    50
100
AcDbVertex
100
AcDb2dVertex
 10
109.965164
 20
136.92177
 30
0.0
  0
VERTEX
  5
299
330
28E
100
AcDbEntity
  8
001
 62
   253
370
    50
100
AcDbVertex
100
AcDb2dVertex
 10
109.882236
 20
136.871576
 30
0.0
  0
VERTEX
  5
29A
330
28E
100
AcDbEntity
  8
001
 62
   253
370
    50
100
AcDbVertex
100
AcDb2dVertex
 10
109.825393
 20
136.826128
 30
0.0
  0
VERTEX
  5
29B
330
28E
100
AcDbEntity
  8
001
 62
   253
370
    50
100
AcDbVertex
100
AcDb2dVertex
 10
109.553367
 20
136.653212
 30
0.0
  0
VERTEX
  5
29C
330
28E
100
AcDbEntity
  8
001
 62
   253
370
    50
100
AcDbVertex
100
AcDb2dVertex
 10
109.229689
 20
136.499068
 30
0.0
  0
VERTEX
  5
29D
330
28E
100
AcDbEntity
  8
001
 62
   253
370
    50
100
AcDbVertex
100
AcDb2dVertex
 10
108.992119
 20
136.402215
 30
0.0
  0
VERTEX
  5
29E
330
28E
100
AcDbEntity
  8
001
 62
   253
370
    50
100
AcDbVertex
100
AcDb2dVertex
 10
108.754895
 20
136.321856
 30
0.0
  0
VERTEX
  5
29F
330
28E
100
AcDbEntity
  8
001
 62
   253
370
    50
100
AcDbVertex
100
AcDb2dVertex
 10
108.677374
 20
136.299515
 30
0.0
  0
VERTEX
  5
2A0
330
28E
100
AcDbEntity
  8
001
 62
   253
370
    50
100
AcDbVertex
100
AcDb2dVertex
 10
108.599224
 20
136.278004
 30
0.0
  0
SEQEND
  5
28F
330
28E
100
AcDbEntity
  8
001
370
    50
  0
LINE
  5
2A1
330
1F
100
AcDbEntity
  8
001
 62
   253
370
    50
100
AcDbLine
 10
108.599224
 20
136.278004
 30
0.0
 11
108.253732
 21
136.204222
 31
0.0
  0
POLYLINE
  5
2A2
330
1F
100
AcDbEntity
  8
001
 62
   253
370
    50
100
AcDb2dPolyline
 66
     1
 10
0.0
 20
0.0
 30
0.0
  0
VERTEX
  5
2A4
330
2A2
100
AcDbEntity
  8
001
 62
   253
370
    50
100
AcDbVertex
100
AcDb2dVertex
 10
109.655496
 20
136.615464
 30
0.0
  0
VERTEX
  5
2A5
330
2A2
100
AcDbEntity
  8
001
 62
   253
370
    50
100
AcDbVertex
100
AcDb2dVertex
 10
109.539232
 20
136.540071
 30
0.0
  0
VERTEX
  5
2A6
330
2A2
100
AcDbEntity
  8
001
 62
   253
370
    50
100
AcDbVertex
100
AcDb2dVertex
 10
109.420699
 20
136.468572
 30
0.0
  0
VERTEX
  5
2A7
330
2A2
100
AcDbEntity
  8
001
 62
   253
370
    50
100
AcDbVertex
100
AcDb2dVertex
 10
109.283269
 20
136.396741
 30
0.0
  0
VERTEX
  5
2A8
330
2A2
100
AcDbEntity
  8
001
 62
   253
370
    50
100
AcDbVertex
100
AcDb2dVertex
 10
109.141766
 20
136.332981
 30
0.0
  0
VERTEX
  5
2A9
330
2A2
100
AcDbEntity
  8
001
 62
   253
370
    50
100
AcDbVertex
100
AcDb2dVertex
 10
108.997092
 20
136.275478
 30
0.0
  0
VERTEX
  5
2AA
330
2A2
100
AcDbEntity
  8
001
 62
   253
370
    50
100
AcDbVertex
100
AcDb2dVertex
 10
108.850484
 20
136.223193
 30
0.0
  0
VERTEX
  5
2AB
330
2A2
100
AcDbEntity
  8
001
 62
   253
370
    50
100
AcDbVertex
100
AcDb2dVertex
 10
108.545673
 20
136.128873
 30
0.0
  0
VERTEX
  5
2AC
330
2A2
100
AcDbEntity
  8
001
 62
   253
370
    50
100
AcDbVertex
100
AcDb2dVertex
 10
108.236265
 20
136.050706
 30
0.0
  0
VERTEX
  5
2AD
330
2A2
100
AcDbEntity
  8
001
 62
   253
370
    50
100
AcDbVertex
100
AcDb2dVertex
 10
107.984955
 20
135.999146
 30
0.0
  0
VERTEX
  5
2AE
330
2A2
100
AcDbEntity
  8
001
 62
   253
370
    50
100
AcDbVertex
100
AcDb2dVertex
 10
107.731819
 20
135.95755
 30
0.0
  0
VERTEX
  5
2AF
330
2A2
100
AcDbEntity
  8
001
 62
   253
370
    50
100
AcDbVertex
100
AcDb2dVertex
 10
107.475089
 20
135.925719
 30
0.0
  0
VERTEX
  5
2B0
330
2A2
100
AcDbEntity
  8
001
 62
   253
370
    50
100
AcDbVertex
100
AcDb2dVertex
 10
107.217335
 20
135.904234
 30
0.0
  0
VERTEX
  5
2B1
330
2A2
100
AcDbEntity
  8
001
 62
   253
370
    50
100
AcDbVertex
100
AcDb2dVertex
 10
106.960659
 20
135.893133
 30
0.0
  0
VERTEX
  5
2B2
330
2A2
100
AcDbEntity
  8
001
 62
   253
370
    50
100
AcDbVertex
100
AcDb2dVertex
 10
106.70358
 20
135.891292
 30
0.0
  0
VERTEX
  5
2B3
330
2A2
100
AcDbEntity
  8
001
 62
   253
370
    50
100
AcDbVertex
100
AcDb2dVertex
 10
106.446389
 20
135.899026
 30
0.0
  0
VERTEX
  5
2B4
330
2A2
100
AcDbEntity
  8
001
 62
   253
370
    50
100
AcDbVertex
100
AcDb2dVertex
 10
106.19049
 20
135.922647
 30
0.0
  0
VERTEX
  5
2B5
330
2A2
100
AcDbEntity
  8
001
 62
   253
370
    50
100
AcDbVertex
100
AcDb2dVertex
 10
106.06019
 20
135.943328
 30
0.0
  0
VERTEX
  5
2B6
330
2A2
100
AcDbEntity
  8
001
 62
   253
370
    50
100
AcDbVertex
100
AcDb2dVertex
 10
105.931008
 20
135.970386
 30
0.0
  0
VERTEX
  5
2B7
330
2A2
100
AcDbEntity
  8
001
 62
   253
370
    50
100
AcDbVertex
100
AcDb2dVertex
 10
105.803778
 20
136.003942
 30
0.0
  0
VERTEX
  5
2B8
330
2A2
100
AcDbEntity
  8
001
 62
   253
370
    50
100
AcDbVertex
100
AcDb2dVertex
 10
105.67875
 20
136.044724
 30
0.0
  0
VERTEX
  5
2B9
330
2A2
100
AcDbEntity
  8
001
 62
   253
370
    50
100
AcDbVertex
100
AcDb2dVertex
 10
105.668959
 20
136.048282
 30
0.0
  0
VERTEX
  5
2BA
330
2A2
100
AcDbEntity
  8
001
 62
   253
370
    50
100
AcDbVertex
100
AcDb2dVertex
 10
105.659177
 20
136.051865
 30
0.0
  0
SEQEND
  5
2A3
330
2A2
100
AcDbEntity
  8
001
370
    50
  0
LINE
  5
2BB
330
1F
100
AcDbEntity
  8
001
 62
   253
370
    50
100
AcDbLine
 10
103.233767
 20
140.922769
 30
0.0
 11
103.22958
 21
140.906415
 31
0.0
  0
POLYLINE
  5
2BC
330
1F
100
AcDbEntity
  8
001
 62
   253
370
    50
100
AcDb2dPolyline
 66
     1
 10
0.0
 20
0.0
 30
0.0
  0
VERTEX
  5
2BE
330
2BC
100
AcDbEntity
  8
001
 62
   253
370
    50
100
AcDbVertex
100
AcDb2dVertex
 10
103.22958
 20
140.906415
 30
0.0
  0
VERTEX
  5
2BF
330
2BC
100
AcDbEntity
  8
001
 62
   253
370
    50
100
AcDbVertex
100
AcDb2dVertex
 10
103.174987
 20
140.638534
 30
0.0
  0
VERTEX
  5
2C0
330
2BC
100
AcDbEntity
  8
001
 62
   253
370
    50
100
AcDbVertex
100
AcDb2dVertex
 10
103.131622
 20
140.368922
 30
0.0
  0
VERTEX
  5
2C1
330
2BC
100
AcDbEntity
  8
001
 62
   253
370
    50
100
AcDbVertex
100
AcDb2dVertex
 10
103.108089
 20
140.082358
 30
0.0
  0
VERTEX
  5
2C2
330
2BC
100
AcDbEntity
  8
001
 62
   253
370
    50
100
AcDbVertex
100
AcDb2dVertex
 10
103.108303
 20
139.794722
 30
0.0
  0
VERTEX
  5
2C3
330
2BC
100
AcDbEntity
  8
001
 62
   253
370
    50
100
AcDbVertex
100
AcDb2dVertex
 10
103.117397
 20
139.639651
 30
0.0
  0
VERTEX
  5
2C4
330
2BC
100
AcDbEntity
  8
001
 62
   253
370
    50
100
AcDbVertex
100
AcDb2dVertex
 10
103.1298
 20
139.484826
 30
0.0
  0
SEQEND
  5
2BD
330
2BC
100
AcDbEntity
  8
001
370
    50
  0
POLYLINE
  5
2C5
330
1F
100
AcDbEntity
  8
001
 62
   253
370
    50
100
AcDb2dPolyline
 66
     1
 10
0.0
 20
0.0
 30
0.0
  0
VERTEX
  5
2C7
330
2C5
100
AcDbEntity
  8
001
 62
   253
370
    50
100
AcDbVertex
100
AcDb2dVertex
 10
103.1298
 20
139.484826
 30
0.0
  0
VERTEX
  5
2C8
330
2C5
100
AcDbEntity
  8
001
 62
   253
370
    50
100
AcDbVertex
100
AcDb2dVertex
 10
103.154468
 20
139.308181
 30
0.0
  0
VERTEX
  5
2C9
330
2C5
100
AcDbEntity
  8
001
 62
   253
370
    50
100
AcDbVertex
100
AcDb2dVertex
 10
103.183736
 20
139.132336
 30
0.0
  0
VERTEX
  5
2CA
330
2C5
100
AcDbEntity
  8
001
 62
   253
370
    50
100
AcDbVertex
100
AcDb2dVertex
 10
103.263685
 20
138.798853
 30
0.0
  0
VERTEX
  5
2CB
330
2C5
100
AcDbEntity
  8
001
 62
   253
370
    50
100
AcDbVertex
100
AcDb2dVertex
 10
103.373434
 20
138.473483
 30
0.0
  0
VERTEX
  5
2CC
330
2C5
100
AcDbEntity
  8
001
 62
   253
370
    50
100
AcDbVertex
100
AcDb2dVertex
 10
103.506847
 20
138.163812
 30
0.0
  0
VERTEX
  5
2CD
330
2C5
100
AcDbEntity
  8
001
 62
   253
370
    50
100
AcDbVertex
100
AcDb2dVertex
 10
103.664796
 20
137.866114
 30
0.0
  0
VERTEX
  5
2CE
330
2C5
100
AcDbEntity
  8
001
 62
   253
370
    50
100
AcDbVertex
100
AcDb2dVertex
 10
103.852401
 20
137.574567
 30
0.0
  0
VERTEX
  5
2CF
330
2C5
100
AcDbEntity
  8
001
 62
   253
370
    50
100
AcDbVertex
100
AcDb2dVertex
 10
104.064079
 20
137.29996
 30
0.0
  0
VERTEX
  5
2D0
330
2C5
100
AcDbEntity
  8
001
 62
   253
370
    50
100
AcDbVertex
100
AcDb2dVertex
 10
104.2938
 20
137.048582
 30
0.0
  0
VERTEX
  5
2D1
330
2C5
100
AcDbEntity
  8
001
 62
   253
370
    50
100
AcDbVertex
100
AcDb2dVertex
 10
104.543321
 20
136.81668
 30
0.0
  0
VERTEX
  5
2D2
330
2C5
100
AcDbEntity
  8
001
 62
   253
370
    50
100
AcDbVertex
100
AcDb2dVertex
 10
104.818799
 20
136.600003
 30
0.0
  0
VERTEX
  5
2D3
330
2C5
100
AcDbEntity
  8
001
 62
   253
370
    50
100
AcDbVertex
100
AcDb2dVertex
 10
105.111936
 20
136.408486
 30
0.0
  0
VERTEX
  5
2D4
330
2C5
100
AcDbEntity
  8
001
 62
   253
370
    50
100
AcDbVertex
100
AcDb2dVertex
 10
105.188856
 20
136.364151
 30
0.0
  0
VERTEX
  5
2D5
330
2C5
100
AcDbEntity
  8
001
 62
   253
370
    50
100
AcDbVertex
100
AcDb2dVertex
 10
105.266299
 20
136.320736
 30
0.0
  0
SEQEND
  5
2C6
330
2C5
100
AcDbEntity
  8
001
370
    50
  0
LINE
  5
2D6
330
1F
100
AcDbEntity
  8
001
 62
   253
370
    50
100
AcDbLine
 10
113.13626
 20
152.544958
 30
0.0
 11
87.404209
 21
152.544958
 31
0.0
  0
LINE
  5
2D7
330
1F
100
AcDbEntity
  8
001
 62
   253
370
    50
100
AcDbLine
 10
87.404209
 20
127.544958
 30
0.0
 11
113.13626
 21
127.544958
 31
0.0
  0
POLYLINE
  5
2D8
330
1F
100
AcDbEntity
  8
001
 62
   253
370
    50
100
AcDb2dPolyline
 66
     1
 10
0.0
 20
0.0
 30
0.0
  0
VERTEX
  5
2DA
330
2D8
100
AcDbEntity
  8
001
 62
   253
370
    50
100
AcDbVertex
100
AcDb2dVertex
 10
109.655496
 20
136.615464
 30
0.0
  0
VERTEX
  5
2DB
330
2D8
100
AcDbEntity
  8
001
 62
   253
370
    50
100
AcDbVertex
100
AcDb2dVertex
 10
109.751372
 20
136.669438
 30
0.0
  0
VERTEX
  5
2DC
330
2D8
100
AcDbEntity
  8
001
 62
   253
370
    50
100
AcDbVertex
100
AcDb2dVertex
 10
109.8465
 20
136.72469
 30
0.0
  0
VERTEX
  5
2DD
330
2D8
100
AcDbEntity
  8
001
 62
   253
370
    50
100
AcDbVertex
100
AcDb2dVertex
 10
110.024424
 20
136.836832
 30
0.0
  0
VERTEX
  5
2DE
330
2D8
100
AcDbEntity
  8
001
 62
   253
370
    50
100
AcDbVertex
100
AcDb2dVertex
 10
110.196943
 20
136.957242
 30
0.0
  0
VERTEX
  5
2DF
330
2D8
100
AcDbEntity
  8
001
 62
   253
370
    50
100
AcDbVertex
100
AcDb2dVertex
 10
110.363854
 20
137.084945
 30
0.0
  0
VERTEX
  5
2E0
330
2D8
100
AcDbEntity
  8
001
 62
   253
370
    50
100
AcDbVertex
100
AcDb2dVertex
 10
110.524813
 20
137.220052
 30
0.0
  0
VERTEX
  5
2E1
330
2D8
100
AcDbEntity
  8
001
 62
   253
370
    50
100
AcDbVertex
100
AcDb2dVertex
 10
110.760103
 20
137.443179
 30
0.0
  0
VERTEX
  5
2E2
330
2D8
100
AcDbEntity
  8
001
 62
   253
370
    50
100
AcDbVertex
100
AcDb2dVertex
 10
110.978101
 20
137.683387
 30
0.0
  0
VERTEX
  5
2E3
330
2D8
100
AcDbEntity
  8
001
 62
   253
370
    50
100
AcDbVertex
100
AcDb2dVertex
 10
111.177244
 20
137.939957
 30
0.0
  0
VERTEX
  5
2E4
330
2D8
100
AcDbEntity
  8
001
 62
   253
370
    50
100
AcDbVertex
100
AcDb2dVertex
 10
111.354984
 20
138.211682
 30
0.0
  0
VERTEX
  5
2E5
330
2D8
100
AcDbEntity
  8
001
 62
   253
370
    50
100
AcDbVertex
100
AcDb2dVertex
 10
111.498123
 20
138.47504
 30
0.0
  0
VERTEX
  5
2E6
330
2D8
100
AcDbEntity
  8
001
 62
   253
370
    50
100
AcDbVertex
100
AcDb2dVertex
 10
111.61995
 20
138.748961
 30
0.0
  0
VERTEX
  5
2E7
330
2D8
100
AcDbEntity
  8
001
 62
   253
370
    50
100
AcDbVertex
100
AcDb2dVertex
 10
111.719554
 20
139.032624
 30
0.0
  0
VERTEX
  5
2E8
330
2D8
100
AcDbEntity
  8
001
 62
   253
370
    50
100
AcDbVertex
100
AcDb2dVertex
 10
111.794917
 20
139.323596
 30
0.0
  0
VERTEX
  5
2E9
330
2D8
100
AcDbEntity
  8
001
 62
   253
370
    50
100
AcDbVertex
100
AcDb2dVertex
 10
111.844822
 20
139.622034
 30
0.0
  0
VERTEX
  5
2EA
330
2D8
100
AcDbEntity
  8
001
 62
   253
370
    50
100
AcDbVertex
100
AcDb2dVertex
 10
111.868537
 20
139.923769
 30
0.0
  0
VERTEX
  5
2EB
330
2D8
100
AcDbEntity
  8
001
 62
   253
370
    50
100
AcDbVertex
100
AcDb2dVertex
 10
111.866128
 20
140.226543
 30
0.0
  0
VERTEX
  5
2EC
330
2D8
100
AcDbEntity
  8
001
 62
   253
370
    50
100
AcDbVertex
100
AcDb2dVertex
 10
111.8372
 20
140.527848
 30
0.0
  0
VERTEX
  5
2ED
330
2D8
100
AcDbEntity
  8
001
 62
   253
370
    50
100
AcDbVertex
100
AcDb2dVertex
 10
111.78661
 20
140.80353
 30
0.0
  0
VERTEX
  5
2EE
330
2D8
100
AcDbEntity
  8
001
 62
   253
370
    50
100
AcDbVertex
100
AcDb2dVertex
 10
111.714157
 20
141.074333
 30
0.0
  0
VERTEX
  5
2EF
330
2D8
100
AcDbEntity
  8
001
 62
   253
370
    50
100
AcDbVertex
100
AcDb2dVertex
 10
111.621287
 20
141.338097
 30
0.0
  0
VERTEX
  5
2F0
330
2D8
100
AcDbEntity
  8
001
 62
   253
370
    50
100
AcDbVertex
100
AcDb2dVertex
 10
111.508628
 20
141.593995
 30
0.0
  0
VERTEX
  5
2F1
330
2D8
100
AcDbEntity
  8
001
 62
   253
370
    50
100
AcDbVertex
100
AcDb2dVertex
 10
111.370556
 20
141.851712
 30
0.0
  0
VERTEX
  5
2F2
330
2D8
100
AcDbEntity
  8
001
 62
   253
370
    50
100
AcDbVertex
100
AcDb2dVertex
 10
111.213378
 20
142.098293
 30
0.0
  0
VERTEX
  5
2F3
330
2D8
100
AcDbEntity
  8
001
 62
   253
370
    50
100
AcDbVertex
100
AcDb2dVertex
 10
111.03915
 20
142.332367
 30
0.0
  0
VERTEX
  5
2F4
330
2D8
100
AcDbEntity
  8
001
 62
   253
370
    50
100
AcDbVertex
100
AcDb2dVertex
 10
110.848872
 20
142.553571
 30
0.0
  0
VERTEX
  5
2F5
330
2D8
100
AcDbEntity
  8
001
 62
   253
370
    50
100
AcDbVertex
100
AcDb2dVertex
 10
110.612579
 20
142.790393
 30
0.0
  0
VERTEX
  5
2F6
330
2D8
100
AcDbEntity
  8
001
 62
   253
370
    50
100
AcDbVertex
100
AcDb2dVertex
 10
110.359024
 20
143.008725
 30
0.0
  0
VERTEX
  5
2F7
330
2D8
100
AcDbEntity
  8
001
 62
   253
370
    50
100
AcDbVertex
100
AcDb2dVertex
 10
110.090051
 20
143.208312
 30
0.0
  0
VERTEX
  5
2F8
330
2D8
100
AcDbEntity
  8
001
 62
   253
370
    50
100
AcDbVertex
100
AcDb2dVertex
 10
109.807653
 20
143.388372
 30
0.0
  0
VERTEX
  5
2F9
330
2D8
100
AcDbEntity
  8
001
 62
   253
370
    50
100
AcDbVertex
100
AcDb2dVertex
 10
109.464656
 20
143.572569
 30
0.0
  0
VERTEX
  5
2FA
330
2D8
100
AcDbEntity
  8
001
 62
   253
370
    50
100
AcDbVertex
100
AcDb2dVertex
 10
109.108334
 20
143.729681
 30
0.0
  0
VERTEX
  5
2FB
330
2D8
100
AcDbEntity
  8
001
 62
   253
370
    50
100
AcDbVertex
100
AcDb2dVertex
 10
108.739837
 20
143.860079
 30
0.0
  0
VERTEX
  5
2FC
330
2D8
100
AcDbEntity
  8
001
 62
   253
370
    50
100
AcDbVertex
100
AcDb2dVertex
 10
108.362752
 20
143.962664
 30
0.0
  0
VERTEX
  5
2FD
330
2D8
100
AcDbEntity
  8
001
 62
   253
370
    50
100
AcDbVertex
100
AcDb2dVertex
 10
108.08406
 20
144.019604
 30
0.0
  0
VERTEX
  5
2FE
330
2D8
100
AcDbEntity
  8
001
 62
   253
370
    50
100
AcDbVertex
100
AcDb2dVertex
 10
107.802761
 20
144.061685
 30
0.0
  0
VERTEX
  5
2FF
330
2D8
100
AcDbEntity
  8
001
 62
   253
370
    50
100
AcDbVertex
100
AcDb2dVertex
 10
107.518376
 20
144.08914
 30
0.0
  0
VERTEX
  5
300
330
2D8
100
AcDbEntity
  8
001
 62
   253
370
    50
100
AcDbVertex
100
AcDb2dVertex
 10
107.232939
 20
144.101773
 30
0.0
  0
VERTEX
  5
301
330
2D8
100
AcDbEntity
  8
001
 62
   253
370
    50
100
AcDbVertex
100
AcDb2dVertex
 10
106.948045
 20
144.099572
 30
0.0
  0
VERTEX
  5
302
330
2D8
100
AcDbEntity
  8
001
 62
   253
370
    50
100
AcDbVertex
100
AcDb2dVertex
 10
106.66367
 20
144.082406
 30
0.0
  0
VERTEX
  5
303
330
2D8
100
AcDbEntity
  8
001
 62
   253
370
    50
100
AcDbVertex
100
AcDb2dVertex
 10
106.376355
 20
144.049525
 30
0.0
  0
VERTEX
  5
304
330
2D8
100
AcDbEntity
  8
001
 62
   253
370
    50
100
AcDbVertex
100
AcDb2dVertex
 10
106.091212
 20
144.00125
 30
0.0
  0
VERTEX
  5
305
330
2D8
100
AcDbEntity
  8
001
 62
   253
370
    50
100
AcDbVertex
100
AcDb2dVertex
 10
105.808755
 20
143.937728
 30
0.0
  0
VERTEX
  5
306
330
2D8
100
AcDbEntity
  8
001
 62
   253
370
    50
100
AcDbVertex
100
AcDb2dVertex
 10
105.530132
 20
143.859075
 30
0.0
  0
VERTEX
  5
307
330
2D8
100
AcDbEntity
  8
001
 62
   253
370
    50
100
AcDbVertex
100
AcDb2dVertex
 10
105.257815
 20
143.765892
 30
0.0
  0
VERTEX
  5
308
330
2D8
100
AcDbEntity
  8
001
 62
   253
370
    50
100
AcDbVertex
100
AcDb2dVertex
 10
104.991132
 20
143.657652
 30
0.0
  0
VERTEX
  5
309
330
2D8
100
AcDbEntity
  8
001
 62
   253
370
    50
100
AcDbVertex
100
AcDb2dVertex
 10
104.732225
 20
143.534875
 30
0.0
  0
VERTEX
  5
30A
330
2D8
100
AcDbEntity
  8
001
 62
   253
370
    50
100
AcDbVertex
100
AcDb2dVertex
 10
104.480828
 20
143.397368
 30
0.0
  0
VERTEX
  5
30B
330
2D8
100
AcDbEntity
  8
001
 62
   253
370
    50
100
AcDbVertex
100
AcDb2dVertex
 10
104.237572
 20
143.24524
 30
0.0
  0
VERTEX
  5
30C
330
2D8
100
AcDbEntity
  8
001
 62
   253
370
    50
100
AcDbVertex
100
AcDb2dVertex
 10
104.003791
 20
143.078885
 30
0.0
  0
VERTEX
  5
30D
330
2D8
100
AcDbEntity
  8
001
 62
   253
370
    50
100
AcDbVertex
100
AcDb2dVertex
 10
103.781667
 20
142.8994
 30
0.0
  0
VERTEX
  5
30E
330
2D8
100
AcDbEntity
  8
001
 62
   253
370
    50
100
AcDbVertex
100
AcDb2dVertex
 10
103.571555
 20
142.706095
 30
0.0
  0
VERTEX
  5
30F
330
2D8
100
AcDbEntity
  8
001
 62
   253
370
    50
100
AcDbVertex
100
AcDb2dVertex
 10
103.341828
 20
142.461573
 30
0.0
  0
VERTEX
  5
310
330
2D8
100
AcDbEntity
  8
001
 62
   253
370
    50
100
AcDbVertex
100
AcDb2dVertex
 10
103.131602
 20
142.199667
 30
0.0
  0
VERTEX
  5
311
330
2D8
100
AcDbEntity
  8
001
 62
   253
370
    50
100
AcDbVertex
100
AcDb2dVertex
 10
102.942269
 20
141.921208
 30
0.0
  0
VERTEX
  5
312
330
2D8
100
AcDbEntity
  8
001
 62
   253
370
    50
100
AcDbVertex
100
AcDb2dVertex
 10
102.780096
 20
141.626876
 30
0.0
  0
VERTEX
  5
313
330
2D8
100
AcDbEntity
  8
001
 62
   253
370
    50
100
AcDbVertex
100
AcDb2dVertex
 10
102.687999
 20
141.420257
 30
0.0
  0
VERTEX
  5
314
330
2D8
100
AcDbEntity
  8
001
 62
   253
370
    50
100
AcDbVertex
100
AcDb2dVertex
 10
102.60363
 20
141.210024
 30
0.0
  0
SEQEND
  5
2D9
330
2D8
100
AcDbEntity
  8
001
370
    50
  0
POLYLINE
  5
315
330
1F
100
AcDbEntity
  8
001
 62
   253
370
    50
100
AcDb2dPolyline
 66
     1
 10
0.0
 20
0.0
 30
0.0
  0
VERTEX
  5
317
330
315
100
AcDbEntity
  8
001
 62
   253
370
    50
100
AcDbVertex
100
AcDb2dVertex
 10
102.60363
 20
141.210024
 30
0.0
  0
VERTEX
  5
318
330
315
100
AcDbEntity
  8
001
 62
   253
370
    50
100
AcDbVertex
100
AcDb2dVertex
 10
102.537069
 20
140.991973
 30
0.0
  0
VERTEX
  5
319
330
315
100
AcDbEntity
  8
001
 62
   253
370
    50
100
AcDbVertex
100
AcDb2dVertex
 10
102.47939
 20
140.771742
 30
0.0
  0
VERTEX
  5
31A
330
315
100
AcDbEntity
  8
001
 62
   253
370
    50
100
AcDbVertex
100
AcDb2dVertex
 10
102.437843
 20
140.548438
 30
0.0
  0
VERTEX
  5
31B
330
315
100
AcDbEntity
  8
001
 62
   253
370
    50
100
AcDbVertex
100
AcDb2dVertex
 10
102.412476
 20
140.32245
 30
0.0
  0
VERTEX
  5
31C
330
315
100
AcDbEntity
  8
001
 62
   253
370
    50
100
AcDbVertex
100
AcDb2dVertex
 10
102.401807
 20
140.027571
 30
0.0
  0
VERTEX
  5
31D
330
315
100
AcDbEntity
  8
001
 62
   253
370
    50
100
AcDbVertex
100
AcDb2dVertex
 10
102.415976
 20
139.732903
 30
0.0
  0
VERTEX
  5
31E
330
315
100
AcDbEntity
  8
001
 62
   253
370
    50
100
AcDbVertex
100
AcDb2dVertex
 10
102.45495
 20
139.440708
 30
0.0
  0
VERTEX
  5
31F
330
315
100
AcDbEntity
  8
001
 62
   253
370
    50
100
AcDbVertex
100
AcDb2dVertex
 10
102.518505
 20
139.152876
 30
0.0
  0
VERTEX
  5
320
330
315
100
AcDbEntity
  8
001
 62
   253
370
    50
100
AcDbVertex
100
AcDb2dVertex
 10
102.601311
 20
138.885025
 30
0.0
  0
VERTEX
  5
321
330
315
100
AcDbEntity
  8
001
 62
   253
370
    50
100
AcDbVertex
100
AcDb2dVertex
 10
102.704644
 20
138.624381
 30
0.0
  0
VERTEX
  5
322
330
315
100
AcDbEntity
  8
001
 62
   253
370
    50
100
AcDbVertex
100
AcDb2dVertex
 10
102.826793
 20
138.372851
 30
0.0
  0
VERTEX
  5
323
330
315
100
AcDbEntity
  8
001
 62
   253
370
    50
100
AcDbVertex
100
AcDb2dVertex
 10
102.967008
 20
138.130951
 30
0.0
  0
VERTEX
  5
324
330
315
100
AcDbEntity
  8
001
 62
   253
370
    50
100
AcDbVertex
100
AcDb2dVertex
 10
103.139481
 20
137.87918
 30
0.0
  0
VERTEX
  5
325
330
315
100
AcDbEntity
  8
001
 62
   253
370
    50
100
AcDbVertex
100
AcDb2dVertex
 10
103.330422
 20
137.641034
 30
0.0
  0
VERTEX
  5
326
330
315
100
AcDbEntity
  8
001
 62
   253
370
    50
100
AcDbVertex
100
AcDb2dVertex
 10
103.537742
 20
137.417477
 30
0.0
  0
VERTEX
  5
327
330
315
100
AcDbEntity
  8
001
 62
   253
370
    50
100
AcDbVertex
100
AcDb2dVertex
 10
103.760218
 20
137.209076
 30
0.0
  0
VERTEX
  5
328
330
315
100
AcDbEntity
  8
001
 62
   253
370
    50
100
AcDbVertex
100
AcDb2dVertex
 10
104.036226
 20
136.986578
 30
0.0
  0
VERTEX
  5
329
330
315
100
AcDbEntity
  8
001
 62
   253
370
    50
100
AcDbVertex
100
AcDb2dVertex
 10
104.328331
 20
136.785316
 30
0.0
  0
VERTEX
  5
32A
330
315
100
AcDbEntity
  8
001
 62
   253
370
    50
100
AcDbVertex
100
AcDb2dVertex
 10
104.634928
 20
136.605041
 30
0.0
  0
VERTEX
  5
32B
330
315
100
AcDbEntity
  8
001
 62
   253
370
    50
100
AcDbVertex
100
AcDb2dVertex
 10
104.954048
 20
136.448739
 30
0.0
  0
VERTEX
  5
32C
330
315
100
AcDbEntity
  8
001
 62
   253
370
    50
100
AcDbVertex
100
AcDb2dVertex
 10
105.109523
 20
136.383214
 30
0.0
  0
VERTEX
  5
32D
330
315
100
AcDbEntity
  8
001
 62
   253
370
    50
100
AcDbVertex
100
AcDb2dVertex
 10
105.266299
 20
136.320736
 30
0.0
  0
SEQEND
  5
316
330
315
100
AcDbEntity
  8
001
370
    50
  0
POLYLINE
  5
32E
330
1F
100
AcDbEntity
  8
001
 62
   253
370
    50
100
AcDb2dPolyline
 66
     1
 10
0.0
 20
0.0
 30
0.0
  0
VERTEX
  5
330
330
32E
100
AcDbEntity
  8
001
 62
   253
370
    50
100
AcDbVertex
100
AcDb2dVertex
 10
95.655496
 20
136.615464
 30
0.0
  0
VERTEX
  5
331
330
32E
100
AcDbEntity
  8
001
 62
   253
370
    50
100
AcDbVertex
100
AcDb2dVertex
 10
95.828622
 20
136.715703
 30
0.0
  0
VERTEX
  5
332
330
32E
100
AcDbEntity
  8
001
 62
   253
370
    50
100
AcDbVertex
100
AcDb2dVertex
 10
95.998949
 20
136.820396
 30
0.0
  0
VERTEX
  5
333
330
32E
100
AcDbEntity
  8
001
 62
   253
370
    50
100
AcDbVertex
100
AcDb2dVertex
 10
96.168367
 20
136.936051
 30
0.0
  0
VERTEX
  5
334
330
32E
100
AcDbEntity
  8
001
 62
   253
370
    50
100
AcDbVertex
100
AcDb2dVertex
 10
96.332165
 20
137.059704
 30
0.0
  0
VERTEX
  5
335
330
32E
100
AcDbEntity
  8
001
 62
   253
370
    50
100
AcDbVertex
100
AcDb2dVertex
 10
96.490367
 20
137.190174
 30
0.0
  0
VERTEX
  5
336
330
32E
100
AcDbEntity
  8
001
 62
   253
370
    50
100
AcDbVertex
100
AcDb2dVertex
 10
96.642579
 20
137.327545
 30
0.0
  0
VERTEX
  5
337
330
32E
100
AcDbEntity
  8
001
 62
   253
370
    50
100
AcDbVertex
100
AcDb2dVertex
 10
96.87102
 20
137.560707
 30
0.0
  0
VERTEX
  5
338
330
32E
100
AcDbEntity
  8
001
 62
   253
370
    50
100
AcDbVertex
100
AcDb2dVertex
 10
97.080963
 20
137.810837
 30
0.0
  0
VERTEX
  5
339
330
32E
100
AcDbEntity
  8
001
 62
   253
370
    50
100
AcDbVertex
100
AcDb2dVertex
 10
97.270877
 20
138.077154
 30
0.0
  0
VERTEX
  5
33A
330
32E
100
AcDbEntity
  8
001
 62
   253
370
    50
100
AcDbVertex
100
AcDb2dVertex
 10
97.43805
 20
138.358174
 30
0.0
  0
VERTEX
  5
33B
330
32E
100
AcDbEntity
  8
001
 62
   253
370
    50
100
AcDbVertex
100
AcDb2dVertex
 10
97.567604
 20
138.623662
 30
0.0
  0
VERTEX
  5
33C
330
32E
100
AcDbEntity
  8
001
 62
   253
370
    50
100
AcDbVertex
100
AcDb2dVertex
 10
97.675683
 20
138.898643
 30
0.0
  0
VERTEX
  5
33D
330
32E
100
AcDbEntity
  8
001
 62
   253
370
    50
100
AcDbVertex
100
AcDb2dVertex
 10
97.761486
 20
139.182205
 30
0.0
  0
VERTEX
  5
33E
330
32E
100
AcDbEntity
  8
001
 62
   253
370
    50
100
AcDbVertex
100
AcDb2dVertex
 10
97.82322
 20
139.471892
 30
0.0
  0
VERTEX
  5
33F
330
32E
100
AcDbEntity
  8
001
 62
   253
370
    50
100
AcDbVertex
100
AcDb2dVertex
 10
97.859734
 20
139.767465
 30
0.0
  0
VERTEX
  5
340
330
32E
100
AcDbEntity
  8
001
 62
   253
370
    50
100
AcDbVertex
100
AcDb2dVertex
 10
97.870652
 20
140.065162
 30
0.0
  0
VERTEX
  5
341
330
32E
100
AcDbEntity
  8
001
 62
   253
370
    50
100
AcDbVertex
100
AcDb2dVertex
 10
97.856228
 20
140.362694
 30
0.0
  0
VERTEX
  5
342
330
32E
100
AcDbEntity
  8
001
 62
   253
370
    50
100
AcDbVertex
100
AcDb2dVertex
 10
97.81628
 20
140.6578
 30
0.0
  0
VERTEX
  5
343
330
32E
100
AcDbEntity
  8
001
 62
   253
370
    50
100
AcDbVertex
100
AcDb2dVertex
 10
97.755518
 20
140.93082
 30
0.0
  0
VERTEX
  5
344
330
32E
100
AcDbEntity
  8
001
 62
   253
370
    50
100
AcDbVertex
100
AcDb2dVertex
 10
97.673348
 20
141.198222
 30
0.0
  0
VERTEX
  5
345
330
32E
100
AcDbEntity
  8
001
 62
   253
370
    50
100
AcDbVertex
100
AcDb2dVertex
 10
97.571318
 20
141.45791
 30
0.0
  0
VERTEX
  5
346
330
32E
100
AcDbEntity
  8
001
 62
   253
370
    50
100
AcDbVertex
100
AcDb2dVertex
 10
97.4501
 20
141.70918
 30
0.0
  0
VERTEX
  5
347
330
32E
100
AcDbEntity
  8
001
 62
   253
370
    50
100
AcDbVertex
100
AcDb2dVertex
 10
97.301518
 20
141.965143
 30
0.0
  0
VERTEX
  5
348
330
32E
100
AcDbEntity
  8
001
 62
   253
370
    50
100
AcDbVertex
100
AcDb2dVertex
 10
97.134032
 20
142.209211
 30
0.0
  0
VERTEX
  5
349
330
32E
100
AcDbEntity
  8
001
 62
   253
370
    50
100
AcDbVertex
100
AcDb2dVertex
 10
96.949723
 20
142.440131
 30
0.0
  0
VERTEX
  5
34A
330
32E
100
AcDbEntity
  8
001
 62
   253
370
    50
100
AcDbVertex
100
AcDb2dVertex
 10
96.749659
 20
142.657521
 30
0.0
  0
VERTEX
  5
34B
330
32E
100
AcDbEntity
  8
001
 62
   253
370
    50
100
AcDbVertex
100
AcDb2dVertex
 10
96.501124
 20
142.890473
 30
0.0
  0
VERTEX
  5
34C
330
32E
100
AcDbEntity
  8
001
 62
   253
370
    50
100
AcDbVertex
100
AcDb2dVertex
 10
96.235605
 20
143.103984
 30
0.0
  0
VERTEX
  5
34D
330
32E
100
AcDbEntity
  8
001
 62
   253
370
    50
100
AcDbVertex
100
AcDb2dVertex
 10
95.954859
 20
143.297922
 30
0.0
  0
VERTEX
  5
34E
330
32E
100
AcDbEntity
  8
001
 62
   253
370
    50
100
AcDbVertex
100
AcDb2dVertex
 10
95.66111
 20
143.471402
 30
0.0
  0
VERTEX
  5
34F
330
32E
100
AcDbEntity
  8
001
 62
   253
370
    50
100
AcDbVertex
100
AcDb2dVertex
 10
95.426713
 20
143.590945
 30
0.0
  0
VERTEX
  5
350
330
32E
100
AcDbEntity
  8
001
 62
   253
370
    50
100
AcDbVertex
100
AcDb2dVertex
 10
95.186388
 20
143.698035
 30
0.0
  0
VERTEX
  5
351
330
32E
100
AcDbEntity
  8
001
 62
   253
370
    50
100
AcDbVertex
100
AcDb2dVertex
 10
94.939598
 20
143.793179
 30
0.0
  0
VERTEX
  5
352
330
32E
100
AcDbEntity
  8
001
 62
   253
370
    50
100
AcDbVertex
100
AcDb2dVertex
 10
94.688316
 20
143.875753
 30
0.0
  0
VERTEX
  5
353
330
32E
100
AcDbEntity
  8
001
 62
   253
370
    50
100
AcDbVertex
100
AcDb2dVertex
 10
94.433293
 20
143.945674
 30
0.0
  0
VERTEX
  5
354
330
32E
100
AcDbEntity
  8
001
 62
   253
370
    50
100
AcDbVertex
100
AcDb2dVertex
 10
94.175102
 20
144.002781
 30
0.0
  0
VERTEX
  5
355
330
32E
100
AcDbEntity
  8
001
 62
   253
370
    50
100
AcDbVertex
100
AcDb2dVertex
 10
93.893146
 20
144.049939
 30
0.0
  0
VERTEX
  5
356
330
32E
100
AcDbEntity
  8
001
 62
   253
370
    50
100
AcDbVertex
100
AcDb2dVertex
 10
93.60907
 20
144.082067
 30
0.0
  0
VERTEX
  5
357
330
32E
100
AcDbEntity
  8
001
 62
   253
370
    50
100
AcDbVertex
100
AcDb2dVertex
 10
93.322534
 20
144.099361
 30
0.0
  0
VERTEX
  5
358
330
32E
100
AcDbEntity
  8
001
 62
   253
370
    50
100
AcDbVertex
100
AcDb2dVertex
 10
93.035487
 20
144.101691
 30
0.0
  0
VERTEX
  5
359
330
32E
100
AcDbEntity
  8
001
 62
   253
370
    50
100
AcDbVertex
100
AcDb2dVertex
 10
92.749653
 20
144.089087
 30
0.0
  0
VERTEX
  5
35A
330
32E
100
AcDbEntity
  8
001
 62
   253
370
    50
100
AcDbVertex
100
AcDb2dVertex
 10
92.464893
 20
144.061396
 30
0.0
  0
VERTEX
  5
35B
330
32E
100
AcDbEntity
  8
001
 62
   253
370
    50
100
AcDbVertex
100
AcDb2dVertex
 10
92.179119
 20
144.017954
 30
0.0
  0
VERTEX
  5
35C
330
32E
100
AcDbEntity
  8
001
 62
   253
370
    50
100
AcDbVertex
100
AcDb2dVertex
 10
91.896097
 20
143.959152
 30
0.0
  0
VERTEX
  5
35D
330
32E
100
AcDbEntity
  8
001
 62
   253
370
    50
100
AcDbVertex
100
AcDb2dVertex
 10
91.616421
 20
143.885149
 30
0.0
  0
VERTEX
  5
35E
330
32E
100
AcDbEntity
  8
001
 62
   253
370
    50
100
AcDbVertex
100
AcDb2dVertex
 10
91.341173
 20
143.796071
 30
0.0
  0
VERTEX
  5
35F
330
32E
100
AcDbEntity
  8
001
 62
   253
370
    50
100
AcDbVertex
100
AcDb2dVertex
 10
91.072843
 20
143.692601
 30
0.0
  0
VERTEX
  5
360
330
32E
100
AcDbEntity
  8
001
 62
   253
370
    50
100
AcDbVertex
100
AcDb2dVertex
 10
90.810803
 20
143.574147
 30
0.0
  0
VERTEX
  5
361
330
32E
100
AcDbEntity
  8
001
 62
   253
370
    50
100
AcDbVertex
100
AcDb2dVertex
 10
90.557655
 20
143.441542
 30
0.0
  0
VERTEX
  5
362
330
32E
100
AcDbEntity
  8
001
 62
   253
370
    50
100
AcDbVertex
100
AcDb2dVertex
 10
90.312628
 20
143.2944
 30
0.0
  0
VERTEX
  5
363
330
32E
100
AcDbEntity
  8
001
 62
   253
370
    50
100
AcDbVertex
100
AcDb2dVertex
 10
90.076274
 20
143.132784
 30
0.0
  0
VERTEX
  5
364
330
32E
100
AcDbEntity
  8
001
 62
   253
370
    50
100
AcDbVertex
100
AcDb2dVertex
 10
89.850305
 20
142.957082
 30
0.0
  0
VERTEX
  5
365
330
32E
100
AcDbEntity
  8
001
 62
   253
370
    50
100
AcDbVertex
100
AcDb2dVertex
 10
89.636901
 20
142.768383
 30
0.0
  0
VERTEX
  5
366
330
32E
100
AcDbEntity
  8
001
 62
   253
370
    50
100
AcDbVertex
100
AcDb2dVertex
 10
89.435606
 20
142.566474
 30
0.0
  0
VERTEX
  5
367
330
32E
100
AcDbEntity
  8
001
 62
   253
370
    50
100
AcDbVertex
100
AcDb2dVertex
 10
89.220508
 20
142.318369
 30
0.0
  0
VERTEX
  5
368
330
32E
100
AcDbEntity
  8
001
 62
   253
370
    50
100
AcDbVertex
100
AcDb2dVertex
 10
89.028403
 20
142.052847
 30
0.0
  0
VERTEX
  5
369
330
32E
100
AcDbEntity
  8
001
 62
   253
370
    50
100
AcDbVertex
100
AcDb2dVertex
 10
88.861826
 20
141.770146
 30
0.0
  0
VERTEX
  5
36A
330
32E
100
AcDbEntity
  8
001
 62
   253
370
    50
100
AcDbVertex
100
AcDb2dVertex
 10
88.709998
 20
141.478306
 30
0.0
  0
SEQEND
  5
32F
330
32E
100
AcDbEntity
  8
001
370
    50
  0
POLYLINE
  5
36B
330
1F
100
AcDbEntity
  8
001
 62
   253
370
    50
100
AcDb2dPolyline
 66
     1
 10
0.0
 20
0.0
 30
0.0
  0
VERTEX
  5
36D
330
36B
100
AcDbEntity
  8
001
 62
   253
370
    50
100
AcDbVertex
100
AcDb2dVertex
 10
88.709998
 20
141.478306
 30
0.0
  0
VERTEX
  5
36E
330
36B
100
AcDbEntity
  8
001
 62
   253
370
    50
100
AcDbVertex
100
AcDb2dVertex
 10
88.628658
 20
141.27249
 30
0.0
  0
VERTEX
  5
36F
330
36B
100
AcDbEntity
  8
001
 62
   253
370
    50
100
AcDbVertex
100
AcDb2dVertex
 10
88.555427
 20
141.063969
 30
0.0
  0
VERTEX
  5
370
330
36B
100
AcDbEntity
  8
001
 62
   253
370
    50
100
AcDbVertex
100
AcDb2dVertex
 10
88.496459
 20
140.849448
 30
0.0
  0
VERTEX
  5
371
330
36B
100
AcDbEntity
  8
001
 62
   253
370
    50
100
AcDbVertex
100
AcDb2dVertex
 10
88.452141
 20
140.631177
 30
0.0
  0
VERTEX
  5
372
330
36B
100
AcDbEntity
  8
001
 62
   253
370
    50
100
AcDbVertex
100
AcDb2dVertex
 10
88.421262
 20
140.411369
 30
0.0
  0
VERTEX
  5
373
330
36B
100
AcDbEntity
  8
001
 62
   253
370
    50
100
AcDbVertex
100
AcDb2dVertex
 10
88.404323
 20
140.190162
 30
0.0
  0
VERTEX
  5
374
330
36B
100
AcDbEntity
  8
001
 62
   253
370
    50
100
AcDbVertex
100
AcDb2dVertex
 10
88.40452
 20
139.899118
 30
0.0
  0
VERTEX
  5
375
330
36B
100
AcDbEntity
  8
001
 62
   253
370
    50
100
AcDbVertex
100
AcDb2dVertex
 10
88.429495
 20
139.608969
 30
0.0
  0
VERTEX
  5
376
330
36B
100
AcDbEntity
  8
001
 62
   253
370
    50
100
AcDbVertex
100
AcDb2dVertex
 10
88.478196
 20
139.32227
 30
0.0
  0
VERTEX
  5
377
330
36B
100
AcDbEntity
  8
001
 62
   253
370
    50
100
AcDbVertex
100
AcDb2dVertex
 10
88.550343
 20
139.040661
 30
0.0
  0
VERTEX
  5
378
330
36B
100
AcDbEntity
  8
001
 62
   253
370
    50
100
AcDbVertex
100
AcDb2dVertex
 10
88.642136
 20
138.774711
 30
0.0
  0
VERTEX
  5
379
330
36B
100
AcDbEntity
  8
001
 62
   253
370
    50
100
AcDbVertex
100
AcDb2dVertex
 10
88.754198
 20
138.51659
 30
0.0
  0
VERTEX
  5
37A
330
36B
100
AcDbEntity
  8
001
 62
   253
370
    50
100
AcDbVertex
100
AcDb2dVertex
 10
88.884693
 20
138.268149
 30
0.0
  0
VERTEX
  5
37B
330
36B
100
AcDbEntity
  8
001
 62
   253
370
    50
100
AcDbVertex
100
AcDb2dVertex
 10
89.032842
 20
138.029847
 30
0.0
  0
VERTEX
  5
37C
330
36B
100
AcDbEntity
  8
001
 62
   253
370
    50
100
AcDbVertex
100
AcDb2dVertex
 10
89.215443
 20
137.780002
 30
0.0
  0
VERTEX
  5
37D
330
36B
100
AcDbEntity
  8
001
 62
   253
370
    50
100
AcDbVertex
100
AcDb2dVertex
 10
89.416344
 20
137.544541
 30
0.0
  0
VERTEX
  5
37E
330
36B
100
AcDbEntity
  8
001
 62
   253
370
    50
100
AcDbVertex
100
AcDb2dVertex
 10
89.633464
 20
137.324314
 30
0.0
  0
VERTEX
  5
37F
330
36B
100
AcDbEntity
  8
001
 62
   253
370
    50
100
AcDbVertex
100
AcDb2dVertex
 10
89.865469
 20
137.119891
 30
0.0
  0
VERTEX
  5
380
330
36B
100
AcDbEntity
  8
001
 62
   253
370
    50
100
AcDbVertex
100
AcDb2dVertex
 10
90.152794
 20
136.902334
 30
0.0
  0
VERTEX
  5
381
330
36B
100
AcDbEntity
  8
001
 62
   253
370
    50
100
AcDbVertex
100
AcDb2dVertex
 10
90.455906
 20
136.70706
 30
0.0
  0
VERTEX
  5
382
330
36B
100
AcDbEntity
  8
001
 62
   253
370
    50
100
AcDbVertex
100
AcDb2dVertex
 10
90.773312
 20
136.533793
 30
0.0
  0
VERTEX
  5
383
330
36B
100
AcDbEntity
  8
001
 62
   253
370
    50
100
AcDbVertex
100
AcDb2dVertex
 10
91.102547
 20
136.38487
 30
0.0
  0
VERTEX
  5
384
330
36B
100
AcDbEntity
  8
001
 62
   253
370
    50
100
AcDbVertex
100
AcDb2dVertex
 10
91.184269
 20
136.35241
 30
0.0
  0
VERTEX
  5
385
330
36B
100
AcDbEntity
  8
001
 62
   253
370
    50
100
AcDbVertex
100
AcDb2dVertex
 10
91.266299
 20
136.320736
 30
0.0
  0
SEQEND
  5
36C
330
36B
100
AcDbEntity
  8
001
370
    50
  0
ARC
  5
386
330
1F
100
AcDbEntity
  8
001
 62
   253
370
    50
100
AcDbCircle
 10
87.404209
 20
128.544958
 30
0.0
 40
1.000000000000004
100
AcDbArc
 50
240.0
 51
270.0
  0
ARC
  5
387
330
1F
100
AcDbEntity
  8
001
 62
   253
370
    50
100
AcDbCircle
 10
87.404209
 20
151.544958
 30
0.0
 40
1.000000000000004
100
AcDbArc
 50
90.0
 51
120.0
  0
LINE
  5
388
330
1F
100
AcDbEntity
  8
001
 62
   253
370
    50
100
AcDbLine
 10
86.904209
 20
152.410984
 30
0.0
 11
83.63626
 21
150.524232
 31
0.0
  0
LINE
  5
389
330
1F
100
AcDbEntity
  8
001
 62
   253
370
    50
100
AcDbLine
 10
83.63626
 20
129.565684
 30
0.0
 11
86.904209
 21
127.678933
 31
0.0
  0
ARC
  5
38A
330
1F
100
AcDbEntity
  8
001
 62
   253
370
    50
100
AcDbCircle
 10
84.13626
 20
130.43171
 30
0.0
 40
1.0
100
AcDbArc
 50
180.0
 51
240.0
  0
ARC
  5
38B
330
1F
100
AcDbEntity
  8
001
 62
   253
370
    50
100
AcDbCircle
 10
84.13626
 20
149.658207
 30
0.0
 40
1.0
100
AcDbArc
 50
120.0
 51
180.0
  0
LINE
  5
38C
330
1F
100
AcDbEntity
  8
001
 62
   253
370
    50
100
AcDbLine
 10
83.13626
 20
130.43171
 30
0.0
 11
83.13626
 21
149.658207
 31
0.0
  0
ARC
  5
38D
330
1F
100
AcDbEntity
  8
001
 62
   253
370
    50
100
AcDbCircle
 10
114.13626
 20
24.726016
 30
0.0
 40
1.0
100
AcDbArc
 50
180.0
 51
270.0
  0
ARC
  5
38E
330
1F
100
AcDbEntity
  8
001
 62
   253
370
    50
100
AcDbCircle
 10
114.13626
 20
62.726016
 30
0.0
 40
1.0
100
AcDbArc
 50
90.0
 51
180.0
  0
LINE
  5
38F
330
1F
100
AcDbEntity
  8
001
 62
   253
370
    50
100
AcDbLine
 10
113.13626
 20
62.726016
 30
0.0
 11
113.13626
 21
24.726016
 31
0.0
  0
ARC
  5
390
330
1F
100
AcDbEntity
  8
001
 62
   253
370
    50
100
AcDbCircle
 10
117.13626
 20
62.726016
 30
0.0
 40
1.0
100
AcDbArc
 50
0.0
 51
90.0
  0
ARC
  5
391
330
1F
100
AcDbEntity
  8
001
 62
   253
370
    50
100
AcDbCircle
 10
117.13626
 20
24.726016
 30
0.0
 40
1.0
100
AcDbArc
 50
270.0
 51
0.0
  0
LINE
  5
392
330
1F
100
AcDbEntity
  8
001
 62
   253
370
    50
100
AcDbLine
 10
118.13626
 20
24.726016
 30
0.0
 11
118.13626
 21
62.726016
 31
0.0
  0
LINE
  5
393
330
1F
100
AcDbEntity
  8
001
 62
   253
370
    50
100
AcDbLine
 10
117.13626
 20
63.726016
 30
0.0
 11
114.13626
 21
63.726016
 31
0.0
  0
LINE
  5
394
330
1F
100
AcDbEntity
  8
001
 62
   253
370
    50
100
AcDbLine
 10
114.13626
 20
23.726016
 30
0.0
 11
117.13626
 21
23.726016
 31
0.0
  0
LINE
  5
395
330
1F
100
AcDbEntity
  8
001
 62
   253
370
    50
100
AcDbLine
 10
121.13626
 20
27.726016
 30
0.0
 11
196.13626
 21
27.726016
 31
0.0
  0
LINE
  5
396
330
1F
100
AcDbEntity
  8
001
 62
   253
370
    50
100
AcDbLine
 10
121.13626
 20
57.726016
 30
0.0
 11
121.13626
 21
27.726016
 31
0.0
  0
ARC
  5
397
330
1F
100
AcDbEntity
  8
001
 62
   253
370
    50
100
AcDbCircle
 10
196.13626
 20
29.726016
 30
0.0
 40
2.0
100
AcDbArc
 50
270.0
 51
0.0
  0
LINE
  5
398
330
1F
100
AcDbEntity
  8
001
 62
   253
370
    50
100
AcDbLine
 10
198.13626
 20
57.726016
 30
0.0
 11
198.13626
 21
29.726016
 31
0.0
  0
LINE
  5
399
330
1F
100
AcDbEntity
  8
001
 62
   253
370
    50
100
AcDbLine
 10
118.13626
 20
28.226016
 30
0.0
 11
121.13626
 21
28.226016
 31
0.0
  0
LINE
  5
39A
330
1F
100
AcDbEntity
  8
001
 62
   253
370
    50
100
AcDbLine
 10
118.13626
 20
57.726016
 30
0.0
 11
198.13626
 21
57.726016
 31
0.0
  0
POLYLINE
  5
39B
330
1F
100
AcDbEntity
  8
001
 62
   253
370
    50
100
AcDb2dPolyline
 66
     1
 10
0.0
 20
0.0
 30
0.0
  0
VERTEX
  5
39D
330
39B
100
AcDbEntity
  8
001
 62
   253
370
    50
100
AcDbVertex
100
AcDb2dVertex
 10
102.401253
 20
56.226016
 30
0.0
  0
VERTEX
  5
39E
330
39B
100
AcDbEntity
  8
001
 62
   253
370
    50
100
AcDbVertex
100
AcDb2dVertex
 10
102.407939
 20
56.22418
 30
0.0
  0
VERTEX
  5
39F
330
39B
100
AcDbEntity
  8
001
 62
   253
370
    50
100
AcDbVertex
100
AcDb2dVertex
 10
102.414626
 20
56.222346
 30
0.0
  0
VERTEX
  5
3A0
330
39B
100
AcDbEntity
  8
001
 62
   253
370
    50
100
AcDbVertex
100
AcDb2dVertex
 10
102.466548
 20
56.208181
 30
0.0
  0
VERTEX
  5
3A1
330
39B
100
AcDbEntity
  8
001
 62
   253
370
    50
100
AcDbVertex
100
AcDb2dVertex
 10
102.518505
 20
56.194143
 30
0.0
  0
VERTEX
  5
3A2
330
39B
100
AcDbEntity
  8
001
 62
   253
370
    50
100
AcDbVertex
100
AcDb2dVertex
 10
102.610064
 20
56.169731
 30
0.0
  0
VERTEX
  5
3A3
330
39B
100
AcDbEntity
  8
001
 62
   253
370
    50
100
AcDbVertex
100
AcDb2dVertex
 10
102.701727
 20
56.145711
 30
0.0
  0
VERTEX
  5
3A4
330
39B
100
AcDbEntity
  8
001
 62
   253
370
    50
100
AcDbVertex
100
AcDb2dVertex
 10
102.83426
 20
56.111736
 30
0.0
  0
VERTEX
  5
3A5
330
39B
100
AcDbEntity
  8
001
 62
   253
370
    50
100
AcDbVertex
100
AcDb2dVertex
 10
102.967008
 20
56.07861
 30
0.0
  0
VERTEX
  5
3A6
330
39B
100
AcDbEntity
  8
001
 62
   253
370
    50
100
AcDbVertex
100
AcDb2dVertex
 10
103.146373
 20
56.035306
 30
0.0
  0
VERTEX
  5
3A7
330
39B
100
AcDbEntity
  8
001
 62
   253
370
    50
100
AcDbVertex
100
AcDb2dVertex
 10
103.326118
 20
55.993607
 30
0.0
  0
VERTEX
  5
3A8
330
39B
100
AcDbEntity
  8
001
 62
   253
370
    50
100
AcDbVertex
100
AcDb2dVertex
 10
103.542903
 20
55.94561
 30
0.0
  0
VERTEX
  5
3A9
330
39B
100
AcDbEntity
  8
001
 62
   253
370
    50
100
AcDbVertex
100
AcDb2dVertex
 10
103.760218
 20
55.900077
 30
0.0
  0
VERTEX
  5
3AA
330
39B
100
AcDbEntity
  8
001
 62
   253
370
    50
100
AcDbVertex
100
AcDb2dVertex
 10
104.040552
 20
55.845238
 30
0.0
  0
VERTEX
  5
3AB
330
39B
100
AcDbEntity
  8
001
 62
   253
370
    50
100
AcDbVertex
100
AcDb2dVertex
 10
104.321687
 20
55.794606
 30
0.0
  0
VERTEX
  5
3AC
330
39B
100
AcDbEntity
  8
001
 62
   253
370
    50
100
AcDbVertex
100
AcDb2dVertex
 10
104.637408
 20
55.743014
 30
0.0
  0
VERTEX
  5
3AD
330
39B
100
AcDbEntity
  8
001
 62
   253
370
    50
100
AcDbVertex
100
AcDb2dVertex
 10
104.954048
 20
55.697532
 30
0.0
  0
VERTEX
  5
3AE
330
39B
100
AcDbEntity
  8
001
 62
   253
370
    50
100
AcDbVertex
100
AcDb2dVertex
 10
105.110119
 20
55.67751
 30
0.0
  0
VERTEX
  5
3AF
330
39B
100
AcDbEntity
  8
001
 62
   253
370
    50
100
AcDbVertex
100
AcDb2dVertex
 10
105.266299
 20
55.658332
 30
0.0
  0
SEQEND
  5
39C
330
39B
100
AcDbEntity
  8
001
370
    50
  0
POLYLINE
  5
3B0
330
1F
100
AcDbEntity
  8
001
 62
   253
370
    50
100
AcDb2dPolyline
 66
     1
 10
0.0
 20
0.0
 30
0.0
  0
VERTEX
  5
3B2
330
3B0
100
AcDbEntity
  8
001
 62
   253
370
    50
100
AcDbVertex
100
AcDb2dVertex
 10
88.401253
 20
56.226016
 30
0.0
  0
VERTEX
  5
3B3
330
3B0
100
AcDbEntity
  8
001
 62
   253
370
    50
100
AcDbVertex
100
AcDb2dVertex
 10
88.41458
 20
56.222361
 30
0.0
  0
VERTEX
  5
3B4
330
3B0
100
AcDbEntity
  8
001
 62
   253
370
    50
100
AcDbVertex
100
AcDb2dVertex
 10
88.427908
 20
56.21871
 30
0.0
  0
VERTEX
  5
3B5
330
3B0
100
AcDbEntity
  8
001
 62
   253
370
    50
100
AcDbVertex
100
AcDb2dVertex
 10
88.489101
 20
56.202068
 30
0.0
  0
VERTEX
  5
3B6
330
3B0
100
AcDbEntity
  8
001
 62
   253
370
    50
100
AcDbVertex
100
AcDb2dVertex
 10
88.550343
 20
56.185606
 30
0.0
  0
VERTEX
  5
3B7
330
3B0
100
AcDbEntity
  8
001
 62
   253
370
    50
100
AcDbVertex
100
AcDb2dVertex
 10
88.650687
 20
56.159035
 30
0.0
  0
VERTEX
  5
3B8
330
3B0
100
AcDbEntity
  8
001
 62
   253
370
    50
100
AcDbVertex
100
AcDb2dVertex
 10
88.751156
 20
56.132935
 30
0.0
  0
VERTEX
  5
3B9
330
3B0
100
AcDbEntity
  8
001
 62
   253
370
    50
100
AcDbVertex
100
AcDb2dVertex
 10
88.891878
 20
56.097245
 30
0.0
  0
VERTEX
  5
3BA
330
3B0
100
AcDbEntity
  8
001
 62
   253
370
    50
100
AcDbVertex
100
AcDb2dVertex
 10
89.032842
 20
56.06252
 30
0.0
  0
VERTEX
  5
3BB
330
3B0
100
AcDbEntity
  8
001
 62
   253
370
    50
100
AcDbVertex
100
AcDb2dVertex
 10
89.222138
 20
56.017521
 30
0.0
  0
VERTEX
  5
3BC
330
3B0
100
AcDbEntity
  8
001
 62
   253
370
    50
100
AcDbVertex
100
AcDb2dVertex
 10
89.411854
 20
55.974325
 30
0.0
  0
VERTEX
  5
3BD
330
3B0
100
AcDbEntity
  8
001
 62
   253
370
    50
100
AcDbVertex
100
AcDb2dVertex
 10
89.638377
 20
55.925286
 30
0.0
  0
VERTEX
  5
3BE
330
3B0
100
AcDbEntity
  8
001
 62
   253
370
    50
100
AcDbVertex
100
AcDb2dVertex
 10
89.865469
 20
55.878957
 30
0.0
  0
VERTEX
  5
3BF
330
3B0
100
AcDbEntity
  8
001
 62
   253
370
    50
100
AcDbVertex
100
AcDb2dVertex
 10
90.156778
 20
55.823764
 30
0.0
  0
VERTEX
  5
3C0
330
3B0
100
AcDbEntity
  8
001
 62
   253
370
    50
100
AcDbVertex
100
AcDb2dVertex
 10
90.448934
 20
55.773197
 30
0.0
  0
VERTEX
  5
3C1
330
3B0
100
AcDbEntity
  8
001
 62
   253
370
    50
100
AcDbVertex
100
AcDb2dVertex
 10
90.775282
 20
55.722464
 30
0.0
  0
VERTEX
  5
3C2
330
3B0
100
AcDbEntity
  8
001
 62
   253
370
    50
100
AcDbVertex
100
AcDb2dVertex
 10
91.102547
 20
55.67816
 30
0.0
  0
VERTEX
  5
3C3
330
3B0
100
AcDbEntity
  8
001
 62
   253
370
    50
100
AcDbVertex
100
AcDb2dVertex
 10
91.18441
 20
55.668136
 30
0.0
  0
VERTEX
  5
3C4
330
3B0
100
AcDbEntity
  8
001
 62
   253
370
    50
100
AcDbVertex
100
AcDb2dVertex
 10
91.266299
 20
55.658332
 30
0.0
  0
SEQEND
  5
3B1
330
3B0
100
AcDbEntity
  8
001
370
    50
  0
LINE
  5
3C5
330
1F
100
AcDbEntity
  8
001
 62
   253
370
    50
100
AcDbLine
 10
88.410304
 20
56.226016
 30
0.0
 11
87.404209
 21
56.226016
 31
0.0
  0
LINE
  5
3C6
330
1F
100
AcDbEntity
  8
001
 62
   253
370
    50
100
AcDbLine
 10
102.413504
 20
56.226016
 30
0.0
 11
97.870382
 21
56.226016
 31
0.0
  0
LINE
  5
3C7
330
1F
100
AcDbEntity
  8
001
 62
   253
370
    50
100
AcDbLine
 10
113.13626
 20
56.226016
 30
0.0
 11
111.862011
 21
56.226016
 31
0.0
  0
LINE
  5
3C8
330
1F
100
AcDbEntity
  8
001
 62
   253
370
    50
100
AcDbLine
 10
87.404209
 20
31.226016
 30
0.0
 11
113.13626
 21
31.226016
 31
0.0
  0
POLYLINE
  5
3C9
330
1F
100
AcDbEntity
  8
001
 62
   253
370
    50
100
AcDb2dPolyline
 66
     1
 10
0.0
 20
0.0
 30
0.0
  0
VERTEX
  5
3CB
330
3C9
100
AcDbEntity
  8
001
 62
   253
370
    50
100
AcDbVertex
100
AcDb2dVertex
 10
109.655496
 20
55.746356
 30
0.0
  0
VERTEX
  5
3CC
330
3C9
100
AcDbEntity
  8
001
 62
   253
370
    50
100
AcDbVertex
100
AcDb2dVertex
 10
109.538191
 20
55.724365
 30
0.0
  0
VERTEX
  5
3CD
330
3C9
100
AcDbEntity
  8
001
 62
   253
370
    50
100
AcDbVertex
100
AcDb2dVertex
 10
109.420699
 20
55.703472
 30
0.0
  0
VERTEX
  5
3CE
330
3C9
100
AcDbEntity
  8
001
 62
   253
370
    50
100
AcDbVertex
100
AcDb2dVertex
 10
109.232189
 20
55.67411
 30
0.0
  0
VERTEX
  5
3CF
330
3C9
100
AcDbEntity
  8
001
 62
   253
370
    50
100
AcDbVertex
100
AcDb2dVertex
 10
109.043038
 20
55.648999
 30
0.0
  0
VERTEX
  5
3D0
330
3C9
100
AcDbEntity
  8
001
 62
   253
370
    50
100
AcDbVertex
100
AcDb2dVertex
 10
108.843927
 20
55.625895
 30
0.0
  0
VERTEX
  5
3D1
330
3C9
100
AcDbEntity
  8
001
 62
   253
370
    50
100
AcDbVertex
100
AcDb2dVertex
 10
108.644531
 20
55.605511
 30
0.0
  0
VERTEX
  5
3D2
330
3C9
100
AcDbEntity
  8
001
 62
   253
370
    50
100
AcDbVertex
100
AcDb2dVertex
 10
108.44049
 20
55.587035
 30
0.0
  0
VERTEX
  5
3D3
330
3C9
100
AcDbEntity
  8
001
 62
   253
370
    50
100
AcDbVertex
100
AcDb2dVertex
 10
108.236265
 20
55.570675
 30
0.0
  0
VERTEX
  5
3D4
330
3C9
100
AcDbEntity
  8
001
 62
   253
370
    50
100
AcDbVertex
100
AcDb2dVertex
 10
107.983251
 20
55.553131
 30
0.0
  0
VERTEX
  5
3D5
330
3C9
100
AcDbEntity
  8
001
 62
   253
370
    50
100
AcDbVertex
100
AcDb2dVertex
 10
107.730038
 20
55.538782
 30
0.0
  0
VERTEX
  5
3D6
330
3C9
100
AcDbEntity
  8
001
 62
   253
370
    50
100
AcDbVertex
100
AcDb2dVertex
 10
107.473749
 20
55.527766
 30
0.0
  0
VERTEX
  5
3D7
330
3C9
100
AcDbEntity
  8
001
 62
   253
370
    50
100
AcDbVertex
100
AcDb2dVertex
 10
107.217335
 20
55.520269
 30
0.0
  0
VERTEX
  5
3D8
330
3C9
100
AcDbEntity
  8
001
 62
   253
370
    50
100
AcDbVertex
100
AcDb2dVertex
 10
106.96048
 20
55.516242
 30
0.0
  0
VERTEX
  5
3D9
330
3C9
100
AcDbEntity
  8
001
 62
   253
370
    50
100
AcDbVertex
100
AcDb2dVertex
 10
106.70358
 20
55.515717
 30
0.0
  0
VERTEX
  5
3DA
330
3C9
100
AcDbEntity
  8
001
 62
   253
370
    50
100
AcDbVertex
100
AcDb2dVertex
 10
106.529781
 20
55.517466
 30
0.0
  0
VERTEX
  5
3DB
330
3C9
100
AcDbEntity
  8
001
 62
   253
370
    50
100
AcDbVertex
100
AcDb2dVertex
 10
106.356052
 20
55.521446
 30
0.0
  0
VERTEX
  5
3DC
330
3C9
100
AcDbEntity
  8
001
 62
   253
370
    50
100
AcDbVertex
100
AcDb2dVertex
 10
106.183675
 20
55.528144
 30
0.0
  0
VERTEX
  5
3DD
330
3C9
100
AcDbEntity
  8
001
 62
   253
370
    50
100
AcDbVertex
100
AcDb2dVertex
 10
106.011339
 20
55.537859
 30
0.0
  0
VERTEX
  5
3DE
330
3C9
100
AcDbEntity
  8
001
 62
   253
370
    50
100
AcDbVertex
100
AcDb2dVertex
 10
105.84464
 20
55.550664
 30
0.0
  0
VERTEX
  5
3DF
330
3C9
100
AcDbEntity
  8
001
 62
   253
370
    50
100
AcDbVertex
100
AcDb2dVertex
 10
105.67875
 20
55.568656
 30
0.0
  0
VERTEX
  5
3E0
330
3C9
100
AcDbEntity
  8
001
 62
   253
370
    50
100
AcDbVertex
100
AcDb2dVertex
 10
105.565384
 20
55.584683
 30
0.0
  0
VERTEX
  5
3E1
330
3C9
100
AcDbEntity
  8
001
 62
   253
370
    50
100
AcDbVertex
100
AcDb2dVertex
 10
105.451584
 20
55.602065
 30
0.0
  0
VERTEX
  5
3E2
330
3C9
100
AcDbEntity
  8
001
 62
   253
370
    50
100
AcDbVertex
100
AcDb2dVertex
 10
105.383483
 20
55.613628
 30
0.0
  0
VERTEX
  5
3E3
330
3C9
100
AcDbEntity
  8
001
 62
   253
370
    50
100
AcDbVertex
100
AcDb2dVertex
 10
105.317976
 20
55.632928
 30
0.0
  0
VERTEX
  5
3E4
330
3C9
100
AcDbEntity
  8
001
 62
   253
370
    50
100
AcDbVertex
100
AcDb2dVertex
 10
105.291883
 20
55.644936
 30
0.0
  0
VERTEX
  5
3E5
330
3C9
100
AcDbEntity
  8
001
 62
   253
370
    50
100
AcDbVertex
100
AcDb2dVertex
 10
105.266299
 20
55.658332
 30
0.0
  0
SEQEND
  5
3CA
330
3C9
100
AcDbEntity
  8
001
370
    50
  0
POLYLINE
  5
3E6
330
1F
100
AcDbEntity
  8
001
 62
   253
370
    50
100
AcDb2dPolyline
 66
     1
 10
0.0
 20
0.0
 30
0.0
  0
VERTEX
  5
3E8
330
3E6
100
AcDbEntity
  8
001
 62
   253
370
    50
100
AcDbVertex
100
AcDb2dVertex
 10
109.655496
 20
55.746356
 30
0.0
  0
VERTEX
  5
3E9
330
3E6
100
AcDbEntity
  8
001
 62
   253
370
    50
100
AcDbVertex
100
AcDb2dVertex
 10
109.751023
 20
55.761516
 30
0.0
  0
VERTEX
  5
3EA
330
3E6
100
AcDbEntity
  8
001
 62
   253
370
    50
100
AcDbVertex
100
AcDb2dVertex
 10
109.8465
 20
55.776983
 30
0.0
  0
VERTEX
  5
3EB
330
3E6
100
AcDbEntity
  8
001
 62
   253
370
    50
100
AcDbVertex
100
AcDb2dVertex
 10
110.02121
 20
55.806783
 30
0.0
  0
VERTEX
  5
3EC
330
3E6
100
AcDbEntity
  8
001
 62
   253
370
    50
100
AcDbVertex
100
AcDb2dVertex
 10
110.195605
 20
55.838398
 30
0.0
  0
VERTEX
  5
3ED
330
3E6
100
AcDbEntity
  8
001
 62
   253
370
    50
100
AcDbVertex
100
AcDb2dVertex
 10
110.360349
 20
55.8698
 30
0.0
  0
VERTEX
  5
3EE
330
3E6
100
AcDbEntity
  8
001
 62
   253
370
    50
100
AcDbVertex
100
AcDb2dVertex
 10
110.524813
 20
55.902631
 30
0.0
  0
VERTEX
  5
3EF
330
3E6
100
AcDbEntity
  8
001
 62
   253
370
    50
100
AcDbVertex
100
AcDb2dVertex
 10
110.749324
 20
55.949871
 30
0.0
  0
VERTEX
  5
3F0
330
3E6
100
AcDbEntity
  8
001
 62
   253
370
    50
100
AcDbVertex
100
AcDb2dVertex
 10
110.973269
 20
55.99973
 30
0.0
  0
VERTEX
  5
3F1
330
3E6
100
AcDbEntity
  8
001
 62
   253
370
    50
100
AcDbVertex
100
AcDb2dVertex
 10
111.164344
 20
56.044384
 30
0.0
  0
VERTEX
  5
3F2
330
3E6
100
AcDbEntity
  8
001
 62
   253
370
    50
100
AcDbVertex
100
AcDb2dVertex
 10
111.354984
 20
56.090849
 30
0.0
  0
VERTEX
  5
3F3
330
3E6
100
AcDbEntity
  8
001
 62
   253
370
    50
100
AcDbVertex
100
AcDb2dVertex
 10
111.486194
 20
56.123926
 30
0.0
  0
VERTEX
  5
3F4
330
3E6
100
AcDbEntity
  8
001
 62
   253
370
    50
100
AcDbVertex
100
AcDb2dVertex
 10
111.617196
 20
56.157817
 30
0.0
  0
VERTEX
  5
3F5
330
3E6
100
AcDbEntity
  8
001
 62
   253
370
    50
100
AcDbVertex
100
AcDb2dVertex
 10
111.706109
 20
56.181305
 30
0.0
  0
VERTEX
  5
3F6
330
3E6
100
AcDbEntity
  8
001
 62
   253
370
    50
100
AcDbVertex
100
AcDb2dVertex
 10
111.794917
 20
56.205184
 30
0.0
  0
VERTEX
  5
3F7
330
3E6
100
AcDbEntity
  8
001
 62
   253
370
    50
100
AcDbVertex
100
AcDb2dVertex
 10
111.833097
 20
56.21558
 30
0.0
  0
VERTEX
  5
3F8
330
3E6
100
AcDbEntity
  8
001
 62
   253
370
    50
100
AcDbVertex
100
AcDb2dVertex
 10
111.871267
 20
56.226016
 30
0.0
  0
SEQEND
  5
3E7
330
3E6
100
AcDbEntity
  8
001
370
    50
  0
POLYLINE
  5
3F9
330
1F
100
AcDbEntity
  8
001
 62
   253
370
    50
100
AcDb2dPolyline
 66
     1
 10
0.0
 20
0.0
 30
0.0
  0
VERTEX
  5
3FB
330
3F9
100
AcDbEntity
  8
001
 62
   253
370
    50
100
AcDbVertex
100
AcDb2dVertex
 10
95.655496
 20
55.746356
 30
0.0
  0
VERTEX
  5
3FC
330
3F9
100
AcDbEntity
  8
001
 62
   253
370
    50
100
AcDbVertex
100
AcDb2dVertex
 10
95.538191
 20
55.724365
 30
0.0
  0
VERTEX
  5
3FD
330
3F9
100
AcDbEntity
  8
001
 62
   253
370
    50
100
AcDbVertex
100
AcDb2dVertex
 10
95.420699
 20
55.703472
 30
0.0
  0
VERTEX
  5
3FE
330
3F9
100
AcDbEntity
  8
001
 62
   253
370
    50
100
AcDbVertex
100
AcDb2dVertex
 10
95.232189
 20
55.67411
 30
0.0
  0
VERTEX
  5
3FF
330
3F9
100
AcDbEntity
  8
001
 62
   253
370
    50
100
AcDbVertex
100
AcDb2dVertex
 10
95.043038
 20
55.648999
 30
0.0
  0
VERTEX
  5
400
330
3F9
100
AcDbEntity
  8
001
 62
   253
370
    50
100
AcDbVertex
100
AcDb2dVertex
 10
94.843927
 20
55.625895
 30
0.0
  0
VERTEX
  5
401
330
3F9
100
AcDbEntity
  8
001
 62
   253
370
    50
100
AcDbVertex
100
AcDb2dVertex
 10
94.644531
 20
55.605511
 30
0.0
  0
VERTEX
  5
402
330
3F9
100
AcDbEntity
  8
001
 62
   253
370
    50
100
AcDbVertex
100
AcDb2dVertex
 10
94.44049
 20
55.587035
 30
0.0
  0
VERTEX
  5
403
330
3F9
100
AcDbEntity
  8
001
 62
   253
370
    50
100
AcDbVertex
100
AcDb2dVertex
 10
94.236265
 20
55.570675
 30
0.0
  0
VERTEX
  5
404
330
3F9
100
AcDbEntity
  8
001
 62
   253
370
    50
100
AcDbVertex
100
AcDb2dVertex
 10
93.983251
 20
55.553131
 30
0.0
  0
VERTEX
  5
405
330
3F9
100
AcDbEntity
  8
001
 62
   253
370
    50
100
AcDbVertex
100
AcDb2dVertex
 10
93.730038
 20
55.538782
 30
0.0
  0
VERTEX
  5
406
330
3F9
100
AcDbEntity
  8
001
 62
   253
370
    50
100
AcDbVertex
100
AcDb2dVertex
 10
93.473749
 20
55.527766
 30
0.0
  0
VERTEX
  5
407
330
3F9
100
AcDbEntity
  8
001
 62
   253
370
    50
100
AcDbVertex
100
AcDb2dVertex
 10
93.217335
 20
55.520269
 30
0.0
  0
VERTEX
  5
408
330
3F9
100
AcDbEntity
  8
001
 62
   253
370
    50
100
AcDbVertex
100
AcDb2dVertex
 10
92.96048
 20
55.516242
 30
0.0
  0
VERTEX
  5
409
330
3F9
100
AcDbEntity
  8
001
 62
   253
370
    50
100
AcDbVertex
100
AcDb2dVertex
 10
92.70358
 20
55.515717
 30
0.0
  0
VERTEX
  5
40A
330
3F9
100
AcDbEntity
  8
001
 62
   253
370
    50
100
AcDbVertex
100
AcDb2dVertex
 10
92.529781
 20
55.517466
 30
0.0
  0
VERTEX
  5
40B
330
3F9
100
AcDbEntity
  8
001
 62
   253
370
    50
100
AcDbVertex
100
AcDb2dVertex
 10
92.356052
 20
55.521446
 30
0.0
  0
VERTEX
  5
40C
330
3F9
100
AcDbEntity
  8
001
 62
   253
370
    50
100
AcDbVertex
100
AcDb2dVertex
 10
92.183675
 20
55.528144
 30
0.0
  0
VERTEX
  5
40D
330
3F9
100
AcDbEntity
  8
001
 62
   253
370
    50
100
AcDbVertex
100
AcDb2dVertex
 10
92.011339
 20
55.537859
 30
0.0
  0
VERTEX
  5
40E
330
3F9
100
AcDbEntity
  8
001
 62
   253
370
    50
100
AcDbVertex
100
AcDb2dVertex
 10
91.84464
 20
55.550664
 30
0.0
  0
VERTEX
  5
40F
330
3F9
100
AcDbEntity
  8
001
 62
   253
370
    50
100
AcDbVertex
100
AcDb2dVertex
 10
91.67875
 20
55.568656
 30
0.0
  0
VERTEX
  5
410
330
3F9
100
AcDbEntity
  8
001
 62
   253
370
    50
100
AcDbVertex
100
AcDb2dVertex
 10
91.565384
 20
55.584683
 30
0.0
  0
VERTEX
  5
411
330
3F9
100
AcDbEntity
  8
001
 62
   253
370
    50
100
AcDbVertex
100
AcDb2dVertex
 10
91.451584
 20
55.602065
 30
0.0
  0
VERTEX
  5
412
330
3F9
100
AcDbEntity
  8
001
 62
   253
370
    50
100
AcDbVertex
100
AcDb2dVertex
 10
91.383483
 20
55.613628
 30
0.0
  0
VERTEX
  5
413
330
3F9
100
AcDbEntity
  8
001
 62
   253
370
    50
100
AcDbVertex
100
AcDb2dVertex
 10
91.317976
 20
55.632928
 30
0.0
  0
VERTEX
  5
414
330
3F9
100
AcDbEntity
  8
001
 62
   253
370
    50
100
AcDbVertex
100
AcDb2dVertex
 10
91.291883
 20
55.644936
 30
0.0
  0
VERTEX
  5
415
330
3F9
100
AcDbEntity
  8
001
 62
   253
370
    50
100
AcDbVertex
100
AcDb2dVertex
 10
91.266299
 20
55.658332
 30
0.0
  0
SEQEND
  5
3FA
330
3F9
100
AcDbEntity
  8
001
370
    50
  0
POLYLINE
  5
416
330
1F
100
AcDbEntity
  8
001
 62
   253
370
    50
100
AcDb2dPolyline
 66
     1
 10
0.0
 20
0.0
 30
0.0
  0
VERTEX
  5
418
330
416
100
AcDbEntity
  8
001
 62
   253
370
    50
100
AcDbVertex
100
AcDb2dVertex
 10
95.655496
 20
55.746356
 30
0.0
  0
VERTEX
  5
419
330
416
100
AcDbEntity
  8
001
 62
   253
370
    50
100
AcDbVertex
100
AcDb2dVertex
 10
95.827312
 20
55.774126
 30
0.0
  0
VERTEX
  5
41A
330
416
100
AcDbEntity
  8
001
 62
   253
370
    50
100
AcDbVertex
100
AcDb2dVertex
 10
95.998949
 20
55.802944
 30
0.0
  0
VERTEX
  5
41B
330
416
100
AcDbEntity
  8
001
 62
   253
370
    50
100
AcDbVertex
100
AcDb2dVertex
 10
96.165086
 20
55.832671
 30
0.0
  0
VERTEX
  5
41C
330
416
100
AcDbEntity
  8
001
 62
   253
370
    50
100
AcDbVertex
100
AcDb2dVertex
 10
96.330921
 20
55.864065
 30
0.0
  0
VERTEX
  5
41D
330
416
100
AcDbEntity
  8
001
 62
   253
370
    50
100
AcDbVertex
100
AcDb2dVertex
 10
96.486878
 20
55.894941
 30
0.0
  0
VERTEX
  5
41E
330
416
100
AcDbEntity
  8
001
 62
   253
370
    50
100
AcDbVertex
100
AcDb2dVertex
 10
96.642579
 20
55.927069
 30
0.0
  0
VERTEX
  5
41F
330
416
100
AcDbEntity
  8
001
 62
   253
370
    50
100
AcDbVertex
100
AcDb2dVertex
 10
96.859607
 20
55.974083
 30
0.0
  0
VERTEX
  5
420
330
416
100
AcDbEntity
  8
001
 62
   253
370
    50
100
AcDbVertex
100
AcDb2dVertex
 10
97.076098
 20
56.023522
 30
0.0
  0
VERTEX
  5
421
330
416
100
AcDbEntity
  8
001
 62
   253
370
    50
100
AcDbVertex
100
AcDb2dVertex
 10
97.257271
 20
56.066797
 30
0.0
  0
VERTEX
  5
422
330
416
100
AcDbEntity
  8
001
 62
   253
370
    50
100
AcDbVertex
100
AcDb2dVertex
 10
97.43805
 20
56.111683
 30
0.0
  0
VERTEX
  5
423
330
416
100
AcDbEntity
  8
001
 62
   253
370
    50
100
AcDbVertex
100
AcDb2dVertex
 10
97.555768
 20
56.141818
 30
0.0
  0
VERTEX
  5
424
330
416
100
AcDbEntity
  8
001
 62
   253
370
    50
100
AcDbVertex
100
AcDb2dVertex
 10
97.673318
 20
56.172604
 30
0.0
  0
VERTEX
  5
425
330
416
100
AcDbEntity
  8
001
 62
   253
370
    50
100
AcDbVertex
100
AcDb2dVertex
 10
97.748306
 20
56.192601
 30
0.0
  0
VERTEX
  5
426
330
416
100
AcDbEntity
  8
001
 62
   253
370
    50
100
AcDbVertex
100
AcDb2dVertex
 10
97.82322
 20
56.212873
 30
0.0
  0
VERTEX
  5
427
330
416
100
AcDbEntity
  8
001
 62
   253
370
    50
100
AcDbVertex
100
AcDb2dVertex
 10
97.847246
 20
56.219437
 30
0.0
  0
VERTEX
  5
428
330
416
100
AcDbEntity
  8
001
 62
   253
370
    50
100
AcDbVertex
100
AcDb2dVertex
 10
97.871267
 20
56.226016
 30
0.0
  0
SEQEND
  5
417
330
416
100
AcDbEntity
  8
001
370
    50
  0
ARC
  5
429
330
1F
100
AcDbEntity
  8
001
 62
   253
370
    50
100
AcDbCircle
 10
87.404209
 20
32.226016
 30
0.0
 40
1.000000000000004
100
AcDbArc
 50
240.0
 51
270.0
  0
ARC
  5
42A
330
1F
100
AcDbEntity
  8
001
 62
   253
370
    50
100
AcDbCircle
 10
87.404209
 20
55.226016
 30
0.0
 40
1.000000000000004
100
AcDbArc
 50
90.0
 51
120.0
  0
LINE
  5
42B
330
1F
100
AcDbEntity
  8
001
 62
   253
370
    50
100
AcDbLine
 10
86.904209
 20
56.092041
 30
0.0
 11
83.63626
 21
54.20529
 31
0.0
  0
LINE
  5
42C
330
1F
100
AcDbEntity
  8
001
 62
   253
370
    50
100
AcDbLine
 10
83.63626
 20
33.246742
 30
0.0
 11
86.904209
 21
31.35999
 31
0.0
  0
ARC
  5
42D
330
1F
100
AcDbEntity
  8
001
 62
   253
370
    50
100
AcDbCircle
 10
84.13626
 20
34.112767
 30
0.0
 40
1.0
100
AcDbArc
 50
180.0
 51
240.0
  0
ARC
  5
42E
330
1F
100
AcDbEntity
  8
001
 62
   253
370
    50
100
AcDbCircle
 10
84.13626
 20
53.339264
 30
0.0
 40
1.0
100
AcDbArc
 50
120.0
 51
180.0
  0
LINE
  5
42F
330
1F
100
AcDbEntity
  8
001
 62
   253
370
    50
100
AcDbLine
 10
83.13626
 20
53.339264
 30
0.0
 11
83.13626
 21
34.112767
 31
0.0
  0
ARC
  5
430
330
1F
100
AcDbEntity
  8
001
 62
   253
370
    50
100
AcDbCircle
 10
271.500618
 20
140.044958
 30
0.0
 40
15.99999999999999
100
AcDbArc
 50
208.955024
 51
151.044976
  0
LINE
  5
431
330
1F
100
AcDbEntity
  8
001
 62
   253
370
    50
100
AcDbLine
 10
257.500618
 20
132.298992
 30
0.0
 11
257.500618
 21
147.790925
 31
0.0
  0
CIRCLE
  5
432
330
1F
100
AcDbEntity
  8
001
 62
   253
370
    50
100
AcDbCircle
 10
271.500618
 20
140.044958
 30
0.0
 40
20.0
  0
LINE
  5
433
330
1F
100
AcDbEntity
  8
001
  6
CENTER
370
     9
100
AcDbLine
 10
77.140443
 20
140.044958
 30
0.0
 11
204.29674
 21
140.044958
 31
0.0
  0
LINE
  5
434
330
1F
100
AcDbEntity
  8
001
  6
CENTER
370
     9
100
AcDbLine
 10
77.140443
 20
43.726016
 30
0.0
 11
204.29674
 21
43.726016
 31
0.0
  0
LINE
  5
435
330
1F
100
AcDbEntity
  8
001
  6
CENTER
370
     9
100
AcDbLine
 10
247.430975
 20
140.044958
 30
0.0
 11
294.476948
 21
140.044958
 31
0.0
  0
LINE
  5
436
330
1F
100
AcDbEntity
  8
001
  6
CENTER
370
     9
100
AcDbLine
 10
271.500618
 20
115.978126
 30
0.0
 11
271.500618
 21
164.093326
 31
0.0
  0
LINE
  5
437
330
1F
100
AcDbEntity
  8
001
  6
DASHED
370
    50
100
AcDbLine
 10
83.13626
 20
49.726016
 30
0.0
 11
198.13626
 21
49.726016
 31
0.0
  0
LINE
  5
438
330
1F
100
AcDbEntity
  8
001
  6
DASHED
370
    50
100
AcDbLine
 10
83.13626
 20
37.726016
 30
0.0
 11
198.13626
 21
37.726016
 31
0.0
  0
CIRCLE
  5
439
330
1F
100
AcDbEntity
  8
001
370
    50
100
AcDbCircle
 10
271.500618
 20
140.044958
 30
0.0
 40
6.0
  0
LINE
  5
43A
330
1F
100
AcDbEntity
  8
001
  6
CENTER
370
     9
100
AcDbLine
 10
93.13626
 20
60.76596
 30
0.0
 11
93.13626
 21
46.215708
 31
0.0
  0
LINE
  5
43B
330
1F
100
AcDbEntity
  8
001
  6
CENTER
370
     9
100
AcDbLine
 10
107.13626
 20
60.76596
 30
0.0
 11
107.13626
 21
46.215708
 31
0.0
  0
LINE
  5
43C
330
1F
100
AcDbEntity
  8
001
370
     9
100
AcDbLine
 10
121.13626
 20
147.790925
 30
0.0
 11
196.13626
 21
132.298992
 31
0.0
  0
LINE
  5
43D
330
1F
100
AcDbEntity
  8
001
370
     9
100
AcDbLine
 10
196.13626
 20
147.790925
 30
0.0
 11
121.13626
 21
132.298992
 31
0.0
  0
CIRCLE
  5
43E
330
1F
100
AcDbEntity
  8
001
370
    50
100
AcDbCircle
 10
271.500618
 20
140.044958
 30
0.0
 40
6.20710678118656
  0
LINE
  5
43F
330
1F
100
AcDbEntity
  8
001
  6
DASHED
370
    30
100
AcDbLine
 10
111.13626
 20
56.0377
 30
0.0
 11
111.13626
 21
49.726016
 31
0.0
  0
LINE
  5
440
330
1F
100
AcDbEntity
  8
001
  6
DASHED
370
    30
100
AcDbLine
 10
110.53626
 20
55.904971
 30
0.0
 11
110.53626
 21
49.726016
 31
0.0
  0
LINE
  5
441
330
1F
100
AcDbEntity
  8
001
  6
DASHED
370
    30
100
AcDbLine
 10
103.73626
 20
55.904968
 30
0.0
 11
103.73626
 21
49.726016
 31
0.0
  0
LINE
  5
442
330
1F
100
AcDbEntity
  8
001
  6
DASHED
370
    30
100
AcDbLine
 10
103.13626
 20
56.037703
 30
0.0
 11
103.13626
 21
49.726016
 31
0.0
  0
LINE
  5
443
330
1F
100
AcDbEntity
  8
001
  6
DASHED
370
    30
100
AcDbLine
 10
97.13626
 20
56.0377
 30
0.0
 11
97.13626
 21
49.726016
 31
0.0
  0
LINE
  5
444
330
1F
100
AcDbEntity
  8
001
  6
DASHED
370
    30
100
AcDbLine
 10
96.53626
 20
55.904971
 30
0.0
 11
96.53626
 21
49.726016
 31
0.0
  0
LINE
  5
445
330
1F
100
AcDbEntity
  8
001
  6
DASHED
370
    30
100
AcDbLine
 10
89.73626
 20
55.904968
 30
0.0
 11
89.73626
 21
49.726016
 31
0.0
  0
LINE
  5
446
330
1F
100
AcDbEntity
  8
001
  6
DASHED
370
    30
100
AcDbLine
 10
89.13626
 20
56.037703
 30
0.0
 11
89.13626
 21
49.726016
 31
0.0
  0
TEXT
  5
447
330
1F
100
AcDbEntity
  8
001
370
    30
100
AcDbText
 10
32.838262
 20
199.16144
 30
0.0
 40
10.0
  1
オイルッシャー　ＫＪＤ３２Ｓ１２
 41
0.833333
100
AcDbText
  0
ENDSEC
  0
SECTION
  2
OBJECTS
  0
DICTIONARY
  5
C
330
0
100
AcDbDictionary
281
     1
  3
ACAD_GROUP
350
D
  3
ACAD_LAYOUT
350
1A
  3
ACAD_MLEADERSTYLE
350
44B
  3
ACAD_MLINESTYLE
350
17
  3
ACAD_PLOTSETTINGS
350
19
  3
ACAD_PLOTSTYLENAME
350
E
  3
ACAD_SCALELIST
350
3B
  3
ACAD_TABLESTYLE
350
44A
  3
ACAD_VISUALSTYLE
350
2A
  3
AcDbVariableDictionary
350
448
  0
DICTIONARY
  5
D
102
{ACAD_REACTORS
330
C
102
}
330
C
100
AcDbDictionary
281
     1
  0
DICTIONARY
  5
1A
102
{ACAD_REACTORS
330
C
102
}
330
C
100
AcDbDictionary
281
     1
  3
Layout1
350
1E
  3
Layout2
350
26
  3
Model
350
22
  0
DICTIONARY
  5
44B
102
{ACAD_REACTORS
330
C
102
}
330
C
100
AcDbDictionary
281
     1
  0
DICTIONARY
  5
17
102
{ACAD_REACTORS
330
C
102
}
330
C
100
AcDbDictionary
281
     1
  3
Standard
350
18
  0
DICTIONARY
  5
19
102
{ACAD_REACTORS
330
C
102
}
330
C
100
AcDbDictionary
281
     1
  0
ACDBDICTIONARYWDFLT
  5
E
102
{ACAD_REACTORS
330
C
102
}
330
C
100
AcDbDictionary
281
     1
  3
Normal
350
F
100
AcDbDictionaryWithDefault
340
F
  0
DICTIONARY
  5
3B
102
{ACAD_REACTORS
330
C
102
}
330
C
100
AcDbDictionary
281
     1
  3
A0
350
3C
  3
A1
350
3D
  3
A2
350
3E
  3
A3
350
3F
  3
A4
350
40
  3
A5
350
41
  3
A6
350
42
  3
A7
350
43
  3
A8
350
44
  3
A9
350
45
  3
B0
350
46
  3
B1
350
47
  3
B2
350
48
  3
B3
350
49
  3
B4
350
4A
  3
B5
350
4B
  3
B6
350
4C
  3
B7
350
4D
  3
B8
350
4E
  3
B9
350
4F
  3
C0
350
50
  3
C1
350
51
  3
C2
350
52
  3
C3
350
53
  3
C4
350
54
  3
C5
350
55
  3
C6
350
56
  3
C7
350
57
  3
C8
350
58
  3
C9
350
59
  3
D0
350
5A
  3
D1
350
5B
  3
D2
350
5C
  0
DICTIONARY
  5
44A
102
{ACAD_REACTORS
330
C
102
}
330
C
100
AcDbDictionary
281
     1
  0
DICTIONARY
  5
2A
102
{ACAD_REACTORS
330
C
102
}
330
C
100
AcDbDictionary
281
     1
  3
2dWireframe
350
2F
  3
3D Hidden
350
31
  3
3dWireframe
350
30
  3
Basic
350
32
  3
Brighten
350
36
  3
ColorChange
350
3A
  3
Conceptual
350
34
  3
Dim
350
35
  3
Facepattern
350
39
  3
Flat
350
2B
  3
FlatWithEdges
350
2C
  3
Gouraud
350
2D
  3
GouraudWithEdges
350
2E
  3
Linepattern
350
38
  3
Realistic
350
33
  3
Thicken
350
37
  0
DICTIONARY
  5
448
102
{ACAD_REACTORS
330
C
102
}
330
C
100
AcDbDictionary
281
     1
  3
CANNOSCALE
350
449
  3
PSOLHEIGHT
350
44D
  3
PSOLWIDTH
350
44C
  0
LAYOUT
  5
1E
102
{ACAD_REACTORS
330
1A
102
}
330
1A
100
AcDbPlotSettings
  1

  2
none_device
  4

  6

 40
0.0
 41
0.0
 42
0.0
 43
0.0
 44
0.0
 45
0.0
 46
0.0
 47
0.0
 48
0.0
 49
0.0
140
0.0
141
0.0
142
1.0
143
1.0
 70
   688
 72
     0
 73
     0
 74
     5
  7

 75
    16
147
1.0
148
0.0
149
0.0
100
AcDbLayout
  1
Layout1
 70
     1
 71
     1
 10
0.0
 20
0.0
 11
12.0
 21
9.0
 12
0.0
 22
0.0
 32
0.0
 14
1.000000E+20
 24
1.000000E+20
 34
0.0
 15
-1.000000E+20
 25
-1.000000E+20
 35
0.0
146
0.0
 13
0.0
 23
0.0
 33
0.0
 16
1.0
 26
0.0
 36
0.0
 17
0.0
 27
1.0
 37
0.0
 76
     0
330
1B
  0
LAYOUT
  5
26
102
{ACAD_REACTORS
330
1A
102
}
330
1A
100
AcDbPlotSettings
  1

  2
none_device
  4

  6

 40
0.0
 41
0.0
 42
0.0
 43
0.0
 44
0.0
 45
0.0
 46
0.0
 47
0.0
 48
0.0
 49
0.0
140
0.0
141
0.0
142
1.0
143
1.0
 70
   688
 72
     0
 73
     0
 74
     5
  7

 75
    16
147
1.0
148
0.0
149
0.0
100
AcDbLayout
  1
Layout2
 70
     1
 71
     2
 10
0.0
 20
0.0
 11
0.0
 21
0.0
 12
0.0
 22
0.0
 32
0.0
 14
0.0
 24
0.0
 34
0.0
 15
0.0
 25
0.0
 35
0.0
146
0.0
 13
0.0
 23
0.0
 33
0.0
 16
1.0
 26
0.0
 36
0.0
 17
0.0
 27
1.0
 37
0.0
 76
     0
330
23
  0
LAYOUT
  5
22
102
{ACAD_REACTORS
330
1A
102
}
330
1A
100
AcDbPlotSettings
  1

  2
none_device
  4

  6

 40
0.0
 41
0.0
 42
0.0
 43
0.0
 44
0.0
 45
0.0
 46
0.0
 47
0.0
 48
0.0
 49
0.0
140
0.0
141
0.0
142
1.0
143
1.0
 70
  1712
 72
     0
 73
     0
 74
     0
  7

 75
     0
147
1.0
148
0.0
149
0.0
100
AcDbLayout
  1
Model
 70
     1
 71
     0
 10
0.0
 20
0.0
 11
12.0
 21
9.0
 12
0.0
 22
0.0
 32
0.0
 14
6.356934
 24
1.221008
 34
0.0
 15
294.476959
 25
209.161438
 35
0.0
146
0.0
 13
0.0
 23
0.0
 33
0.0
 16
1.0
 26
0.0
 36
0.0
 17
0.0
 27
1.0
 37
0.0
 76
     0
330
1F
331
29
  0
MLINESTYLE
  5
18
102
{ACAD_REACTORS
330
17
102
}
330
17
100
AcDbMlineStyle
  2
Standard
 70
     0
  3

 62
   256
 51
90.0
 52
90.0
 71
     2
 49
0.5
 62
   256
  6
BYLAYER
 49
-0.5
 62
   256
  6
BYLAYER
  0
ACDBPLACEHOLDER
  5
F
102
{ACAD_REACTORS
330
E
102
}
330
E
  0
SCALE
  5
3C
102
{ACAD_REACTORS
330
3B
102
}
330
3B
100
AcDbScale
 70
     0
300
1:1
140
1.0
141
1.0
290
     1
  0
SCALE
  5
3D
102
{ACAD_REACTORS
330
3B
102
}
330
3B
100
AcDbScale
 70
     0
300
1:2
140
1.0
141
2.0
290
     0
  0
SCALE
  5
3E
102
{ACAD_REACTORS
330
3B
102
}
330
3B
100
AcDbScale
 70
     0
300
1:4
140
1.0
141
4.0
290
     0
  0
SCALE
  5
3F
102
{ACAD_REACTORS
330
3B
102
}
330
3B
100
AcDbScale
 70
     0
300
1:5
140
1.0
141
5.0
290
     0
  0
SCALE
  5
40
102
{ACAD_REACTORS
330
3B
102
}
330
3B
100
AcDbScale
 70
     0
300
1:8
140
1.0
141
8.0
290
     0
  0
SCALE
  5
41
102
{ACAD_REACTORS
330
3B
102
}
330
3B
100
AcDbScale
 70
     0
300
1:10
140
1.0
141
10.0
290
     0
  0
SCALE
  5
42
102
{ACAD_REACTORS
330
3B
102
}
330
3B
100
AcDbScale
 70
     0
300
1:16
140
1.0
141
16.0
290
     0
  0
SCALE
  5
43
102
{ACAD_REACTORS
330
3B
102
}
330
3B
100
AcDbScale
 70
     0
300
1:20
140
1.0
141
20.0
290
     0
  0
SCALE
  5
44
102
{ACAD_REACTORS
330
3B
102
}
330
3B
100
AcDbScale
 70
     0
300
1:30
140
1.0
141
30.0
290
     0
  0
SCALE
  5
45
102
{ACAD_REACTORS
330
3B
102
}
330
3B
100
AcDbScale
 70
     0
300
1:40
140
1.0
141
40.0
290
     0
  0
SCALE
  5
46
102
{ACAD_REACTORS
330
3B
102
}
330
3B
100
AcDbScale
 70
     0
300
1:50
140
1.0
141
50.0
290
     0
  0
SCALE
  5
47
102
{ACAD_REACTORS
330
3B
102
}
330
3B
100
AcDbScale
 70
     0
300
1:100
140
1.0
141
100.0
290
     0
  0
SCALE
  5
48
102
{ACAD_REACTORS
330
3B
102
}
330
3B
100
AcDbScale
 70
     0
300
2:1
140
2.0
141
1.0
290
     0
  0
SCALE
  5
49
102
{ACAD_REACTORS
330
3B
102
}
330
3B
100
AcDbScale
 70
     0
300
4:1
140
4.0
141
1.0
290
     0
  0
SCALE
  5
4A
102
{ACAD_REACTORS
330
3B
102
}
330
3B
100
AcDbScale
 70
     0
300
8:1
140
8.0
141
1.0
290
     0
  0
SCALE
  5
4B
102
{ACAD_REACTORS
330
3B
102
}
330
3B
100
AcDbScale
 70
     0
300
10:1
140
10.0
141
1.0
290
     0
  0
SCALE
  5
4C
102
{ACAD_REACTORS
330
3B
102
}
330
3B
100
AcDbScale
 70
     0
300
100:1
140
100.0
141
1.0
290
     0
  0
SCALE
  5
4D
102
{ACAD_REACTORS
330
3B
102
}
330
3B
100
AcDbScale
 70
     0
300
1/128" = 1'-0"
140
0.007812
141
12.0
290
     0
  0
SCALE
  5
4E
102
{ACAD_REACTORS
330
3B
102
}
330
3B
100
AcDbScale
 70
     0
300
1/64" = 1'-0"
140
0.015625
141
12.0
290
     0
  0
SCALE
  5
4F
102
{ACAD_REACTORS
330
3B
102
}
330
3B
100
AcDbScale
 70
     0
300
1/32" = 1'-0"
140
0.03125
141
12.0
290
     0
  0
SCALE
  5
50
102
{ACAD_REACTORS
330
3B
102
}
330
3B
100
AcDbScale
 70
     0
300
1/16" = 1'-0"
140
0.0625
141
12.0
290
     0
  0
SCALE
  5
51
102
{ACAD_REACTORS
330
3B
102
}
330
3B
100
AcDbScale
 70
     0
300
3/32" = 1'-0"
140
0.09375
141
12.0
290
     0
  0
SCALE
  5
52
102
{ACAD_REACTORS
330
3B
102
}
330
3B
100
AcDbScale
 70
     0
300
1/8" = 1'-0"
140
0.125
141
12.0
290
     0
  0
SCALE
  5
53
102
{ACAD_REACTORS
330
3B
102
}
330
3B
100
AcDbScale
 70
     0
300
3/16" = 1'-0"
140
0.1875
141
12.0
290
     0
  0
SCALE
  5
54
102
{ACAD_REACTORS
330
3B
102
}
330
3B
100
AcDbScale
 70
     0
300
1/4" = 1'-0"
140
0.25
141
12.0
290
     0
  0
SCALE
  5
55
102
{ACAD_REACTORS
330
3B
102
}
330
3B
100
AcDbScale
 70
     0
300
3/8" = 1'-0"
140
0.375
141
12.0
290
     0
  0
SCALE
  5
56
102
{ACAD_REACTORS
330
3B
102
}
330
3B
100
AcDbScale
 70
     0
300
1/2" = 1'-0"
140
0.5
141
12.0
290
     0
  0
SCALE
  5
57
102
{ACAD_REACTORS
330
3B
102
}
330
3B
100
AcDbScale
 70
     0
300
3/4" = 1'-0"
140
0.75
141
12.0
290
     0
  0
SCALE
  5
58
102
{ACAD_REACTORS
330
3B
102
}
330
3B
100
AcDbScale
 70
     0
300
1" = 1'-0"
140
1.0
141
12.0
290
     0
  0
SCALE
  5
59
102
{ACAD_REACTORS
330
3B
102
}
330
3B
100
AcDbScale
 70
     0
300
1-1/2" = 1'-0"
140
1.5
141
12.0
290
     0
  0
SCALE
  5
5A
102
{ACAD_REACTORS
330
3B
102
}
330
3B
100
AcDbScale
 70
     0
300
3" = 1'-0"
140
3.0
141
12.0
290
     0
  0
SCALE
  5
5B
102
{ACAD_REACTORS
330
3B
102
}
330
3B
100
AcDbScale
 70
     0
300
6" = 1'-0"
140
6.0
141
12.0
290
     0
  0
SCALE
  5
5C
102
{ACAD_REACTORS
330
3B
102
}
330
3B
100
AcDbScale
 70
     0
300
1'-0" = 1'-0"
140
12.0
141
12.0
290
     0
  0
VISUALSTYLE
  5
2F
102
{ACAD_REACTORS
330
2A
102
}
330
2A
100
AcDbVisualStyle
  2
2dWireframe
 70
     4
 71
     0
 72
     2
 73
     0
 90
        0
 40
-0.6
 41
-30.0
 62
     5
 63
     7
 74
     1
 91
        4
 64
     7
 65
   257
 75
     1
175
     1
 42
1.0
 92
        0
 66
   257
 43
1.0
 76
     1
 77
     6
 78
     2
 67
     7
 79
     5
170
     0
171
     0
290
     0
174
     0
 93
        1
 44
0.0
173
     0
291
     0
 45
0.0
1001
ACAD
1000
AcDbSavedByObjectVersion
1070
     0
  0
VISUALSTYLE
  5
31
102
{ACAD_REACTORS
330
2A
102
}
330
2A
100
AcDbVisualStyle
  2
3D Hidden
 70
     6
 71
     1
 72
     2
 73
     2
 90
        0
 40
-0.6
 41
-30.0
 62
     5
 63
     7
 74
     2
 91
        2
 64
     7
 65
   257
 75
     2
175
     1
 42
40.0
 92
        0
 66
   257
 43
1.0
 76
     1
 77
     6
 78
     2
 67
     7
 79
     3
170
     0
171
     0
290
     0
174
     0
 93
        1
 44
0.0
173
     0
291
     0
 45
0.0
1001
ACAD
1000
AcDbSavedByObjectVersion
1070
     0
  0
VISUALSTYLE
  5
30
102
{ACAD_REACTORS
330
2A
102
}
330
2A
100
AcDbVisualStyle
  2
3dWireframe
 70
     5
 71
     0
 72
     2
 73
     0
 90
        0
 40
-0.6
 41
-30.0
 62
     5
 63
     7
 74
     1
 91
        4
 64
     7
 65
   257
 75
     1
175
     1
 42
1.0
 92
        0
 66
   257
 43
1.0
 76
     1
 77
     6
 78
     2
 67
     7
 79
     5
170
     0
171
     0
290
     0
174
     0
 93
        1
 44
0.0
173
     0
291
     0
 45
0.0
1001
ACAD
1000
AcDbSavedByObjectVersion
1070
     0
  0
VISUALSTYLE
  5
32
102
{ACAD_REACTORS
330
2A
102
}
330
2A
100
AcDbVisualStyle
  2
Basic
 70
     7
 71
     1
 72
     0
 73
     1
 90
        0
 40
-0.6
 41
-30.0
 62
     5
 63
     7
 74
     0
 91
        4
 64
     7
 65
   257
 75
     1
175
     1
 42
1.0
 92
        8
 66
     7
 43
1.0
 76
     1
 77
     6
 78
     2
 67
     7
 79
     5
170
     0
171
     0
290
     0
174
     0
 93
        1
 44
0.0
173
     0
291
     1
 45
0.0
1001
ACAD
1000
AcDbSavedByObjectVersion
1070
     0
  0
VISUALSTYLE
  5
36
102
{ACAD_REACTORS
330
2A
102
}
330
2A
100
AcDbVisualStyle
  2
Brighten
 70
    12
 71
     2
 72
     2
 73
     0
 90
        0
 40
-0.6
 41
-30.0
 62
     5
 63
     7
 74
     1
 91
        4
 64
     7
 65
   257
 75
     1
175
     1
 42
1.0
 92
        8
 66
     7
 43
1.0
 76
     1
 77
     6
 78
     2
 67
     7
 79
     5
170
     0
171
     0
290
     0
174
     0
 93
        1
 44
50.0
173
     0
291
     1
 45
0.0
1001
ACAD
1000
AcDbSavedByObjectVersion
1070
     0
  0
VISUALSTYLE
  5
3A
102
{ACAD_REACTORS
330
2A
102
}
330
2A
100
AcDbVisualStyle
  2
ColorChange
 70
    16
 71
     2
 72
     2
 73
     3
 90
        0
 40
-0.6
 41
-30.0
 62
     5
 63
     8
 74
     1
 91
        4
 64
     7
 65
   257
 75
     1
175
     1
 42
1.0
 92
        8
 66
     8
 43
1.0
 76
     1
 77
     6
 78
     2
 67
     7
 79
     5
170
     0
171
     0
290
     0
174
     0
 93
        1
 44
0.0
173
     0
291
     1
 45
0.0
1001
ACAD
1000
AcDbSavedByObjectVersion
1070
     0
  0
VISUALSTYLE
  5
34
102
{ACAD_REACTORS
330
2A
102
}
330
2A
100
AcDbVisualStyle
  2
Conceptual
 70
     9
 71
     3
 72
     2
 73
     0
 90
        0
 40
-0.6
 41
-30.0
 62
     5
 63
     7
 74
     2
 91
        2
 64
     7
 65
   257
 75
     1
175
     1
 42
40.0
 92
        8
 66
     7
 43
1.0
 76
     1
 77
     6
 78
     2
 67
     7
 79
     3
170
     0
171
     0
290
     0
174
     0
 93
        1
 44
0.0
173
     0
291
     0
 45
0.0
1001
ACAD
1000
AcDbSavedByObjectVersion
1070
     0
  0
VISUALSTYLE
  5
35
102
{ACAD_REACTORS
330
2A
102
}
330
2A
100
AcDbVisualStyle
  2
Dim
 70
    11
 71
     2
 72
     2
 73
     0
 90
        0
 40
-0.6
 41
-30.0
 62
     5
 63
     7
 74
     1
 91
        4
 64
     7
 65
   257
 75
     1
175
     1
 42
1.0
 92
        8
 66
     7
 43
1.0
 76
     1
 77
     6
 78
     2
 67
     7
 79
     5
170
     0
171
     0
290
     0
174
     0
 93
        1
 44
-50.0
173
     0
291
     1
 45
0.0
1001
ACAD
1000
AcDbSavedByObjectVersion
1070
     0
  0
VISUALSTYLE
  5
39
102
{ACAD_REACTORS
330
2A
102
}
330
2A
100
AcDbVisualStyle
  2
Facepattern
 70
    15
 71
     2
 72
     2
 73
     0
 90
        0
 40
-0.6
 41
-30.0
 62
     5
 63
     7
 74
     1
 91
        4
 64
     7
 65
   257
 75
     1
175
     1
 42
1.0
 92
        8
 66
     7
 43
1.0
 76
     1
 77
     6
 78
     2
 67
     7
 79
     5
170
     0
171
     0
290
     0
174
     0
 93
        1
 44
0.0
173
     0
291
     1
 45
0.0
1001
ACAD
1000
AcDbSavedByObjectVersion
1070
     0
  0
VISUALSTYLE
  5
2B
102
{ACAD_REACTORS
330
2A
102
}
330
2A
100
AcDbVisualStyle
  2
Flat
 70
     0
 71
     2
 72
     1
 73
     1
 90
        2
 40
-0.6
 41
30.0
 62
     5
 63
     7
 74
     0
 91
        4
 64
     7
 65
   257
 75
     1
175
     1
 42
1.0
 92
        8
 66
     7
 43
1.0
 76
     1
 77
     6
 78
     2
 67
     7
 79
     5
170
     0
171
     0
290
     0
174
     0
 93
       13
 44
0.0
173
     0
291
     1
 45
0.0
1001
ACAD
1000
AcDbSavedByObjectVersion
1070
     0
  0
VISUALSTYLE
  5
2C
102
{ACAD_REACTORS
330
2A
102
}
330
2A
100
AcDbVisualStyle
  2
FlatWithEdges
 70
     1
 71
     2
 72
     1
 73
     1
 90
        2
 40
-0.6
 41
30.0
 62
     5
 63
     7
 74
     1
 91
        4
 64
     7
 65
   257
 75
     1
175
     1
 42
1.0
 92
        0
 66
   257
 43
1.0
 76
     1
 77
     6
 78
     2
 67
     7
 79
     5
170
     0
171
     0
290
     0
174
     0
 93
       13
 44
0.0
173
     0
291
     1
 45
0.0
1001
ACAD
1000
AcDbSavedByObjectVersion
1070
     0
  0
VISUALSTYLE
  5
2D
102
{ACAD_REACTORS
330
2A
102
}
330
2A
100
AcDbVisualStyle
  2
Gouraud
 70
     2
 71
     2
 72
     2
 73
     1
 90
        2
 40
-0.6
 41
30.0
 62
     5
 63
     7
 74
     0
 91
        4
 64
     7
 65
   257
 75
     1
175
     1
 42
1.0
 92
        0
 66
     7
 43
1.0
 76
     1
 77
     6
 78
     2
 67
     7
 79
     5
170
     0
171
     0
290
     0
174
     0
 93
       13
 44
0.0
173
     0
291
     1
 45
0.0
1001
ACAD
1000
AcDbSavedByObjectVersion
1070
     0
  0
VISUALSTYLE
  5
2E
102
{ACAD_REACTORS
330
2A
102
}
330
2A
100
AcDbVisualStyle
  2
GouraudWithEdges
 70
     3
 71
     2
 72
     2
 73
     1
 90
        2
 40
-0.6
 41
30.0
 62
     5
 63
     7
 74
     1
 91
        4
 64
     7
 65
   257
 75
     1
175
     1
 42
1.0
 92
        0
 66
   257
 43
1.0
 76
     1
 77
     6
 78
     2
 67
     7
 79
     5
170
     0
171
     0
290
     0
174
     0
 93
       13
 44
0.0
173
     0
291
     1
 45
0.0
1001
ACAD
1000
AcDbSavedByObjectVersion
1070
     0
  0
VISUALSTYLE
  5
38
102
{ACAD_REACTORS
330
2A
102
}
330
2A
100
AcDbVisualStyle
  2
Linepattern
 70
    14
 71
     2
 72
     2
 73
     0
 90
        0
 40
-0.6
 41
-30.0
 62
     5
 63
     7
 74
     1
 91
        4
 64
     7
 65
   257
 75
     7
175
     7
 42
1.0
 92
        8
 66
     7
 43
1.0
 76
     1
 77
     6
 78
     2
 67
     7
 79
     5
170
     0
171
     0
290
     0
174
     0
 93
        1
 44
0.0
173
     0
291
     1
 45
0.0
1001
ACAD
1000
AcDbSavedByObjectVersion
1070
     0
  0
VISUALSTYLE
  5
33
102
{ACAD_REACTORS
330
2A
102
}
330
2A
100
AcDbVisualStyle
  2
Realistic
 70
     8
 71
     2
 72
     2
 73
     0
 90
        0
 40
-0.6
 41
-30.0
 62
     5
 63
     7
 74
     1
 91
        0
 64
     7
 65
   257
 75
     1
175
     1
 42
1.0
 92
        8
 66
     8
 43
1.0
 76
     1
 77
     6
 78
     2
 67
     7
 79
     5
170
     0
171
     0
290
     0
174
     0
 93
       13
 44
0.0
173
     0
291
     0
 45
0.0
1001
ACAD
1000
AcDbSavedByObjectVersion
1070
     0
  0
VISUALSTYLE
  5
37
102
{ACAD_REACTORS
330
2A
102
}
330
2A
100
AcDbVisualStyle
  2
Thicken
 70
    13
 71
     2
 72
     2
 73
     0
 90
        0
 40
-0.6
 41
-30.0
 62
     5
 63
     7
 74
     1
 91
        4
 64
     7
 65
   257
 75
     1
175
     1
 42
1.0
 92
       12
 66
     7
 43
1.0
 76
     1
 77
     6
 78
     2
 67
     7
 79
     5
170
     0
171
     0
290
     0
174
     0
 93
        1
 44
0.0
173
     0
291
     1
 45
0.0
1001
ACAD
1000
AcDbSavedByObjectVersion
1070
     0
  0
DICTIONARYVAR
  5
449
102
{ACAD_REACTORS
330
448
102
}
330
448
100
DictionaryVariables
280
     0
  1
1:1
  0
DICTIONARYVAR
  5
44D
102
{ACAD_REACTORS
330
448
102
}
330
448
100
DictionaryVariables
280
     0
  1
80.000000
  0
DICTIONARYVAR
  5
44C
102
{ACAD_REACTORS
330
448
102
}
330
448
100
DictionaryVariables
280
     0
  1
5.000000
  0
ENDSEC
  0
EOF
