  0
SECTION
  2
HEADER
  9
$ACADVER
  1
AC1015
  9
$ACADMAINTVER
 70
     6
  9
$DWGCODEPAGE
  3
ANSI_932
  9
$INSBASE
 10
0.0
 20
0.0
 30
0.0
  9
$EXTMIN
 10
3.950897
 20
-1.333847
 30
0.0
  9
$EXTMAX
 10
290.610748
 20
209.161438
 30
0.0
  9
$LIMMIN
 10
0.0
 20
0.0
  9
$LIMMAX
 10
12.0
 20
9.0
  9
$ORTHOMODE
 70
     0
  9
$REGENMODE
 70
     1
  9
$FILLMODE
 70
     1
  9
$QTEXTMODE
 70
     0
  9
$MIRRTEXT
 70
     1
  9
$LTSCALE
 40
3.556433
  9
$ATTMODE
 70
     1
  9
$TEXTSIZE
 40
3.2
  9
$TRACEWID
 40
1.0
  9
$TEXTSTYLE
  7
Standard
  9
$CLAYER
  8
0
  9
$CELTYPE
  6
ByLayer
  9
$CECOLOR
 62
   256
  9
$CELTSCALE
 40
1.0
  9
$DISPSILH
 70
     0
  9
$DIMSCALE
 40
1.0
  9
$DIMASZ
 40
2.5
  9
$DIMEXO
 40
0.625
  9
$DIMDLI
 40
3.75
  9
$DIMRND
 40
0.0
  9
$DIMDLE
 40
0.0
  9
$DIMEXE
 40
1.25
  9
$DIMTP
 40
0.0
  9
$DIMTM
 40
0.0
  9
$DIMTXT
 40
2.5
  9
$DIMCEN
 40
0.09
  9
$DIMTSZ
 40
0.0
  9
$DIMTOL
 70
     0
  9
$DIMLIM
 70
     0
  9
$DIMTIH
 70
     0
  9
$DIMTOH
 70
     0
  9
$DIMSE1
 70
     0
  9
$DIMSE2
 70
     0
  9
$DIMTAD
 70
     0
  9
$DIMZIN
 70
     8
  9
$DIMBLK
  1

  9
$DIMASO
 70
     1
  9
$DIMSHO
 70
     0
  9
$DIMPOST
  1

  9
$DIMAPOST
  1

  9
$DIMALT
 70
     0
  9
$DIMALTD
 70
     3
  9
$DIMALTF
 40
0.03937
  9
$DIMLFAC
 40
1.0
  9
$DIMTOFL
 70
     1
  9
$DIMTVP
 40
0.0
  9
$DIMTIX
 70
     0
  9
$DIMSOXD
 70
     0
  9
$DIMSAH
 70
     0
  9
$DIMBLK1
  1

  9
$DIMBLK2
  1

  9
$DIMSTYLE
  2
ISO-25
  9
$DIMCLRD
 70
     0
  9
$DIMCLRE
 70
     0
  9
$DIMCLRT
 70
     0
  9
$DIMTFAC
 40
1.0
  9
$DIMGAP
 40
0.625
  9
$DIMJUST
 70
     0
  9
$DIMSD1
 70
     0
  9
$DIMSD2
 70
     0
  9
$DIMTOLJ
 70
     0
  9
$DIMTZIN
 70
     8
  9
$DIMALTZ
 70
     0
  9
$DIMALTTZ
 70
     0
  9
$DIMUPT
 70
     0
  9
$DIMDEC
 70
     2
  9
$DIMTDEC
 70
     2
  9
$DIMALTU
 70
     2
  9
$DIMALTTD
 70
     3
  9
$DIMTXSTY
  7
Standard
  9
$DIMAUNIT
 70
     0
  9
$DIMADEC
 70
     0
  9
$DIMALTRND
 40
0.0
  9
$DIMAZIN
 70
     0
  9
$DIMDSEP
 70
    44
  9
$DIMATFIT
 70
     3
  9
$DIMFRAC
 70
     0
  9
$DIMLDRBLK
  1

  9
$DIMLUNIT
 70
     2
  9
$DIMLWD
 70
    -2
  9
$DIMLWE
 70
    -2
  9
$DIMTMOVE
 70
     0
  9
$LUNITS
 70
     2
  9
$LUPREC
 70
     4
  9
$SKETCHINC
 40
1.0
  9
$FILLETRAD
 40
0.0
  9
$AUNITS
 70
     0
  9
$AUPREC
 70
     0
  9
$MENU
  1
.
  9
$ELEVATION
 40
0.0
  9
$PELEVATION
 40
0.0
  9
$THICKNESS
 40
0.0
  9
$LIMCHECK
 70
     0
  9
$CHAMFERA
 40
10.0
  9
$CHAMFERB
 40
10.0
  9
$CHAMFERC
 40
20.0
  9
$CHAMFERD
 40
0.0
  9
$SKPOLY
 70
     0
  9
$TDCREATE
 40
2455405.447579387
  9
$TDUCREATE
 40
2455405.072579387
  9
$TDUPDATE
 40
2455405.447579398
  9
$TDUUPDATE
 40
2455405.072579398
  9
$TDINDWG
 40
0.0000000116
  9
$TDUSRTIMER
 40
0.0000000116
  9
$USRTIMER
 70
     1
  9
$ANGBASE
 50
0.0
  9
$ANGDIR
 70
     0
  9
$PDMODE
 70
     0
  9
$PDSIZE
 40
0.0
  9
$PLINEWID
 40
0.0
  9
$SPLFRAME
 70
     0
  9
$SPLINETYPE
 70
     6
  9
$SPLINESEGS
 70
     8
  9
$HANDSEED
  5
46E
  9
$SURFTAB1
 70
     6
  9
$SURFTAB2
 70
     6
  9
$SURFTYPE
 70
     6
  9
$SURFU
 70
     6
  9
$SURFV
 70
     6
  9
$UCSBASE
  2

  9
$UCSNAME
  2

  9
$UCSORG
 10
0.0
 20
0.0
 30
0.0
  9
$UCSXDIR
 10
1.0
 20
0.0
 30
0.0
  9
$UCSYDIR
 10
0.0
 20
1.0
 30
0.0
  9
$UCSORTHOREF
  2

  9
$UCSORTHOVIEW
 70
     0
  9
$UCSORGTOP
 10
0.0
 20
0.0
 30
0.0
  9
$UCSORGBOTTOM
 10
0.0
 20
0.0
 30
0.0
  9
$UCSORGLEFT
 10
0.0
 20
0.0
 30
0.0
  9
$UCSORGRIGHT
 10
0.0
 20
0.0
 30
0.0
  9
$UCSORGFRONT
 10
0.0
 20
0.0
 30
0.0
  9
$UCSORGBACK
 10
0.0
 20
0.0
 30
0.0
  9
$PUCSBASE
  2

  9
$PUCSNAME
  2

  9
$PUCSORG
 10
0.0
 20
0.0
 30
0.0
  9
$PUCSXDIR
 10
1.0
 20
0.0
 30
0.0
  9
$PUCSYDIR
 10
0.0
 20
1.0
 30
0.0
  9
$PUCSORTHOREF
  2

  9
$PUCSORTHOVIEW
 70
     0
  9
$PUCSORGTOP
 10
0.0
 20
0.0
 30
0.0
  9
$PUCSORGBOTTOM
 10
0.0
 20
0.0
 30
0.0
  9
$PUCSORGLEFT
 10
0.0
 20
0.0
 30
0.0
  9
$PUCSORGRIGHT
 10
0.0
 20
0.0
 30
0.0
  9
$PUCSORGFRONT
 10
0.0
 20
0.0
 30
0.0
  9
$PUCSORGBACK
 10
0.0
 20
0.0
 30
0.0
  9
$USERI1
 70
     0
  9
$USERI2
 70
     0
  9
$USERI3
 70
     0
  9
$USERI4
 70
     0
  9
$USERI5
 70
     0
  9
$USERR1
 40
0.0
  9
$USERR2
 40
0.0
  9
$USERR3
 40
0.0
  9
$USERR4
 40
0.0
  9
$USERR5
 40
0.0
  9
$WORLDVIEW
 70
     1
  9
$SHADEDGE
 70
     3
  9
$SHADEDIF
 70
    70
  9
$TILEMODE
 70
     1
  9
$MAXACTVP
 70
    64
  9
$PINSBASE
 10
0.0
 20
0.0
 30
0.0
  9
$PLIMCHECK
 70
     0
  9
$PEXTMIN
 10
1.000000E+20
 20
1.000000E+20
 30
0.0
  9
$PEXTMAX
 10
-1.000000E+20
 20
-1.000000E+20
 30
0.0
  9
$PLIMMIN
 10
0.0
 20
0.0
  9
$PLIMMAX
 10
12.0
 20
9.0
  9
$UNITMODE
 70
     0
  9
$VISRETAIN
 70
     1
  9
$PLINEGEN
 70
     0
  9
$PSLTSCALE
 70
     1
  9
$TREEDEPTH
 70
  3020
  9
$CMLSTYLE
  2
Standard
  9
$CMLJUST
 70
     0
  9
$CMLSCALE
 40
20.0
  9
$PROXYGRAPHICS
 70
     1
  9
$MEASUREMENT
 70
     1
  9
$CELWEIGHT
370
    -1
  9
$ENDCAPS
280
     0
  9
$JOINSTYLE
280
     0
  9
$LWDISPLAY
290
     0
  9
$INSUNITS
 70
     4
  9
$HYPERLINKBASE
  1

  9
$STYLESHEET
  1

  9
$XEDIT
290
     1
  9
$CEPSNTYPE
380
     0
  9
$PSTYLEMODE
290
     1
  9
$FINGERPRINTGUID
  2
{8F267F5B-56FF-4175-B8B0-21416CE66977}
  9
$VERSIONGUID
  2
{FAEB1C32-E019-11D5-929B-00C0DF256EC4}
  9
$EXTNAMES
290
     1
  9
$PSVPSCALE
 40
0.0
  9
$OLESTARTUP
290
     0
  0
ENDSEC
  0
SECTION
  2
CLASSES
  0
CLASS
  1
ACDBDICTIONARYWDFLT
  2
AcDbDictionaryWithDefault
  3
ObjectDBX Classes
 90
        0
280
     0
281
     0
  0
CLASS
  1
VISUALSTYLE
  2
AcDbVisualStyle
  3
ObjectDBX Classes
 90
     4095
280
     0
281
     0
  0
CLASS
  1
SCALE
  2
AcDbScale
  3
ObjectDBX Classes
 90
     1153
280
     0
281
     0
  0
CLASS
  1
DICTIONARYVAR
  2
AcDbDictionaryVar
  3
ObjectDBX Classes
 90
        0
280
     0
281
     0
  0
CLASS
  1
ACDBPLACEHOLDER
  2
AcDbPlaceHolder
  3
ObjectDBX Classes
 90
        0
280
     0
281
     0
  0
CLASS
  1
LAYOUT
  2
AcDbLayout
  3
ObjectDBX Classes
 90
        0
280
     0
281
     0
  0
ENDSEC
  0
SECTION
  2
TABLES
  0
TABLE
  2
VPORT
  5
8
330
0
100
AcDbSymbolTable
 70
     1
  0
VPORT
  5
29
330
8
100
AcDbSymbolTableRecord
100
AcDbViewportTableRecord
  2
*Active
 70
     0
 10
0.0
 20
0.0
 11
1.0
 21
1.0
 12
147.280823
 22
103.913795
 13
0.0
 23
0.0
 14
1.0
 24
1.0
 15
0.0
 25
0.0
 16
0.0
 26
0.0
 36
1.0
 17
0.0
 27
0.0
 37
0.0
 40
212.600238
 41
1.691288
 42
50.0
 43
0.0
 44
0.0
 50
0.0
 51
0.0
 71
     0
 72
   100
 73
     1
 74
     3
 75
     0
 76
     0
 77
     0
 78
     0
281
     0
 65
     1
110
0.0
120
0.0
130
0.0
111
1.0
121
0.0
131
0.0
112
0.0
122
1.0
132
0.0
 79
     0
146
0.0
  0
ENDTAB
  0
TABLE
  2
LTYPE
  5
5
330
0
100
AcDbSymbolTable
 70
     5
  0
LTYPE
  5
14
330
5
100
AcDbSymbolTableRecord
100
AcDbLinetypeTableRecord
  2
ByBlock
 70
     0
  3

 72
    65
 73
     0
 40
0.0
  0
LTYPE
  5
15
330
5
100
AcDbSymbolTableRecord
100
AcDbLinetypeTableRecord
  2
ByLayer
 70
     0
  3

 72
    65
 73
     0
 40
0.0
  0
LTYPE
  5
16
330
5
100
AcDbSymbolTableRecord
100
AcDbLinetypeTableRecord
  2
Continuous
 70
     0
  3
Solid line
 72
    65
 73
     0
 40
0.0
  0
LTYPE
  5
5D
330
5
100
AcDbSymbolTableRecord
100
AcDbLinetypeTableRecord
  2
DASHED
 70
     0
  3
DASHED
 72
    83
 73
     2
 40
0.75
 49
0.5
 74
     0
 49
-0.25
 74
     0
  0
LTYPE
  5
5E
330
5
100
AcDbSymbolTableRecord
100
AcDbLinetypeTableRecord
  2
HIDDEN
 70
     0
  3
HIDDEN
 72
    83
 73
     2
 40
0.375
 49
0.25
 74
     0
 49
-0.125
 74
     0
  0
LTYPE
  5
5F
330
5
100
AcDbSymbolTableRecord
100
AcDbLinetypeTableRecord
  2
CENTER
 70
     0
  3
CENTER
 72
    83
 73
     4
 40
2.0
 49
1.25
 74
     0
 49
-0.25
 74
     0
 49
0.25
 74
     0
 49
-0.25
 74
     0
  0
LTYPE
  5
60
330
5
100
AcDbSymbolTableRecord
100
AcDbLinetypeTableRecord
  2
PHANTOM
 70
     0
  3
PHANTOM
 72
    83
 73
     6
 40
2.5
 49
1.25
 74
     0
 49
-0.25
 74
     0
 49
0.25
 74
     0
 49
-0.25
 74
     0
 49
0.25
 74
     0
 49
-0.25
 74
     0
  0
ENDTAB
  0
TABLE
  2
LAYER
  5
2
330
0
100
AcDbSymbolTable
 70
     2
  0
LAYER
  5
10
330
2
100
AcDbSymbolTableRecord
100
AcDbLayerTableRecord
  2
0
 70
     0
 62
     7
  6
Continuous
370
    -3
390
F
  0
LAYER
  5
61
330
2
100
AcDbSymbolTableRecord
100
AcDbLayerTableRecord
  2
001
 70
     0
 62
     7
  6
Continuous
370
    -3
390
F
  0
ENDTAB
  0
TABLE
  2
STYLE
  5
3
330
0
100
AcDbSymbolTable
 70
     2
  0
STYLE
  5
11
330
3
100
AcDbSymbolTableRecord
100
AcDbTextStyleTableRecord
  2
Standard
 70
     0
 40
0.0
 41
1.0
 50
0.0
 71
     0
 42
0.2
  3
TXT
  4
BIGFONT
  0
STYLE
  5
62
330
3
100
AcDbSymbolTableRecord
100
AcDbTextStyleTableRecord
  2
TATEGAKI
 70
     4
 40
1.0
 41
1.0
 50
0.0
 71
     0
 42
0.2
  3
TXT
  4
BIGFONT
  0
ENDTAB
  0
TABLE
  2
VIEW
  5
6
330
0
100
AcDbSymbolTable
 70
     0
  0
ENDTAB
  0
TABLE
  2
UCS
  5
7
330
0
100
AcDbSymbolTable
 70
     0
  0
ENDTAB
  0
TABLE
  2
APPID
  5
9
330
0
100
AcDbSymbolTable
 70
     1
  0
APPID
  5
12
330
9
100
AcDbSymbolTableRecord
100
AcDbRegAppTableRecord
  2
ACAD
 70
     0
  0
ENDTAB
  0
TABLE
  2
DIMSTYLE
  5
A
330
0
100
AcDbSymbolTable
 70
     2
100
AcDbDimStyleTable
  0
DIMSTYLE
105
27
330
A
100
AcDbSymbolTableRecord
100
AcDbDimStyleTableRecord
  2
ISO-25
 70
     0
 41
2.5
 42
0.625
 43
3.75
 44
1.25
 73
     0
 74
     0
 77
     1
 78
     8
140
2.5
141
2.5
143
0.03937
147
0.625
171
     3
172
     1
271
     2
272
     2
274
     3
278
    44
283
     0
284
     8
340
11
  0
DIMSTYLE
105
63
102
{ACAD_REACTORS
330
200
330
201
330
202
330
203
330
204
330
205
330
206
330
207
330
208
330
209
330
20B
330
20C
330
214
330
215
330
216
330
217
330
218
330
219
102
}
330
A
100
AcDbSymbolTableRecord
100
AcDbDimStyleTableRecord
  2
Standard
 70
     0
 41
1.5
 42
0.0
 44
0.5
 73
     0
 74
     0
 77
     1
 78
     8
 79
     2
140
4.0
146
0.8
147
1.0
172
     1
179
     1
271
     1
340
11
  0
ENDTAB
  0
TABLE
  2
BLOCK_RECORD
  5
1
330
0
100
AcDbSymbolTable
 70
    25
  0
BLOCK_RECORD
  5
1F
330
1
100
AcDbSymbolTableRecord
100
AcDbBlockTableRecord
  2
*Model_Space
340
22
  0
BLOCK_RECORD
  5
1B
330
1
100
AcDbSymbolTableRecord
100
AcDbBlockTableRecord
  2
*Paper_Space
340
1E
  0
BLOCK_RECORD
  5
23
330
1
100
AcDbSymbolTableRecord
100
AcDbBlockTableRecord
  2
*Paper_Space0
340
26
  0
BLOCK_RECORD
  5
64
330
1
100
AcDbSymbolTableRecord
100
AcDbBlockTableRecord
  2
JZB-1
340
0
102
{BLKREFS
331
1FB
102
}
  0
BLOCK_RECORD
  5
6F
330
1
100
AcDbSymbolTableRecord
100
AcDbBlockTableRecord
  2
JZB-2
340
0
102
{BLKREFS
331
1FC
102
}
  0
BLOCK_RECORD
  5
7A
330
1
100
AcDbSymbolTableRecord
100
AcDbBlockTableRecord
  2
JZB-3
340
0
102
{BLKREFS
331
1FD
102
}
  0
BLOCK_RECORD
  5
80
330
1
100
AcDbSymbolTableRecord
100
AcDbBlockTableRecord
  2
JZB-4
340
0
102
{BLKREFS
331
1FE
102
}
  0
BLOCK_RECORD
  5
86
330
1
100
AcDbSymbolTableRecord
100
AcDbBlockTableRecord
  2
JZB-5
340
0
102
{BLKREFS
331
1FF
102
}
  0
BLOCK_RECORD
  5
8D
330
1
100
AcDbSymbolTableRecord
100
AcDbBlockTableRecord
  2
*D6
340
0
  0
BLOCK_RECORD
  5
A3
330
1
100
AcDbSymbolTableRecord
100
AcDbBlockTableRecord
  2
*D7
340
0
  0
BLOCK_RECORD
  5
B9
330
1
100
AcDbSymbolTableRecord
100
AcDbBlockTableRecord
  2
*D8
340
0
  0
BLOCK_RECORD
  5
CD
330
1
100
AcDbSymbolTableRecord
100
AcDbBlockTableRecord
  2
*D9
340
0
  0
BLOCK_RECORD
  5
E1
330
1
100
AcDbSymbolTableRecord
100
AcDbBlockTableRecord
  2
*D10
340
0
  0
BLOCK_RECORD
  5
F5
330
1
100
AcDbSymbolTableRecord
100
AcDbBlockTableRecord
  2
*D11
340
0
  0
BLOCK_RECORD
  5
109
330
1
100
AcDbSymbolTableRecord
100
AcDbBlockTableRecord
  2
*D12
340
0
  0
BLOCK_RECORD
  5
11D
330
1
100
AcDbSymbolTableRecord
100
AcDbBlockTableRecord
  2
*D13
340
0
  0
BLOCK_RECORD
  5
133
330
1
100
AcDbSymbolTableRecord
100
AcDbBlockTableRecord
  2
*D14
340
0
  0
BLOCK_RECORD
  5
149
330
1
100
AcDbSymbolTableRecord
100
AcDbBlockTableRecord
  2
*D15
340
0
  0
BLOCK_RECORD
  5
15E
330
1
100
AcDbSymbolTableRecord
100
AcDbBlockTableRecord
  2
DIM-6
340
0
102
{BLKREFS
331
20A
102
}
  0
BLOCK_RECORD
  5
16C
330
1
100
AcDbSymbolTableRecord
100
AcDbBlockTableRecord
  2
*D17
340
0
  0
BLOCK_RECORD
  5
180
330
1
100
AcDbSymbolTableRecord
100
AcDbBlockTableRecord
  2
*D18
340
0
  0
BLOCK_RECORD
  5
194
330
1
100
AcDbSymbolTableRecord
100
AcDbBlockTableRecord
  2
*D19
340
0
  0
BLOCK_RECORD
  5
1A1
330
1
100
AcDbSymbolTableRecord
100
AcDbBlockTableRecord
  2
*D20
340
0
  0
BLOCK_RECORD
  5
1AE
330
1
100
AcDbSymbolTableRecord
100
AcDbBlockTableRecord
  2
*D21
340
0
  0
BLOCK_RECORD
  5
1BB
330
1
100
AcDbSymbolTableRecord
100
AcDbBlockTableRecord
  2
*D22
340
0
  0
BLOCK_RECORD
  5
1CF
330
1
100
AcDbSymbolTableRecord
100
AcDbBlockTableRecord
  2
*D23
340
0
  0
BLOCK_RECORD
  5
1E5
330
1
100
AcDbSymbolTableRecord
100
AcDbBlockTableRecord
  2
*D24
340
0
  0
ENDTAB
  0
ENDSEC
  0
SECTION
  2
BLOCKS
  0
BLOCK
  5
20
330
1F
100
AcDbEntity
  8
0
100
AcDbBlockBegin
  2
*Model_Space
 70
     0
 10
0.0
 20
0.0
 30
0.0
  3
*Model_Space
  1

  0
ENDBLK
  5
21
330
1F
100
AcDbEntity
  8
0
100
AcDbBlockEnd
  0
BLOCK
  5
1C
330
1B
100
AcDbEntity
 67
     1
  8
0
100
AcDbBlockBegin
  2
*Paper_Space
 70
     0
 10
0.0
 20
0.0
 30
0.0
  3
*Paper_Space
  1

  0
ENDBLK
  5
1D
330
1B
100
AcDbEntity
 67
     1
  8
0
100
AcDbBlockEnd
  0
BLOCK
  5
24
330
23
100
AcDbEntity
  8
0
100
AcDbBlockBegin
  2
*Paper_Space0
 70
     0
 10
0.0
 20
0.0
 30
0.0
  3
*Paper_Space0
  1

  0
ENDBLK
  5
25
330
23
100
AcDbEntity
  8
0
100
AcDbBlockEnd
  0
BLOCK
  5
65
330
64
100
AcDbEntity
  8
0
100
AcDbBlockBegin
  2
JZB-1
 70
     0
 10
0.0
 20
0.0
 30
0.0
  3
JZB-1
  1

  0
CIRCLE
  5
67
330
64
100
AcDbEntity
  8
001
 62
     2
370
    30
100
AcDbCircle
 10
107.395877
 20
140.532332
 30
0.0
 40
3.3235
  0
CIRCLE
  5
68
330
64
100
AcDbEntity
  8
001
 62
     2
370
    30
100
AcDbCircle
 10
107.395877
 20
140.532332
 30
0.0
 40
4.0
  0
LINE
  5
69
330
64
100
AcDbEntity
  8
001
 62
     2
370
    30
100
AcDbLine
 10
105.086476
 20
140.532332
 30
0.0
 11
106.241177
 21
142.532332
 31
0.0
  0
LINE
  5
6A
330
64
100
AcDbEntity
  8
001
 62
     2
370
    30
100
AcDbLine
 10
108.550578
 20
138.532332
 30
0.0
 11
106.241177
 21
138.532332
 31
0.0
  0
LINE
  5
6B
330
64
100
AcDbEntity
  8
001
 62
     2
370
    30
100
AcDbLine
 10
108.550578
 20
142.532332
 30
0.0
 11
109.705278
 21
140.532332
 31
0.0
  0
LINE
  5
6C
330
64
100
AcDbEntity
  8
001
 62
     2
370
    30
100
AcDbLine
 10
106.241177
 20
142.532332
 30
0.0
 11
108.550578
 21
142.532332
 31
0.0
  0
LINE
  5
6D
330
64
100
AcDbEntity
  8
001
 62
     2
370
    30
100
AcDbLine
 10
106.241177
 20
138.532332
 30
0.0
 11
105.086476
 21
140.532332
 31
0.0
  0
LINE
  5
6E
330
64
100
AcDbEntity
  8
001
 62
     2
370
    30
100
AcDbLine
 10
109.705278
 20
140.532332
 30
0.0
 11
108.550578
 21
138.532332
 31
0.0
  0
ENDBLK
  5
66
330
64
100
AcDbEntity
  8
0
100
AcDbBlockEnd
  0
BLOCK
  5
70
330
6F
100
AcDbEntity
  8
0
100
AcDbBlockBegin
  2
JZB-2
 70
     0
 10
0.0
 20
0.0
 30
0.0
  3
JZB-2
  1

  0
LINE
  5
72
330
6F
100
AcDbEntity
  8
001
 62
     2
370
    30
100
AcDbLine
 10
92.241177
 20
142.532332
 30
0.0
 11
94.550578
 21
142.532332
 31
0.0
  0
CIRCLE
  5
73
330
6F
100
AcDbEntity
  8
001
 62
     2
370
    30
100
AcDbCircle
 10
93.395877
 20
140.532332
 30
0.0
 40
3.3235
  0
LINE
  5
74
330
6F
100
AcDbEntity
  8
001
 62
     2
370
    30
100
AcDbLine
 10
91.086476
 20
140.532332
 30
0.0
 11
92.241177
 21
142.532332
 31
0.0
  0
LINE
  5
75
330
6F
100
AcDbEntity
  8
001
 62
     2
370
    30
100
AcDbLine
 10
95.705278
 20
140.532332
 30
0.0
 11
94.550578
 21
138.532332
 31
0.0
  0
LINE
  5
76
330
6F
100
AcDbEntity
  8
001
 62
     2
370
    30
100
AcDbLine
 10
92.241177
 20
138.532332
 30
0.0
 11
91.086476
 21
140.532332
 31
0.0
  0
LINE
  5
77
330
6F
100
AcDbEntity
  8
001
 62
     2
370
    30
100
AcDbLine
 10
94.550578
 20
138.532332
 30
0.0
 11
92.241177
 21
138.532332
 31
0.0
  0
LINE
  5
78
330
6F
100
AcDbEntity
  8
001
 62
     2
370
    30
100
AcDbLine
 10
94.550578
 20
142.532332
 30
0.0
 11
95.705278
 21
140.532332
 31
0.0
  0
ARC
  5
79
330
6F
100
AcDbEntity
  8
001
 62
     2
370
    30
100
AcDbCircle
 10
93.395877
 20
140.532332
 30
0.0
 40
4.0
100
AcDbArc
 50
322.03568
 51
315.028836
  0
ENDBLK
  5
71
330
6F
100
AcDbEntity
  8
0
100
AcDbBlockEnd
  0
BLOCK
  5
7B
330
7A
100
AcDbEntity
  8
0
100
AcDbBlockBegin
  2
JZB-3
 70
     0
 10
0.0
 20
0.0
 30
0.0
  3
JZB-3
  1

  0
LINE
  5
7D
330
7A
100
AcDbEntity
  8
001
 62
     2
370
    30
100
AcDbLine
 10
261.109942
 20
137.75061
 30
0.0
 11
261.141664
 21
137.782332
 31
0.0
  0
LINE
  5
7E
330
7A
100
AcDbEntity
  8
001
 62
     2
370
    30
100
AcDbLine
 10
261.141664
 20
143.282332
 30
0.0
 11
261.109942
 21
143.314054
 31
0.0
  0
LINE
  5
7F
330
7A
100
AcDbEntity
  8
001
 62
     2
370
    30
100
AcDbLine
 10
261.141664
 20
137.782332
 30
0.0
 11
261.141664
 21
143.282332
 31
0.0
  0
ENDBLK
  5
7C
330
7A
100
AcDbEntity
  8
0
100
AcDbBlockEnd
  0
BLOCK
  5
81
330
80
100
AcDbEntity
  8
0
100
AcDbBlockBegin
  2
JZB-4
 70
     0
 10
0.0
 20
0.0
 30
0.0
  3
JZB-4
  1

  0
LINE
  5
83
330
80
100
AcDbEntity
  8
001
 62
     2
370
    30
100
AcDbLine
 10
110.719377
 20
53.917138
 30
0.0
 11
104.072377
 21
53.917138
 31
0.0
  0
LINE
  5
84
330
80
100
AcDbEntity
  8
001
 62
     2
370
    30
100
AcDbLine
 10
110.940923
 20
53.695593
 30
0.0
 11
110.719377
 21
53.917138
 31
0.0
  0
LINE
  5
85
330
80
100
AcDbEntity
  8
001
 62
     2
370
    30
100
AcDbLine
 10
104.072377
 20
53.917138
 30
0.0
 11
103.851258
 21
53.696019
 31
0.0
  0
ENDBLK
  5
82
330
80
100
AcDbEntity
  8
0
100
AcDbBlockEnd
  0
BLOCK
  5
87
330
86
100
AcDbEntity
  8
0
100
AcDbBlockBegin
  2
JZB-5
 70
     0
 10
0.0
 20
0.0
 30
0.0
  3
JZB-5
  1

  0
LINE
  5
89
330
86
100
AcDbEntity
  8
001
 62
     2
370
    30
100
AcDbLine
 10
96.692899
 20
51.740638
 30
0.0
 11
89.85609
 21
51.740638
 31
0.0
  0
LINE
  5
8A
330
86
100
AcDbEntity
  8
001
 62
     2
370
    30
100
AcDbLine
 10
96.719377
 20
52.417138
 30
0.0
 11
90.072377
 21
52.417138
 31
0.0
  0
LINE
  5
8B
330
86
100
AcDbEntity
  8
001
 62
     2
370
    30
100
AcDbLine
 10
97.272844
 20
51.863672
 30
0.0
 11
96.719377
 21
52.417138
 31
0.0
  0
LINE
  5
8C
330
86
100
AcDbEntity
  8
001
 62
     2
370
    30
100
AcDbLine
 10
90.072377
 20
52.417138
 30
0.0
 11
89.518774
 21
51.863535
 31
0.0
  0
ENDBLK
  5
88
330
86
100
AcDbEntity
  8
0
100
AcDbBlockEnd
  0
BLOCK
  5
8E
330
8D
100
AcDbEntity
  8
0
100
AcDbBlockBegin
  2
*D6
 70
     1
 10
0.0
 20
0.0
 30
0.0
  3
*D6
  1

  0
LINE
  5
90
330
8D
100
AcDbEntity
  8
001
370
     9
100
AcDbLine
 10
113.395877
 20
121.532332
 30
0.0
 11
113.395877
 21
97.682792
 31
0.0
  0
LINE
  5
91
330
8D
100
AcDbEntity
  8
001
370
     9
100
AcDbLine
 10
118.395877
 20
121.532332
 30
0.0
 11
118.395877
 21
97.682792
 31
0.0
  0
LINE
  5
92
330
8D
100
AcDbEntity
  8
001
370
     9
100
AcDbLine
 10
113.395877
 20
101.120292
 30
0.0
 11
118.395877
 21
101.120292
 31
0.0
  0
POLYLINE
  5
93
330
8D
100
AcDbEntity
  8
001
370
     9
100
AcDb2dPolyline
 66
     1
 10
0.0
 20
0.0
 30
0.0
  0
VERTEX
  5
95
330
93
100
AcDbEntity
  8
001
370
     9
100
AcDbVertex
100
AcDb2dVertex
 10
111.520877
 20
101.622696
 30
0.0
  0
VERTEX
  5
96
330
93
100
AcDbEntity
  8
001
370
     9
100
AcDbVertex
100
AcDb2dVertex
 10
113.395877
 20
101.120292
 30
0.0
  0
VERTEX
  5
97
330
93
100
AcDbEntity
  8
001
370
     9
100
AcDbVertex
100
AcDb2dVertex
 10
111.520877
 20
100.617887
 30
0.0
  0
SEQEND
  5
94
330
93
100
AcDbEntity
  8
001
370
     9
  0
POLYLINE
  5
98
330
8D
100
AcDbEntity
  8
001
370
     9
100
AcDb2dPolyline
 66
     1
 10
0.0
 20
0.0
 30
0.0
  0
VERTEX
  5
9A
330
98
100
AcDbEntity
  8
001
370
     9
100
AcDbVertex
100
AcDb2dVertex
 10
120.270877
 20
100.617887
 30
0.0
  0
VERTEX
  5
9B
330
98
100
AcDbEntity
  8
001
370
     9
100
AcDbVertex
100
AcDb2dVertex
 10
118.395877
 20
101.120292
 30
0.0
  0
VERTEX
  5
9C
330
98
100
AcDbEntity
  8
001
370
     9
100
AcDbVertex
100
AcDb2dVertex
 10
120.270877
 20
101.622696
 30
0.0
  0
SEQEND
  5
99
330
98
100
AcDbEntity
  8
001
370
     9
  0
TEXT
  5
9D
330
8D
100
AcDbEntity
  8
001
370
    30
100
AcDbText
 10
113.395877
 20
102.370292
 30
0.0
 40
5.0
  1
５
 41
0.833333
100
AcDbText
  0
POINT
  5
9E
330
8D
100
AcDbEntity
  8
001
370
     9
100
AcDbPoint
 10
113.395877
 20
121.532332
 30
0.0
  0
POINT
  5
9F
330
8D
100
AcDbEntity
  8
001
370
     9
100
AcDbPoint
 10
118.395877
 20
121.532332
 30
0.0
  0
POINT
  5
A0
330
8D
100
AcDbEntity
  8
001
370
     9
100
AcDbPoint
 10
118.395877
 20
101.120292
 30
0.0
  0
LINE
  5
A1
330
8D
100
AcDbEntity
  8
001
370
     9
100
AcDbLine
 10
113.395877
 20
101.120292
 30
0.0
 11
110.270877
 21
101.120292
 31
0.0
  0
LINE
  5
A2
330
8D
100
AcDbEntity
  8
001
370
     9
100
AcDbLine
 10
118.395877
 20
101.120292
 30
0.0
 11
121.520877
 21
101.120292
 31
0.0
  0
ENDBLK
  5
8F
330
8D
100
AcDbEntity
  8
0
100
AcDbBlockEnd
  0
BLOCK
  5
A4
330
A3
100
AcDbEntity
  8
0
100
AcDbBlockBegin
  2
*D7
 70
     1
 10
0.0
 20
0.0
 30
0.0
  3
*D7
  1

  0
LINE
  5
A6
330
A3
100
AcDbEntity
  8
001
370
     9
100
AcDbLine
 10
100.395877
 20
126.032332
 30
0.0
 11
100.395877
 21
97.682792
 31
0.0
  0
LINE
  5
A7
330
A3
100
AcDbEntity
  8
001
370
     9
100
AcDbLine
 10
113.395877
 20
121.532332
 30
0.0
 11
113.395877
 21
97.682792
 31
0.0
  0
LINE
  5
A8
330
A3
100
AcDbEntity
  8
001
370
     9
100
AcDbLine
 10
100.395877
 20
101.120292
 30
0.0
 11
113.395877
 21
101.120292
 31
0.0
  0
POLYLINE
  5
A9
330
A3
100
AcDbEntity
  8
001
370
     9
100
AcDb2dPolyline
 66
     1
 10
0.0
 20
0.0
 30
0.0
  0
VERTEX
  5
AB
330
A9
100
AcDbEntity
  8
001
370
     9
100
AcDbVertex
100
AcDb2dVertex
 10
98.520877
 20
101.622696
 30
0.0
  0
VERTEX
  5
AC
330
A9
100
AcDbEntity
  8
001
370
     9
100
AcDbVertex
100
AcDb2dVertex
 10
100.395877
 20
101.120292
 30
0.0
  0
VERTEX
  5
AD
330
A9
100
AcDbEntity
  8
001
370
     9
100
AcDbVertex
100
AcDb2dVertex
 10
98.520877
 20
100.617887
 30
0.0
  0
SEQEND
  5
AA
330
A9
100
AcDbEntity
  8
001
370
     9
  0
POLYLINE
  5
AE
330
A3
100
AcDbEntity
  8
001
370
     9
100
AcDb2dPolyline
 66
     1
 10
0.0
 20
0.0
 30
0.0
  0
VERTEX
  5
B0
330
AE
100
AcDbEntity
  8
001
370
     9
100
AcDbVertex
100
AcDb2dVertex
 10
115.270877
 20
100.617887
 30
0.0
  0
VERTEX
  5
B1
330
AE
100
AcDbEntity
  8
001
370
     9
100
AcDbVertex
100
AcDb2dVertex
 10
113.395877
 20
101.120292
 30
0.0
  0
VERTEX
  5
B2
330
AE
100
AcDbEntity
  8
001
370
     9
100
AcDbVertex
100
AcDb2dVertex
 10
115.270877
 20
101.622696
 30
0.0
  0
SEQEND
  5
AF
330
AE
100
AcDbEntity
  8
001
370
     9
  0
TEXT
  5
B3
330
A3
100
AcDbEntity
  8
001
370
    30
100
AcDbText
 10
101.895877
 20
102.370292
 30
0.0
 40
5.0
  1
１３
 41
0.833333
100
AcDbText
  0
POINT
  5
B4
330
A3
100
AcDbEntity
  8
001
370
     9
100
AcDbPoint
 10
100.395877
 20
126.032332
 30
0.0
  0
POINT
  5
B5
330
A3
100
AcDbEntity
  8
001
370
     9
100
AcDbPoint
 10
113.395877
 20
121.532332
 30
0.0
  0
POINT
  5
B6
330
A3
100
AcDbEntity
  8
001
370
     9
100
AcDbPoint
 10
113.395877
 20
101.120292
 30
0.0
  0
LINE
  5
B7
330
A3
100
AcDbEntity
  8
001
370
     9
100
AcDbLine
 10
100.395877
 20
101.120292
 30
0.0
 11
97.270877
 21
101.120292
 31
0.0
  0
LINE
  5
B8
330
A3
100
AcDbEntity
  8
001
370
     9
100
AcDbLine
 10
113.395877
 20
101.120292
 30
0.0
 11
116.520877
 21
101.120292
 31
0.0
  0
ENDBLK
  5
A5
330
A3
100
AcDbEntity
  8
0
100
AcDbBlockEnd
  0
BLOCK
  5
BA
330
B9
100
AcDbEntity
  8
0
100
AcDbBlockBegin
  2
*D8
 70
     1
 10
0.0
 20
0.0
 30
0.0
  3
*D8
  1

  0
LINE
  5
BC
330
B9
100
AcDbEntity
  8
001
370
     9
100
AcDbLine
 10
100.395877
 20
126.032332
 30
0.0
 11
100.395877
 21
97.682792
 31
0.0
  0
LINE
  5
BD
330
B9
100
AcDbEntity
  8
001
370
     9
100
AcDbLine
 10
83.395877
 20
129.841733
 30
0.0
 11
83.395877
 21
97.682792
 31
0.0
  0
LINE
  5
BE
330
B9
100
AcDbEntity
  8
001
370
     9
100
AcDbLine
 10
100.395877
 20
101.120292
 30
0.0
 11
83.395877
 21
101.120292
 31
0.0
  0
POLYLINE
  5
BF
330
B9
100
AcDbEntity
  8
001
370
     9
100
AcDb2dPolyline
 66
     1
 10
0.0
 20
0.0
 30
0.0
  0
VERTEX
  5
C1
330
BF
100
AcDbEntity
  8
001
370
     9
100
AcDbVertex
100
AcDb2dVertex
 10
98.520877
 20
101.622696
 30
0.0
  0
VERTEX
  5
C2
330
BF
100
AcDbEntity
  8
001
370
     9
100
AcDbVertex
100
AcDb2dVertex
 10
100.395877
 20
101.120292
 30
0.0
  0
VERTEX
  5
C3
330
BF
100
AcDbEntity
  8
001
370
     9
100
AcDbVertex
100
AcDb2dVertex
 10
98.520877
 20
100.617887
 30
0.0
  0
SEQEND
  5
C0
330
BF
100
AcDbEntity
  8
001
370
     9
  0
POLYLINE
  5
C4
330
B9
100
AcDbEntity
  8
001
370
     9
100
AcDb2dPolyline
 66
     1
 10
0.0
 20
0.0
 30
0.0
  0
VERTEX
  5
C6
330
C4
100
AcDbEntity
  8
001
370
     9
100
AcDbVertex
100
AcDb2dVertex
 10
85.270877
 20
100.617887
 30
0.0
  0
VERTEX
  5
C7
330
C4
100
AcDbEntity
  8
001
370
     9
100
AcDbVertex
100
AcDb2dVertex
 10
83.395877
 20
101.120292
 30
0.0
  0
VERTEX
  5
C8
330
C4
100
AcDbEntity
  8
001
370
     9
100
AcDbVertex
100
AcDb2dVertex
 10
85.270877
 20
101.622696
 30
0.0
  0
SEQEND
  5
C5
330
C4
100
AcDbEntity
  8
001
370
     9
  0
TEXT
  5
C9
330
B9
100
AcDbEntity
  8
001
370
    30
100
AcDbText
 10
86.895877
 20
102.370292
 30
0.0
 40
5.0
  1
１７
 41
0.833333
100
AcDbText
  0
POINT
  5
CA
330
B9
100
AcDbEntity
  8
001
370
     9
100
AcDbPoint
 10
100.395877
 20
126.032332
 30
0.0
  0
POINT
  5
CB
330
B9
100
AcDbEntity
  8
001
370
     9
100
AcDbPoint
 10
83.395877
 20
129.841733
 30
0.0
  0
POINT
  5
CC
330
B9
100
AcDbEntity
  8
001
370
     9
100
AcDbPoint
 10
83.395877
 20
101.120292
 30
0.0
  0
ENDBLK
  5
BB
330
B9
100
AcDbEntity
  8
0
100
AcDbBlockEnd
  0
BLOCK
  5
CE
330
CD
100
AcDbEntity
  8
0
100
AcDbBlockBegin
  2
*D9
 70
     1
 10
0.0
 20
0.0
 30
0.0
  3
*D9
  1

  0
LINE
  5
D0
330
CD
100
AcDbEntity
  8
001
370
     9
100
AcDbLine
 10
83.395877
 20
129.841733
 30
0.0
 11
83.395877
 21
85.901204
 31
0.0
  0
LINE
  5
D1
330
CD
100
AcDbEntity
  8
001
370
     9
100
AcDbLine
 10
198.395877
 20
126.532332
 30
0.0
 11
198.395877
 21
85.901204
 31
0.0
  0
LINE
  5
D2
330
CD
100
AcDbEntity
  8
001
370
     9
100
AcDbLine
 10
83.395877
 20
89.338704
 30
0.0
 11
198.395877
 21
89.338704
 31
0.0
  0
POLYLINE
  5
D3
330
CD
100
AcDbEntity
  8
001
370
     9
100
AcDb2dPolyline
 66
     1
 10
0.0
 20
0.0
 30
0.0
  0
VERTEX
  5
D5
330
D3
100
AcDbEntity
  8
001
370
     9
100
AcDbVertex
100
AcDb2dVertex
 10
85.270877
 20
88.8363
 30
0.0
  0
VERTEX
  5
D6
330
D3
100
AcDbEntity
  8
001
370
     9
100
AcDbVertex
100
AcDb2dVertex
 10
83.395877
 20
89.338704
 30
0.0
  0
VERTEX
  5
D7
330
D3
100
AcDbEntity
  8
001
370
     9
100
AcDbVertex
100
AcDb2dVertex
 10
85.270877
 20
89.841109
 30
0.0
  0
SEQEND
  5
D4
330
D3
100
AcDbEntity
  8
001
370
     9
  0
POLYLINE
  5
D8
330
CD
100
AcDbEntity
  8
001
370
     9
100
AcDb2dPolyline
 66
     1
 10
0.0
 20
0.0
 30
0.0
  0
VERTEX
  5
DA
330
D8
100
AcDbEntity
  8
001
370
     9
100
AcDbVertex
100
AcDb2dVertex
 10
196.520877
 20
89.841109
 30
0.0
  0
VERTEX
  5
DB
330
D8
100
AcDbEntity
  8
001
370
     9
100
AcDbVertex
100
AcDb2dVertex
 10
198.395877
 20
89.338704
 30
0.0
  0
VERTEX
  5
DC
330
D8
100
AcDbEntity
  8
001
370
     9
100
AcDbVertex
100
AcDb2dVertex
 10
196.520877
 20
88.8363
 30
0.0
  0
SEQEND
  5
D9
330
D8
100
AcDbEntity
  8
001
370
     9
  0
TEXT
  5
DD
330
CD
100
AcDbEntity
  8
001
370
    30
100
AcDbText
 10
133.395877
 20
90.588704
 30
0.0
 40
5.0
  1
１１５
 41
0.833333
100
AcDbText
  0
POINT
  5
DE
330
CD
100
AcDbEntity
  8
001
370
     9
100
AcDbPoint
 10
83.395877
 20
129.841733
 30
0.0
  0
POINT
  5
DF
330
CD
100
AcDbEntity
  8
001
370
     9
100
AcDbPoint
 10
198.395877
 20
126.532332
 30
0.0
  0
POINT
  5
E0
330
CD
100
AcDbEntity
  8
001
370
     9
100
AcDbPoint
 10
198.395877
 20
89.338704
 30
0.0
  0
ENDBLK
  5
CF
330
CD
100
AcDbEntity
  8
0
100
AcDbBlockEnd
  0
BLOCK
  5
E2
330
E1
100
AcDbEntity
  8
0
100
AcDbBlockBegin
  2
*D10
 70
     1
 10
0.0
 20
0.0
 30
0.0
  3
*D10
  1

  0
LINE
  5
E4
330
E1
100
AcDbEntity
  8
001
370
     9
100
AcDbLine
 10
86.663826
 20
153.532332
 30
0.0
 11
62.223694
 21
153.532332
 31
0.0
  0
LINE
  5
E5
330
E1
100
AcDbEntity
  8
001
370
     9
100
AcDbLine
 10
86.663826
 20
127.532332
 30
0.0
 11
62.223694
 21
127.532332
 31
0.0
  0
LINE
  5
E6
330
E1
100
AcDbEntity
  8
001
370
     9
100
AcDbLine
 10
65.661194
 20
153.532332
 30
0.0
 11
65.661194
 21
127.532332
 31
0.0
  0
POLYLINE
  5
E7
330
E1
100
AcDbEntity
  8
001
370
     9
100
AcDb2dPolyline
 66
     1
 10
0.0
 20
0.0
 30
0.0
  0
VERTEX
  5
E9
330
E7
100
AcDbEntity
  8
001
370
     9
100
AcDbVertex
100
AcDb2dVertex
 10
65.158789
 20
151.657332
 30
0.0
  0
VERTEX
  5
EA
330
E7
100
AcDbEntity
  8
001
370
     9
100
AcDbVertex
100
AcDb2dVertex
 10
65.661194
 20
153.532332
 30
0.0
  0
VERTEX
  5
EB
330
E7
100
AcDbEntity
  8
001
370
     9
100
AcDbVertex
100
AcDb2dVertex
 10
66.163599
 20
151.657332
 30
0.0
  0
SEQEND
  5
E8
330
E7
100
AcDbEntity
  8
001
370
     9
  0
POLYLINE
  5
EC
330
E1
100
AcDbEntity
  8
001
370
     9
100
AcDb2dPolyline
 66
     1
 10
0.0
 20
0.0
 30
0.0
  0
VERTEX
  5
EE
330
EC
100
AcDbEntity
  8
001
370
     9
100
AcDbVertex
100
AcDb2dVertex
 10
66.163599
 20
129.407332
 30
0.0
  0
VERTEX
  5
EF
330
EC
100
AcDbEntity
  8
001
370
     9
100
AcDbVertex
100
AcDb2dVertex
 10
65.661194
 20
127.532332
 30
0.0
  0
VERTEX
  5
F0
330
EC
100
AcDbEntity
  8
001
370
     9
100
AcDbVertex
100
AcDb2dVertex
 10
65.158789
 20
129.407332
 30
0.0
  0
SEQEND
  5
ED
330
EC
100
AcDbEntity
  8
001
370
     9
  0
TEXT
  5
F1
330
E1
100
AcDbEntity
  8
001
370
    30
100
AcDbText
 10
64.411194
 20
133.032332
 30
0.0
 40
5.0
  1
%%c２６
 50
90.000003
 41
0.882353
100
AcDbText
  0
POINT
  5
F2
330
E1
100
AcDbEntity
  8
001
370
     9
100
AcDbPoint
 10
86.663826
 20
153.532332
 30
0.0
  0
POINT
  5
F3
330
E1
100
AcDbEntity
  8
001
370
     9
100
AcDbPoint
 10
86.663826
 20
127.532332
 30
0.0
  0
POINT
  5
F4
330
E1
100
AcDbEntity
  8
001
370
     9
100
AcDbPoint
 10
65.661194
 20
127.532332
 30
0.0
  0
ENDBLK
  5
E3
330
E1
100
AcDbEntity
  8
0
100
AcDbBlockEnd
  0
BLOCK
  5
F6
330
F5
100
AcDbEntity
  8
0
100
AcDbBlockBegin
  2
*D11
 70
     1
 10
0.0
 20
0.0
 30
0.0
  3
*D11
  1

  0
LINE
  5
F8
330
F5
100
AcDbEntity
  8
001
370
     9
100
AcDbLine
 10
100.895877
 20
155.532332
 30
0.0
 11
50.674531
 21
155.532332
 31
0.0
  0
LINE
  5
F9
330
F5
100
AcDbEntity
  8
001
370
     9
100
AcDbLine
 10
100.895877
 20
125.532332
 30
0.0
 11
50.674531
 21
125.532332
 31
0.0
  0
LINE
  5
FA
330
F5
100
AcDbEntity
  8
001
370
     9
100
AcDbLine
 10
54.112031
 20
155.532332
 30
0.0
 11
54.112031
 21
125.532332
 31
0.0
  0
POLYLINE
  5
FB
330
F5
100
AcDbEntity
  8
001
370
     9
100
AcDb2dPolyline
 66
     1
 10
0.0
 20
0.0
 30
0.0
  0
VERTEX
  5
FD
330
FB
100
AcDbEntity
  8
001
370
     9
100
AcDbVertex
100
AcDb2dVertex
 10
53.609626
 20
153.657332
 30
0.0
  0
VERTEX
  5
FE
330
FB
100
AcDbEntity
  8
001
370
     9
100
AcDbVertex
100
AcDb2dVertex
 10
54.112031
 20
155.532332
 30
0.0
  0
VERTEX
  5
FF
330
FB
100
AcDbEntity
  8
001
370
     9
100
AcDbVertex
100
AcDb2dVertex
 10
54.614435
 20
153.657332
 30
0.0
  0
SEQEND
  5
FC
330
FB
100
AcDbEntity
  8
001
370
     9
  0
POLYLINE
  5
100
330
F5
100
AcDbEntity
  8
001
370
     9
100
AcDb2dPolyline
 66
     1
 10
0.0
 20
0.0
 30
0.0
  0
VERTEX
  5
102
330
100
100
AcDbEntity
  8
001
370
     9
100
AcDbVertex
100
AcDb2dVertex
 10
54.614435
 20
127.407332
 30
0.0
  0
VERTEX
  5
103
330
100
100
AcDbEntity
  8
001
370
     9
100
AcDbVertex
100
AcDb2dVertex
 10
54.112031
 20
125.532332
 30
0.0
  0
VERTEX
  5
104
330
100
100
AcDbEntity
  8
001
370
     9
100
AcDbVertex
100
AcDb2dVertex
 10
53.609626
 20
127.407332
 30
0.0
  0
SEQEND
  5
101
330
100
100
AcDbEntity
  8
001
370
     9
  0
TEXT
  5
105
330
F5
100
AcDbEntity
  8
001
370
    30
100
AcDbText
 10
52.862031
 20
133.032332
 30
0.0
 40
5.0
  1
%%c３０
 50
90.000003
 41
0.882353
100
AcDbText
  0
POINT
  5
106
330
F5
100
AcDbEntity
  8
001
370
     9
100
AcDbPoint
 10
100.895877
 20
155.532332
 30
0.0
  0
POINT
  5
107
330
F5
100
AcDbEntity
  8
001
370
     9
100
AcDbPoint
 10
100.895877
 20
125.532332
 30
0.0
  0
POINT
  5
108
330
F5
100
AcDbEntity
  8
001
370
     9
100
AcDbPoint
 10
54.112031
 20
125.532332
 30
0.0
  0
ENDBLK
  5
F7
330
F5
100
AcDbEntity
  8
0
100
AcDbBlockEnd
  0
BLOCK
  5
10A
330
109
100
AcDbEntity
  8
0
100
AcDbBlockBegin
  2
*D12
 70
     1
 10
0.0
 20
0.0
 30
0.0
  3
*D12
  1

  0
LINE
  5
10C
330
109
100
AcDbEntity
  8
001
370
     9
100
AcDbLine
 10
114.395877
 20
160.532332
 30
0.0
 11
39.125367
 21
160.532332
 31
0.0
  0
LINE
  5
10D
330
109
100
AcDbEntity
  8
001
370
     9
100
AcDbLine
 10
117.395877
 20
120.532332
 30
0.0
 11
39.125367
 21
120.532332
 31
0.0
  0
LINE
  5
10E
330
109
100
AcDbEntity
  8
001
370
     9
100
AcDbLine
 10
42.562867
 20
160.532332
 30
0.0
 11
42.562867
 21
120.532332
 31
0.0
  0
POLYLINE
  5
10F
330
109
100
AcDbEntity
  8
001
370
     9
100
AcDb2dPolyline
 66
     1
 10
0.0
 20
0.0
 30
0.0
  0
VERTEX
  5
111
330
10F
100
AcDbEntity
  8
001
370
     9
100
AcDbVertex
100
AcDb2dVertex
 10
42.060462
 20
158.657332
 30
0.0
  0
VERTEX
  5
112
330
10F
100
AcDbEntity
  8
001
370
     9
100
AcDbVertex
100
AcDb2dVertex
 10
42.562867
 20
160.532332
 30
0.0
  0
VERTEX
  5
113
330
10F
100
AcDbEntity
  8
001
370
     9
100
AcDbVertex
100
AcDb2dVertex
 10
43.065272
 20
158.657332
 30
0.0
  0
SEQEND
  5
110
330
10F
100
AcDbEntity
  8
001
370
     9
  0
POLYLINE
  5
114
330
109
100
AcDbEntity
  8
001
370
     9
100
AcDb2dPolyline
 66
     1
 10
0.0
 20
0.0
 30
0.0
  0
VERTEX
  5
116
330
114
100
AcDbEntity
  8
001
370
     9
100
AcDbVertex
100
AcDb2dVertex
 10
43.065272
 20
122.407332
 30
0.0
  0
VERTEX
  5
117
330
114
100
AcDbEntity
  8
001
370
     9
100
AcDbVertex
100
AcDb2dVertex
 10
42.562867
 20
120.532332
 30
0.0
  0
VERTEX
  5
118
330
114
100
AcDbEntity
  8
001
370
     9
100
AcDbVertex
100
AcDb2dVertex
 10
42.060462
 20
122.407332
 30
0.0
  0
SEQEND
  5
115
330
114
100
AcDbEntity
  8
001
370
     9
  0
TEXT
  5
119
330
109
100
AcDbEntity
  8
001
370
    30
100
AcDbText
 10
41.312867
 20
133.032332
 30
0.0
 40
5.0
  1
%%c４０
 50
90.000003
 41
0.882353
100
AcDbText
  0
POINT
  5
11A
330
109
100
AcDbEntity
  8
001
370
     9
100
AcDbPoint
 10
114.395877
 20
160.532332
 30
0.0
  0
POINT
  5
11B
330
109
100
AcDbEntity
  8
001
370
     9
100
AcDbPoint
 10
117.395877
 20
120.532332
 30
0.0
  0
POINT
  5
11C
330
109
100
AcDbEntity
  8
001
370
     9
100
AcDbPoint
 10
42.562867
 20
120.532332
 30
0.0
  0
ENDBLK
  5
10B
330
109
100
AcDbEntity
  8
0
100
AcDbBlockEnd
  0
BLOCK
  5
11E
330
11D
100
AcDbEntity
  8
0
100
AcDbBlockBegin
  2
*D13
 70
     1
 10
0.0
 20
0.0
 30
0.0
  3
*D13
  1

  0
LINE
  5
120
330
11D
100
AcDbEntity
  8
001
370
     9
100
AcDbLine
 10
93.395877
 20
58.478742
 30
0.0
 11
93.395877
 21
67.127454
 31
0.0
  0
LINE
  5
121
330
11D
100
AcDbEntity
  8
001
370
     9
100
AcDbLine
 10
83.395877
 20
49.638658
 30
0.0
 11
83.395877
 21
67.127454
 31
0.0
  0
LINE
  5
122
330
11D
100
AcDbEntity
  8
001
370
     9
100
AcDbLine
 10
93.395877
 20
63.689954
 30
0.0
 11
83.395877
 21
63.689954
 31
0.0
  0
POLYLINE
  5
123
330
11D
100
AcDbEntity
  8
001
370
     9
100
AcDb2dPolyline
 66
     1
 10
0.0
 20
0.0
 30
0.0
  0
VERTEX
  5
125
330
123
100
AcDbEntity
  8
001
370
     9
100
AcDbVertex
100
AcDb2dVertex
 10
95.270877
 20
63.18755
 30
0.0
  0
VERTEX
  5
126
330
123
100
AcDbEntity
  8
001
370
     9
100
AcDbVertex
100
AcDb2dVertex
 10
93.395877
 20
63.689954
 30
0.0
  0
VERTEX
  5
127
330
123
100
AcDbEntity
  8
001
370
     9
100
AcDbVertex
100
AcDb2dVertex
 10
95.270877
 20
64.192359
 30
0.0
  0
SEQEND
  5
124
330
123
100
AcDbEntity
  8
001
370
     9
  0
POLYLINE
  5
128
330
11D
100
AcDbEntity
  8
001
370
     9
100
AcDb2dPolyline
 66
     1
 10
0.0
 20
0.0
 30
0.0
  0
VERTEX
  5
12A
330
128
100
AcDbEntity
  8
001
370
     9
100
AcDbVertex
100
AcDb2dVertex
 10
81.520877
 20
64.192359
 30
0.0
  0
VERTEX
  5
12B
330
128
100
AcDbEntity
  8
001
370
     9
100
AcDbVertex
100
AcDb2dVertex
 10
83.395877
 20
63.689954
 30
0.0
  0
VERTEX
  5
12C
330
128
100
AcDbEntity
  8
001
370
     9
100
AcDbVertex
100
AcDb2dVertex
 10
81.520877
 20
63.18755
 30
0.0
  0
SEQEND
  5
129
330
128
100
AcDbEntity
  8
001
370
     9
  0
TEXT
  5
12D
330
11D
100
AcDbEntity
  8
001
370
    30
100
AcDbText
 10
83.395877
 20
64.939954
 30
0.0
 40
5.0
  1
１０
 41
0.833333
100
AcDbText
  0
POINT
  5
12E
330
11D
100
AcDbEntity
  8
001
370
     9
100
AcDbPoint
 10
93.395877
 20
58.478742
 30
0.0
  0
POINT
  5
12F
330
11D
100
AcDbEntity
  8
001
370
     9
100
AcDbPoint
 10
83.395877
 20
49.638658
 30
0.0
  0
POINT
  5
130
330
11D
100
AcDbEntity
  8
001
370
     9
100
AcDbPoint
 10
83.395877
 20
63.689954
 30
0.0
  0
LINE
  5
131
330
11D
100
AcDbEntity
  8
001
370
     9
100
AcDbLine
 10
93.395877
 20
63.689954
 30
0.0
 11
96.520877
 21
63.689954
 31
0.0
  0
LINE
  5
132
330
11D
100
AcDbEntity
  8
001
370
     9
100
AcDbLine
 10
83.395877
 20
63.689954
 30
0.0
 11
80.270877
 21
63.689954
 31
0.0
  0
ENDBLK
  5
11F
330
11D
100
AcDbEntity
  8
0
100
AcDbBlockEnd
  0
BLOCK
  5
134
330
133
100
AcDbEntity
  8
0
100
AcDbBlockBegin
  2
*D14
 70
     1
 10
0.0
 20
0.0
 30
0.0
  3
*D14
  1

  0
LINE
  5
136
330
133
100
AcDbEntity
  8
001
370
     9
100
AcDbLine
 10
107.395877
 20
58.478742
 30
0.0
 11
107.395877
 21
67.127454
 31
0.0
  0
LINE
  5
137
330
133
100
AcDbEntity
  8
001
370
     9
100
AcDbLine
 10
93.395877
 20
58.478742
 30
0.0
 11
93.395877
 21
67.127454
 31
0.0
  0
LINE
  5
138
330
133
100
AcDbEntity
  8
001
370
     9
100
AcDbLine
 10
107.395877
 20
63.689954
 30
0.0
 11
93.395877
 21
63.689954
 31
0.0
  0
POLYLINE
  5
139
330
133
100
AcDbEntity
  8
001
370
     9
100
AcDb2dPolyline
 66
     1
 10
0.0
 20
0.0
 30
0.0
  0
VERTEX
  5
13B
330
139
100
AcDbEntity
  8
001
370
     9
100
AcDbVertex
100
AcDb2dVertex
 10
109.270877
 20
63.18755
 30
0.0
  0
VERTEX
  5
13C
330
139
100
AcDbEntity
  8
001
370
     9
100
AcDbVertex
100
AcDb2dVertex
 10
107.395877
 20
63.689954
 30
0.0
  0
VERTEX
  5
13D
330
139
100
AcDbEntity
  8
001
370
     9
100
AcDbVertex
100
AcDb2dVertex
 10
109.270877
 20
64.192359
 30
0.0
  0
SEQEND
  5
13A
330
139
100
AcDbEntity
  8
001
370
     9
  0
POLYLINE
  5
13E
330
133
100
AcDbEntity
  8
001
370
     9
100
AcDb2dPolyline
 66
     1
 10
0.0
 20
0.0
 30
0.0
  0
VERTEX
  5
140
330
13E
100
AcDbEntity
  8
001
370
     9
100
AcDbVertex
100
AcDb2dVertex
 10
91.520877
 20
64.192359
 30
0.0
  0
VERTEX
  5
141
330
13E
100
AcDbEntity
  8
001
370
     9
100
AcDbVertex
100
AcDb2dVertex
 10
93.395877
 20
63.689954
 30
0.0
  0
VERTEX
  5
142
330
13E
100
AcDbEntity
  8
001
370
     9
100
AcDbVertex
100
AcDb2dVertex
 10
91.520877
 20
63.18755
 30
0.0
  0
SEQEND
  5
13F
330
13E
100
AcDbEntity
  8
001
370
     9
  0
TEXT
  5
143
330
133
100
AcDbEntity
  8
001
370
    30
100
AcDbText
 10
95.395877
 20
64.939954
 30
0.0
 40
5.0
  1
１４
 41
0.833333
100
AcDbText
  0
POINT
  5
144
330
133
100
AcDbEntity
  8
001
370
     9
100
AcDbPoint
 10
107.395877
 20
58.478742
 30
0.0
  0
POINT
  5
145
330
133
100
AcDbEntity
  8
001
370
     9
100
AcDbPoint
 10
93.395877
 20
58.478742
 30
0.0
  0
POINT
  5
146
330
133
100
AcDbEntity
  8
001
370
     9
100
AcDbPoint
 10
93.395877
 20
63.689954
 30
0.0
  0
LINE
  5
147
330
133
100
AcDbEntity
  8
001
370
     9
100
AcDbLine
 10
107.395877
 20
63.689954
 30
0.0
 11
110.520877
 21
63.689954
 31
0.0
  0
LINE
  5
148
330
133
100
AcDbEntity
  8
001
370
     9
100
AcDbLine
 10
93.395877
 20
63.689954
 30
0.0
 11
90.270877
 21
63.689954
 31
0.0
  0
ENDBLK
  5
135
330
133
100
AcDbEntity
  8
0
100
AcDbBlockEnd
  0
BLOCK
  5
14A
330
149
100
AcDbEntity
  8
0
100
AcDbBlockBegin
  2
*D15
 70
     1
 10
0.0
 20
0.0
 30
0.0
  3
*D15
  1

  0
LINE
  5
14C
330
149
100
AcDbEntity
  8
001
370
     9
100
AcDbLine
 10
196.395877
 20
156.532332
 30
0.0
 11
228.195637
 21
156.532332
 31
0.0
  0
LINE
  5
14D
330
149
100
AcDbEntity
  8
001
370
     9
100
AcDbLine
 10
196.395877
 20
124.532332
 30
0.0
 11
228.195637
 21
124.532332
 31
0.0
  0
LINE
  5
14E
330
149
100
AcDbEntity
  8
001
370
     9
100
AcDbLine
 10
224.758137
 20
156.532332
 30
0.0
 11
224.758137
 21
124.532332
 31
0.0
  0
POLYLINE
  5
14F
330
149
100
AcDbEntity
  8
001
370
     9
100
AcDb2dPolyline
 66
     1
 10
0.0
 20
0.0
 30
0.0
  0
VERTEX
  5
151
330
14F
100
AcDbEntity
  8
001
370
     9
100
AcDbVertex
100
AcDb2dVertex
 10
224.255733
 20
154.657332
 30
0.0
  0
VERTEX
  5
152
330
14F
100
AcDbEntity
  8
001
370
     9
100
AcDbVertex
100
AcDb2dVertex
 10
224.758137
 20
156.532332
 30
0.0
  0
VERTEX
  5
153
330
14F
100
AcDbEntity
  8
001
370
     9
100
AcDbVertex
100
AcDb2dVertex
 10
225.260542
 20
154.657332
 30
0.0
  0
SEQEND
  5
150
330
14F
100
AcDbEntity
  8
001
370
     9
  0
POLYLINE
  5
154
330
149
100
AcDbEntity
  8
001
370
     9
100
AcDb2dPolyline
 66
     1
 10
0.0
 20
0.0
 30
0.0
  0
VERTEX
  5
156
330
154
100
AcDbEntity
  8
001
370
     9
100
AcDbVertex
100
AcDb2dVertex
 10
225.260542
 20
126.407332
 30
0.0
  0
VERTEX
  5
157
330
154
100
AcDbEntity
  8
001
370
     9
100
AcDbVertex
100
AcDb2dVertex
 10
224.758137
 20
124.532332
 30
0.0
  0
VERTEX
  5
158
330
154
100
AcDbEntity
  8
001
370
     9
100
AcDbVertex
100
AcDb2dVertex
 10
224.255733
 20
126.407332
 30
0.0
  0
SEQEND
  5
155
330
154
100
AcDbEntity
  8
001
370
     9
  0
TEXT
  5
159
330
149
100
AcDbEntity
  8
001
370
    30
100
AcDbText
 10
223.508137
 20
129.032332
 30
0.0
 40
5.0
  1
%%c３２
 50
90.000003
 41
0.882353
100
AcDbText
  0
TEXT
  5
15A
330
149
100
AcDbEntity
  8
001
370
    30
100
AcDbText
 10
223.008137
 20
144.032332
 30
0.0
 40
4.0
  1
ｈ７
 50
90.000003
 41
0.833333
100
AcDbText
  0
POINT
  5
15B
330
149
100
AcDbEntity
  8
001
370
     9
100
AcDbPoint
 10
196.395877
 20
156.532332
 30
0.0
  0
POINT
  5
15C
330
149
100
AcDbEntity
  8
001
370
     9
100
AcDbPoint
 10
196.395877
 20
124.532332
 30
0.0
  0
POINT
  5
15D
330
149
100
AcDbEntity
  8
001
370
     9
100
AcDbPoint
 10
224.758137
 20
124.532332
 30
0.0
  0
ENDBLK
  5
14B
330
149
100
AcDbEntity
  8
0
100
AcDbBlockEnd
  0
BLOCK
  5
15F
330
15E
100
AcDbEntity
  8
0
100
AcDbBlockBegin
  2
DIM-6
 70
     0
 10
0.0
 20
0.0
 30
0.0
  3
DIM-6
  1

  0
TEXT
  5
161
330
15E
100
AcDbEntity
  8
001
370
    30
100
AcDbText
 10
6.450886
 20
103.747993
 30
0.0
 40
5.0
  1
２－Ｍ８×１．２５，貫通
 41
0.833333
100
AcDbText
  0
POLYLINE
  5
162
330
15E
100
AcDbEntity
  8
001
370
     9
100
AcDb2dPolyline
 66
     1
 10
0.0
 20
0.0
 30
0.0
  0
VERTEX
  5
164
330
162
100
AcDbEntity
  8
001
370
     9
100
AcDbVertex
100
AcDb2dVertex
 10
91.905506
 20
135.965116
 30
0.0
  0
VERTEX
  5
165
330
162
100
AcDbEntity
  8
001
370
     9
100
AcDbVertex
100
AcDb2dVertex
 10
93.395877
 20
137.208832
 30
0.0
  0
VERTEX
  5
166
330
162
100
AcDbEntity
  8
001
370
     9
100
AcDbVertex
100
AcDb2dVertex
 10
92.727035
 20
135.386557
 30
0.0
  0
SEQEND
  5
163
330
162
100
AcDbEntity
  8
001
370
     9
  0
POLYLINE
  5
167
330
15E
100
AcDbEntity
  8
001
370
     9
100
AcDb2dPolyline
 66
     1
 10
0.0
 20
0.0
 30
0.0
  0
VERTEX
  5
169
330
167
100
AcDbEntity
  8
001
370
     9
100
AcDbVertex
100
AcDb2dVertex
 10
93.395877
 20
137.208832
 30
0.0
  0
VERTEX
  5
16A
330
167
100
AcDbEntity
  8
001
370
     9
100
AcDbVertex
100
AcDb2dVertex
 10
68.950886
 20
102.497993
 30
0.0
  0
VERTEX
  5
16B
330
167
100
AcDbEntity
  8
001
370
     9
100
AcDbVertex
100
AcDb2dVertex
 10
3.950886
 20
102.497993
 30
0.0
  0
SEQEND
  5
168
330
167
100
AcDbEntity
  8
001
370
     9
  0
ENDBLK
  5
160
330
15E
100
AcDbEntity
  8
0
100
AcDbBlockEnd
  0
BLOCK
  5
16D
330
16C
100
AcDbEntity
  8
0
100
AcDbBlockBegin
  2
*D17
 70
     1
 10
0.0
 20
0.0
 30
0.0
  3
*D17
  1

  0
LINE
  5
16F
330
16C
100
AcDbEntity
  8
001
370
     9
100
AcDbLine
 10
284.610743
 20
140.532332
 30
0.0
 11
284.610743
 21
100.010249
 31
0.0
  0
LINE
  5
170
330
16C
100
AcDbEntity
  8
001
370
     9
100
AcDbLine
 10
254.610743
 20
132.786365
 30
0.0
 11
254.610743
 21
100.010249
 31
0.0
  0
LINE
  5
171
330
16C
100
AcDbEntity
  8
001
370
     9
100
AcDbLine
 10
284.610743
 20
103.447749
 30
0.0
 11
254.610743
 21
103.447749
 31
0.0
  0
POLYLINE
  5
172
330
16C
100
AcDbEntity
  8
001
370
     9
100
AcDb2dPolyline
 66
     1
 10
0.0
 20
0.0
 30
0.0
  0
VERTEX
  5
174
330
172
100
AcDbEntity
  8
001
370
     9
100
AcDbVertex
100
AcDb2dVertex
 10
282.735743
 20
103.950154
 30
0.0
  0
VERTEX
  5
175
330
172
100
AcDbEntity
  8
001
370
     9
100
AcDbVertex
100
AcDb2dVertex
 10
284.610743
 20
103.447749
 30
0.0
  0
VERTEX
  5
176
330
172
100
AcDbEntity
  8
001
370
     9
100
AcDbVertex
100
AcDb2dVertex
 10
282.735743
 20
102.945344
 30
0.0
  0
SEQEND
  5
173
330
172
100
AcDbEntity
  8
001
370
     9
  0
POLYLINE
  5
177
330
16C
100
AcDbEntity
  8
001
370
     9
100
AcDb2dPolyline
 66
     1
 10
0.0
 20
0.0
 30
0.0
  0
VERTEX
  5
179
330
177
100
AcDbEntity
  8
001
370
     9
100
AcDbVertex
100
AcDb2dVertex
 10
256.485743
 20
102.945344
 30
0.0
  0
VERTEX
  5
17A
330
177
100
AcDbEntity
  8
001
370
     9
100
AcDbVertex
100
AcDb2dVertex
 10
254.610743
 20
103.447749
 30
0.0
  0
VERTEX
  5
17B
330
177
100
AcDbEntity
  8
001
370
     9
100
AcDbVertex
100
AcDb2dVertex
 10
256.485743
 20
103.950154
 30
0.0
  0
SEQEND
  5
178
330
177
100
AcDbEntity
  8
001
370
     9
  0
TEXT
  5
17C
330
16C
100
AcDbEntity
  8
001
370
    30
100
AcDbText
 10
264.610743
 20
104.697749
 30
0.0
 40
5.0
  1
３０
 41
0.833333
100
AcDbText
  0
POINT
  5
17D
330
16C
100
AcDbEntity
  8
001
370
     9
100
AcDbPoint
 10
284.610743
 20
140.532332
 30
0.0
  0
POINT
  5
17E
330
16C
100
AcDbEntity
  8
001
370
     9
100
AcDbPoint
 10
254.610743
 20
132.786365
 30
0.0
  0
POINT
  5
17F
330
16C
100
AcDbEntity
  8
001
370
     9
100
AcDbPoint
 10
254.610743
 20
103.447749
 30
0.0
  0
ENDBLK
  5
16E
330
16C
100
AcDbEntity
  8
0
100
AcDbBlockEnd
  0
BLOCK
  5
181
330
180
100
AcDbEntity
  8
0
100
AcDbBlockBegin
  2
*D18
 70
     1
 10
0.0
 20
0.0
 30
0.0
  3
*D18
  1

  0
LINE
  5
183
330
180
100
AcDbEntity
  8
001
370
     9
100
AcDbLine
 10
118.395877
 20
121.532332
 30
0.0
 11
118.395877
 21
97.682792
 31
0.0
  0
LINE
  5
184
330
180
100
AcDbEntity
  8
001
370
     9
100
AcDbLine
 10
198.395877
 20
126.532332
 30
0.0
 11
198.395877
 21
97.682792
 31
0.0
  0
LINE
  5
185
330
180
100
AcDbEntity
  8
001
370
     9
100
AcDbLine
 10
118.395877
 20
101.120292
 30
0.0
 11
198.395877
 21
101.120292
 31
0.0
  0
POLYLINE
  5
186
330
180
100
AcDbEntity
  8
001
370
     9
100
AcDb2dPolyline
 66
     1
 10
0.0
 20
0.0
 30
0.0
  0
VERTEX
  5
188
330
186
100
AcDbEntity
  8
001
370
     9
100
AcDbVertex
100
AcDb2dVertex
 10
120.270877
 20
100.617887
 30
0.0
  0
VERTEX
  5
189
330
186
100
AcDbEntity
  8
001
370
     9
100
AcDbVertex
100
AcDb2dVertex
 10
118.395877
 20
101.120292
 30
0.0
  0
VERTEX
  5
18A
330
186
100
AcDbEntity
  8
001
370
     9
100
AcDbVertex
100
AcDb2dVertex
 10
120.270877
 20
101.622696
 30
0.0
  0
SEQEND
  5
187
330
186
100
AcDbEntity
  8
001
370
     9
  0
POLYLINE
  5
18B
330
180
100
AcDbEntity
  8
001
370
     9
100
AcDb2dPolyline
 66
     1
 10
0.0
 20
0.0
 30
0.0
  0
VERTEX
  5
18D
330
18B
100
AcDbEntity
  8
001
370
     9
100
AcDbVertex
100
AcDb2dVertex
 10
196.520877
 20
101.622696
 30
0.0
  0
VERTEX
  5
18E
330
18B
100
AcDbEntity
  8
001
370
     9
100
AcDbVertex
100
AcDb2dVertex
 10
198.395877
 20
101.120292
 30
0.0
  0
VERTEX
  5
18F
330
18B
100
AcDbEntity
  8
001
370
     9
100
AcDbVertex
100
AcDb2dVertex
 10
196.520877
 20
100.617887
 30
0.0
  0
SEQEND
  5
18C
330
18B
100
AcDbEntity
  8
001
370
     9
  0
TEXT
  5
190
330
180
100
AcDbEntity
  8
001
370
    30
100
AcDbText
 10
148.395877
 20
102.370292
 30
0.0
 40
5.0
  1
（８０）
 41
0.833333
100
AcDbText
  0
POINT
  5
191
330
180
100
AcDbEntity
  8
001
370
     9
100
AcDbPoint
 10
118.395877
 20
121.532332
 30
0.0
  0
POINT
  5
192
330
180
100
AcDbEntity
  8
001
370
     9
100
AcDbPoint
 10
198.395877
 20
126.532332
 30
0.0
  0
POINT
  5
193
330
180
100
AcDbEntity
  8
001
370
     9
100
AcDbPoint
 10
198.395877
 20
101.120292
 30
0.0
  0
ENDBLK
  5
182
330
180
100
AcDbEntity
  8
0
100
AcDbBlockEnd
  0
BLOCK
  5
195
330
194
100
AcDbEntity
  8
0
100
AcDbBlockBegin
  2
*D19
 70
     1
 10
0.0
 20
0.0
 30
0.0
  3
*D19
  1

  0
LINE
  5
197
330
194
100
AcDbEntity
  8
001
370
     9
100
AcDbLine
 10
84.395877
 20
28.25746
 30
0.0
 11
83.579331
 21
27.68018
 31
0.0
  0
POLYLINE
  5
198
330
194
100
AcDbEntity
  8
001
370
     9
100
AcDb2dPolyline
 66
     1
 10
0.0
 20
0.0
 30
0.0
  0
VERTEX
  5
19A
330
198
100
AcDbEntity
  8
001
370
     9
100
AcDbVertex
100
AcDb2dVertex
 10
81.758279
 20
27.008015
 30
0.0
  0
VERTEX
  5
19B
330
198
100
AcDbEntity
  8
001
370
     9
100
AcDbVertex
100
AcDb2dVertex
 10
83.579331
 20
27.68018
 30
0.0
  0
VERTEX
  5
19C
330
198
100
AcDbEntity
  8
001
370
     9
100
AcDbVertex
100
AcDb2dVertex
 10
82.338336
 20
26.187542
 30
0.0
  0
SEQEND
  5
199
330
198
100
AcDbEntity
  8
001
370
     9
  0
TEXT
  5
19D
330
194
100
AcDbEntity
  8
001
370
    30
100
AcDbText
 10
62.954423
 20
14.629652
 30
0.0
 40
5.0
  1
２－Ｒ１
 50
35.259486
 41
0.833333
100
AcDbText
  0
POINT
  5
19E
330
194
100
AcDbEntity
  8
001
370
     9
100
AcDbPoint
 10
83.579331
 20
27.68018
 30
0.0
  0
POINT
  5
19F
330
194
100
AcDbEntity
  8
001
370
     9
100
AcDbPoint
 10
84.395877
 20
28.25746
 30
0.0
  0
LINE
  5
1A0
330
194
100
AcDbEntity
  8
001
370
     9
100
AcDbLine
 10
83.579331
 20
27.68018
 30
0.0
 11
60.613976
 21
11.444168
 31
0.0
  0
ENDBLK
  5
196
330
194
100
AcDbEntity
  8
0
100
AcDbBlockEnd
  0
BLOCK
  5
1A2
330
1A1
100
AcDbEntity
  8
0
100
AcDbBlockBegin
  2
*D20
 70
     1
 10
0.0
 20
0.0
 30
0.0
  3
*D20
  1

  0
LINE
  5
1A4
330
1A1
100
AcDbEntity
  8
001
370
     9
100
AcDbLine
 10
117.395877
 20
19.948059
 30
0.0
 11
118.078566
 21
19.21735
 31
0.0
  0
POLYLINE
  5
1A5
330
1A1
100
AcDbEntity
  8
001
370
     9
100
AcDb2dPolyline
 66
     1
 10
0.0
 20
0.0
 30
0.0
  0
VERTEX
  5
1A7
330
1A5
100
AcDbEntity
  8
001
370
     9
100
AcDbVertex
100
AcDb2dVertex
 10
118.991496
 20
17.504284
 30
0.0
  0
VERTEX
  5
1A8
330
1A5
100
AcDbEntity
  8
001
370
     9
100
AcDbVertex
100
AcDb2dVertex
 10
118.078566
 20
19.21735
 30
0.0
  0
VERTEX
  5
1A9
330
1A5
100
AcDbEntity
  8
001
370
     9
100
AcDbVertex
100
AcDb2dVertex
 10
119.72572
 20
18.190257
 30
0.0
  0
SEQEND
  5
1A6
330
1A5
100
AcDbEntity
  8
001
370
     9
  0
TEXT
  5
1AA
330
1A1
100
AcDbEntity
  8
001
370
    30
100
AcDbText
 10
121.978717
 20
16.873859
 30
0.0
 40
5.0
  1
２－Ｒ１
 50
313.054125
 41
0.833333
100
AcDbText
  0
POINT
  5
1AB
330
1A1
100
AcDbEntity
  8
001
370
     9
100
AcDbPoint
 10
118.078566
 20
19.21735
 30
0.0
  0
POINT
  5
1AC
330
1A1
100
AcDbEntity
  8
001
370
     9
100
AcDbPoint
 10
117.395877
 20
19.948059
 30
0.0
  0
LINE
  5
1AD
330
1A1
100
AcDbEntity
  8
001
370
     9
100
AcDbLine
 10
118.078566
 20
19.21735
 30
0.0
 11
137.279195
 21
-1.333842
 31
0.0
  0
ENDBLK
  5
1A3
330
1A1
100
AcDbEntity
  8
0
100
AcDbBlockEnd
  0
BLOCK
  5
1AF
330
1AE
100
AcDbEntity
  8
0
100
AcDbBlockBegin
  2
*D21
 70
     1
 10
0.0
 20
0.0
 30
0.0
  3
*D21
  1

  0
LINE
  5
1B1
330
1AE
100
AcDbEntity
  8
001
370
     9
100
AcDbLine
 10
196.395877
 20
154.532332
 30
0.0
 11
197.853901
 21
155.901334
 31
0.0
  0
POLYLINE
  5
1B2
330
1AE
100
AcDbEntity
  8
001
370
     9
100
AcDb2dPolyline
 66
     1
 10
0.0
 20
0.0
 30
0.0
  0
VERTEX
  5
1B4
330
1B2
100
AcDbEntity
  8
001
370
     9
100
AcDbVertex
100
AcDb2dVertex
 10
199.564695
 20
156.818514
 30
0.0
  0
VERTEX
  5
1B5
330
1B2
100
AcDbEntity
  8
001
370
     9
100
AcDbVertex
100
AcDb2dVertex
 10
197.853901
 20
155.901334
 30
0.0
  0
VERTEX
  5
1B6
330
1B2
100
AcDbEntity
  8
001
370
     9
100
AcDbVertex
100
AcDb2dVertex
 10
198.876902
 20
157.551032
 30
0.0
  0
SEQEND
  5
1B3
330
1B2
100
AcDbEntity
  8
001
370
     9
  0
TEXT
  5
1B7
330
1AE
100
AcDbEntity
  8
001
370
    30
100
AcDbText
 10
200.187702
 20
159.80729
 30
0.0
 40
5.0
  1
（Ｒ２）
 50
43.196377
 41
0.833333
100
AcDbText
  0
POINT
  5
1B8
330
1AE
100
AcDbEntity
  8
001
370
     9
100
AcDbPoint
 10
197.853901
 20
155.901334
 30
0.0
  0
POINT
  5
1B9
330
1AE
100
AcDbEntity
  8
001
370
     9
100
AcDbPoint
 10
196.395877
 20
154.532332
 30
0.0
  0
LINE
  5
1BA
330
1AE
100
AcDbEntity
  8
001
370
     9
100
AcDbLine
 10
197.853901
 20
155.901334
 30
0.0
 11
218.357361
 21
175.152924
 31
0.0
  0
ENDBLK
  5
1B0
330
1AE
100
AcDbEntity
  8
0
100
AcDbBlockEnd
  0
BLOCK
  5
1BC
330
1BB
100
AcDbEntity
  8
0
100
AcDbBlockBegin
  2
*D22
 70
     1
 10
0.0
 20
0.0
 30
0.0
  3
*D22
  1

  0
LINE
  5
1BE
330
1BB
100
AcDbEntity
  8
001
370
     9
100
AcDbLine
 10
86.163826
 20
153.398357
 30
0.0
 11
135.481043
 21
181.871665
 31
0.0
  0
ARC
  5
1BF
330
1BB
100
AcDbEntity
  8
001
370
     9
100
AcDbCircle
 10
63.879217
 20
140.532332
 30
0.0
 40
79.2411670278253
100
AcDbArc
 50
0.0
 51
30.0
  0
POLYLINE
  5
1C0
330
1BB
100
AcDbEntity
  8
001
370
     9
100
AcDb2dPolyline
 66
     1
 10
0.0
 20
0.0
 30
0.0
  0
VERTEX
  5
1C2
330
1C0
100
AcDbEntity
  8
001
370
     9
100
AcDbVertex
100
AcDb2dVertex
 10
132.984267
 20
178.272103
 30
0.0
  0
VERTEX
  5
1C3
330
1C0
100
AcDbEntity
  8
001
370
     9
100
AcDbVertex
100
AcDb2dVertex
 10
132.50408
 20
180.152915
 30
0.0
  0
VERTEX
  5
1C4
330
1C0
100
AcDbEntity
  8
001
370
     9
100
AcDbVertex
100
AcDb2dVertex
 10
133.860341
 20
178.764177
 30
0.0
  0
SEQEND
  5
1C1
330
1C0
100
AcDbEntity
  8
001
370
     9
  0
POLYLINE
  5
1C5
330
1BB
100
AcDbEntity
  8
001
370
     9
100
AcDb2dPolyline
 66
     1
 10
0.0
 20
0.0
 30
0.0
  0
VERTEX
  5
1C7
330
1C5
100
AcDbEntity
  8
001
370
     9
100
AcDbVertex
100
AcDb2dVertex
 10
143.600571
 20
142.413144
 30
0.0
  0
VERTEX
  5
1C8
330
1C5
100
AcDbEntity
  8
001
370
     9
100
AcDbVertex
100
AcDb2dVertex
 10
143.120384
 20
140.532332
 30
0.0
  0
VERTEX
  5
1C9
330
1C5
100
AcDbEntity
  8
001
370
     9
100
AcDbVertex
100
AcDb2dVertex
 10
142.595832
 20
142.401257
 30
0.0
  0
SEQEND
  5
1C6
330
1C5
100
AcDbEntity
  8
001
370
     9
  0
TEXT
  5
1CA
330
1BB
100
AcDbEntity
  8
001
370
    30
100
AcDbText
 10
137.854591
 20
173.131748
 30
0.0
 40
5.0
  1
３０%%d
 50
288.458778
 41
0.978261
100
AcDbText
  0
POINT
  5
1CB
330
1BB
100
AcDbEntity
  8
001
370
     9
100
AcDbPoint
 10
86.163826
 20
153.398357
 30
0.0
  0
POINT
  5
1CC
330
1BB
100
AcDbEntity
  8
001
370
     9
100
AcDbPoint
 10
63.879217
 20
140.532332
 30
0.0
  0
POINT
  5
1CD
330
1BB
100
AcDbEntity
  8
001
370
     9
100
AcDbPoint
 10
63.879217
 20
140.532332
 30
0.0
  0
POINT
  5
1CE
330
1BB
100
AcDbEntity
  8
001
370
     9
100
AcDbPoint
 10
139.682884
 20
140.532332
 30
0.0
  0
ENDBLK
  5
1BD
330
1BB
100
AcDbEntity
  8
0
100
AcDbBlockEnd
  0
BLOCK
  5
1D0
330
1CF
100
AcDbEntity
  8
0
100
AcDbBlockBegin
  2
*D23
 70
     1
 10
0.0
 20
0.0
 30
0.0
  3
*D23
  1

  0
LINE
  5
1D2
330
1CF
100
AcDbEntity
  8
001
370
     9
100
AcDbLine
 10
86.395877
 20
153.532332
 30
0.0
 11
86.395877
 21
173.760511
 31
0.0
  0
LINE
  5
1D3
330
1CF
100
AcDbEntity
  8
001
370
     9
100
AcDbLine
 10
83.395877
 20
151.22293
 30
0.0
 11
83.395877
 21
173.760511
 31
0.0
  0
LINE
  5
1D4
330
1CF
100
AcDbEntity
  8
001
370
     9
100
AcDbLine
 10
86.395877
 20
170.323011
 30
0.0
 11
83.395877
 21
170.323011
 31
0.0
  0
POLYLINE
  5
1D5
330
1CF
100
AcDbEntity
  8
001
370
     9
100
AcDb2dPolyline
 66
     1
 10
0.0
 20
0.0
 30
0.0
  0
VERTEX
  5
1D7
330
1D5
100
AcDbEntity
  8
001
370
     9
100
AcDbVertex
100
AcDb2dVertex
 10
88.270877
 20
169.820606
 30
0.0
  0
VERTEX
  5
1D8
330
1D5
100
AcDbEntity
  8
001
370
     9
100
AcDbVertex
100
AcDb2dVertex
 10
86.395877
 20
170.323011
 30
0.0
  0
VERTEX
  5
1D9
330
1D5
100
AcDbEntity
  8
001
370
     9
100
AcDbVertex
100
AcDb2dVertex
 10
88.270877
 20
170.825415
 30
0.0
  0
SEQEND
  5
1D6
330
1D5
100
AcDbEntity
  8
001
370
     9
  0
POLYLINE
  5
1DA
330
1CF
100
AcDbEntity
  8
001
370
     9
100
AcDb2dPolyline
 66
     1
 10
0.0
 20
0.0
 30
0.0
  0
VERTEX
  5
1DC
330
1DA
100
AcDbEntity
  8
001
370
     9
100
AcDbVertex
100
AcDb2dVertex
 10
81.520877
 20
170.825415
 30
0.0
  0
VERTEX
  5
1DD
330
1DA
100
AcDbEntity
  8
001
370
     9
100
AcDbVertex
100
AcDb2dVertex
 10
83.395877
 20
170.323011
 30
0.0
  0
VERTEX
  5
1DE
330
1DA
100
AcDbEntity
  8
001
370
     9
100
AcDbVertex
100
AcDb2dVertex
 10
81.520877
 20
169.820606
 30
0.0
  0
SEQEND
  5
1DB
330
1DA
100
AcDbEntity
  8
001
370
     9
  0
TEXT
  5
1DF
330
1CF
100
AcDbEntity
  8
001
370
    30
100
AcDbText
 10
64.020877
 20
171.573011
 30
0.0
 40
5.0
  1
（３）
 41
0.833333
100
AcDbText
  0
POINT
  5
1E0
330
1CF
100
AcDbEntity
  8
001
370
     9
100
AcDbPoint
 10
86.395877
 20
153.532332
 30
0.0
  0
POINT
  5
1E1
330
1CF
100
AcDbEntity
  8
001
370
     9
100
AcDbPoint
 10
83.395877
 20
151.22293
 30
0.0
  0
POINT
  5
1E2
330
1CF
100
AcDbEntity
  8
001
370
     9
100
AcDbPoint
 10
83.395877
 20
170.323011
 30
0.0
  0
LINE
  5
1E3
330
1CF
100
AcDbEntity
  8
001
370
     9
100
AcDbLine
 10
86.395877
 20
170.323011
 30
0.0
 11
89.520877
 21
170.323011
 31
0.0
  0
LINE
  5
1E4
330
1CF
100
AcDbEntity
  8
001
370
     9
100
AcDbLine
 10
83.395877
 20
170.323011
 30
0.0
 11
60.270877
 21
170.323011
 31
0.0
  0
ENDBLK
  5
1D1
330
1CF
100
AcDbEntity
  8
0
100
AcDbBlockEnd
  0
BLOCK
  5
1E6
330
1E5
100
AcDbEntity
  8
0
100
AcDbBlockBegin
  2
*D24
 70
     1
 10
0.0
 20
0.0
 30
0.0
  3
*D24
  1

  0
LINE
  5
1E8
330
1E5
100
AcDbEntity
  8
001
370
     9
100
AcDbLine
 10
83.395877
 20
46.948059
 30
0.0
 11
63.272747
 21
46.948059
 31
0.0
  0
LINE
  5
1E9
330
1E5
100
AcDbEntity
  8
001
370
     9
100
AcDbLine
 10
83.395877
 20
30.948059
 30
0.0
 11
63.272747
 21
30.948059
 31
0.0
  0
LINE
  5
1EA
330
1E5
100
AcDbEntity
  8
001
370
     9
100
AcDbLine
 10
66.710247
 20
46.948059
 30
0.0
 11
66.710247
 21
30.948059
 31
0.0
  0
POLYLINE
  5
1EB
330
1E5
100
AcDbEntity
  8
001
370
     9
100
AcDb2dPolyline
 66
     1
 10
0.0
 20
0.0
 30
0.0
  0
VERTEX
  5
1ED
330
1EB
100
AcDbEntity
  8
001
370
     9
100
AcDbVertex
100
AcDb2dVertex
 10
67.212652
 20
48.823059
 30
0.0
  0
VERTEX
  5
1EE
330
1EB
100
AcDbEntity
  8
001
370
     9
100
AcDbVertex
100
AcDb2dVertex
 10
66.710247
 20
46.948059
 30
0.0
  0
VERTEX
  5
1EF
330
1EB
100
AcDbEntity
  8
001
370
     9
100
AcDbVertex
100
AcDb2dVertex
 10
66.207843
 20
48.823059
 30
0.0
  0
SEQEND
  5
1EC
330
1EB
100
AcDbEntity
  8
001
370
     9
  0
POLYLINE
  5
1F0
330
1E5
100
AcDbEntity
  8
001
370
     9
100
AcDb2dPolyline
 66
     1
 10
0.0
 20
0.0
 30
0.0
  0
VERTEX
  5
1F2
330
1F0
100
AcDbEntity
  8
001
370
     9
100
AcDbVertex
100
AcDb2dVertex
 10
66.207843
 20
29.073059
 30
0.0
  0
VERTEX
  5
1F3
330
1F0
100
AcDbEntity
  8
001
370
     9
100
AcDbVertex
100
AcDb2dVertex
 10
66.710247
 20
30.948059
 30
0.0
  0
VERTEX
  5
1F4
330
1F0
100
AcDbEntity
  8
001
370
     9
100
AcDbVertex
100
AcDb2dVertex
 10
67.212652
 20
29.073059
 30
0.0
  0
SEQEND
  5
1F1
330
1F0
100
AcDbEntity
  8
001
370
     9
  0
TEXT
  5
1F5
330
1E5
100
AcDbEntity
  8
001
370
    30
100
AcDbText
 10
65.460247
 20
51.323059
 30
0.0
 40
5.0
  1
%%c１６
 50
90.000003
 41
0.882353
100
AcDbText
  0
POINT
  5
1F6
330
1E5
100
AcDbEntity
  8
001
370
     9
100
AcDbPoint
 10
83.395877
 20
46.948059
 30
0.0
  0
POINT
  5
1F7
330
1E5
100
AcDbEntity
  8
001
370
     9
100
AcDbPoint
 10
83.395877
 20
30.948059
 30
0.0
  0
POINT
  5
1F8
330
1E5
100
AcDbEntity
  8
001
370
     9
100
AcDbPoint
 10
66.710247
 20
30.948059
 30
0.0
  0
LINE
  5
1F9
330
1E5
100
AcDbEntity
  8
001
370
     9
100
AcDbLine
 10
66.710247
 20
46.948059
 30
0.0
 11
66.710247
 21
70.073059
 31
0.0
  0
LINE
  5
1FA
330
1E5
100
AcDbEntity
  8
001
370
     9
100
AcDbLine
 10
66.710247
 20
30.948059
 30
0.0
 11
66.710247
 21
27.823059
 31
0.0
  0
ENDBLK
  5
1E7
330
1E5
100
AcDbEntity
  8
0
100
AcDbBlockEnd
  0
ENDSEC
  0
SECTION
  2
ENTITIES
  0
INSERT
  5
1FB
330
1F
100
AcDbEntity
  8
001
  6
ByBlock
 62
     0
370
    -2
100
AcDbBlockReference
  2
JZB-1
 10
0.0
 20
0.0
 30
0.0
  0
INSERT
  5
1FC
330
1F
100
AcDbEntity
  8
001
  6
ByBlock
 62
     0
370
    -2
100
AcDbBlockReference
  2
JZB-2
 10
0.0
 20
0.0
 30
0.0
  0
INSERT
  5
1FD
330
1F
100
AcDbEntity
  8
001
  6
ByBlock
 62
     0
370
    -2
100
AcDbBlockReference
  2
JZB-3
 10
0.0
 20
0.0
 30
0.0
  0
INSERT
  5
1FE
330
1F
100
AcDbEntity
  8
001
  6
ByBlock
 62
     0
370
    -2
100
AcDbBlockReference
  2
JZB-4
 10
0.0
 20
0.0
 30
0.0
  0
INSERT
  5
1FF
330
1F
100
AcDbEntity
  8
001
  6
ByBlock
 62
     0
370
    -2
100
AcDbBlockReference
  2
JZB-5
 10
0.0
 20
0.0
 30
0.0
  0
DIMENSION
  5
200
330
1F
100
AcDbEntity
  8
001
370
     9
100
AcDbDimension
  2
*D6
 10
118.395877
 20
101.120292
 30
0.0
 11
115.895877
 21
104.870292
 31
0.0
 70
   160
 71
     5
 42
-1.0
  3
Standard
100
AcDbAlignedDimension
 13
113.395877
 23
121.532332
 33
0.0
 14
118.395877
 24
121.532332
 34
0.0
100
AcDbRotatedDimension
  0
DIMENSION
  5
201
330
1F
100
AcDbEntity
  8
001
370
     9
100
AcDbDimension
  2
*D7
 10
113.395877
 20
101.120292
 30
0.0
 11
106.895877
 21
104.870292
 31
0.0
 70
   160
 71
     5
 42
-1.0
  3
Standard
100
AcDbAlignedDimension
 13
100.395877
 23
126.032332
 33
0.0
 14
113.395877
 24
121.532332
 34
0.0
100
AcDbRotatedDimension
  0
DIMENSION
  5
202
330
1F
100
AcDbEntity
  8
001
370
     9
100
AcDbDimension
  2
*D8
 10
83.395877
 20
101.120292
 30
0.0
 11
91.895877
 21
104.870292
 31
0.0
 70
   160
 71
     5
 42
-1.0
  3
Standard
100
AcDbAlignedDimension
 13
100.395877
 23
126.032332
 33
0.0
 14
83.395877
 24
129.841733
 34
0.0
 50
180.0
100
AcDbRotatedDimension
  0
DIMENSION
  5
203
330
1F
100
AcDbEntity
  8
001
370
     9
100
AcDbDimension
  2
*D9
 10
198.395877
 20
89.338704
 30
0.0
 11
140.895877
 21
93.088704
 31
0.0
 70
   160
 71
     5
 42
-1.0
  3
Standard
100
AcDbAlignedDimension
 13
83.395877
 23
129.841733
 33
0.0
 14
198.395877
 24
126.532332
 34
0.0
100
AcDbRotatedDimension
  0
DIMENSION
  5
204
330
1F
100
AcDbEntity
  8
001
370
     9
100
AcDbDimension
  2
*D10
 10
65.661194
 20
127.532332
 30
0.0
 11
61.911194
 21
140.532331
 31
0.0
 70
   160
 71
     5
 42
-1.0
  3
Standard
100
AcDbAlignedDimension
 13
86.663826
 23
153.532332
 33
0.0
 14
86.663826
 24
127.532332
 34
0.0
 50
270.0
100
AcDbRotatedDimension
  0
DIMENSION
  5
205
330
1F
100
AcDbEntity
  8
001
370
     9
100
AcDbDimension
  2
*D11
 10
54.112031
 20
125.532332
 30
0.0
 11
50.36203
 21
140.532331
 31
0.0
 70
   160
 71
     5
 42
-1.0
  3
Standard
100
AcDbAlignedDimension
 13
100.895877
 23
155.532332
 33
0.0
 14
100.895877
 24
125.532332
 34
0.0
 50
270.0
100
AcDbRotatedDimension
  0
DIMENSION
  5
206
330
1F
100
AcDbEntity
  8
001
370
     9
100
AcDbDimension
  2
*D12
 10
42.562867
 20
120.532332
 30
0.0
 11
38.812867
 21
140.532331
 31
0.0
 70
   160
 71
     5
 42
-1.0
  3
Standard
100
AcDbAlignedDimension
 13
114.395877
 23
160.532332
 33
0.0
 14
117.395877
 24
120.532332
 34
0.0
 50
270.0
100
AcDbRotatedDimension
  0
DIMENSION
  5
207
330
1F
100
AcDbEntity
  8
001
370
     9
100
AcDbDimension
  2
*D13
 10
83.395877
 20
63.689954
 30
0.0
 11
88.395877
 21
67.439954
 31
0.0
 70
   160
 71
     5
 42
-1.0
  3
Standard
100
AcDbAlignedDimension
 13
93.395877
 23
58.478742
 33
0.0
 14
83.395877
 24
49.638658
 34
0.0
 50
180.0
100
AcDbRotatedDimension
  0
DIMENSION
  5
208
330
1F
100
AcDbEntity
  8
001
370
     9
100
AcDbDimension
  2
*D14
 10
93.395877
 20
63.689954
 30
0.0
 11
100.395877
 21
67.439954
 31
0.0
 70
   160
 71
     5
 42
-1.0
  3
Standard
100
AcDbAlignedDimension
 13
107.395877
 23
58.478742
 33
0.0
 14
93.395877
 24
58.478742
 34
0.0
 50
180.0
100
AcDbRotatedDimension
  0
DIMENSION
  5
209
330
1F
100
AcDbEntity
  8
001
370
     9
100
AcDbDimension
  2
*D15
 10
224.758137
 20
124.532332
 30
0.0
 11
221.008137
 21
140.532332
 31
0.0
 70
   160
 71
     5
 42
-1.0
  3
Standard
100
AcDbAlignedDimension
 13
196.395877
 23
156.532332
 33
0.0
 14
196.395877
 24
124.532332
 34
0.0
 50
270.0
100
AcDbRotatedDimension
  0
INSERT
  5
20A
330
1F
100
AcDbEntity
  8
001
  6
ByBlock
 62
     0
370
    -2
100
AcDbBlockReference
  2
DIM-6
 10
0.0
 20
0.0
 30
0.0
  0
DIMENSION
  5
20B
330
1F
100
AcDbEntity
  8
001
370
     9
100
AcDbDimension
  2
*D17
 10
254.610743
 20
103.447749
 30
0.0
 11
269.610743
 21
107.197749
 31
0.0
 70
   160
 71
     5
 42
-1.0
  3
Standard
100
AcDbAlignedDimension
 13
284.610743
 23
140.532332
 33
0.0
 14
254.610743
 24
132.786365
 34
0.0
 50
180.0
100
AcDbRotatedDimension
  0
DIMENSION
  5
20C
330
1F
100
AcDbEntity
  8
001
370
     9
100
AcDbDimension
  2
*D18
 10
198.395877
 20
101.120292
 30
0.0
 11
158.395877
 21
104.870292
 31
0.0
 70
   160
 71
     5
 42
-1.0
  3
Standard
100
AcDbAlignedDimension
 13
118.395877
 23
121.532332
 33
0.0
 14
198.395877
 24
126.532332
 34
0.0
100
AcDbRotatedDimension
  0
TEXT
  5
20D
330
1F
100
AcDbEntity
  8
001
370
    30
100
AcDbText
 10
82.526266
 20
7.846215
 30
0.0
 40
5.0
  1
Ｃ０．５
 50
45.000001
 41
0.833333
100
AcDbText
  0
POLYLINE
  5
20E
330
1F
100
AcDbEntity
  8
001
370
     9
100
AcDb2dPolyline
 66
     1
 10
0.0
 20
0.0
 30
0.0
  0
VERTEX
  5
210
330
20E
100
AcDbEntity
  8
001
370
     9
100
AcDbVertex
100
AcDb2dVertex
 10
98.964798
 20
23.227487
 30
0.0
  0
VERTEX
  5
211
330
20E
100
AcDbEntity
  8
001
370
     9
100
AcDbVertex
100
AcDb2dVertex
 10
100.645877
 20
24.198059
 30
0.0
  0
VERTEX
  5
212
330
20E
100
AcDbEntity
  8
001
370
     9
100
AcDbVertex
100
AcDb2dVertex
 10
99.675306
 20
22.51698
 30
0.0
  0
SEQEND
  5
20F
330
20E
100
AcDbEntity
  8
001
370
     9
  0
LINE
  5
213
330
1F
100
AcDbEntity
  8
001
370
     9
100
AcDbLine
 10
100.645877
 20
24.198059
 30
0.0
 11
80.758499
 21
4.310681
 31
0.0
  0
DIMENSION
  5
214
330
1F
100
AcDbEntity
  8
001
370
     9
100
AcDbDimension
  2
*D19
 10
84.395877
 20
28.25746
 30
0.0
 11
69.676682
 21
22.443821
 31
0.0
 70
   164
 71
     5
 42
-1.0
  3
Standard
100
AcDbRadialDimension
 15
83.579331
 25
27.68018
 35
0.0
 40
0.0
  0
DIMENSION
  5
215
330
1F
100
AcDbEntity
  8
001
370
     9
100
AcDbDimension
  2
*D20
 10
117.395877
 20
19.948059
 30
0.0
 11
130.632379
 21
11.27349
 31
0.0
 70
   164
 71
     5
 42
-1.0
  3
Standard
100
AcDbRadialDimension
 15
118.078566
 25
19.21735
 35
0.0
 40
0.0
  0
DIMENSION
  5
216
330
1F
100
AcDbEntity
  8
001
370
     9
100
AcDbDimension
  2
*D21
 10
196.395877
 20
154.532332
 30
0.0
 11
205.766568
 21
168.47483
 31
0.0
 70
   164
 71
     5
 42
-1.0
  3
Standard
100
AcDbRadialDimension
 15
197.853901
 25
155.901334
 35
0.0
 40
0.0
  0
DIMENSION
  5
217
330
1F
100
AcDbEntity
  8
001
370
     9
100
AcDbDimension
  2
*D22
 10
63.879217
 20
140.532332
 30
0.0
 11
142.600637
 21
166.809166
 31
0.0
 70
    34
 71
     5
 42
-1.0
  3
Standard
100
AcDb2LineAngularDimension
 13
86.163826
 23
153.398357
 33
0.0
 14
63.879217
 24
140.532332
 34
0.0
 15
139.682884
 25
140.532332
 35
0.0
 16
140.420306
 26
161.041455
 36
0.0
  0
DIMENSION
  5
218
330
1F
100
AcDbEntity
  8
001
370
     9
100
AcDbDimension
  2
*D23
 10
83.395877
 20
170.323011
 30
0.0
 11
71.520877
 21
174.073011
 31
0.0
 70
   160
 71
     5
 42
-1.0
  3
Standard
100
AcDbAlignedDimension
 13
86.395877
 23
153.532332
 33
0.0
 14
83.395877
 24
151.22293
 34
0.0
 50
180.0
100
AcDbRotatedDimension
  0
DIMENSION
  5
219
330
1F
100
AcDbEntity
  8
001
370
     9
100
AcDbDimension
  2
*D24
 10
66.710247
 20
30.948059
 30
0.0
 11
62.960247
 21
58.823059
 31
0.0
 70
   160
 71
     5
 42
-1.0
  3
Standard
100
AcDbAlignedDimension
 13
83.395877
 23
46.948059
 33
0.0
 14
83.395877
 24
30.948059
 34
0.0
 50
270.0
100
AcDbRotatedDimension
  0
ARC
  5
21A
330
1F
100
AcDbEntity
  8
001
 62
   253
370
    50
100
AcDbCircle
 10
117.395877
 20
159.532332
 30
0.0
 40
1.0
100
AcDbArc
 50
0.0
 51
90.0
  0
ARC
  5
21B
330
1F
100
AcDbEntity
  8
001
 62
   253
370
    50
100
AcDbCircle
 10
117.395877
 20
121.532332
 30
0.0
 40
1.0
100
AcDbArc
 50
270.0
 51
0.0
  0
LINE
  5
21C
330
1F
100
AcDbEntity
  8
001
 62
   253
370
    50
100
AcDbLine
 10
118.395877
 20
159.532332
 30
0.0
 11
118.395877
 21
121.532332
 31
0.0
  0
LINE
  5
21D
330
1F
100
AcDbEntity
  8
001
 62
   253
370
    50
100
AcDbLine
 10
117.395877
 20
160.532332
 30
0.0
 11
114.395877
 21
160.532332
 31
0.0
  0
LINE
  5
21E
330
1F
100
AcDbEntity
  8
001
 62
   253
370
    50
100
AcDbLine
 10
114.395877
 20
120.532332
 30
0.0
 11
117.395877
 21
120.532332
 31
0.0
  0
ARC
  5
21F
330
1F
100
AcDbEntity
  8
001
 62
   253
370
    50
100
AcDbCircle
 10
114.395877
 20
121.532332
 30
0.0
 40
0.9999999999999966
100
AcDbArc
 50
180.0
 51
270.0
  0
ARC
  5
220
330
1F
100
AcDbEntity
  8
001
 62
   253
370
    50
100
AcDbCircle
 10
114.395877
 20
159.532332
 30
0.0
 40
0.9999999999999966
100
AcDbArc
 50
90.0
 51
180.0
  0
LINE
  5
221
330
1F
100
AcDbEntity
  8
001
 62
   253
370
    50
100
AcDbLine
 10
113.395877
 20
121.532332
 30
0.0
 11
113.395877
 21
159.532332
 31
0.0
  0
POLYLINE
  5
222
330
1F
100
AcDbEntity
  8
001
 62
   253
370
    50
100
AcDb2dPolyline
 66
     1
 10
0.0
 20
0.0
 30
0.0
  0
VERTEX
  5
224
330
222
100
AcDbEntity
  8
001
 62
   253
370
    50
100
AcDbVertex
100
AcDb2dVertex
 10
109.578679
 20
136.876932
 30
0.0
  0
VERTEX
  5
225
330
222
100
AcDbEntity
  8
001
 62
   253
370
    50
100
AcDbVertex
100
AcDb2dVertex
 10
109.734804
 20
136.976665
 30
0.0
  0
VERTEX
  5
226
330
222
100
AcDbEntity
  8
001
 62
   253
370
    50
100
AcDbVertex
100
AcDb2dVertex
 10
109.891213
 20
137.084969
 30
0.0
  0
VERTEX
  5
227
330
222
100
AcDbEntity
  8
001
 62
   253
370
    50
100
AcDbVertex
100
AcDb2dVertex
 10
110.020323
 20
137.185496
 30
0.0
  0
VERTEX
  5
228
330
222
100
AcDbEntity
  8
001
 62
   253
370
    50
100
AcDbVertex
100
AcDb2dVertex
 10
110.135058
 20
137.284168
 30
0.0
  0
VERTEX
  5
229
330
222
100
AcDbEntity
  8
001
 62
   253
370
    50
100
AcDbVertex
100
AcDb2dVertex
 10
110.185634
 20
137.331858
 30
0.0
  0
VERTEX
  5
22A
330
222
100
AcDbEntity
  8
001
 62
   253
370
    50
100
AcDbVertex
100
AcDb2dVertex
 10
110.246825
 20
137.394681
 30
0.0
  0
VERTEX
  5
22B
330
222
100
AcDbEntity
  8
001
 62
   253
370
    50
100
AcDbVertex
100
AcDb2dVertex
 10
110.263709
 20
137.413297
 30
0.0
  0
VERTEX
  5
22C
330
222
100
AcDbEntity
  8
001
 62
   253
370
    50
100
AcDbVertex
100
AcDb2dVertex
 10
110.270741
 20
137.42539
 30
0.0
  0
VERTEX
  5
22D
330
222
100
AcDbEntity
  8
001
 62
   253
370
    50
100
AcDbVertex
100
AcDb2dVertex
 10
110.25493
 20
137.423018
 30
0.0
  0
VERTEX
  5
22E
330
222
100
AcDbEntity
  8
001
 62
   253
370
    50
100
AcDbVertex
100
AcDb2dVertex
 10
110.224782
 20
137.409143
 30
0.0
  0
VERTEX
  5
22F
330
222
100
AcDbEntity
  8
001
 62
   253
370
    50
100
AcDbVertex
100
AcDb2dVertex
 10
110.141851
 20
137.358943
 30
0.0
  0
VERTEX
  5
230
330
222
100
AcDbEntity
  8
001
 62
   253
370
    50
100
AcDbVertex
100
AcDb2dVertex
 10
110.08501
 20
137.313501
 30
0.0
  0
VERTEX
  5
231
330
222
100
AcDbEntity
  8
001
 62
   253
370
    50
100
AcDbVertex
100
AcDb2dVertex
 10
109.81313
 20
137.140751
 30
0.0
  0
VERTEX
  5
232
330
222
100
AcDbEntity
  8
001
 62
   253
370
    50
100
AcDbVertex
100
AcDb2dVertex
 10
109.489307
 20
136.986442
 30
0.0
  0
VERTEX
  5
233
330
222
100
AcDbEntity
  8
001
 62
   253
370
    50
100
AcDbVertex
100
AcDb2dVertex
 10
109.251295
 20
136.889104
 30
0.0
  0
VERTEX
  5
234
330
222
100
AcDbEntity
  8
001
 62
   253
370
    50
100
AcDbVertex
100
AcDb2dVertex
 10
109.014513
 20
136.809229
 30
0.0
  0
VERTEX
  5
235
330
222
100
AcDbEntity
  8
001
 62
   253
370
    50
100
AcDbVertex
100
AcDb2dVertex
 10
108.766512
 20
136.745546
 30
0.0
  0
VERTEX
  5
236
330
222
100
AcDbEntity
  8
001
 62
   253
370
    50
100
AcDbVertex
100
AcDb2dVertex
 10
108.513349
 20
136.691595
 30
0.0
  0
SEQEND
  5
223
330
222
100
AcDbEntity
  8
001
370
    50
  0
LINE
  5
237
330
1F
100
AcDbEntity
  8
001
 62
   253
370
    50
100
AcDbLine
 10
109.426355
 20
136.790175
 30
0.0
 11
109.57367
 21
136.873945
 31
0.0
  0
POLYLINE
  5
238
330
1F
100
AcDbEntity
  8
001
 62
   253
370
    50
100
AcDb2dPolyline
 66
     1
 10
0.0
 20
0.0
 30
0.0
  0
VERTEX
  5
23A
330
238
100
AcDbEntity
  8
001
 62
   253
370
    50
100
AcDbVertex
100
AcDb2dVertex
 10
106.577235
 20
136.359369
 30
0.0
  0
VERTEX
  5
23B
330
238
100
AcDbEntity
  8
001
 62
   253
370
    50
100
AcDbVertex
100
AcDb2dVertex
 10
106.526376
 20
136.372437
 30
0.0
  0
VERTEX
  5
23C
330
238
100
AcDbEntity
  8
001
 62
   253
370
    50
100
AcDbVertex
100
AcDb2dVertex
 10
106.475449
 20
136.385868
 30
0.0
  0
VERTEX
  5
23D
330
238
100
AcDbEntity
  8
001
 62
   253
370
    50
100
AcDbVertex
100
AcDb2dVertex
 10
106.383046
 20
136.413337
 30
0.0
  0
VERTEX
  5
23E
330
238
100
AcDbEntity
  8
001
 62
   253
370
    50
100
AcDbVertex
100
AcDb2dVertex
 10
106.294899
 20
136.450547
 30
0.0
  0
VERTEX
  5
23F
330
238
100
AcDbEntity
  8
001
 62
   253
370
    50
100
AcDbVertex
100
AcDb2dVertex
 10
106.238839
 20
136.484359
 30
0.0
  0
VERTEX
  5
240
330
238
100
AcDbEntity
  8
001
 62
   253
370
    50
100
AcDbVertex
100
AcDb2dVertex
 10
106.184878
 20
136.522169
 30
0.0
  0
SEQEND
  5
239
330
238
100
AcDbEntity
  8
001
370
    50
  0
POLYLINE
  5
241
330
1F
100
AcDbEntity
  8
001
 62
   253
370
    50
100
AcDb2dPolyline
 66
     1
 10
0.0
 20
0.0
 30
0.0
  0
VERTEX
  5
243
330
241
100
AcDbEntity
  8
001
 62
   253
370
    50
100
AcDbVertex
100
AcDb2dVertex
 10
108.513349
 20
136.691595
 30
0.0
  0
VERTEX
  5
244
330
241
100
AcDbEntity
  8
001
 62
   253
370
    50
100
AcDbVertex
100
AcDb2dVertex
 10
108.488507
 20
136.684476
 30
0.0
  0
VERTEX
  5
245
330
241
100
AcDbEntity
  8
001
 62
   253
370
    50
100
AcDbVertex
100
AcDb2dVertex
 10
108.463631
 20
136.677477
 30
0.0
  0
VERTEX
  5
246
330
241
100
AcDbEntity
  8
001
 62
   253
370
    50
100
AcDbVertex
100
AcDb2dVertex
 10
108.438698
 20
136.670679
 30
0.0
  0
VERTEX
  5
247
330
241
100
AcDbEntity
  8
001
 62
   253
370
    50
100
AcDbVertex
100
AcDb2dVertex
 10
108.413732
 20
136.664002
 30
0.0
  0
SEQEND
  5
242
330
241
100
AcDbEntity
  8
001
370
    50
  0
LINE
  5
248
330
1F
100
AcDbEntity
  8
001
 62
   253
370
    50
100
AcDbLine
 10
109.399193
 20
136.776078
 30
0.0
 11
109.578679
 21
136.876932
 31
0.0
  0
POLYLINE
  5
249
330
1F
100
AcDbEntity
  8
001
 62
   253
370
    50
100
AcDb2dPolyline
 66
     1
 10
0.0
 20
0.0
 30
0.0
  0
VERTEX
  5
24B
330
249
100
AcDbEntity
  8
001
 62
   253
370
    50
100
AcDbVertex
100
AcDb2dVertex
 10
109.399193
 20
136.776078
 30
0.0
  0
VERTEX
  5
24C
330
249
100
AcDbEntity
  8
001
 62
   253
370
    50
100
AcDbVertex
100
AcDb2dVertex
 10
109.149409
 20
136.657738
 30
0.0
  0
VERTEX
  5
24D
330
249
100
AcDbEntity
  8
001
 62
   253
370
    50
100
AcDbVertex
100
AcDb2dVertex
 10
108.895129
 20
136.550841
 30
0.0
  0
VERTEX
  5
24E
330
249
100
AcDbEntity
  8
001
 62
   253
370
    50
100
AcDbVertex
100
AcDb2dVertex
 10
108.626695
 20
136.462368
 30
0.0
  0
VERTEX
  5
24F
330
249
100
AcDbEntity
  8
001
 62
   253
370
    50
100
AcDbVertex
100
AcDb2dVertex
 10
108.352075
 20
136.393337
 30
0.0
  0
VERTEX
  5
250
330
249
100
AcDbEntity
  8
001
 62
   253
370
    50
100
AcDbVertex
100
AcDb2dVertex
 10
108.034406
 20
136.333851
 30
0.0
  0
VERTEX
  5
251
330
249
100
AcDbEntity
  8
001
 62
   253
370
    50
100
AcDbVertex
100
AcDb2dVertex
 10
107.713832
 20
136.295414
 30
0.0
  0
VERTEX
  5
252
330
249
100
AcDbEntity
  8
001
 62
   253
370
    50
100
AcDbVertex
100
AcDb2dVertex
 10
107.452447
 20
136.280806
 30
0.0
  0
VERTEX
  5
253
330
249
100
AcDbEntity
  8
001
 62
   253
370
    50
100
AcDbVertex
100
AcDb2dVertex
 10
107.190459
 20
136.281843
 30
0.0
  0
VERTEX
  5
254
330
249
100
AcDbEntity
  8
001
 62
   253
370
    50
100
AcDbVertex
100
AcDb2dVertex
 10
106.923963
 20
136.300487
 30
0.0
  0
VERTEX
  5
255
330
249
100
AcDbEntity
  8
001
 62
   253
370
    50
100
AcDbVertex
100
AcDb2dVertex
 10
106.660346
 20
136.341327
 30
0.0
  0
VERTEX
  5
256
330
249
100
AcDbEntity
  8
001
 62
   253
370
    50
100
AcDbVertex
100
AcDb2dVertex
 10
106.618755
 20
136.350174
 30
0.0
  0
VERTEX
  5
257
330
249
100
AcDbEntity
  8
001
 62
   253
370
    50
100
AcDbVertex
100
AcDb2dVertex
 10
106.577235
 20
136.359369
 30
0.0
  0
SEQEND
  5
24A
330
249
100
AcDbEntity
  8
001
370
    50
  0
LINE
  5
258
330
1F
100
AcDbEntity
  8
001
 62
   253
370
    50
100
AcDbLine
 10
103.493385
 20
141.410142
 30
0.0
 11
103.461974
 21
141.279507
 31
0.0
  0
LINE
  5
259
330
1F
100
AcDbEntity
  8
001
 62
   253
370
    50
100
AcDbLine
 10
103.461974
 20
141.279507
 30
0.0
 11
103.447948
 21
141.213937
 31
0.0
  0
POLYLINE
  5
25A
330
1F
100
AcDbEntity
  8
001
 62
   253
370
    50
100
AcDb2dPolyline
 66
     1
 10
0.0
 20
0.0
 30
0.0
  0
VERTEX
  5
25C
330
25A
100
AcDbEntity
  8
001
 62
   253
370
    50
100
AcDbVertex
100
AcDb2dVertex
 10
103.447948
 20
141.213937
 30
0.0
  0
VERTEX
  5
25D
330
25A
100
AcDbEntity
  8
001
 62
   253
370
    50
100
AcDbVertex
100
AcDb2dVertex
 10
103.416551
 20
141.035455
 30
0.0
  0
VERTEX
  5
25E
330
25A
100
AcDbEntity
  8
001
 62
   253
370
    50
100
AcDbVertex
100
AcDb2dVertex
 10
103.391239
 20
140.856295
 30
0.0
  0
VERTEX
  5
25F
330
25A
100
AcDbEntity
  8
001
 62
   253
370
    50
100
AcDbVertex
100
AcDb2dVertex
 10
103.375505
 20
140.665577
 30
0.0
  0
VERTEX
  5
260
330
25A
100
AcDbEntity
  8
001
 62
   253
370
    50
100
AcDbVertex
100
AcDb2dVertex
 10
103.366578
 20
140.474102
 30
0.0
  0
SEQEND
  5
25B
330
25A
100
AcDbEntity
  8
001
370
    50
  0
POLYLINE
  5
261
330
1F
100
AcDbEntity
  8
001
 62
   253
370
    50
100
AcDb2dPolyline
 66
     1
 10
0.0
 20
0.0
 30
0.0
  0
VERTEX
  5
263
330
261
100
AcDbEntity
  8
001
 62
   253
370
    50
100
AcDbVertex
100
AcDb2dVertex
 10
103.366578
 20
140.474102
 30
0.0
  0
VERTEX
  5
264
330
261
100
AcDbEntity
  8
001
 62
   253
370
    50
100
AcDbVertex
100
AcDb2dVertex
 10
103.366605
 20
140.378091
 30
0.0
  0
VERTEX
  5
265
330
261
100
AcDbEntity
  8
001
 62
   253
370
    50
100
AcDbVertex
100
AcDb2dVertex
 10
103.36792
 20
140.282095
 30
0.0
  0
VERTEX
  5
266
330
261
100
AcDbEntity
  8
001
 62
   253
370
    50
100
AcDbVertex
100
AcDb2dVertex
 10
103.391341
 20
139.949443
 30
0.0
  0
VERTEX
  5
267
330
261
100
AcDbEntity
  8
001
 62
   253
370
    50
100
AcDbVertex
100
AcDb2dVertex
 10
103.443353
 20
139.61971
 30
0.0
  0
VERTEX
  5
268
330
261
100
AcDbEntity
  8
001
 62
   253
370
    50
100
AcDbVertex
100
AcDb2dVertex
 10
103.524474
 20
139.286255
 30
0.0
  0
VERTEX
  5
269
330
261
100
AcDbEntity
  8
001
 62
   253
370
    50
100
AcDbVertex
100
AcDb2dVertex
 10
103.633052
 20
138.960857
 30
0.0
  0
VERTEX
  5
26A
330
261
100
AcDbEntity
  8
001
 62
   253
370
    50
100
AcDbVertex
100
AcDb2dVertex
 10
103.766151
 20
138.651163
 30
0.0
  0
VERTEX
  5
26B
330
261
100
AcDbEntity
  8
001
 62
   253
370
    50
100
AcDbVertex
100
AcDb2dVertex
 10
103.924413
 20
138.353487
 30
0.0
  0
VERTEX
  5
26C
330
261
100
AcDbEntity
  8
001
 62
   253
370
    50
100
AcDbVertex
100
AcDb2dVertex
 10
104.112128
 20
138.062001
 30
0.0
  0
VERTEX
  5
26D
330
261
100
AcDbEntity
  8
001
 62
   253
370
    50
100
AcDbVertex
100
AcDb2dVertex
 10
104.323696
 20
137.787334
 30
0.0
  0
VERTEX
  5
26E
330
261
100
AcDbEntity
  8
001
 62
   253
370
    50
100
AcDbVertex
100
AcDb2dVertex
 10
104.553306
 20
137.535736
 30
0.0
  0
VERTEX
  5
26F
330
261
100
AcDbEntity
  8
001
 62
   253
370
    50
100
AcDbVertex
100
AcDb2dVertex
 10
104.802938
 20
137.304053
 30
0.0
  0
VERTEX
  5
270
330
261
100
AcDbEntity
  8
001
 62
   253
370
    50
100
AcDbVertex
100
AcDb2dVertex
 10
105.078766
 20
137.088223
 30
0.0
  0
VERTEX
  5
271
330
261
100
AcDbEntity
  8
001
 62
   253
370
    50
100
AcDbVertex
100
AcDb2dVertex
 10
105.371554
 20
136.89586
 30
0.0
  0
VERTEX
  5
272
330
261
100
AcDbEntity
  8
001
 62
   253
370
    50
100
AcDbVertex
100
AcDb2dVertex
 10
105.565721
 20
136.786166
 30
0.0
  0
VERTEX
  5
273
330
261
100
AcDbEntity
  8
001
 62
   253
370
    50
100
AcDbVertex
100
AcDb2dVertex
 10
105.765806
 20
136.688225
 30
0.0
  0
VERTEX
  5
274
330
261
100
AcDbEntity
  8
001
 62
   253
370
    50
100
AcDbVertex
100
AcDb2dVertex
 10
105.973805
 20
136.601666
 30
0.0
  0
VERTEX
  5
275
330
261
100
AcDbEntity
  8
001
 62
   253
370
    50
100
AcDbVertex
100
AcDb2dVertex
 10
106.184878
 20
136.522169
 30
0.0
  0
SEQEND
  5
262
330
261
100
AcDbEntity
  8
001
370
    50
  0
LINE
  5
276
330
1F
100
AcDbEntity
  8
001
 62
   253
370
    50
100
AcDbLine
 10
113.395877
 20
155.532332
 30
0.0
 11
100.895877
 21
155.532332
 31
0.0
  0
LINE
  5
277
330
1F
100
AcDbEntity
  8
001
 62
   253
370
    50
100
AcDbLine
 10
100.895877
 20
125.532332
 30
0.0
 11
113.395877
 21
125.532332
 31
0.0
  0
LINE
  5
278
330
1F
100
AcDbEntity
  8
001
 62
   253
370
    50
100
AcDbLine
 10
100.895877
 20
155.532332
 30
0.0
 11
100.895877
 21
125.532332
 31
0.0
  0
POLYLINE
  5
279
330
1F
100
AcDbEntity
  8
001
 62
   253
370
    50
100
AcDb2dPolyline
 66
     1
 10
0.0
 20
0.0
 30
0.0
  0
VERTEX
  5
27B
330
279
100
AcDbEntity
  8
001
 62
   253
370
    50
100
AcDbVertex
100
AcDb2dVertex
 10
109.399193
 20
136.776078
 30
0.0
  0
VERTEX
  5
27C
330
279
100
AcDbEntity
  8
001
 62
   253
370
    50
100
AcDbVertex
100
AcDb2dVertex
 10
109.739543
 20
136.93732
 30
0.0
  0
VERTEX
  5
27D
330
279
100
AcDbEntity
  8
001
 62
   253
370
    50
100
AcDbVertex
100
AcDb2dVertex
 10
110.071006
 20
137.114632
 30
0.0
  0
VERTEX
  5
27E
330
279
100
AcDbEntity
  8
001
 62
   253
370
    50
100
AcDbVertex
100
AcDb2dVertex
 10
110.38536
 20
137.319982
 30
0.0
  0
VERTEX
  5
27F
330
279
100
AcDbEntity
  8
001
 62
   253
370
    50
100
AcDbVertex
100
AcDb2dVertex
 10
110.681211
 20
137.551764
 30
0.0
  0
VERTEX
  5
280
330
279
100
AcDbEntity
  8
001
 62
   253
370
    50
100
AcDbVertex
100
AcDb2dVertex
 10
110.791212
 20
137.648068
 30
0.0
  0
VERTEX
  5
281
330
279
100
AcDbEntity
  8
001
 62
   253
370
    50
100
AcDbVertex
100
AcDb2dVertex
 10
110.898068
 20
137.747761
 30
0.0
  0
VERTEX
  5
282
330
279
100
AcDbEntity
  8
001
 62
   253
370
    50
100
AcDbVertex
100
AcDb2dVertex
 10
111.126762
 20
137.985801
 30
0.0
  0
VERTEX
  5
283
330
279
100
AcDbEntity
  8
001
 62
   253
370
    50
100
AcDbVertex
100
AcDb2dVertex
 10
111.336695
 20
138.240824
 30
0.0
  0
VERTEX
  5
284
330
279
100
AcDbEntity
  8
001
 62
   253
370
    50
100
AcDbVertex
100
AcDb2dVertex
 10
111.526308
 20
138.511746
 30
0.0
  0
VERTEX
  5
285
330
279
100
AcDbEntity
  8
001
 62
   253
370
    50
100
AcDbVertex
100
AcDb2dVertex
 10
111.693061
 20
138.797115
 30
0.0
  0
VERTEX
  5
286
330
279
100
AcDbEntity
  8
001
 62
   253
370
    50
100
AcDbVertex
100
AcDb2dVertex
 10
111.797498
 20
139.010377
 30
0.0
  0
VERTEX
  5
287
330
279
100
AcDbEntity
  8
001
 62
   253
370
    50
100
AcDbVertex
100
AcDb2dVertex
 10
111.888552
 20
139.229683
 30
0.0
  0
VERTEX
  5
288
330
279
100
AcDbEntity
  8
001
 62
   253
370
    50
100
AcDbVertex
100
AcDb2dVertex
 10
111.96628
 20
139.455519
 30
0.0
  0
VERTEX
  5
289
330
279
100
AcDbEntity
  8
001
 62
   253
370
    50
100
AcDbVertex
100
AcDb2dVertex
 10
112.02967
 20
139.685794
 30
0.0
  0
VERTEX
  5
28A
330
279
100
AcDbEntity
  8
001
 62
   253
370
    50
100
AcDbVertex
100
AcDb2dVertex
 10
112.07808
 20
139.918936
 30
0.0
  0
VERTEX
  5
28B
330
279
100
AcDbEntity
  8
001
 62
   253
370
    50
100
AcDbVertex
100
AcDb2dVertex
 10
112.111038
 20
140.154759
 30
0.0
  0
VERTEX
  5
28C
330
279
100
AcDbEntity
  8
001
 62
   253
370
    50
100
AcDbVertex
100
AcDb2dVertex
 10
112.129997
 20
140.465548
 30
0.0
  0
VERTEX
  5
28D
330
279
100
AcDbEntity
  8
001
 62
   253
370
    50
100
AcDbVertex
100
AcDb2dVertex
 10
112.122021
 20
140.776941
 30
0.0
  0
VERTEX
  5
28E
330
279
100
AcDbEntity
  8
001
 62
   253
370
    50
100
AcDbVertex
100
AcDb2dVertex
 10
112.087734
 20
141.086358
 30
0.0
  0
VERTEX
  5
28F
330
279
100
AcDbEntity
  8
001
 62
   253
370
    50
100
AcDbVertex
100
AcDb2dVertex
 10
112.027208
 20
141.391631
 30
0.0
  0
VERTEX
  5
290
330
279
100
AcDbEntity
  8
001
 62
   253
370
    50
100
AcDbVertex
100
AcDb2dVertex
 10
111.945558
 20
141.675946
 30
0.0
  0
VERTEX
  5
291
330
279
100
AcDbEntity
  8
001
 62
   253
370
    50
100
AcDbVertex
100
AcDb2dVertex
 10
111.841676
 20
141.952963
 30
0.0
  0
VERTEX
  5
292
330
279
100
AcDbEntity
  8
001
 62
   253
370
    50
100
AcDbVertex
100
AcDb2dVertex
 10
111.717245
 20
142.220715
 30
0.0
  0
VERTEX
  5
293
330
279
100
AcDbEntity
  8
001
 62
   253
370
    50
100
AcDbVertex
100
AcDb2dVertex
 10
111.57307
 20
142.478337
 30
0.0
  0
VERTEX
  5
294
330
279
100
AcDbEntity
  8
001
 62
   253
370
    50
100
AcDbVertex
100
AcDb2dVertex
 10
111.397737
 20
142.741805
 30
0.0
  0
VERTEX
  5
295
330
279
100
AcDbEntity
  8
001
 62
   253
370
    50
100
AcDbVertex
100
AcDb2dVertex
 10
111.202734
 20
142.991132
 30
0.0
  0
VERTEX
  5
296
330
279
100
AcDbEntity
  8
001
 62
   253
370
    50
100
AcDbVertex
100
AcDb2dVertex
 10
110.990131
 20
143.225263
 30
0.0
  0
VERTEX
  5
297
330
279
100
AcDbEntity
  8
001
 62
   253
370
    50
100
AcDbVertex
100
AcDb2dVertex
 10
110.761266
 20
143.443496
 30
0.0
  0
VERTEX
  5
298
330
279
100
AcDbEntity
  8
001
 62
   253
370
    50
100
AcDbVertex
100
AcDb2dVertex
 10
110.483146
 20
143.671303
 30
0.0
  0
VERTEX
  5
299
330
279
100
AcDbEntity
  8
001
 62
   253
370
    50
100
AcDbVertex
100
AcDb2dVertex
 10
110.188224
 20
143.877037
 30
0.0
  0
VERTEX
  5
29A
330
279
100
AcDbEntity
  8
001
 62
   253
370
    50
100
AcDbVertex
100
AcDb2dVertex
 10
109.878237
 20
144.060599
 30
0.0
  0
VERTEX
  5
29B
330
279
100
AcDbEntity
  8
001
 62
   253
370
    50
100
AcDbVertex
100
AcDb2dVertex
 10
109.55571
 20
144.220924
 30
0.0
  0
VERTEX
  5
29C
330
279
100
AcDbEntity
  8
001
 62
   253
370
    50
100
AcDbVertex
100
AcDb2dVertex
 10
109.307104
 20
144.325411
 30
0.0
  0
VERTEX
  5
29D
330
279
100
AcDbEntity
  8
001
 62
   253
370
    50
100
AcDbVertex
100
AcDb2dVertex
 10
109.053319
 20
144.416548
 30
0.0
  0
VERTEX
  5
29E
330
279
100
AcDbEntity
  8
001
 62
   253
370
    50
100
AcDbVertex
100
AcDb2dVertex
 10
108.793905
 20
144.494727
 30
0.0
  0
VERTEX
  5
29F
330
279
100
AcDbEntity
  8
001
 62
   253
370
    50
100
AcDbVertex
100
AcDb2dVertex
 10
108.530804
 20
144.55945
 30
0.0
  0
VERTEX
  5
2A0
330
279
100
AcDbEntity
  8
001
 62
   253
370
    50
100
AcDbVertex
100
AcDb2dVertex
 10
108.265082
 20
144.610577
 30
0.0
  0
VERTEX
  5
2A1
330
279
100
AcDbEntity
  8
001
 62
   253
370
    50
100
AcDbVertex
100
AcDb2dVertex
 10
107.99709
 20
144.64799
 30
0.0
  0
VERTEX
  5
2A2
330
279
100
AcDbEntity
  8
001
 62
   253
370
    50
100
AcDbVertex
100
AcDb2dVertex
 10
107.71232
 20
144.672434
 30
0.0
  0
VERTEX
  5
2A3
330
279
100
AcDbEntity
  8
001
 62
   253
370
    50
100
AcDbVertex
100
AcDb2dVertex
 10
107.426633
 20
144.681525
 30
0.0
  0
VERTEX
  5
2A4
330
279
100
AcDbEntity
  8
001
 62
   253
370
    50
100
AcDbVertex
100
AcDb2dVertex
 10
107.139969
 20
144.675402
 30
0.0
  0
VERTEX
  5
2A5
330
279
100
AcDbEntity
  8
001
 62
   253
370
    50
100
AcDbVertex
100
AcDb2dVertex
 10
106.854036
 20
144.654057
 30
0.0
  0
VERTEX
  5
2A6
330
279
100
AcDbEntity
  8
001
 62
   253
370
    50
100
AcDbVertex
100
AcDb2dVertex
 10
106.570769
 20
144.617646
 30
0.0
  0
VERTEX
  5
2A7
330
279
100
AcDbEntity
  8
001
 62
   253
370
    50
100
AcDbVertex
100
AcDb2dVertex
 10
106.289898
 20
144.56595
 30
0.0
  0
VERTEX
  5
2A8
330
279
100
AcDbEntity
  8
001
 62
   253
370
    50
100
AcDbVertex
100
AcDb2dVertex
 10
106.010346
 20
144.498328
 30
0.0
  0
VERTEX
  5
2A9
330
279
100
AcDbEntity
  8
001
 62
   253
370
    50
100
AcDbVertex
100
AcDb2dVertex
 10
105.734959
 20
144.415323
 30
0.0
  0
VERTEX
  5
2AA
330
279
100
AcDbEntity
  8
001
 62
   253
370
    50
100
AcDbVertex
100
AcDb2dVertex
 10
105.464253
 20
144.317086
 30
0.0
  0
VERTEX
  5
2AB
330
279
100
AcDbEntity
  8
001
 62
   253
370
    50
100
AcDbVertex
100
AcDb2dVertex
 10
105.199479
 20
144.203849
 30
0.0
  0
VERTEX
  5
2AC
330
279
100
AcDbEntity
  8
001
 62
   253
370
    50
100
AcDbVertex
100
AcDb2dVertex
 10
104.942942
 20
144.076419
 30
0.0
  0
VERTEX
  5
2AD
330
279
100
AcDbEntity
  8
001
 62
   253
370
    50
100
AcDbVertex
100
AcDb2dVertex
 10
104.694268
 20
143.934235
 30
0.0
  0
VERTEX
  5
2AE
330
279
100
AcDbEntity
  8
001
 62
   253
370
    50
100
AcDbVertex
100
AcDb2dVertex
 10
104.458694
 20
143.780242
 30
0.0
  0
VERTEX
  5
2AF
330
279
100
AcDbEntity
  8
001
 62
   253
370
    50
100
AcDbVertex
100
AcDb2dVertex
 10
104.232866
 20
143.612377
 30
0.0
  0
VERTEX
  5
2B0
330
279
100
AcDbEntity
  8
001
 62
   253
370
    50
100
AcDbVertex
100
AcDb2dVertex
 10
104.017137
 20
143.430552
 30
0.0
  0
VERTEX
  5
2B1
330
279
100
AcDbEntity
  8
001
 62
   253
370
    50
100
AcDbVertex
100
AcDb2dVertex
 10
103.812555
 20
143.235993
 30
0.0
  0
VERTEX
  5
2B2
330
279
100
AcDbEntity
  8
001
 62
   253
370
    50
100
AcDbVertex
100
AcDb2dVertex
 10
103.620799
 20
143.030004
 30
0.0
  0
VERTEX
  5
2B3
330
279
100
AcDbEntity
  8
001
 62
   253
370
    50
100
AcDbVertex
100
AcDb2dVertex
 10
103.444903
 20
142.810909
 30
0.0
  0
VERTEX
  5
2B4
330
279
100
AcDbEntity
  8
001
 62
   253
370
    50
100
AcDbVertex
100
AcDb2dVertex
 10
103.263692
 20
142.541239
 30
0.0
  0
VERTEX
  5
2B5
330
279
100
AcDbEntity
  8
001
 62
   253
370
    50
100
AcDbVertex
100
AcDb2dVertex
 10
103.096163
 20
142.261923
 30
0.0
  0
SEQEND
  5
27A
330
279
100
AcDbEntity
  8
001
370
    50
  0
POLYLINE
  5
2B6
330
1F
100
AcDbEntity
  8
001
 62
   253
370
    50
100
AcDb2dPolyline
 66
     1
 10
0.0
 20
0.0
 30
0.0
  0
VERTEX
  5
2B8
330
2B6
100
AcDbEntity
  8
001
 62
   253
370
    50
100
AcDbVertex
100
AcDb2dVertex
 10
103.096163
 20
142.261923
 30
0.0
  0
VERTEX
  5
2B9
330
2B6
100
AcDbEntity
  8
001
 62
   253
370
    50
100
AcDbVertex
100
AcDb2dVertex
 10
102.960012
 20
141.965242
 30
0.0
  0
VERTEX
  5
2BA
330
2B6
100
AcDbEntity
  8
001
 62
   253
370
    50
100
AcDbVertex
100
AcDb2dVertex
 10
102.841515
 20
141.662112
 30
0.0
  0
VERTEX
  5
2BB
330
2B6
100
AcDbEntity
  8
001
 62
   253
370
    50
100
AcDbVertex
100
AcDb2dVertex
 10
102.779474
 20
141.452502
 30
0.0
  0
VERTEX
  5
2BC
330
2B6
100
AcDbEntity
  8
001
 62
   253
370
    50
100
AcDbVertex
100
AcDb2dVertex
 10
102.731261
 20
141.238968
 30
0.0
  0
VERTEX
  5
2BD
330
2B6
100
AcDbEntity
  8
001
 62
   253
370
    50
100
AcDbVertex
100
AcDb2dVertex
 10
102.695127
 20
141.02209
 30
0.0
  0
VERTEX
  5
2BE
330
2B6
100
AcDbEntity
  8
001
 62
   253
370
    50
100
AcDbVertex
100
AcDb2dVertex
 10
102.671621
 20
140.803612
 30
0.0
  0
VERTEX
  5
2BF
330
2B6
100
AcDbEntity
  8
001
 62
   253
370
    50
100
AcDbVertex
100
AcDb2dVertex
 10
102.661421
 20
140.584825
 30
0.0
  0
VERTEX
  5
2C0
330
2B6
100
AcDbEntity
  8
001
 62
   253
370
    50
100
AcDbVertex
100
AcDb2dVertex
 10
102.664726
 20
140.365771
 30
0.0
  0
VERTEX
  5
2C1
330
2B6
100
AcDbEntity
  8
001
 62
   253
370
    50
100
AcDbVertex
100
AcDb2dVertex
 10
102.691203
 20
140.067471
 30
0.0
  0
VERTEX
  5
2C2
330
2B6
100
AcDbEntity
  8
001
 62
   253
370
    50
100
AcDbVertex
100
AcDb2dVertex
 10
102.742222
 20
139.772286
 30
0.0
  0
VERTEX
  5
2C3
330
2B6
100
AcDbEntity
  8
001
 62
   253
370
    50
100
AcDbVertex
100
AcDb2dVertex
 10
102.816675
 20
139.482594
 30
0.0
  0
VERTEX
  5
2C4
330
2B6
100
AcDbEntity
  8
001
 62
   253
370
    50
100
AcDbVertex
100
AcDb2dVertex
 10
102.914057
 20
139.199847
 30
0.0
  0
VERTEX
  5
2C5
330
2B6
100
AcDbEntity
  8
001
 62
   253
370
    50
100
AcDbVertex
100
AcDb2dVertex
 10
103.034485
 20
138.924168
 30
0.0
  0
VERTEX
  5
2C6
330
2B6
100
AcDbEntity
  8
001
 62
   253
370
    50
100
AcDbVertex
100
AcDb2dVertex
 10
103.175919
 20
138.658597
 30
0.0
  0
VERTEX
  5
2C7
330
2B6
100
AcDbEntity
  8
001
 62
   253
370
    50
100
AcDbVertex
100
AcDb2dVertex
 10
103.336431
 20
138.404758
 30
0.0
  0
VERTEX
  5
2C8
330
2B6
100
AcDbEntity
  8
001
 62
   253
370
    50
100
AcDbVertex
100
AcDb2dVertex
 10
103.515041
 20
138.163344
 30
0.0
  0
VERTEX
  5
2C9
330
2B6
100
AcDbEntity
  8
001
 62
   253
370
    50
100
AcDbVertex
100
AcDb2dVertex
 10
103.732675
 20
137.911555
 30
0.0
  0
VERTEX
  5
2CA
330
2B6
100
AcDbEntity
  8
001
 62
   253
370
    50
100
AcDbVertex
100
AcDb2dVertex
 10
103.968963
 20
137.677078
 30
0.0
  0
VERTEX
  5
2CB
330
2B6
100
AcDbEntity
  8
001
 62
   253
370
    50
100
AcDbVertex
100
AcDb2dVertex
 10
104.221899
 20
137.460523
 30
0.0
  0
VERTEX
  5
2CC
330
2B6
100
AcDbEntity
  8
001
 62
   253
370
    50
100
AcDbVertex
100
AcDb2dVertex
 10
104.489769
 20
137.26285
 30
0.0
  0
VERTEX
  5
2CD
330
2B6
100
AcDbEntity
  8
001
 62
   253
370
    50
100
AcDbVertex
100
AcDb2dVertex
 10
104.811643
 20
137.061215
 30
0.0
  0
VERTEX
  5
2CE
330
2B6
100
AcDbEntity
  8
001
 62
   253
370
    50
100
AcDbVertex
100
AcDb2dVertex
 10
105.148244
 20
136.884772
 30
0.0
  0
VERTEX
  5
2CF
330
2B6
100
AcDbEntity
  8
001
 62
   253
370
    50
100
AcDbVertex
100
AcDb2dVertex
 10
105.497987
 20
136.733227
 30
0.0
  0
VERTEX
  5
2D0
330
2B6
100
AcDbEntity
  8
001
 62
   253
370
    50
100
AcDbVertex
100
AcDb2dVertex
 10
105.858238
 20
136.609878
 30
0.0
  0
VERTEX
  5
2D1
330
2B6
100
AcDbEntity
  8
001
 62
   253
370
    50
100
AcDbVertex
100
AcDb2dVertex
 10
106.021115
 20
136.564462
 30
0.0
  0
VERTEX
  5
2D2
330
2B6
100
AcDbEntity
  8
001
 62
   253
370
    50
100
AcDbVertex
100
AcDb2dVertex
 10
106.184878
 20
136.522169
 30
0.0
  0
SEQEND
  5
2B7
330
2B6
100
AcDbEntity
  8
001
370
    50
  0
LINE
  5
2D3
330
1F
100
AcDbEntity
  8
001
 62
   253
370
    50
100
AcDbLine
 10
100.895877
 20
155.532332
 30
0.0
 11
100.395877
 21
155.032332
 31
0.0
  0
LINE
  5
2D4
330
1F
100
AcDbEntity
  8
001
 62
   253
370
    50
100
AcDbLine
 10
100.395877
 20
126.032332
 30
0.0
 11
100.895877
 21
125.532332
 31
0.0
  0
LINE
  5
2D5
330
1F
100
AcDbEntity
  8
001
 62
   253
370
    50
100
AcDbLine
 10
100.395877
 20
155.032332
 30
0.0
 11
100.395877
 21
126.032332
 31
0.0
  0
ARC
  5
2D6
330
1F
100
AcDbEntity
  8
001
 62
   253
370
    50
100
AcDbCircle
 10
196.395877
 20
154.532332
 30
0.0
 40
2.0
100
AcDbArc
 50
0.0
 51
90.0
  0
ARC
  5
2D7
330
1F
100
AcDbEntity
  8
001
 62
   253
370
    50
100
AcDbCircle
 10
196.395877
 20
126.532332
 30
0.0
 40
2.0
100
AcDbArc
 50
270.0
 51
0.0
  0
POLYLINE
  5
2D8
330
1F
100
AcDbEntity
  8
001
 62
   253
370
    50
100
AcDb2dPolyline
 66
     1
 10
0.0
 20
0.0
 30
0.0
  0
VERTEX
  5
2DA
330
2D8
100
AcDbEntity
  8
001
 62
   253
370
    50
100
AcDbVertex
100
AcDb2dVertex
 10
196.395877
 20
132.786365
 30
0.0
  0
VERTEX
  5
2DB
330
2D8
100
AcDbEntity
  8
001
 62
   253
370
    50
100
AcDbVertex
100
AcDb2dVertex
 10
196.457265
 20
132.789123
 30
0.0
  0
VERTEX
  5
2DC
330
2D8
100
AcDbEntity
  8
001
 62
   253
370
    50
100
AcDbVertex
100
AcDb2dVertex
 10
196.518442
 20
132.794132
 30
0.0
  0
VERTEX
  5
2DD
330
2D8
100
AcDbEntity
  8
001
 62
   253
370
    50
100
AcDbVertex
100
AcDb2dVertex
 10
196.680125
 20
132.827816
 30
0.0
  0
VERTEX
  5
2DE
330
2D8
100
AcDbEntity
  8
001
 62
   253
370
    50
100
AcDbVertex
100
AcDb2dVertex
 10
196.834817
 20
132.887594
 30
0.0
  0
VERTEX
  5
2DF
330
2D8
100
AcDbEntity
  8
001
 62
   253
370
    50
100
AcDbVertex
100
AcDb2dVertex
 10
196.934838
 20
132.940442
 30
0.0
  0
VERTEX
  5
2E0
330
2D8
100
AcDbEntity
  8
001
 62
   253
370
    50
100
AcDbVertex
100
AcDb2dVertex
 10
197.029714
 20
133.00162
 30
0.0
  0
VERTEX
  5
2E1
330
2D8
100
AcDbEntity
  8
001
 62
   253
370
    50
100
AcDbVertex
100
AcDb2dVertex
 10
197.121908
 20
133.07224
 30
0.0
  0
VERTEX
  5
2E2
330
2D8
100
AcDbEntity
  8
001
 62
   253
370
    50
100
AcDbVertex
100
AcDb2dVertex
 10
197.208709
 20
133.149525
 30
0.0
  0
VERTEX
  5
2E3
330
2D8
100
AcDbEntity
  8
001
 62
   253
370
    50
100
AcDbVertex
100
AcDb2dVertex
 10
197.331954
 20
133.278934
 30
0.0
  0
VERTEX
  5
2E4
330
2D8
100
AcDbEntity
  8
001
 62
   253
370
    50
100
AcDbVertex
100
AcDb2dVertex
 10
197.443518
 20
133.418622
 30
0.0
  0
VERTEX
  5
2E5
330
2D8
100
AcDbEntity
  8
001
 62
   253
370
    50
100
AcDbVertex
100
AcDb2dVertex
 10
197.546838
 20
133.570062
 30
0.0
  0
VERTEX
  5
2E6
330
2D8
100
AcDbEntity
  8
001
 62
   253
370
    50
100
AcDbVertex
100
AcDb2dVertex
 10
197.639955
 20
133.727958
 30
0.0
  0
VERTEX
  5
2E7
330
2D8
100
AcDbEntity
  8
001
 62
   253
370
    50
100
AcDbVertex
100
AcDb2dVertex
 10
197.719431
 20
133.881558
 30
0.0
  0
VERTEX
  5
2E8
330
2D8
100
AcDbEntity
  8
001
 62
   253
370
    50
100
AcDbVertex
100
AcDb2dVertex
 10
197.791493
 20
134.038764
 30
0.0
  0
VERTEX
  5
2E9
330
2D8
100
AcDbEntity
  8
001
 62
   253
370
    50
100
AcDbVertex
100
AcDb2dVertex
 10
197.856842
 20
134.198964
 30
0.0
  0
VERTEX
  5
2EA
330
2D8
100
AcDbEntity
  8
001
 62
   253
370
    50
100
AcDbVertex
100
AcDb2dVertex
 10
197.91606
 20
134.361534
 30
0.0
  0
VERTEX
  5
2EB
330
2D8
100
AcDbEntity
  8
001
 62
   253
370
    50
100
AcDbVertex
100
AcDb2dVertex
 10
198.020374
 20
134.699407
 30
0.0
  0
VERTEX
  5
2EC
330
2D8
100
AcDbEntity
  8
001
 62
   253
370
    50
100
AcDbVertex
100
AcDb2dVertex
 10
198.10555
 20
135.042769
 30
0.0
  0
VERTEX
  5
2ED
330
2D8
100
AcDbEntity
  8
001
 62
   253
370
    50
100
AcDbVertex
100
AcDb2dVertex
 10
198.19254
 20
135.4895
 30
0.0
  0
VERTEX
  5
2EE
330
2D8
100
AcDbEntity
  8
001
 62
   253
370
    50
100
AcDbVertex
100
AcDb2dVertex
 10
198.258121
 20
135.939843
 30
0.0
  0
VERTEX
  5
2EF
330
2D8
100
AcDbEntity
  8
001
 62
   253
370
    50
100
AcDbVertex
100
AcDb2dVertex
 10
198.306127
 20
136.393412
 30
0.0
  0
VERTEX
  5
2F0
330
2D8
100
AcDbEntity
  8
001
 62
   253
370
    50
100
AcDbVertex
100
AcDb2dVertex
 10
198.339819
 20
136.848272
 30
0.0
  0
VERTEX
  5
2F1
330
2D8
100
AcDbEntity
  8
001
 62
   253
370
    50
100
AcDbVertex
100
AcDb2dVertex
 10
198.362503
 20
137.303723
 30
0.0
  0
VERTEX
  5
2F2
330
2D8
100
AcDbEntity
  8
001
 62
   253
370
    50
100
AcDbVertex
100
AcDb2dVertex
 10
198.377301
 20
137.759499
 30
0.0
  0
VERTEX
  5
2F3
330
2D8
100
AcDbEntity
  8
001
 62
   253
370
    50
100
AcDbVertex
100
AcDb2dVertex
 10
198.390383
 20
138.452593
 30
0.0
  0
VERTEX
  5
2F4
330
2D8
100
AcDbEntity
  8
001
 62
   253
370
    50
100
AcDbVertex
100
AcDb2dVertex
 10
198.395829
 20
139.145792
 30
0.0
  0
VERTEX
  5
2F5
330
2D8
100
AcDbEntity
  8
001
 62
   253
370
    50
100
AcDbVertex
100
AcDb2dVertex
 10
198.39689
 20
139.839064
 30
0.0
  0
VERTEX
  5
2F6
330
2D8
100
AcDbEntity
  8
001
 62
   253
370
    50
100
AcDbVertex
100
AcDb2dVertex
 10
198.395877
 20
140.532332
 30
0.0
  0
SEQEND
  5
2D9
330
2D8
100
AcDbEntity
  8
001
370
    50
  0
LINE
  5
2F7
330
1F
100
AcDbEntity
  8
001
 62
   253
370
    50
100
AcDbLine
 10
198.395877
 20
154.532332
 30
0.0
 11
198.395877
 21
126.532332
 31
0.0
  0
POLYLINE
  5
2F8
330
1F
100
AcDbEntity
  8
001
 62
   253
370
    50
100
AcDb2dPolyline
 66
     1
 10
0.0
 20
0.0
 30
0.0
  0
VERTEX
  5
2FA
330
2F8
100
AcDbEntity
  8
001
 62
   253
370
    50
100
AcDbVertex
100
AcDb2dVertex
 10
198.395877
 20
140.532332
 30
0.0
  0
VERTEX
  5
2FB
330
2F8
100
AcDbEntity
  8
001
 62
   253
370
    50
100
AcDbVertex
100
AcDb2dVertex
 10
198.396266
 20
141.532338
 30
0.0
  0
VERTEX
  5
2FC
330
2F8
100
AcDbEntity
  8
001
 62
   253
370
    50
100
AcDbVertex
100
AcDb2dVertex
 10
198.39082
 20
142.532332
 30
0.0
  0
VERTEX
  5
2FD
330
2F8
100
AcDbEntity
  8
001
 62
   253
370
    50
100
AcDbVertex
100
AcDb2dVertex
 10
198.383715
 20
143.032791
 30
0.0
  0
VERTEX
  5
2FE
330
2F8
100
AcDbEntity
  8
001
 62
   253
370
    50
100
AcDbVertex
100
AcDb2dVertex
 10
198.370786
 20
143.533119
 30
0.0
  0
VERTEX
  5
2FF
330
2F8
100
AcDbEntity
  8
001
 62
   253
370
    50
100
AcDbVertex
100
AcDb2dVertex
 10
198.349132
 20
144.033024
 30
0.0
  0
VERTEX
  5
300
330
2F8
100
AcDbEntity
  8
001
 62
   253
370
    50
100
AcDbVertex
100
AcDb2dVertex
 10
198.315813
 20
144.532332
 30
0.0
  0
VERTEX
  5
301
330
2F8
100
AcDbEntity
  8
001
 62
   253
370
    50
100
AcDbVertex
100
AcDb2dVertex
 10
198.267538
 20
145.030482
 30
0.0
  0
VERTEX
  5
302
330
2F8
100
AcDbEntity
  8
001
 62
   253
370
    50
100
AcDbVertex
100
AcDb2dVertex
 10
198.199617
 20
145.526225
 30
0.0
  0
VERTEX
  5
303
330
2F8
100
AcDbEntity
  8
001
 62
   253
370
    50
100
AcDbVertex
100
AcDb2dVertex
 10
198.156186
 20
145.7752
 30
0.0
  0
VERTEX
  5
304
330
2F8
100
AcDbEntity
  8
001
 62
   253
370
    50
100
AcDbVertex
100
AcDb2dVertex
 10
198.105459
 20
146.022793
 30
0.0
  0
VERTEX
  5
305
330
2F8
100
AcDbEntity
  8
001
 62
   253
370
    50
100
AcDbVertex
100
AcDb2dVertex
 10
198.046445
 20
146.268462
 30
0.0
  0
VERTEX
  5
306
330
2F8
100
AcDbEntity
  8
001
 62
   253
370
    50
100
AcDbVertex
100
AcDb2dVertex
 10
197.978042
 20
146.511671
 30
0.0
  0
VERTEX
  5
307
330
2F8
100
AcDbEntity
  8
001
 62
   253
370
    50
100
AcDbVertex
100
AcDb2dVertex
 10
197.914862
 20
146.706588
 30
0.0
  0
VERTEX
  5
308
330
2F8
100
AcDbEntity
  8
001
 62
   253
370
    50
100
AcDbVertex
100
AcDb2dVertex
 10
197.84388
 20
146.898805
 30
0.0
  0
VERTEX
  5
309
330
2F8
100
AcDbEntity
  8
001
 62
   253
370
    50
100
AcDbVertex
100
AcDb2dVertex
 10
197.763492
 20
147.089089
 30
0.0
  0
VERTEX
  5
30A
330
2F8
100
AcDbEntity
  8
001
 62
   253
370
    50
100
AcDbVertex
100
AcDb2dVertex
 10
197.673141
 20
147.27483
 30
0.0
  0
VERTEX
  5
30B
330
2F8
100
AcDbEntity
  8
001
 62
   253
370
    50
100
AcDbVertex
100
AcDb2dVertex
 10
197.572309
 20
147.453614
 30
0.0
  0
VERTEX
  5
30C
330
2F8
100
AcDbEntity
  8
001
 62
   253
370
    50
100
AcDbVertex
100
AcDb2dVertex
 10
197.458957
 20
147.624843
 30
0.0
  0
VERTEX
  5
30D
330
2F8
100
AcDbEntity
  8
001
 62
   253
370
    50
100
AcDbVertex
100
AcDb2dVertex
 10
197.327908
 20
147.790396
 30
0.0
  0
VERTEX
  5
30E
330
2F8
100
AcDbEntity
  8
001
 62
   253
370
    50
100
AcDbVertex
100
AcDb2dVertex
 10
197.180635
 20
147.941323
 30
0.0
  0
VERTEX
  5
30F
330
2F8
100
AcDbEntity
  8
001
 62
   253
370
    50
100
AcDbVertex
100
AcDb2dVertex
 10
197.104882
 20
148.006306
 30
0.0
  0
VERTEX
  5
310
330
2F8
100
AcDbEntity
  8
001
 62
   253
370
    50
100
AcDbVertex
100
AcDb2dVertex
 10
197.025106
 20
148.066279
 30
0.0
  0
VERTEX
  5
311
330
2F8
100
AcDbEntity
  8
001
 62
   253
370
    50
100
AcDbVertex
100
AcDb2dVertex
 10
196.939599
 20
148.121498
 30
0.0
  0
VERTEX
  5
312
330
2F8
100
AcDbEntity
  8
001
 62
   253
370
    50
100
AcDbVertex
100
AcDb2dVertex
 10
196.850027
 20
148.169797
 30
0.0
  0
VERTEX
  5
313
330
2F8
100
AcDbEntity
  8
001
 62
   253
370
    50
100
AcDbVertex
100
AcDb2dVertex
 10
196.75828
 20
148.209611
 30
0.0
  0
VERTEX
  5
314
330
2F8
100
AcDbEntity
  8
001
 62
   253
370
    50
100
AcDbVertex
100
AcDb2dVertex
 10
196.663297
 20
148.241134
 30
0.0
  0
VERTEX
  5
315
330
2F8
100
AcDbEntity
  8
001
 62
   253
370
    50
100
AcDbVertex
100
AcDb2dVertex
 10
196.561982
 20
148.26425
 30
0.0
  0
VERTEX
  5
316
330
2F8
100
AcDbEntity
  8
001
 62
   253
370
    50
100
AcDbVertex
100
AcDb2dVertex
 10
196.458929
 20
148.276245
 30
0.0
  0
VERTEX
  5
317
330
2F8
100
AcDbEntity
  8
001
 62
   253
370
    50
100
AcDbVertex
100
AcDb2dVertex
 10
196.427415
 20
148.277563
 30
0.0
  0
VERTEX
  5
318
330
2F8
100
AcDbEntity
  8
001
 62
   253
370
    50
100
AcDbVertex
100
AcDb2dVertex
 10
196.395877
 20
148.278298
 30
0.0
  0
SEQEND
  5
2F9
330
2F8
100
AcDbEntity
  8
001
370
    50
  0
LINE
  5
319
330
1F
100
AcDbEntity
  8
001
 62
   253
370
    50
100
AcDbLine
 10
121.395877
 20
156.032332
 30
0.0
 11
118.395877
 21
156.032332
 31
0.0
  0
LINE
  5
31A
330
1F
100
AcDbEntity
  8
001
 62
   253
370
    50
100
AcDbLine
 10
118.395877
 20
125.032332
 30
0.0
 11
121.395877
 21
125.032332
 31
0.0
  0
LINE
  5
31B
330
1F
100
AcDbEntity
  8
001
 62
   253
370
    50
100
AcDbLine
 10
118.395877
 20
133.880264
 30
0.0
 11
121.395877
 21
133.880264
 31
0.0
  0
LINE
  5
31C
330
1F
100
AcDbEntity
  8
001
 62
   253
370
    50
100
AcDbLine
 10
121.395877
 20
147.184399
 30
0.0
 11
118.395877
 21
147.184399
 31
0.0
  0
LINE
  5
31D
330
1F
100
AcDbEntity
  8
001
 62
   253
370
    50
100
AcDbLine
 10
196.395877
 20
148.278298
 30
0.0
 11
121.395877
 21
148.278298
 31
0.0
  0
LINE
  5
31E
330
1F
100
AcDbEntity
  8
001
 62
   253
370
    50
100
AcDbLine
 10
121.395877
 20
132.786365
 30
0.0
 11
196.395877
 21
132.786365
 31
0.0
  0
LINE
  5
31F
330
1F
100
AcDbEntity
  8
001
 62
   253
370
    50
100
AcDbLine
 10
121.395877
 20
156.532332
 30
0.0
 11
121.395877
 21
147.184399
 31
0.0
  0
LINE
  5
320
330
1F
100
AcDbEntity
  8
001
 62
   253
370
    50
100
AcDbLine
 10
196.395877
 20
156.532332
 30
0.0
 11
121.395877
 21
156.532332
 31
0.0
  0
LINE
  5
321
330
1F
100
AcDbEntity
  8
001
 62
   253
370
    50
100
AcDbLine
 10
121.395877
 20
124.532332
 30
0.0
 11
196.395877
 21
124.532332
 31
0.0
  0
LINE
  5
322
330
1F
100
AcDbEntity
  8
001
 62
   253
370
    50
100
AcDbLine
 10
121.395877
 20
133.880264
 30
0.0
 11
121.395877
 21
124.532332
 31
0.0
  0
POLYLINE
  5
323
330
1F
100
AcDbEntity
  8
001
 62
   253
370
    50
100
AcDb2dPolyline
 66
     1
 10
0.0
 20
0.0
 30
0.0
  0
VERTEX
  5
325
330
323
100
AcDbEntity
  8
001
 62
   253
370
    50
100
AcDbVertex
100
AcDb2dVertex
 10
90.036352
 20
137.91696
 30
0.0
  0
VERTEX
  5
326
330
323
100
AcDbEntity
  8
001
 62
   253
370
    50
100
AcDbVertex
100
AcDb2dVertex
 10
89.989736
 20
137.981921
 30
0.0
  0
VERTEX
  5
327
330
323
100
AcDbEntity
  8
001
 62
   253
370
    50
100
AcDbVertex
100
AcDb2dVertex
 10
89.945197
 20
138.04853
 30
0.0
  0
VERTEX
  5
328
330
323
100
AcDbEntity
  8
001
 62
   253
370
    50
100
AcDbVertex
100
AcDb2dVertex
 10
89.896751
 20
138.134212
 30
0.0
  0
VERTEX
  5
329
330
323
100
AcDbEntity
  8
001
 62
   253
370
    50
100
AcDbVertex
100
AcDb2dVertex
 10
89.859599
 20
138.224789
 30
0.0
  0
VERTEX
  5
32A
330
323
100
AcDbEntity
  8
001
 62
   253
370
    50
100
AcDbVertex
100
AcDb2dVertex
 10
89.835502
 20
138.325492
 30
0.0
  0
VERTEX
  5
32B
330
323
100
AcDbEntity
  8
001
 62
   253
370
    50
100
AcDbVertex
100
AcDb2dVertex
 10
89.81959
 20
138.42844
 30
0.0
  0
VERTEX
  5
32C
330
323
100
AcDbEntity
  8
001
 62
   253
370
    50
100
AcDbVertex
100
AcDb2dVertex
 10
89.806553
 20
138.512692
 30
0.0
  0
VERTEX
  5
32D
330
323
100
AcDbEntity
  8
001
 62
   253
370
    50
100
AcDbVertex
100
AcDb2dVertex
 10
89.792847
 20
138.596623
 30
0.0
  0
SEQEND
  5
324
330
323
100
AcDbEntity
  8
001
370
    50
  0
POLYLINE
  5
32E
330
1F
100
AcDbEntity
  8
001
 62
   253
370
    50
100
AcDb2dPolyline
 66
     1
 10
0.0
 20
0.0
 30
0.0
  0
VERTEX
  5
330
330
32E
100
AcDbEntity
  8
001
 62
   253
370
    50
100
AcDbVertex
100
AcDb2dVertex
 10
93.966033
 20
144.745062
 30
0.0
  0
VERTEX
  5
331
330
32E
100
AcDbEntity
  8
001
 62
   253
370
    50
100
AcDbVertex
100
AcDb2dVertex
 10
94.087885
 20
144.721114
 30
0.0
  0
VERTEX
  5
332
330
32E
100
AcDbEntity
  8
001
 62
   253
370
    50
100
AcDbVertex
100
AcDb2dVertex
 10
94.206289
 20
144.685924
 30
0.0
  0
VERTEX
  5
333
330
32E
100
AcDbEntity
  8
001
 62
   253
370
    50
100
AcDbVertex
100
AcDb2dVertex
 10
94.262929
 20
144.660766
 30
0.0
  0
VERTEX
  5
334
330
32E
100
AcDbEntity
  8
001
 62
   253
370
    50
100
AcDbVertex
100
AcDb2dVertex
 10
94.316366
 20
144.629539
 30
0.0
  0
VERTEX
  5
335
330
32E
100
AcDbEntity
  8
001
 62
   253
370
    50
100
AcDbVertex
100
AcDb2dVertex
 10
94.367919
 20
144.590531
 30
0.0
  0
VERTEX
  5
336
330
32E
100
AcDbEntity
  8
001
 62
   253
370
    50
100
AcDbVertex
100
AcDb2dVertex
 10
94.4167
 20
144.547801
 30
0.0
  0
VERTEX
  5
337
330
32E
100
AcDbEntity
  8
001
 62
   253
370
    50
100
AcDbVertex
100
AcDb2dVertex
 10
94.535025
 20
144.439347
 30
0.0
  0
VERTEX
  5
338
330
32E
100
AcDbEntity
  8
001
 62
   253
370
    50
100
AcDbVertex
100
AcDb2dVertex
 10
94.652065
 20
144.329961
 30
0.0
  0
SEQEND
  5
32F
330
32E
100
AcDbEntity
  8
001
370
    50
  0
POLYLINE
  5
339
330
1F
100
AcDbEntity
  8
001
 62
   253
370
    50
100
AcDb2dPolyline
 66
     1
 10
0.0
 20
0.0
 30
0.0
  0
VERTEX
  5
33B
330
339
100
AcDbEntity
  8
001
 62
   253
370
    50
100
AcDbVertex
100
AcDb2dVertex
 10
91.67753
 20
144.422098
 30
0.0
  0
VERTEX
  5
33C
330
339
100
AcDbEntity
  8
001
 62
   253
370
    50
100
AcDbVertex
100
AcDb2dVertex
 10
91.684499
 20
144.425407
 30
0.0
  0
VERTEX
  5
33D
330
339
100
AcDbEntity
  8
001
 62
   253
370
    50
100
AcDbVertex
100
AcDb2dVertex
 10
91.691473
 20
144.428707
 30
0.0
  0
VERTEX
  5
33E
330
339
100
AcDbEntity
  8
001
 62
   253
370
    50
100
AcDbVertex
100
AcDb2dVertex
 10
91.856918
 20
144.500705
 30
0.0
  0
VERTEX
  5
33F
330
339
100
AcDbEntity
  8
001
 62
   253
370
    50
100
AcDbVertex
100
AcDb2dVertex
 10
92.026203
 20
144.563448
 30
0.0
  0
VERTEX
  5
340
330
339
100
AcDbEntity
  8
001
 62
   253
370
    50
100
AcDbVertex
100
AcDb2dVertex
 10
92.348666
 20
144.658479
 30
0.0
  0
VERTEX
  5
341
330
339
100
AcDbEntity
  8
001
 62
   253
370
    50
100
AcDbVertex
100
AcDb2dVertex
 10
92.677912
 20
144.727013
 30
0.0
  0
VERTEX
  5
342
330
339
100
AcDbEntity
  8
001
 62
   253
370
    50
100
AcDbVertex
100
AcDb2dVertex
 10
93.021753
 20
144.77149
 30
0.0
  0
VERTEX
  5
343
330
339
100
AcDbEntity
  8
001
 62
   253
370
    50
100
AcDbVertex
100
AcDb2dVertex
 10
93.367945
 20
144.789436
 30
0.0
  0
VERTEX
  5
344
330
339
100
AcDbEntity
  8
001
 62
   253
370
    50
100
AcDbVertex
100
AcDb2dVertex
 10
93.51756
 20
144.788594
 30
0.0
  0
VERTEX
  5
345
330
339
100
AcDbEntity
  8
001
 62
   253
370
    50
100
AcDbVertex
100
AcDb2dVertex
 10
93.666835
 20
144.780847
 30
0.0
  0
VERTEX
  5
346
330
339
100
AcDbEntity
  8
001
 62
   253
370
    50
100
AcDbVertex
100
AcDb2dVertex
 10
93.816628
 20
144.765192
 30
0.0
  0
VERTEX
  5
347
330
339
100
AcDbEntity
  8
001
 62
   253
370
    50
100
AcDbVertex
100
AcDb2dVertex
 10
93.966033
 20
144.745062
 30
0.0
  0
SEQEND
  5
33A
330
339
100
AcDbEntity
  8
001
370
    50
  0
POLYLINE
  5
348
330
1F
100
AcDbEntity
  8
001
 62
   253
370
    50
100
AcDb2dPolyline
 66
     1
 10
0.0
 20
0.0
 30
0.0
  0
VERTEX
  5
34A
330
348
100
AcDbEntity
  8
001
 62
   253
370
    50
100
AcDbVertex
100
AcDb2dVertex
 10
91.073603
 20
137.275486
 30
0.0
  0
VERTEX
  5
34B
330
348
100
AcDbEntity
  8
001
 62
   253
370
    50
100
AcDbVertex
100
AcDb2dVertex
 10
90.884896
 20
137.354989
 30
0.0
  0
VERTEX
  5
34C
330
348
100
AcDbEntity
  8
001
 62
   253
370
    50
100
AcDbVertex
100
AcDb2dVertex
 10
90.69819
 20
137.438522
 30
0.0
  0
VERTEX
  5
34D
330
348
100
AcDbEntity
  8
001
 62
   253
370
    50
100
AcDbVertex
100
AcDb2dVertex
 10
90.566706
 20
137.503092
 30
0.0
  0
VERTEX
  5
34E
330
348
100
AcDbEntity
  8
001
 62
   253
370
    50
100
AcDbVertex
100
AcDb2dVertex
 10
90.43771
 20
137.573251
 30
0.0
  0
VERTEX
  5
34F
330
348
100
AcDbEntity
  8
001
 62
   253
370
    50
100
AcDbVertex
100
AcDb2dVertex
 10
90.311398
 20
137.65199
 30
0.0
  0
VERTEX
  5
350
330
348
100
AcDbEntity
  8
001
 62
   253
370
    50
100
AcDbVertex
100
AcDb2dVertex
 10
90.195067
 20
137.74346
 30
0.0
  0
VERTEX
  5
351
330
348
100
AcDbEntity
  8
001
 62
   253
370
    50
100
AcDbVertex
100
AcDb2dVertex
 10
90.113038
 20
137.827335
 30
0.0
  0
VERTEX
  5
352
330
348
100
AcDbEntity
  8
001
 62
   253
370
    50
100
AcDbVertex
100
AcDb2dVertex
 10
90.036352
 20
137.91696
 30
0.0
  0
SEQEND
  5
349
330
348
100
AcDbEntity
  8
001
370
    50
  0
LINE
  5
353
330
1F
100
AcDbEntity
  8
001
 62
   253
370
    50
100
AcDbLine
 10
89.493385
 20
141.410142
 30
0.0
 11
89.461974
 21
141.279507
 31
0.0
  0
LINE
  5
354
330
1F
100
AcDbEntity
  8
001
 62
   253
370
    50
100
AcDbLine
 10
89.461974
 20
141.279507
 30
0.0
 11
89.447948
 21
141.213937
 31
0.0
  0
POLYLINE
  5
355
330
1F
100
AcDbEntity
  8
001
 62
   253
370
    50
100
AcDb2dPolyline
 66
     1
 10
0.0
 20
0.0
 30
0.0
  0
VERTEX
  5
357
330
355
100
AcDbEntity
  8
001
 62
   253
370
    50
100
AcDbVertex
100
AcDb2dVertex
 10
89.447948
 20
141.213937
 30
0.0
  0
VERTEX
  5
358
330
355
100
AcDbEntity
  8
001
 62
   253
370
    50
100
AcDbVertex
100
AcDb2dVertex
 10
89.416551
 20
141.035455
 30
0.0
  0
VERTEX
  5
359
330
355
100
AcDbEntity
  8
001
 62
   253
370
    50
100
AcDbVertex
100
AcDb2dVertex
 10
89.391239
 20
140.856295
 30
0.0
  0
VERTEX
  5
35A
330
355
100
AcDbEntity
  8
001
 62
   253
370
    50
100
AcDbVertex
100
AcDb2dVertex
 10
89.375505
 20
140.665577
 30
0.0
  0
VERTEX
  5
35B
330
355
100
AcDbEntity
  8
001
 62
   253
370
    50
100
AcDbVertex
100
AcDb2dVertex
 10
89.366578
 20
140.474102
 30
0.0
  0
SEQEND
  5
356
330
355
100
AcDbEntity
  8
001
370
    50
  0
POLYLINE
  5
35C
330
1F
100
AcDbEntity
  8
001
 62
   253
370
    50
100
AcDb2dPolyline
 66
     1
 10
0.0
 20
0.0
 30
0.0
  0
VERTEX
  5
35E
330
35C
100
AcDbEntity
  8
001
 62
   253
370
    50
100
AcDbVertex
100
AcDb2dVertex
 10
89.366578
 20
140.474102
 30
0.0
  0
VERTEX
  5
35F
330
35C
100
AcDbEntity
  8
001
 62
   253
370
    50
100
AcDbVertex
100
AcDb2dVertex
 10
89.366594
 20
140.378085
 30
0.0
  0
VERTEX
  5
360
330
35C
100
AcDbEntity
  8
001
 62
   253
370
    50
100
AcDbVertex
100
AcDb2dVertex
 10
89.36792
 20
140.282095
 30
0.0
  0
VERTEX
  5
361
330
35C
100
AcDbEntity
  8
001
 62
   253
370
    50
100
AcDbVertex
100
AcDb2dVertex
 10
89.391549
 20
139.949557
 30
0.0
  0
VERTEX
  5
362
330
35C
100
AcDbEntity
  8
001
 62
   253
370
    50
100
AcDbVertex
100
AcDb2dVertex
 10
89.443353
 20
139.61971
 30
0.0
  0
VERTEX
  5
363
330
35C
100
AcDbEntity
  8
001
 62
   253
370
    50
100
AcDbVertex
100
AcDb2dVertex
 10
89.523554
 20
139.285749
 30
0.0
  0
VERTEX
  5
364
330
35C
100
AcDbEntity
  8
001
 62
   253
370
    50
100
AcDbVertex
100
AcDb2dVertex
 10
89.633052
 20
138.960857
 30
0.0
  0
VERTEX
  5
365
330
35C
100
AcDbEntity
  8
001
 62
   253
370
    50
100
AcDbVertex
100
AcDb2dVertex
 10
89.710222
 20
138.777635
 30
0.0
  0
VERTEX
  5
366
330
35C
100
AcDbEntity
  8
001
 62
   253
370
    50
100
AcDbVertex
100
AcDb2dVertex
 10
89.792847
 20
138.596623
 30
0.0
  0
SEQEND
  5
35D
330
35C
100
AcDbEntity
  8
001
370
    50
  0
POLYLINE
  5
367
330
1F
100
AcDbEntity
  8
001
 62
   253
370
    50
100
AcDb2dPolyline
 66
     1
 10
0.0
 20
0.0
 30
0.0
  0
VERTEX
  5
369
330
367
100
AcDbEntity
  8
001
 62
   253
370
    50
100
AcDbVertex
100
AcDb2dVertex
 10
90.812697
 20
143.586375
 30
0.0
  0
VERTEX
  5
36A
330
367
100
AcDbEntity
  8
001
 62
   253
370
    50
100
AcDbVertex
100
AcDb2dVertex
 10
90.866142
 20
143.662055
 30
0.0
  0
VERTEX
  5
36B
330
367
100
AcDbEntity
  8
001
 62
   253
370
    50
100
AcDbVertex
100
AcDb2dVertex
 10
90.920447
 20
143.737096
 30
0.0
  0
VERTEX
  5
36C
330
367
100
AcDbEntity
  8
001
 62
   253
370
    50
100
AcDbVertex
100
AcDb2dVertex
 10
91.026132
 20
143.874577
 30
0.0
  0
VERTEX
  5
36D
330
367
100
AcDbEntity
  8
001
 62
   253
370
    50
100
AcDbVertex
100
AcDb2dVertex
 10
91.135833
 20
144.00898
 30
0.0
  0
VERTEX
  5
36E
330
367
100
AcDbEntity
  8
001
 62
   253
370
    50
100
AcDbVertex
100
AcDb2dVertex
 10
91.192801
 20
144.076102
 30
0.0
  0
VERTEX
  5
36F
330
367
100
AcDbEntity
  8
001
 62
   253
370
    50
100
AcDbVertex
100
AcDb2dVertex
 10
91.25245
 20
144.140831
 30
0.0
  0
VERTEX
  5
370
330
367
100
AcDbEntity
  8
001
 62
   253
370
    50
100
AcDbVertex
100
AcDb2dVertex
 10
91.316408
 20
144.201224
 30
0.0
  0
VERTEX
  5
371
330
367
100
AcDbEntity
  8
001
 62
   253
370
    50
100
AcDbVertex
100
AcDb2dVertex
 10
91.384971
 20
144.256137
 30
0.0
  0
VERTEX
  5
372
330
367
100
AcDbEntity
  8
001
 62
   253
370
    50
100
AcDbVertex
100
AcDb2dVertex
 10
91.527228
 20
144.345189
 30
0.0
  0
VERTEX
  5
373
330
367
100
AcDbEntity
  8
001
 62
   253
370
    50
100
AcDbVertex
100
AcDb2dVertex
 10
91.67753
 20
144.422098
 30
0.0
  0
SEQEND
  5
368
330
367
100
AcDbEntity
  8
001
370
    50
  0
POLYLINE
  5
374
330
1F
100
AcDbEntity
  8
001
 62
   253
370
    50
100
AcDb2dPolyline
 66
     1
 10
0.0
 20
0.0
 30
0.0
  0
VERTEX
  5
376
330
374
100
AcDbEntity
  8
001
 62
   253
370
    50
100
AcDbVertex
100
AcDb2dVertex
 10
90.242301
 20
142.993014
 30
0.0
  0
VERTEX
  5
377
330
374
100
AcDbEntity
  8
001
 62
   253
370
    50
100
AcDbVertex
100
AcDb2dVertex
 10
90.180949
 20
142.931255
 30
0.0
  0
VERTEX
  5
378
330
374
100
AcDbEntity
  8
001
 62
   253
370
    50
100
AcDbVertex
100
AcDb2dVertex
 10
90.12042
 20
142.868701
 30
0.0
  0
VERTEX
  5
379
330
374
100
AcDbEntity
  8
001
 62
   253
370
    50
100
AcDbVertex
100
AcDb2dVertex
 10
89.963004
 20
142.69031
 30
0.0
  0
VERTEX
  5
37A
330
374
100
AcDbEntity
  8
001
 62
   253
370
    50
100
AcDbVertex
100
AcDb2dVertex
 10
89.817677
 20
142.501754
 30
0.0
  0
VERTEX
  5
37B
330
374
100
AcDbEntity
  8
001
 62
   253
370
    50
100
AcDbVertex
100
AcDb2dVertex
 10
89.683763
 20
142.303414
 30
0.0
  0
VERTEX
  5
37C
330
374
100
AcDbEntity
  8
001
 62
   253
370
    50
100
AcDbVertex
100
AcDb2dVertex
 10
89.56296
 20
142.0969
 30
0.0
  0
VERTEX
  5
37D
330
374
100
AcDbEntity
  8
001
 62
   253
370
    50
100
AcDbVertex
100
AcDb2dVertex
 10
89.456654
 20
141.883289
 30
0.0
  0
VERTEX
  5
37E
330
374
100
AcDbEntity
  8
001
 62
   253
370
    50
100
AcDbVertex
100
AcDb2dVertex
 10
89.365626
 20
141.662706
 30
0.0
  0
VERTEX
  5
37F
330
374
100
AcDbEntity
  8
001
 62
   253
370
    50
100
AcDbVertex
100
AcDb2dVertex
 10
89.272758
 20
141.370984
 30
0.0
  0
VERTEX
  5
380
330
374
100
AcDbEntity
  8
001
 62
   253
370
    50
100
AcDbVertex
100
AcDb2dVertex
 10
89.207356
 20
141.071773
 30
0.0
  0
VERTEX
  5
381
330
374
100
AcDbEntity
  8
001
 62
   253
370
    50
100
AcDbVertex
100
AcDb2dVertex
 10
89.169934
 20
140.767374
 30
0.0
  0
VERTEX
  5
382
330
374
100
AcDbEntity
  8
001
 62
   253
370
    50
100
AcDbVertex
100
AcDb2dVertex
 10
89.161668
 20
140.460912
 30
0.0
  0
VERTEX
  5
383
330
374
100
AcDbEntity
  8
001
 62
   253
370
    50
100
AcDbVertex
100
AcDb2dVertex
 10
89.178931
 20
140.194143
 30
0.0
  0
VERTEX
  5
384
330
374
100
AcDbEntity
  8
001
 62
   253
370
    50
100
AcDbVertex
100
AcDb2dVertex
 10
89.218473
 20
139.929771
 30
0.0
  0
VERTEX
  5
385
330
374
100
AcDbEntity
  8
001
 62
   253
370
    50
100
AcDbVertex
100
AcDb2dVertex
 10
89.279348
 20
139.669928
 30
0.0
  0
VERTEX
  5
386
330
374
100
AcDbEntity
  8
001
 62
   253
370
    50
100
AcDbVertex
100
AcDb2dVertex
 10
89.360592
 20
139.415614
 30
0.0
  0
VERTEX
  5
387
330
374
100
AcDbEntity
  8
001
 62
   253
370
    50
100
AcDbVertex
100
AcDb2dVertex
 10
89.447389
 20
139.199887
 30
0.0
  0
VERTEX
  5
388
330
374
100
AcDbEntity
  8
001
 62
   253
370
    50
100
AcDbVertex
100
AcDb2dVertex
 10
89.549848
 20
138.991457
 30
0.0
  0
VERTEX
  5
389
330
374
100
AcDbEntity
  8
001
 62
   253
370
    50
100
AcDbVertex
100
AcDb2dVertex
 10
89.667195
 20
138.791687
 30
0.0
  0
VERTEX
  5
38A
330
374
100
AcDbEntity
  8
001
 62
   253
370
    50
100
AcDbVertex
100
AcDb2dVertex
 10
89.792847
 20
138.596623
 30
0.0
  0
SEQEND
  5
375
330
374
100
AcDbEntity
  8
001
370
    50
  0
POLYLINE
  5
38B
330
1F
100
AcDbEntity
  8
001
 62
   253
370
    50
100
AcDb2dPolyline
 66
     1
 10
0.0
 20
0.0
 30
0.0
  0
VERTEX
  5
38D
330
38B
100
AcDbEntity
  8
001
 62
   253
370
    50
100
AcDbVertex
100
AcDb2dVertex
 10
96.549453
 20
138.071649
 30
0.0
  0
VERTEX
  5
38E
330
38B
100
AcDbEntity
  8
001
 62
   253
370
    50
100
AcDbVertex
100
AcDb2dVertex
 10
96.733109
 20
138.268665
 30
0.0
  0
VERTEX
  5
38F
330
38B
100
AcDbEntity
  8
001
 62
   253
370
    50
100
AcDbVertex
100
AcDb2dVertex
 10
96.907477
 20
138.473339
 30
0.0
  0
VERTEX
  5
390
330
38B
100
AcDbEntity
  8
001
 62
   253
370
    50
100
AcDbVertex
100
AcDb2dVertex
 10
97.065083
 20
138.691809
 30
0.0
  0
VERTEX
  5
391
330
38B
100
AcDbEntity
  8
001
 62
   253
370
    50
100
AcDbVertex
100
AcDb2dVertex
 10
97.204657
 20
138.922636
 30
0.0
  0
VERTEX
  5
392
330
38B
100
AcDbEntity
  8
001
 62
   253
370
    50
100
AcDbVertex
100
AcDb2dVertex
 10
97.330597
 20
139.1722
 30
0.0
  0
VERTEX
  5
393
330
38B
100
AcDbEntity
  8
001
 62
   253
370
    50
100
AcDbVertex
100
AcDb2dVertex
 10
97.436287
 20
139.430852
 30
0.0
  0
VERTEX
  5
394
330
38B
100
AcDbEntity
  8
001
 62
   253
370
    50
100
AcDbVertex
100
AcDb2dVertex
 10
97.520407
 20
139.698009
 30
0.0
  0
VERTEX
  5
395
330
38B
100
AcDbEntity
  8
001
 62
   253
370
    50
100
AcDbVertex
100
AcDb2dVertex
 10
97.581353
 20
139.97138
 30
0.0
  0
VERTEX
  5
396
330
38B
100
AcDbEntity
  8
001
 62
   253
370
    50
100
AcDbVertex
100
AcDb2dVertex
 10
97.616551
 20
140.232443
 30
0.0
  0
VERTEX
  5
397
330
38B
100
AcDbEntity
  8
001
 62
   253
370
    50
100
AcDbVertex
100
AcDb2dVertex
 10
97.630266
 20
140.495538
 30
0.0
  0
VERTEX
  5
398
330
38B
100
AcDbEntity
  8
001
 62
   253
370
    50
100
AcDbVertex
100
AcDb2dVertex
 10
97.622619
 20
140.758915
 30
0.0
  0
VERTEX
  5
399
330
38B
100
AcDbEntity
  8
001
 62
   253
370
    50
100
AcDbVertex
100
AcDb2dVertex
 10
97.593389
 20
141.020728
 30
0.0
  0
VERTEX
  5
39A
330
38B
100
AcDbEntity
  8
001
 62
   253
370
    50
100
AcDbVertex
100
AcDb2dVertex
 10
97.542707
 20
141.278446
 30
0.0
  0
VERTEX
  5
39B
330
38B
100
AcDbEntity
  8
001
 62
   253
370
    50
100
AcDbVertex
100
AcDb2dVertex
 10
97.471475
 20
141.531314
 30
0.0
  0
VERTEX
  5
39C
330
38B
100
AcDbEntity
  8
001
 62
   253
370
    50
100
AcDbVertex
100
AcDb2dVertex
 10
97.380985
 20
141.777398
 30
0.0
  0
VERTEX
  5
39D
330
38B
100
AcDbEntity
  8
001
 62
   253
370
    50
100
AcDbVertex
100
AcDb2dVertex
 10
97.271814
 20
142.015716
 30
0.0
  0
VERTEX
  5
39E
330
38B
100
AcDbEntity
  8
001
 62
   253
370
    50
100
AcDbVertex
100
AcDb2dVertex
 10
97.138822
 20
142.254695
 30
0.0
  0
VERTEX
  5
39F
330
38B
100
AcDbEntity
  8
001
 62
   253
370
    50
100
AcDbVertex
100
AcDb2dVertex
 10
96.988013
 20
142.482991
 30
0.0
  0
VERTEX
  5
3A0
330
38B
100
AcDbEntity
  8
001
 62
   253
370
    50
100
AcDbVertex
100
AcDb2dVertex
 10
96.821253
 20
142.69948
 30
0.0
  0
VERTEX
  5
3A1
330
38B
100
AcDbEntity
  8
001
 62
   253
370
    50
100
AcDbVertex
100
AcDb2dVertex
 10
96.638967
 20
142.902803
 30
0.0
  0
VERTEX
  5
3A2
330
38B
100
AcDbEntity
  8
001
 62
   253
370
    50
100
AcDbVertex
100
AcDb2dVertex
 10
96.594415
 20
142.948112
 30
0.0
  0
VERTEX
  5
3A3
330
38B
100
AcDbEntity
  8
001
 62
   253
370
    50
100
AcDbVertex
100
AcDb2dVertex
 10
96.549453
 20
142.993014
 30
0.0
  0
SEQEND
  5
38C
330
38B
100
AcDbEntity
  8
001
370
    50
  0
ARC
  5
3A4
330
1F
100
AcDbEntity
  8
001
 62
   253
370
    50
100
AcDbCircle
 10
86.663826
 20
128.532332
 30
0.0
 40
1.000000000000004
100
AcDbArc
 50
240.0
 51
270.0
  0
ARC
  5
3A5
330
1F
100
AcDbEntity
  8
001
 62
   253
370
    50
100
AcDbCircle
 10
86.663826
 20
152.532332
 30
0.0
 40
1.000000000000004
100
AcDbArc
 50
90.0
 51
120.0
  0
LINE
  5
3A6
330
1F
100
AcDbEntity
  8
001
 62
   253
370
    50
100
AcDbLine
 10
100.395877
 20
153.532332
 30
0.0
 11
86.663826
 21
153.532332
 31
0.0
  0
LINE
  5
3A7
330
1F
100
AcDbEntity
  8
001
 62
   253
370
    50
100
AcDbLine
 10
86.663826
 20
127.532332
 30
0.0
 11
100.395877
 21
127.532332
 31
0.0
  0
LINE
  5
3A8
330
1F
100
AcDbEntity
  8
001
 62
   253
370
    50
100
AcDbLine
 10
90.413736
 20
143.198197
 30
0.0
 11
90.339683
 21
143.112967
 31
0.0
  0
LINE
  5
3A9
330
1F
100
AcDbEntity
  8
001
 62
   253
370
    50
100
AcDbLine
 10
90.339683
 20
143.112967
 30
0.0
 11
90.242301
 21
142.993014
 31
0.0
  0
ARC
  5
3AA
330
1F
100
AcDbEntity
  8
001
 62
   253
370
    50
100
AcDbCircle
 10
93.395877
 20
140.532332
 30
0.0
 40
4.0
100
AcDbArc
 50
315.028836
 51
322.03568
  0
LINE
  5
3AB
330
1F
100
AcDbEntity
  8
001
 62
   253
370
    50
100
AcDbLine
 10
86.163826
 20
153.398357
 30
0.0
 11
83.895877
 21
152.088956
 31
0.0
  0
LINE
  5
3AC
330
1F
100
AcDbEntity
  8
001
 62
   253
370
    50
100
AcDbLine
 10
83.895877
 20
128.975707
 30
0.0
 11
86.163826
 21
127.666306
 31
0.0
  0
ARC
  5
3AD
330
1F
100
AcDbEntity
  8
001
 62
   253
370
    50
100
AcDbCircle
 10
84.395877
 20
129.841733
 30
0.0
 40
0.9999999999999986
100
AcDbArc
 50
180.0
 51
240.0
  0
ARC
  5
3AE
330
1F
100
AcDbEntity
  8
001
 62
   253
370
    50
100
AcDbCircle
 10
84.395877
 20
151.22293
 30
0.0
 40
0.9999999999999986
100
AcDbArc
 50
120.0
 51
180.0
  0
LINE
  5
3AF
330
1F
100
AcDbEntity
  8
001
 62
   253
370
    50
100
AcDbLine
 10
83.395877
 20
129.841733
 30
0.0
 11
83.395877
 21
151.22293
 31
0.0
  0
ARC
  5
3B0
330
1F
100
AcDbEntity
  8
001
 62
   253
370
    50
100
AcDbCircle
 10
268.610743
 20
140.532332
 30
0.0
 40
15.99999999999999
100
AcDbArc
 50
208.955024
 51
151.044976
  0
LINE
  5
3B1
330
1F
100
AcDbEntity
  8
001
 62
   253
370
    50
100
AcDbLine
 10
254.610743
 20
132.786365
 30
0.0
 11
254.610743
 21
148.278298
 31
0.0
  0
CIRCLE
  5
3B2
330
1F
100
AcDbEntity
  8
001
 62
   253
370
    50
100
AcDbCircle
 10
268.610743
 20
140.532332
 30
0.0
 40
8.207106781186543
  0
CIRCLE
  5
3B3
330
1F
100
AcDbEntity
  8
001
 62
   253
370
    50
100
AcDbCircle
 10
268.610743
 20
140.532332
 30
0.0
 40
7.999999999999993
  0
CIRCLE
  5
3B4
330
1F
100
AcDbEntity
  8
001
 62
   253
370
    50
100
AcDbCircle
 10
268.610743
 20
140.532332
 30
0.0
 40
20.0
  0
ARC
  5
3B5
330
1F
100
AcDbEntity
  8
001
 62
   253
370
    50
100
AcDbCircle
 10
117.395877
 20
57.948059
 30
0.0
 40
1.0
100
AcDbArc
 50
0.0
 51
90.0
  0
ARC
  5
3B6
330
1F
100
AcDbEntity
  8
001
 62
   253
370
    50
100
AcDbCircle
 10
117.395877
 20
19.948059
 30
0.0
 40
1.0
100
AcDbArc
 50
270.0
 51
0.0
  0
LINE
  5
3B7
330
1F
100
AcDbEntity
  8
001
 62
   253
370
    50
100
AcDbLine
 10
118.395877
 20
19.948059
 30
0.0
 11
118.395877
 21
57.948059
 31
0.0
  0
LINE
  5
3B8
330
1F
100
AcDbEntity
  8
001
 62
   253
370
    50
100
AcDbLine
 10
117.395877
 20
58.948059
 30
0.0
 11
114.395877
 21
58.948059
 31
0.0
  0
LINE
  5
3B9
330
1F
100
AcDbEntity
  8
001
 62
   253
370
    50
100
AcDbLine
 10
114.395877
 20
18.948059
 30
0.0
 11
117.395877
 21
18.948059
 31
0.0
  0
ARC
  5
3BA
330
1F
100
AcDbEntity
  8
001
 62
   253
370
    50
100
AcDbCircle
 10
114.395877
 20
19.948059
 30
0.0
 40
0.9999999999999966
100
AcDbArc
 50
180.0
 51
270.0
  0
ARC
  5
3BB
330
1F
100
AcDbEntity
  8
001
 62
   253
370
    50
100
AcDbCircle
 10
114.395877
 20
57.948059
 30
0.0
 40
0.9999999999999966
100
AcDbArc
 50
90.0
 51
180.0
  0
LINE
  5
3BC
330
1F
100
AcDbEntity
  8
001
 62
   253
370
    50
100
AcDbLine
 10
113.395877
 20
57.948059
 30
0.0
 11
113.395877
 21
19.948059
 31
0.0
  0
LINE
  5
3BD
330
1F
100
AcDbEntity
  8
001
 62
   253
370
    50
100
AcDbLine
 10
121.395877
 20
22.948059
 30
0.0
 11
196.395877
 21
22.948059
 31
0.0
  0
LINE
  5
3BE
330
1F
100
AcDbEntity
  8
001
 62
   253
370
    50
100
AcDbLine
 10
121.395877
 20
52.948059
 30
0.0
 11
121.395877
 21
22.948059
 31
0.0
  0
ARC
  5
3BF
330
1F
100
AcDbEntity
  8
001
 62
   253
370
    50
100
AcDbCircle
 10
196.395877
 20
24.948059
 30
0.0
 40
2.0
100
AcDbArc
 50
270.0
 51
0.0
  0
LINE
  5
3C0
330
1F
100
AcDbEntity
  8
001
 62
   253
370
    50
100
AcDbLine
 10
198.395877
 20
52.948059
 30
0.0
 11
198.395877
 21
24.948059
 31
0.0
  0
LINE
  5
3C1
330
1F
100
AcDbEntity
  8
001
 62
   253
370
    50
100
AcDbLine
 10
118.395877
 20
23.448059
 30
0.0
 11
121.395877
 21
23.448059
 31
0.0
  0
LINE
  5
3C2
330
1F
100
AcDbEntity
  8
001
 62
   253
370
    50
100
AcDbLine
 10
118.395877
 20
52.948059
 30
0.0
 11
198.395877
 21
52.948059
 31
0.0
  0
LINE
  5
3C3
330
1F
100
AcDbEntity
  8
001
 62
   253
370
    50
100
AcDbLine
 10
100.895877
 20
53.948059
 30
0.0
 11
100.895877
 21
23.948059
 31
0.0
  0
POLYLINE
  5
3C4
330
1F
100
AcDbEntity
  8
001
 62
   253
370
    50
100
AcDb2dPolyline
 66
     1
 10
0.0
 20
0.0
 30
0.0
  0
VERTEX
  5
3C6
330
3C4
100
AcDbEntity
  8
001
 62
   253
370
    50
100
AcDbVertex
100
AcDb2dVertex
 10
102.66087
 20
53.948059
 30
0.0
  0
VERTEX
  5
3C7
330
3C4
100
AcDbEntity
  8
001
 62
   253
370
    50
100
AcDbVertex
100
AcDb2dVertex
 10
102.700459
 20
53.93861
 30
0.0
  0
VERTEX
  5
3C8
330
3C4
100
AcDbEntity
  8
001
 62
   253
370
    50
100
AcDbVertex
100
AcDb2dVertex
 10
102.740058
 20
53.9292
 30
0.0
  0
VERTEX
  5
3C9
330
3C4
100
AcDbEntity
  8
001
 62
   253
370
    50
100
AcDbVertex
100
AcDb2dVertex
 10
102.827017
 20
53.908806
 30
0.0
  0
VERTEX
  5
3CA
330
3C4
100
AcDbEntity
  8
001
 62
   253
370
    50
100
AcDbVertex
100
AcDb2dVertex
 10
102.914057
 20
53.888758
 30
0.0
  0
VERTEX
  5
3CB
330
3C4
100
AcDbEntity
  8
001
 62
   253
370
    50
100
AcDbVertex
100
AcDb2dVertex
 10
103.043059
 20
53.859671
 30
0.0
  0
VERTEX
  5
3CC
330
3C4
100
AcDbEntity
  8
001
 62
   253
370
    50
100
AcDbVertex
100
AcDb2dVertex
 10
103.172221
 20
53.831305
 30
0.0
  0
VERTEX
  5
3CD
330
3C4
100
AcDbEntity
  8
001
 62
   253
370
    50
100
AcDbVertex
100
AcDb2dVertex
 10
103.343492
 20
53.794892
 30
0.0
  0
VERTEX
  5
3CE
330
3C4
100
AcDbEntity
  8
001
 62
   253
370
    50
100
AcDbVertex
100
AcDb2dVertex
 10
103.515041
 20
53.759808
 30
0.0
  0
VERTEX
  5
3CF
330
3C4
100
AcDbEntity
  8
001
 62
   253
370
    50
100
AcDbVertex
100
AcDb2dVertex
 10
103.739037
 20
53.716103
 30
0.0
  0
VERTEX
  5
3D0
330
3C4
100
AcDbEntity
  8
001
 62
   253
370
    50
100
AcDbVertex
100
AcDb2dVertex
 10
103.963476
 20
53.674729
 30
0.0
  0
VERTEX
  5
3D1
330
3C4
100
AcDbEntity
  8
001
 62
   253
370
    50
100
AcDbVertex
100
AcDb2dVertex
 10
104.226345
 20
53.629391
 30
0.0
  0
VERTEX
  5
3D2
330
3C4
100
AcDbEntity
  8
001
 62
   253
370
    50
100
AcDbVertex
100
AcDb2dVertex
 10
104.489769
 20
53.587406
 30
0.0
  0
VERTEX
  5
3D3
330
3C4
100
AcDbEntity
  8
001
 62
   253
370
    50
100
AcDbVertex
100
AcDb2dVertex
 10
104.814514
 20
53.540478
 30
0.0
  0
VERTEX
  5
3D4
330
3C4
100
AcDbEntity
  8
001
 62
   253
370
    50
100
AcDbVertex
100
AcDb2dVertex
 10
105.139977
 20
53.49873
 30
0.0
  0
VERTEX
  5
3D5
330
3C4
100
AcDbEntity
  8
001
 62
   253
370
    50
100
AcDbVertex
100
AcDb2dVertex
 10
105.49876
 20
53.458882
 30
0.0
  0
VERTEX
  5
3D6
330
3C4
100
AcDbEntity
  8
001
 62
   253
370
    50
100
AcDbVertex
100
AcDb2dVertex
 10
105.858238
 20
53.426124
 30
0.0
  0
VERTEX
  5
3D7
330
3C4
100
AcDbEntity
  8
001
 62
   253
370
    50
100
AcDbVertex
100
AcDb2dVertex
 10
106.021526
 20
53.413689
 30
0.0
  0
VERTEX
  5
3D8
330
3C4
100
AcDbEntity
  8
001
 62
   253
370
    50
100
AcDbVertex
100
AcDb2dVertex
 10
106.184878
 20
53.402076
 30
0.0
  0
SEQEND
  5
3C5
330
3C4
100
AcDbEntity
  8
001
370
    50
  0
LINE
  5
3D9
330
1F
100
AcDbEntity
  8
001
 62
   253
370
    50
100
AcDbLine
 10
102.664785
 20
53.948059
 30
0.0
 11
100.895877
 21
53.948059
 31
0.0
  0
LINE
  5
3DA
330
1F
100
AcDbEntity
  8
001
 62
   253
370
    50
100
AcDbLine
 10
113.395877
 20
53.948059
 30
0.0
 11
112.118547
 21
53.948059
 31
0.0
  0
LINE
  5
3DB
330
1F
100
AcDbEntity
  8
001
 62
   253
370
    50
100
AcDbLine
 10
100.895877
 20
23.948059
 30
0.0
 11
113.395877
 21
23.948059
 31
0.0
  0
POLYLINE
  5
3DC
330
1F
100
AcDbEntity
  8
001
 62
   253
370
    50
100
AcDb2dPolyline
 66
     1
 10
0.0
 20
0.0
 30
0.0
  0
VERTEX
  5
3DE
330
3DC
100
AcDbEntity
  8
001
 62
   253
370
    50
100
AcDbVertex
100
AcDb2dVertex
 10
109.399193
 20
53.47013
 30
0.0
  0
VERTEX
  5
3DF
330
3DC
100
AcDbEntity
  8
001
 62
   253
370
    50
100
AcDbVertex
100
AcDb2dVertex
 10
109.144698
 20
53.438324
 30
0.0
  0
VERTEX
  5
3E0
330
3DC
100
AcDbEntity
  8
001
 62
   253
370
    50
100
AcDbVertex
100
AcDb2dVertex
 10
108.889883
 20
53.409519
 30
0.0
  0
VERTEX
  5
3E1
330
3DC
100
AcDbEntity
  8
001
 62
   253
370
    50
100
AcDbVertex
100
AcDb2dVertex
 10
108.621215
 20
53.384949
 30
0.0
  0
VERTEX
  5
3E2
330
3DC
100
AcDbEntity
  8
001
 62
   253
370
    50
100
AcDbVertex
100
AcDb2dVertex
 10
108.352075
 20
53.365712
 30
0.0
  0
VERTEX
  5
3E3
330
3DC
100
AcDbEntity
  8
001
 62
   253
370
    50
100
AcDbVertex
100
AcDb2dVertex
 10
108.033076
 20
53.348459
 30
0.0
  0
VERTEX
  5
3E4
330
3DC
100
AcDbEntity
  8
001
 62
   253
370
    50
100
AcDbVertex
100
AcDb2dVertex
 10
107.713832
 20
53.33724
 30
0.0
  0
VERTEX
  5
3E5
330
3DC
100
AcDbEntity
  8
001
 62
   253
370
    50
100
AcDbVertex
100
AcDb2dVertex
 10
107.449365
 20
53.332821
 30
0.0
  0
VERTEX
  5
3E6
330
3DC
100
AcDbEntity
  8
001
 62
   253
370
    50
100
AcDbVertex
100
AcDb2dVertex
 10
107.184837
 20
53.333172
 30
0.0
  0
VERTEX
  5
3E7
330
3DC
100
AcDbEntity
  8
001
 62
   253
370
    50
100
AcDbVertex
100
AcDb2dVertex
 10
106.922452
 20
53.338748
 30
0.0
  0
VERTEX
  5
3E8
330
3DC
100
AcDbEntity
  8
001
 62
   253
370
    50
100
AcDbVertex
100
AcDb2dVertex
 10
106.660346
 20
53.35068
 30
0.0
  0
VERTEX
  5
3E9
330
3DC
100
AcDbEntity
  8
001
 62
   253
370
    50
100
AcDbVertex
100
AcDb2dVertex
 10
106.567134
 20
53.35667
 30
0.0
  0
VERTEX
  5
3EA
330
3DC
100
AcDbEntity
  8
001
 62
   253
370
    50
100
AcDbVertex
100
AcDb2dVertex
 10
106.473935
 20
53.363448
 30
0.0
  0
VERTEX
  5
3EB
330
3DC
100
AcDbEntity
  8
001
 62
   253
370
    50
100
AcDbVertex
100
AcDb2dVertex
 10
106.384198
 20
53.371046
 30
0.0
  0
VERTEX
  5
3EC
330
3DC
100
AcDbEntity
  8
001
 62
   253
370
    50
100
AcDbVertex
100
AcDb2dVertex
 10
106.294899
 20
53.382013
 30
0.0
  0
VERTEX
  5
3ED
330
3DC
100
AcDbEntity
  8
001
 62
   253
370
    50
100
AcDbVertex
100
AcDb2dVertex
 10
106.2398
 20
53.391448
 30
0.0
  0
VERTEX
  5
3EE
330
3DC
100
AcDbEntity
  8
001
 62
   253
370
    50
100
AcDbVertex
100
AcDb2dVertex
 10
106.184878
 20
53.402076
 30
0.0
  0
SEQEND
  5
3DD
330
3DC
100
AcDbEntity
  8
001
370
    50
  0
POLYLINE
  5
3EF
330
1F
100
AcDbEntity
  8
001
 62
   253
370
    50
100
AcDb2dPolyline
 66
     1
 10
0.0
 20
0.0
 30
0.0
  0
VERTEX
  5
3F1
330
3EF
100
AcDbEntity
  8
001
 62
   253
370
    50
100
AcDbVertex
100
AcDb2dVertex
 10
109.399193
 20
53.47013
 30
0.0
  0
VERTEX
  5
3F2
330
3EF
100
AcDbEntity
  8
001
 62
   253
370
    50
100
AcDbVertex
100
AcDb2dVertex
 10
109.731495
 20
53.509476
 30
0.0
  0
VERTEX
  5
3F3
330
3EF
100
AcDbEntity
  8
001
 62
   253
370
    50
100
AcDbVertex
100
AcDb2dVertex
 10
110.063326
 20
53.552362
 30
0.0
  0
VERTEX
  5
3F4
330
3EF
100
AcDbEntity
  8
001
 62
   253
370
    50
100
AcDbVertex
100
AcDb2dVertex
 10
110.372658
 20
53.598109
 30
0.0
  0
VERTEX
  5
3F5
330
3EF
100
AcDbEntity
  8
001
 62
   253
370
    50
100
AcDbVertex
100
AcDb2dVertex
 10
110.681211
 20
53.648951
 30
0.0
  0
VERTEX
  5
3F6
330
3EF
100
AcDbEntity
  8
001
 62
   253
370
    50
100
AcDbVertex
100
AcDb2dVertex
 10
110.789687
 20
53.667877
 30
0.0
  0
VERTEX
  5
3F7
330
3EF
100
AcDbEntity
  8
001
 62
   253
370
    50
100
AcDbVertex
100
AcDb2dVertex
 10
110.898068
 20
53.687333
 30
0.0
  0
VERTEX
  5
3F8
330
3EF
100
AcDbEntity
  8
001
 62
   253
370
    50
100
AcDbVertex
100
AcDb2dVertex
 10
111.115204
 20
53.728043
 30
0.0
  0
VERTEX
  5
3F9
330
3EF
100
AcDbEntity
  8
001
 62
   253
370
    50
100
AcDbVertex
100
AcDb2dVertex
 10
111.33192
 20
53.770947
 30
0.0
  0
VERTEX
  5
3FA
330
3EF
100
AcDbEntity
  8
001
 62
   253
370
    50
100
AcDbVertex
100
AcDb2dVertex
 10
111.512645
 20
53.808424
 30
0.0
  0
VERTEX
  5
3FB
330
3EF
100
AcDbEntity
  8
001
 62
   253
370
    50
100
AcDbVertex
100
AcDb2dVertex
 10
111.693061
 20
53.847355
 30
0.0
  0
VERTEX
  5
3FC
330
3EF
100
AcDbEntity
  8
001
 62
   253
370
    50
100
AcDbVertex
100
AcDb2dVertex
 10
111.767874
 20
53.86394
 30
0.0
  0
VERTEX
  5
3FD
330
3EF
100
AcDbEntity
  8
001
 62
   253
370
    50
100
AcDbVertex
100
AcDb2dVertex
 10
111.842631
 20
53.880772
 30
0.0
  0
VERTEX
  5
3FE
330
3EF
100
AcDbEntity
  8
001
 62
   253
370
    50
100
AcDbVertex
100
AcDb2dVertex
 10
111.902791
 20
53.894505
 30
0.0
  0
VERTEX
  5
3FF
330
3EF
100
AcDbEntity
  8
001
 62
   253
370
    50
100
AcDbVertex
100
AcDb2dVertex
 10
111.962915
 20
53.908393
 30
0.0
  0
VERTEX
  5
400
330
3EF
100
AcDbEntity
  8
001
 62
   253
370
    50
100
AcDbVertex
100
AcDb2dVertex
 10
112.008782
 20
53.919094
 30
0.0
  0
VERTEX
  5
401
330
3EF
100
AcDbEntity
  8
001
 62
   253
370
    50
100
AcDbVertex
100
AcDb2dVertex
 10
112.054627
 20
53.929887
 30
0.0
  0
VERTEX
  5
402
330
3EF
100
AcDbEntity
  8
001
 62
   253
370
    50
100
AcDbVertex
100
AcDb2dVertex
 10
112.082837
 20
53.936579
 30
0.0
  0
VERTEX
  5
403
330
3EF
100
AcDbEntity
  8
001
 62
   253
370
    50
100
AcDbVertex
100
AcDb2dVertex
 10
112.111038
 20
53.943306
 30
0.0
  0
VERTEX
  5
404
330
3EF
100
AcDbEntity
  8
001
 62
   253
370
    50
100
AcDbVertex
100
AcDb2dVertex
 10
112.120962
 20
53.945681
 30
0.0
  0
VERTEX
  5
405
330
3EF
100
AcDbEntity
  8
001
 62
   253
370
    50
100
AcDbVertex
100
AcDb2dVertex
 10
112.130884
 20
53.948059
 30
0.0
  0
SEQEND
  5
3F0
330
3EF
100
AcDbEntity
  8
001
370
    50
  0
LINE
  5
406
330
1F
100
AcDbEntity
  8
001
 62
   253
370
    50
100
AcDbLine
 10
100.395877
 20
53.448059
 30
0.0
 11
100.395877
 21
24.448059
 31
0.0
  0
LINE
  5
407
330
1F
100
AcDbEntity
  8
001
 62
   253
370
    50
100
AcDbLine
 10
100.895877
 20
53.948059
 30
0.0
 11
100.395877
 21
53.448059
 31
0.0
  0
LINE
  5
408
330
1F
100
AcDbEntity
  8
001
 62
   253
370
    50
100
AcDbLine
 10
100.395877
 20
24.448059
 30
0.0
 11
100.895877
 21
23.948059
 31
0.0
  0
ARC
  5
409
330
1F
100
AcDbEntity
  8
001
 62
   253
370
    50
100
AcDbCircle
 10
86.663826
 20
26.948059
 30
0.0
 40
1.000000000000004
100
AcDbArc
 50
240.0
 51
270.0
  0
ARC
  5
40A
330
1F
100
AcDbEntity
  8
001
 62
   253
370
    50
100
AcDbCircle
 10
86.663826
 20
50.948059
 30
0.0
 40
1.000000000000004
100
AcDbArc
 50
90.0
 51
120.0
  0
POLYLINE
  5
40B
330
1F
100
AcDbEntity
  8
001
 62
   253
370
    50
100
AcDb2dPolyline
 66
     1
 10
0.0
 20
0.0
 30
0.0
  0
VERTEX
  5
40D
330
40B
100
AcDbEntity
  8
001
 62
   253
370
    50
100
AcDbVertex
100
AcDb2dVertex
 10
89.16087
 20
51.948059
 30
0.0
  0
VERTEX
  5
40E
330
40B
100
AcDbEntity
  8
001
 62
   253
370
    50
100
AcDbVertex
100
AcDb2dVertex
 10
89.188762
 20
51.941233
 30
0.0
  0
VERTEX
  5
40F
330
40B
100
AcDbEntity
  8
001
 62
   253
370
    50
100
AcDbVertex
100
AcDb2dVertex
 10
89.216659
 20
51.93443
 30
0.0
  0
VERTEX
  5
410
330
40B
100
AcDbEntity
  8
001
 62
   253
370
    50
100
AcDbVertex
100
AcDb2dVertex
 10
89.288594
 20
51.917089
 30
0.0
  0
VERTEX
  5
411
330
40B
100
AcDbEntity
  8
001
 62
   253
370
    50
100
AcDbVertex
100
AcDb2dVertex
 10
89.360592
 20
51.900006
 30
0.0
  0
VERTEX
  5
412
330
40B
100
AcDbEntity
  8
001
 62
   253
370
    50
100
AcDbVertex
100
AcDb2dVertex
 10
89.454131
 20
51.878188
 30
0.0
  0
VERTEX
  5
413
330
40B
100
AcDbEntity
  8
001
 62
   253
370
    50
100
AcDbVertex
100
AcDb2dVertex
 10
89.54778
 20
51.856847
 30
0.0
  0
VERTEX
  5
414
330
40B
100
AcDbEntity
  8
001
 62
   253
370
    50
100
AcDbVertex
100
AcDb2dVertex
 10
89.670258
 20
51.829744
 30
0.0
  0
VERTEX
  5
415
330
40B
100
AcDbEntity
  8
001
 62
   253
370
    50
100
AcDbVertex
100
AcDb2dVertex
 10
89.792847
 20
51.803137
 30
0.0
  0
SEQEND
  5
40C
330
40B
100
AcDbEntity
  8
001
370
    50
  0
LINE
  5
416
330
1F
100
AcDbEntity
  8
001
 62
   253
370
    50
100
AcDbLine
 10
89.167057
 20
51.948059
 30
0.0
 11
86.663826
 21
51.948059
 31
0.0
  0
LINE
  5
417
330
1F
100
AcDbEntity
  8
001
 62
   253
370
    50
100
AcDbLine
 10
100.395877
 20
51.948059
 30
0.0
 11
97.627477
 21
51.948059
 31
0.0
  0
LINE
  5
418
330
1F
100
AcDbEntity
  8
001
 62
   253
370
    50
100
AcDbLine
 10
86.663826
 20
25.948059
 30
0.0
 11
100.395877
 21
25.948059
 31
0.0
  0
POLYLINE
  5
419
330
1F
100
AcDbEntity
  8
001
 62
   253
370
    50
100
AcDb2dPolyline
 66
     1
 10
0.0
 20
0.0
 30
0.0
  0
VERTEX
  5
41B
330
419
100
AcDbEntity
  8
001
 62
   253
370
    50
100
AcDbVertex
100
AcDb2dVertex
 10
96.549453
 20
51.713052
 30
0.0
  0
VERTEX
  5
41C
330
419
100
AcDbEntity
  8
001
 62
   253
370
    50
100
AcDbVertex
100
AcDb2dVertex
 10
96.726932
 20
51.747617
 30
0.0
  0
VERTEX
  5
41D
330
419
100
AcDbEntity
  8
001
 62
   253
370
    50
100
AcDbVertex
100
AcDb2dVertex
 10
96.904196
 20
51.78324
 30
0.0
  0
VERTEX
  5
41E
330
419
100
AcDbEntity
  8
001
 62
   253
370
    50
100
AcDbVertex
100
AcDb2dVertex
 10
97.054563
 20
51.814988
 30
0.0
  0
VERTEX
  5
41F
330
419
100
AcDbEntity
  8
001
 62
   253
370
    50
100
AcDbVertex
100
AcDb2dVertex
 10
97.204657
 20
51.848016
 30
0.0
  0
VERTEX
  5
420
330
419
100
AcDbEntity
  8
001
 62
   253
370
    50
100
AcDbVertex
100
AcDb2dVertex
 10
97.319349
 20
51.87402
 30
0.0
  0
VERTEX
  5
421
330
419
100
AcDbEntity
  8
001
 62
   253
370
    50
100
AcDbVertex
100
AcDb2dVertex
 10
97.433896
 20
51.90065
 30
0.0
  0
VERTEX
  5
422
330
419
100
AcDbEntity
  8
001
 62
   253
370
    50
100
AcDbVertex
100
AcDb2dVertex
 10
97.507658
 20
51.91816
 30
0.0
  0
VERTEX
  5
423
330
419
100
AcDbEntity
  8
001
 62
   253
370
    50
100
AcDbVertex
100
AcDb2dVertex
 10
97.581353
 20
51.935952
 30
0.0
  0
VERTEX
  5
424
330
419
100
AcDbEntity
  8
001
 62
   253
370
    50
100
AcDbVertex
100
AcDb2dVertex
 10
97.606121
 20
51.941997
 30
0.0
  0
VERTEX
  5
425
330
419
100
AcDbEntity
  8
001
 62
   253
370
    50
100
AcDbVertex
100
AcDb2dVertex
 10
97.630884
 20
51.948059
 30
0.0
  0
SEQEND
  5
41A
330
419
100
AcDbEntity
  8
001
370
    50
  0
POLYLINE
  5
426
330
1F
100
AcDbEntity
  8
001
 62
   253
370
    50
100
AcDb2dPolyline
 66
     1
 10
0.0
 20
0.0
 30
0.0
  0
VERTEX
  5
428
330
426
100
AcDbEntity
  8
001
 62
   253
370
    50
100
AcDbVertex
100
AcDb2dVertex
 10
91.073603
 20
51.533485
 30
0.0
  0
VERTEX
  5
429
330
426
100
AcDbEntity
  8
001
 62
   253
370
    50
100
AcDbVertex
100
AcDb2dVertex
 10
90.885863
 20
51.553755
 30
0.0
  0
VERTEX
  5
42A
330
426
100
AcDbEntity
  8
001
 62
   253
370
    50
100
AcDbVertex
100
AcDb2dVertex
 10
90.69819
 20
51.574553
 30
0.0
  0
VERTEX
  5
42B
330
426
100
AcDbEntity
  8
001
 62
   253
370
    50
100
AcDbVertex
100
AcDb2dVertex
 10
90.566018
 20
51.589949
 30
0.0
  0
VERTEX
  5
42C
330
426
100
AcDbEntity
  8
001
 62
   253
370
    50
100
AcDbVertex
100
AcDb2dVertex
 10
90.434012
 20
51.606867
 30
0.0
  0
VERTEX
  5
42D
330
426
100
AcDbEntity
  8
001
 62
   253
370
    50
100
AcDbVertex
100
AcDb2dVertex
 10
90.314244
 20
51.624489
 30
0.0
  0
VERTEX
  5
42E
330
426
100
AcDbEntity
  8
001
 62
   253
370
    50
100
AcDbVertex
100
AcDb2dVertex
 10
90.195067
 20
51.645389
 30
0.0
  0
VERTEX
  5
42F
330
426
100
AcDbEntity
  8
001
 62
   253
370
    50
100
AcDbVertex
100
AcDb2dVertex
 10
90.069257
 20
51.672874
 30
0.0
  0
VERTEX
  5
430
330
426
100
AcDbEntity
  8
001
 62
   253
370
    50
100
AcDbVertex
100
AcDb2dVertex
 10
89.945197
 20
51.708573
 30
0.0
  0
VERTEX
  5
431
330
426
100
AcDbEntity
  8
001
 62
   253
370
    50
100
AcDbVertex
100
AcDb2dVertex
 10
89.903867
 20
51.723595
 30
0.0
  0
VERTEX
  5
432
330
426
100
AcDbEntity
  8
001
 62
   253
370
    50
100
AcDbVertex
100
AcDb2dVertex
 10
89.864629
 20
51.742847
 30
0.0
  0
VERTEX
  5
433
330
426
100
AcDbEntity
  8
001
 62
   253
370
    50
100
AcDbVertex
100
AcDb2dVertex
 10
89.841266
 20
51.758598
 30
0.0
  0
VERTEX
  5
434
330
426
100
AcDbEntity
  8
001
 62
   253
370
    50
100
AcDbVertex
100
AcDb2dVertex
 10
89.81959
 20
51.776685
 30
0.0
  0
VERTEX
  5
435
330
426
100
AcDbEntity
  8
001
 62
   253
370
    50
100
AcDbVertex
100
AcDb2dVertex
 10
89.806022
 20
51.78972
 30
0.0
  0
VERTEX
  5
436
330
426
100
AcDbEntity
  8
001
 62
   253
370
    50
100
AcDbVertex
100
AcDb2dVertex
 10
89.792847
 20
51.803137
 30
0.0
  0
SEQEND
  5
427
330
426
100
AcDbEntity
  8
001
370
    50
  0
POLYLINE
  5
437
330
1F
100
AcDbEntity
  8
001
 62
   253
370
    50
100
AcDb2dPolyline
 66
     1
 10
0.0
 20
0.0
 30
0.0
  0
VERTEX
  5
439
330
437
100
AcDbEntity
  8
001
 62
   253
370
    50
100
AcDbVertex
100
AcDb2dVertex
 10
91.073603
 20
51.533485
 30
0.0
  0
VERTEX
  5
43A
330
437
100
AcDbEntity
  8
001
 62
   253
370
    50
100
AcDbVertex
100
AcDb2dVertex
 10
91.0815
 20
51.532032
 30
0.0
  0
VERTEX
  5
43B
330
437
100
AcDbEntity
  8
001
 62
   253
370
    50
100
AcDbVertex
100
AcDb2dVertex
 10
91.089398
 20
51.53058
 30
0.0
  0
VERTEX
  5
43C
330
437
100
AcDbEntity
  8
001
 62
   253
370
    50
100
AcDbVertex
100
AcDb2dVertex
 10
91.382682
 20
51.480208
 30
0.0
  0
VERTEX
  5
43D
330
437
100
AcDbEntity
  8
001
 62
   253
370
    50
100
AcDbVertex
100
AcDb2dVertex
 10
91.677041
 20
51.436407
 30
0.0
  0
VERTEX
  5
43E
330
437
100
AcDbEntity
  8
001
 62
   253
370
    50
100
AcDbVertex
100
AcDb2dVertex
 10
91.996352
 20
51.396385
 30
0.0
  0
VERTEX
  5
43F
330
437
100
AcDbEntity
  8
001
 62
   253
370
    50
100
AcDbVertex
100
AcDb2dVertex
 10
92.316552
 20
51.364377
 30
0.0
  0
VERTEX
  5
440
330
437
100
AcDbEntity
  8
001
 62
   253
370
    50
100
AcDbVertex
100
AcDb2dVertex
 10
92.646003
 20
51.340237
 30
0.0
  0
VERTEX
  5
441
330
437
100
AcDbEntity
  8
001
 62
   253
370
    50
100
AcDbVertex
100
AcDb2dVertex
 10
92.975989
 20
51.324785
 30
0.0
  0
VERTEX
  5
442
330
437
100
AcDbEntity
  8
001
 62
   253
370
    50
100
AcDbVertex
100
AcDb2dVertex
 10
93.312088
 20
51.317809
 30
0.0
  0
VERTEX
  5
443
330
437
100
AcDbEntity
  8
001
 62
   253
370
    50
100
AcDbVertex
100
AcDb2dVertex
 10
93.648238
 20
51.31995
 30
0.0
  0
VERTEX
  5
444
330
437
100
AcDbEntity
  8
001
 62
   253
370
    50
100
AcDbVertex
100
AcDb2dVertex
 10
93.967226
 20
51.330664
 30
0.0
  0
VERTEX
  5
445
330
437
100
AcDbEntity
  8
001
 62
   253
370
    50
100
AcDbVertex
100
AcDb2dVertex
 10
94.285842
 20
51.349565
 30
0.0
  0
VERTEX
  5
446
330
437
100
AcDbEntity
  8
001
 62
   253
370
    50
100
AcDbVertex
100
AcDb2dVertex
 10
94.59266
 20
51.375263
 30
0.0
  0
VERTEX
  5
447
330
437
100
AcDbEntity
  8
001
 62
   253
370
    50
100
AcDbVertex
100
AcDb2dVertex
 10
94.898761
 20
51.408342
 30
0.0
  0
VERTEX
  5
448
330
437
100
AcDbEntity
  8
001
 62
   253
370
    50
100
AcDbVertex
100
AcDb2dVertex
 10
95.187471
 20
51.446479
 30
0.0
  0
VERTEX
  5
449
330
437
100
AcDbEntity
  8
001
 62
   253
370
    50
100
AcDbVertex
100
AcDb2dVertex
 10
95.475262
 20
51.491044
 30
0.0
  0
VERTEX
  5
44A
330
437
100
AcDbEntity
  8
001
 62
   253
370
    50
100
AcDbVertex
100
AcDb2dVertex
 10
95.736352
 20
51.536963
 30
0.0
  0
VERTEX
  5
44B
330
437
100
AcDbEntity
  8
001
 62
   253
370
    50
100
AcDbVertex
100
AcDb2dVertex
 10
95.996523
 20
51.587812
 30
0.0
  0
VERTEX
  5
44C
330
437
100
AcDbEntity
  8
001
 62
   253
370
    50
100
AcDbVertex
100
AcDb2dVertex
 10
96.142153
 20
51.618497
 30
0.0
  0
VERTEX
  5
44D
330
437
100
AcDbEntity
  8
001
 62
   253
370
    50
100
AcDbVertex
100
AcDb2dVertex
 10
96.287415
 20
51.650857
 30
0.0
  0
VERTEX
  5
44E
330
437
100
AcDbEntity
  8
001
 62
   253
370
    50
100
AcDbVertex
100
AcDb2dVertex
 10
96.418521
 20
51.681577
 30
0.0
  0
VERTEX
  5
44F
330
437
100
AcDbEntity
  8
001
 62
   253
370
    50
100
AcDbVertex
100
AcDb2dVertex
 10
96.549453
 20
51.713052
 30
0.0
  0
SEQEND
  5
438
330
437
100
AcDbEntity
  8
001
370
    50
  0
LINE
  5
450
330
1F
100
AcDbEntity
  8
001
 62
   253
370
    50
100
AcDbLine
 10
86.163826
 20
51.814084
 30
0.0
 11
83.895877
 21
50.504683
 31
0.0
  0
LINE
  5
451
330
1F
100
AcDbEntity
  8
001
 62
   253
370
    50
100
AcDbLine
 10
83.895877
 20
27.391435
 30
0.0
 11
86.163826
 21
26.082034
 31
0.0
  0
ARC
  5
452
330
1F
100
AcDbEntity
  8
001
 62
   253
370
    50
100
AcDbCircle
 10
84.395877
 20
28.25746
 30
0.0
 40
0.9999999999999986
100
AcDbArc
 50
180.0
 51
240.0
  0
ARC
  5
453
330
1F
100
AcDbEntity
  8
001
 62
   253
370
    50
100
AcDbCircle
 10
84.395877
 20
49.638658
 30
0.0
 40
0.9999999999999986
100
AcDbArc
 50
120.0
 51
180.0
  0
LINE
  5
454
330
1F
100
AcDbEntity
  8
001
 62
   253
370
    50
100
AcDbLine
 10
83.395877
 20
28.25746
 30
0.0
 11
83.395877
 21
49.638658
 31
0.0
  0
LINE
  5
455
330
1F
100
AcDbEntity
  8
001
  6
CENTER
370
     9
100
AcDbLine
 10
74.296568
 20
38.948059
 30
0.0
 11
205.270603
 21
38.948059
 31
0.0
  0
LINE
  5
456
330
1F
100
AcDbEntity
  8
001
  6
CENTER
370
     9
100
AcDbLine
 10
74.296568
 20
140.532332
 30
0.0
 11
205.270603
 21
140.532332
 31
0.0
  0
LINE
  5
457
330
1F
100
AcDbEntity
  8
001
  6
CENTER
 62
   253
370
     9
100
AcDbLine
 10
246.610743
 20
140.532332
 30
0.0
 11
290.610743
 21
140.532332
 31
0.0
  0
LINE
  5
458
330
1F
100
AcDbEntity
  8
001
  6
CENTER
 62
   253
370
     9
100
AcDbLine
 10
268.610743
 20
118.532332
 30
0.0
 11
268.610743
 21
162.532332
 31
0.0
  0
LINE
  5
459
330
1F
100
AcDbEntity
  8
001
  6
DASHED
 62
   253
370
    50
100
AcDbLine
 10
198.395877
 20
30.948059
 30
0.0
 11
83.395877
 21
30.948059
 31
0.0
  0
LINE
  5
45A
330
1F
100
AcDbEntity
  8
001
  6
DASHED
 62
   253
370
    50
100
AcDbLine
 10
83.395877
 20
46.948059
 30
0.0
 11
198.395877
 21
46.948059
 31
0.0
  0
LINE
  5
45B
330
1F
100
AcDbEntity
  8
001
  6
CENTER
370
     9
100
AcDbLine
 10
107.395877
 20
58.478742
 30
0.0
 11
107.395877
 21
43.159919
 31
0.0
  0
LINE
  5
45C
330
1F
100
AcDbEntity
  8
001
  6
CENTER
370
     9
100
AcDbLine
 10
93.395877
 20
58.478742
 30
0.0
 11
93.395877
 21
43.159919
 31
0.0
  0
LINE
  5
45D
330
1F
100
AcDbEntity
  8
001
370
     9
100
AcDbLine
 10
121.395877
 20
148.278298
 30
0.0
 11
196.395877
 21
132.786365
 31
0.0
  0
LINE
  5
45E
330
1F
100
AcDbEntity
  8
001
370
     9
100
AcDbLine
 10
196.395877
 20
148.278298
 30
0.0
 11
121.395877
 21
132.786365
 31
0.0
  0
LINE
  5
45F
330
1F
100
AcDbEntity
  8
001
  6
DASHED
370
    30
100
AcDbLine
 10
111.395877
 20
53.784035
 30
0.0
 11
111.395877
 21
46.948059
 31
0.0
  0
LINE
  5
460
330
1F
100
AcDbEntity
  8
001
  6
DASHED
370
    30
100
AcDbLine
 10
110.795877
 20
53.668973
 30
0.0
 11
110.795877
 21
46.948059
 31
0.0
  0
LINE
  5
461
330
1F
100
AcDbEntity
  8
001
  6
DASHED
370
    30
100
AcDbLine
 10
103.995877
 20
53.668958
 30
0.0
 11
103.995877
 21
46.948059
 31
0.0
  0
LINE
  5
462
330
1F
100
AcDbEntity
  8
001
  6
DASHED
370
    30
100
AcDbLine
 10
103.395877
 20
53.784031
 30
0.0
 11
103.395877
 21
46.948059
 31
0.0
  0
LINE
  5
463
330
1F
100
AcDbEntity
  8
001
  6
DASHED
370
    30
100
AcDbLine
 10
97.395877
 20
51.891737
 30
0.0
 11
97.395877
 21
46.948059
 31
0.0
  0
LINE
  5
464
330
1F
100
AcDbEntity
  8
001
  6
DASHED
370
    30
100
AcDbLine
 10
96.795877
 20
51.761281
 30
0.0
 11
96.795877
 21
46.948059
 31
0.0
  0
LINE
  5
465
330
1F
100
AcDbEntity
  8
001
  6
DASHED
370
    30
100
AcDbLine
 10
89.995877
 20
51.692721
 30
0.0
 11
89.995877
 21
46.948059
 31
0.0
  0
LINE
  5
466
330
1F
100
AcDbEntity
  8
001
  6
DASHED
370
    30
100
AcDbLine
 10
89.395877
 20
51.891724
 30
0.0
 11
89.395877
 21
46.948059
 31
0.0
  0
TEXT
  5
467
330
1F
100
AcDbEntity
  8
001
370
    30
100
AcDbText
 10
32.838262
 20
199.16144
 30
0.0
 40
10.0
  1
オイルッシャー　ＫＪＤ３２Ｓ１６
 41
0.833333
100
AcDbText
  0
ENDSEC
  0
SECTION
  2
OBJECTS
  0
DICTIONARY
  5
C
330
0
100
AcDbDictionary
281
     1
  3
ACAD_GROUP
350
D
  3
ACAD_LAYOUT
350
1A
  3
ACAD_MLEADERSTYLE
350
46B
  3
ACAD_MLINESTYLE
350
17
  3
ACAD_PLOTSETTINGS
350
19
  3
ACAD_PLOTSTYLENAME
350
E
  3
ACAD_SCALELIST
350
3B
  3
ACAD_TABLESTYLE
350
46A
  3
ACAD_VISUALSTYLE
350
2A
  3
AcDbVariableDictionary
350
468
  0
DICTIONARY
  5
D
102
{ACAD_REACTORS
330
C
102
}
330
C
100
AcDbDictionary
281
     1
  0
DICTIONARY
  5
1A
102
{ACAD_REACTORS
330
C
102
}
330
C
100
AcDbDictionary
281
     1
  3
Layout1
350
1E
  3
Layout2
350
26
  3
Model
350
22
  0
DICTIONARY
  5
46B
102
{ACAD_REACTORS
330
C
102
}
330
C
100
AcDbDictionary
281
     1
  0
DICTIONARY
  5
17
102
{ACAD_REACTORS
330
C
102
}
330
C
100
AcDbDictionary
281
     1
  3
Standard
350
18
  0
DICTIONARY
  5
19
102
{ACAD_REACTORS
330
C
102
}
330
C
100
AcDbDictionary
281
     1
  0
ACDBDICTIONARYWDFLT
  5
E
102
{ACAD_REACTORS
330
C
102
}
330
C
100
AcDbDictionary
281
     1
  3
Normal
350
F
100
AcDbDictionaryWithDefault
340
F
  0
DICTIONARY
  5
3B
102
{ACAD_REACTORS
330
C
102
}
330
C
100
AcDbDictionary
281
     1
  3
A0
350
3C
  3
A1
350
3D
  3
A2
350
3E
  3
A3
350
3F
  3
A4
350
40
  3
A5
350
41
  3
A6
350
42
  3
A7
350
43
  3
A8
350
44
  3
A9
350
45
  3
B0
350
46
  3
B1
350
47
  3
B2
350
48
  3
B3
350
49
  3
B4
350
4A
  3
B5
350
4B
  3
B6
350
4C
  3
B7
350
4D
  3
B8
350
4E
  3
B9
350
4F
  3
C0
350
50
  3
C1
350
51
  3
C2
350
52
  3
C3
350
53
  3
C4
350
54
  3
C5
350
55
  3
C6
350
56
  3
C7
350
57
  3
C8
350
58
  3
C9
350
59
  3
D0
350
5A
  3
D1
350
5B
  3
D2
350
5C
  0
DICTIONARY
  5
46A
102
{ACAD_REACTORS
330
C
102
}
330
C
100
AcDbDictionary
281
     1
  0
DICTIONARY
  5
2A
102
{ACAD_REACTORS
330
C
102
}
330
C
100
AcDbDictionary
281
     1
  3
2dWireframe
350
2F
  3
3D Hidden
350
31
  3
3dWireframe
350
30
  3
Basic
350
32
  3
Brighten
350
36
  3
ColorChange
350
3A
  3
Conceptual
350
34
  3
Dim
350
35
  3
Facepattern
350
39
  3
Flat
350
2B
  3
FlatWithEdges
350
2C
  3
Gouraud
350
2D
  3
GouraudWithEdges
350
2E
  3
Linepattern
350
38
  3
Realistic
350
33
  3
Thicken
350
37
  0
DICTIONARY
  5
468
102
{ACAD_REACTORS
330
C
102
}
330
C
100
AcDbDictionary
281
     1
  3
CANNOSCALE
350
469
  3
PSOLHEIGHT
350
46D
  3
PSOLWIDTH
350
46C
  0
LAYOUT
  5
1E
102
{ACAD_REACTORS
330
1A
102
}
330
1A
100
AcDbPlotSettings
  1

  2
none_device
  4

  6

 40
0.0
 41
0.0
 42
0.0
 43
0.0
 44
0.0
 45
0.0
 46
0.0
 47
0.0
 48
0.0
 49
0.0
140
0.0
141
0.0
142
1.0
143
1.0
 70
   688
 72
     0
 73
     0
 74
     5
  7

 75
    16
147
1.0
148
0.0
149
0.0
100
AcDbLayout
  1
Layout1
 70
     1
 71
     1
 10
0.0
 20
0.0
 11
12.0
 21
9.0
 12
0.0
 22
0.0
 32
0.0
 14
1.000000E+20
 24
1.000000E+20
 34
0.0
 15
-1.000000E+20
 25
-1.000000E+20
 35
0.0
146
0.0
 13
0.0
 23
0.0
 33
0.0
 16
1.0
 26
0.0
 36
0.0
 17
0.0
 27
1.0
 37
0.0
 76
     0
330
1B
  0
LAYOUT
  5
26
102
{ACAD_REACTORS
330
1A
102
}
330
1A
100
AcDbPlotSettings
  1

  2
none_device
  4

  6

 40
0.0
 41
0.0
 42
0.0
 43
0.0
 44
0.0
 45
0.0
 46
0.0
 47
0.0
 48
0.0
 49
0.0
140
0.0
141
0.0
142
1.0
143
1.0
 70
   688
 72
     0
 73
     0
 74
     5
  7

 75
    16
147
1.0
148
0.0
149
0.0
100
AcDbLayout
  1
Layout2
 70
     1
 71
     2
 10
0.0
 20
0.0
 11
0.0
 21
0.0
 12
0.0
 22
0.0
 32
0.0
 14
0.0
 24
0.0
 34
0.0
 15
0.0
 25
0.0
 35
0.0
146
0.0
 13
0.0
 23
0.0
 33
0.0
 16
1.0
 26
0.0
 36
0.0
 17
0.0
 27
1.0
 37
0.0
 76
     0
330
23
  0
LAYOUT
  5
22
102
{ACAD_REACTORS
330
1A
102
}
330
1A
100
AcDbPlotSettings
  1

  2
none_device
  4

  6

 40
0.0
 41
0.0
 42
0.0
 43
0.0
 44
0.0
 45
0.0
 46
0.0
 47
0.0
 48
0.0
 49
0.0
140
0.0
141
0.0
142
1.0
143
1.0
 70
  1712
 72
     0
 73
     0
 74
     0
  7

 75
     0
147
1.0
148
0.0
149
0.0
100
AcDbLayout
  1
Model
 70
     1
 71
     0
 10
0.0
 20
0.0
 11
12.0
 21
9.0
 12
0.0
 22
0.0
 32
0.0
 14
3.950897
 24
-1.333847
 34
0.0
 15
290.610748
 25
209.161438
 35
0.0
146
0.0
 13
0.0
 23
0.0
 33
0.0
 16
1.0
 26
0.0
 36
0.0
 17
0.0
 27
1.0
 37
0.0
 76
     0
330
1F
331
29
  0
MLINESTYLE
  5
18
102
{ACAD_REACTORS
330
17
102
}
330
17
100
AcDbMlineStyle
  2
Standard
 70
     0
  3

 62
   256
 51
90.0
 52
90.0
 71
     2
 49
0.5
 62
   256
  6
BYLAYER
 49
-0.5
 62
   256
  6
BYLAYER
  0
ACDBPLACEHOLDER
  5
F
102
{ACAD_REACTORS
330
E
102
}
330
E
  0
SCALE
  5
3C
102
{ACAD_REACTORS
330
3B
102
}
330
3B
100
AcDbScale
 70
     0
300
1:1
140
1.0
141
1.0
290
     1
  0
SCALE
  5
3D
102
{ACAD_REACTORS
330
3B
102
}
330
3B
100
AcDbScale
 70
     0
300
1:2
140
1.0
141
2.0
290
     0
  0
SCALE
  5
3E
102
{ACAD_REACTORS
330
3B
102
}
330
3B
100
AcDbScale
 70
     0
300
1:4
140
1.0
141
4.0
290
     0
  0
SCALE
  5
3F
102
{ACAD_REACTORS
330
3B
102
}
330
3B
100
AcDbScale
 70
     0
300
1:5
140
1.0
141
5.0
290
     0
  0
SCALE
  5
40
102
{ACAD_REACTORS
330
3B
102
}
330
3B
100
AcDbScale
 70
     0
300
1:8
140
1.0
141
8.0
290
     0
  0
SCALE
  5
41
102
{ACAD_REACTORS
330
3B
102
}
330
3B
100
AcDbScale
 70
     0
300
1:10
140
1.0
141
10.0
290
     0
  0
SCALE
  5
42
102
{ACAD_REACTORS
330
3B
102
}
330
3B
100
AcDbScale
 70
     0
300
1:16
140
1.0
141
16.0
290
     0
  0
SCALE
  5
43
102
{ACAD_REACTORS
330
3B
102
}
330
3B
100
AcDbScale
 70
     0
300
1:20
140
1.0
141
20.0
290
     0
  0
SCALE
  5
44
102
{ACAD_REACTORS
330
3B
102
}
330
3B
100
AcDbScale
 70
     0
300
1:30
140
1.0
141
30.0
290
     0
  0
SCALE
  5
45
102
{ACAD_REACTORS
330
3B
102
}
330
3B
100
AcDbScale
 70
     0
300
1:40
140
1.0
141
40.0
290
     0
  0
SCALE
  5
46
102
{ACAD_REACTORS
330
3B
102
}
330
3B
100
AcDbScale
 70
     0
300
1:50
140
1.0
141
50.0
290
     0
  0
SCALE
  5
47
102
{ACAD_REACTORS
330
3B
102
}
330
3B
100
AcDbScale
 70
     0
300
1:100
140
1.0
141
100.0
290
     0
  0
SCALE
  5
48
102
{ACAD_REACTORS
330
3B
102
}
330
3B
100
AcDbScale
 70
     0
300
2:1
140
2.0
141
1.0
290
     0
  0
SCALE
  5
49
102
{ACAD_REACTORS
330
3B
102
}
330
3B
100
AcDbScale
 70
     0
300
4:1
140
4.0
141
1.0
290
     0
  0
SCALE
  5
4A
102
{ACAD_REACTORS
330
3B
102
}
330
3B
100
AcDbScale
 70
     0
300
8:1
140
8.0
141
1.0
290
     0
  0
SCALE
  5
4B
102
{ACAD_REACTORS
330
3B
102
}
330
3B
100
AcDbScale
 70
     0
300
10:1
140
10.0
141
1.0
290
     0
  0
SCALE
  5
4C
102
{ACAD_REACTORS
330
3B
102
}
330
3B
100
AcDbScale
 70
     0
300
100:1
140
100.0
141
1.0
290
     0
  0
SCALE
  5
4D
102
{ACAD_REACTORS
330
3B
102
}
330
3B
100
AcDbScale
 70
     0
300
1/128" = 1'-0"
140
0.007812
141
12.0
290
     0
  0
SCALE
  5
4E
102
{ACAD_REACTORS
330
3B
102
}
330
3B
100
AcDbScale
 70
     0
300
1/64" = 1'-0"
140
0.015625
141
12.0
290
     0
  0
SCALE
  5
4F
102
{ACAD_REACTORS
330
3B
102
}
330
3B
100
AcDbScale
 70
     0
300
1/32" = 1'-0"
140
0.03125
141
12.0
290
     0
  0
SCALE
  5
50
102
{ACAD_REACTORS
330
3B
102
}
330
3B
100
AcDbScale
 70
     0
300
1/16" = 1'-0"
140
0.0625
141
12.0
290
     0
  0
SCALE
  5
51
102
{ACAD_REACTORS
330
3B
102
}
330
3B
100
AcDbScale
 70
     0
300
3/32" = 1'-0"
140
0.09375
141
12.0
290
     0
  0
SCALE
  5
52
102
{ACAD_REACTORS
330
3B
102
}
330
3B
100
AcDbScale
 70
     0
300
1/8" = 1'-0"
140
0.125
141
12.0
290
     0
  0
SCALE
  5
53
102
{ACAD_REACTORS
330
3B
102
}
330
3B
100
AcDbScale
 70
     0
300
3/16" = 1'-0"
140
0.1875
141
12.0
290
     0
  0
SCALE
  5
54
102
{ACAD_REACTORS
330
3B
102
}
330
3B
100
AcDbScale
 70
     0
300
1/4" = 1'-0"
140
0.25
141
12.0
290
     0
  0
SCALE
  5
55
102
{ACAD_REACTORS
330
3B
102
}
330
3B
100
AcDbScale
 70
     0
300
3/8" = 1'-0"
140
0.375
141
12.0
290
     0
  0
SCALE
  5
56
102
{ACAD_REACTORS
330
3B
102
}
330
3B
100
AcDbScale
 70
     0
300
1/2" = 1'-0"
140
0.5
141
12.0
290
     0
  0
SCALE
  5
57
102
{ACAD_REACTORS
330
3B
102
}
330
3B
100
AcDbScale
 70
     0
300
3/4" = 1'-0"
140
0.75
141
12.0
290
     0
  0
SCALE
  5
58
102
{ACAD_REACTORS
330
3B
102
}
330
3B
100
AcDbScale
 70
     0
300
1" = 1'-0"
140
1.0
141
12.0
290
     0
  0
SCALE
  5
59
102
{ACAD_REACTORS
330
3B
102
}
330
3B
100
AcDbScale
 70
     0
300
1-1/2" = 1'-0"
140
1.5
141
12.0
290
     0
  0
SCALE
  5
5A
102
{ACAD_REACTORS
330
3B
102
}
330
3B
100
AcDbScale
 70
     0
300
3" = 1'-0"
140
3.0
141
12.0
290
     0
  0
SCALE
  5
5B
102
{ACAD_REACTORS
330
3B
102
}
330
3B
100
AcDbScale
 70
     0
300
6" = 1'-0"
140
6.0
141
12.0
290
     0
  0
SCALE
  5
5C
102
{ACAD_REACTORS
330
3B
102
}
330
3B
100
AcDbScale
 70
     0
300
1'-0" = 1'-0"
140
12.0
141
12.0
290
     0
  0
VISUALSTYLE
  5
2F
102
{ACAD_REACTORS
330
2A
102
}
330
2A
100
AcDbVisualStyle
  2
2dWireframe
 70
     4
 71
     0
 72
     2
 73
     0
 90
        0
 40
-0.6
 41
-30.0
 62
     5
 63
     7
 74
     1
 91
        4
 64
     7
 65
   257
 75
     1
175
     1
 42
1.0
 92
        0
 66
   257
 43
1.0
 76
     1
 77
     6
 78
     2
 67
     7
 79
     5
170
     0
171
     0
290
     0
174
     0
 93
        1
 44
0.0
173
     0
291
     0
 45
0.0
1001
ACAD
1000
AcDbSavedByObjectVersion
1070
     0
  0
VISUALSTYLE
  5
31
102
{ACAD_REACTORS
330
2A
102
}
330
2A
100
AcDbVisualStyle
  2
3D Hidden
 70
     6
 71
     1
 72
     2
 73
     2
 90
        0
 40
-0.6
 41
-30.0
 62
     5
 63
     7
 74
     2
 91
        2
 64
     7
 65
   257
 75
     2
175
     1
 42
40.0
 92
        0
 66
   257
 43
1.0
 76
     1
 77
     6
 78
     2
 67
     7
 79
     3
170
     0
171
     0
290
     0
174
     0
 93
        1
 44
0.0
173
     0
291
     0
 45
0.0
1001
ACAD
1000
AcDbSavedByObjectVersion
1070
     0
  0
VISUALSTYLE
  5
30
102
{ACAD_REACTORS
330
2A
102
}
330
2A
100
AcDbVisualStyle
  2
3dWireframe
 70
     5
 71
     0
 72
     2
 73
     0
 90
        0
 40
-0.6
 41
-30.0
 62
     5
 63
     7
 74
     1
 91
        4
 64
     7
 65
   257
 75
     1
175
     1
 42
1.0
 92
        0
 66
   257
 43
1.0
 76
     1
 77
     6
 78
     2
 67
     7
 79
     5
170
     0
171
     0
290
     0
174
     0
 93
        1
 44
0.0
173
     0
291
     0
 45
0.0
1001
ACAD
1000
AcDbSavedByObjectVersion
1070
     0
  0
VISUALSTYLE
  5
32
102
{ACAD_REACTORS
330
2A
102
}
330
2A
100
AcDbVisualStyle
  2
Basic
 70
     7
 71
     1
 72
     0
 73
     1
 90
        0
 40
-0.6
 41
-30.0
 62
     5
 63
     7
 74
     0
 91
        4
 64
     7
 65
   257
 75
     1
175
     1
 42
1.0
 92
        8
 66
     7
 43
1.0
 76
     1
 77
     6
 78
     2
 67
     7
 79
     5
170
     0
171
     0
290
     0
174
     0
 93
        1
 44
0.0
173
     0
291
     1
 45
0.0
1001
ACAD
1000
AcDbSavedByObjectVersion
1070
     0
  0
VISUALSTYLE
  5
36
102
{ACAD_REACTORS
330
2A
102
}
330
2A
100
AcDbVisualStyle
  2
Brighten
 70
    12
 71
     2
 72
     2
 73
     0
 90
        0
 40
-0.6
 41
-30.0
 62
     5
 63
     7
 74
     1
 91
        4
 64
     7
 65
   257
 75
     1
175
     1
 42
1.0
 92
        8
 66
     7
 43
1.0
 76
     1
 77
     6
 78
     2
 67
     7
 79
     5
170
     0
171
     0
290
     0
174
     0
 93
        1
 44
50.0
173
     0
291
     1
 45
0.0
1001
ACAD
1000
AcDbSavedByObjectVersion
1070
     0
  0
VISUALSTYLE
  5
3A
102
{ACAD_REACTORS
330
2A
102
}
330
2A
100
AcDbVisualStyle
  2
ColorChange
 70
    16
 71
     2
 72
     2
 73
     3
 90
        0
 40
-0.6
 41
-30.0
 62
     5
 63
     8
 74
     1
 91
        4
 64
     7
 65
   257
 75
     1
175
     1
 42
1.0
 92
        8
 66
     8
 43
1.0
 76
     1
 77
     6
 78
     2
 67
     7
 79
     5
170
     0
171
     0
290
     0
174
     0
 93
        1
 44
0.0
173
     0
291
     1
 45
0.0
1001
ACAD
1000
AcDbSavedByObjectVersion
1070
     0
  0
VISUALSTYLE
  5
34
102
{ACAD_REACTORS
330
2A
102
}
330
2A
100
AcDbVisualStyle
  2
Conceptual
 70
     9
 71
     3
 72
     2
 73
     0
 90
        0
 40
-0.6
 41
-30.0
 62
     5
 63
     7
 74
     2
 91
        2
 64
     7
 65
   257
 75
     1
175
     1
 42
40.0
 92
        8
 66
     7
 43
1.0
 76
     1
 77
     6
 78
     2
 67
     7
 79
     3
170
     0
171
     0
290
     0
174
     0
 93
        1
 44
0.0
173
     0
291
     0
 45
0.0
1001
ACAD
1000
AcDbSavedByObjectVersion
1070
     0
  0
VISUALSTYLE
  5
35
102
{ACAD_REACTORS
330
2A
102
}
330
2A
100
AcDbVisualStyle
  2
Dim
 70
    11
 71
     2
 72
     2
 73
     0
 90
        0
 40
-0.6
 41
-30.0
 62
     5
 63
     7
 74
     1
 91
        4
 64
     7
 65
   257
 75
     1
175
     1
 42
1.0
 92
        8
 66
     7
 43
1.0
 76
     1
 77
     6
 78
     2
 67
     7
 79
     5
170
     0
171
     0
290
     0
174
     0
 93
        1
 44
-50.0
173
     0
291
     1
 45
0.0
1001
ACAD
1000
AcDbSavedByObjectVersion
1070
     0
  0
VISUALSTYLE
  5
39
102
{ACAD_REACTORS
330
2A
102
}
330
2A
100
AcDbVisualStyle
  2
Facepattern
 70
    15
 71
     2
 72
     2
 73
     0
 90
        0
 40
-0.6
 41
-30.0
 62
     5
 63
     7
 74
     1
 91
        4
 64
     7
 65
   257
 75
     1
175
     1
 42
1.0
 92
        8
 66
     7
 43
1.0
 76
     1
 77
     6
 78
     2
 67
     7
 79
     5
170
     0
171
     0
290
     0
174
     0
 93
        1
 44
0.0
173
     0
291
     1
 45
0.0
1001
ACAD
1000
AcDbSavedByObjectVersion
1070
     0
  0
VISUALSTYLE
  5
2B
102
{ACAD_REACTORS
330
2A
102
}
330
2A
100
AcDbVisualStyle
  2
Flat
 70
     0
 71
     2
 72
     1
 73
     1
 90
        2
 40
-0.6
 41
30.0
 62
     5
 63
     7
 74
     0
 91
        4
 64
     7
 65
   257
 75
     1
175
     1
 42
1.0
 92
        8
 66
     7
 43
1.0
 76
     1
 77
     6
 78
     2
 67
     7
 79
     5
170
     0
171
     0
290
     0
174
     0
 93
       13
 44
0.0
173
     0
291
     1
 45
0.0
1001
ACAD
1000
AcDbSavedByObjectVersion
1070
     0
  0
VISUALSTYLE
  5
2C
102
{ACAD_REACTORS
330
2A
102
}
330
2A
100
AcDbVisualStyle
  2
FlatWithEdges
 70
     1
 71
     2
 72
     1
 73
     1
 90
        2
 40
-0.6
 41
30.0
 62
     5
 63
     7
 74
     1
 91
        4
 64
     7
 65
   257
 75
     1
175
     1
 42
1.0
 92
        0
 66
   257
 43
1.0
 76
     1
 77
     6
 78
     2
 67
     7
 79
     5
170
     0
171
     0
290
     0
174
     0
 93
       13
 44
0.0
173
     0
291
     1
 45
0.0
1001
ACAD
1000
AcDbSavedByObjectVersion
1070
     0
  0
VISUALSTYLE
  5
2D
102
{ACAD_REACTORS
330
2A
102
}
330
2A
100
AcDbVisualStyle
  2
Gouraud
 70
     2
 71
     2
 72
     2
 73
     1
 90
        2
 40
-0.6
 41
30.0
 62
     5
 63
     7
 74
     0
 91
        4
 64
     7
 65
   257
 75
     1
175
     1
 42
1.0
 92
        0
 66
     7
 43
1.0
 76
     1
 77
     6
 78
     2
 67
     7
 79
     5
170
     0
171
     0
290
     0
174
     0
 93
       13
 44
0.0
173
     0
291
     1
 45
0.0
1001
ACAD
1000
AcDbSavedByObjectVersion
1070
     0
  0
VISUALSTYLE
  5
2E
102
{ACAD_REACTORS
330
2A
102
}
330
2A
100
AcDbVisualStyle
  2
GouraudWithEdges
 70
     3
 71
     2
 72
     2
 73
     1
 90
        2
 40
-0.6
 41
30.0
 62
     5
 63
     7
 74
     1
 91
        4
 64
     7
 65
   257
 75
     1
175
     1
 42
1.0
 92
        0
 66
   257
 43
1.0
 76
     1
 77
     6
 78
     2
 67
     7
 79
     5
170
     0
171
     0
290
     0
174
     0
 93
       13
 44
0.0
173
     0
291
     1
 45
0.0
1001
ACAD
1000
AcDbSavedByObjectVersion
1070
     0
  0
VISUALSTYLE
  5
38
102
{ACAD_REACTORS
330
2A
102
}
330
2A
100
AcDbVisualStyle
  2
Linepattern
 70
    14
 71
     2
 72
     2
 73
     0
 90
        0
 40
-0.6
 41
-30.0
 62
     5
 63
     7
 74
     1
 91
        4
 64
     7
 65
   257
 75
     7
175
     7
 42
1.0
 92
        8
 66
     7
 43
1.0
 76
     1
 77
     6
 78
     2
 67
     7
 79
     5
170
     0
171
     0
290
     0
174
     0
 93
        1
 44
0.0
173
     0
291
     1
 45
0.0
1001
ACAD
1000
AcDbSavedByObjectVersion
1070
     0
  0
VISUALSTYLE
  5
33
102
{ACAD_REACTORS
330
2A
102
}
330
2A
100
AcDbVisualStyle
  2
Realistic
 70
     8
 71
     2
 72
     2
 73
     0
 90
        0
 40
-0.6
 41
-30.0
 62
     5
 63
     7
 74
     1
 91
        0
 64
     7
 65
   257
 75
     1
175
     1
 42
1.0
 92
        8
 66
     8
 43
1.0
 76
     1
 77
     6
 78
     2
 67
     7
 79
     5
170
     0
171
     0
290
     0
174
     0
 93
       13
 44
0.0
173
     0
291
     0
 45
0.0
1001
ACAD
1000
AcDbSavedByObjectVersion
1070
     0
  0
VISUALSTYLE
  5
37
102
{ACAD_REACTORS
330
2A
102
}
330
2A
100
AcDbVisualStyle
  2
Thicken
 70
    13
 71
     2
 72
     2
 73
     0
 90
        0
 40
-0.6
 41
-30.0
 62
     5
 63
     7
 74
     1
 91
        4
 64
     7
 65
   257
 75
     1
175
     1
 42
1.0
 92
       12
 66
     7
 43
1.0
 76
     1
 77
     6
 78
     2
 67
     7
 79
     5
170
     0
171
     0
290
     0
174
     0
 93
        1
 44
0.0
173
     0
291
     1
 45
0.0
1001
ACAD
1000
AcDbSavedByObjectVersion
1070
     0
  0
DICTIONARYVAR
  5
469
102
{ACAD_REACTORS
330
468
102
}
330
468
100
DictionaryVariables
280
     0
  1
1:1
  0
DICTIONARYVAR
  5
46D
102
{ACAD_REACTORS
330
468
102
}
330
468
100
DictionaryVariables
280
     0
  1
80.000000
  0
DICTIONARYVAR
  5
46C
102
{ACAD_REACTORS
330
468
102
}
330
468
100
DictionaryVariables
280
     0
  1
5.000000
  0
ENDSEC
  0
EOF
