  0
SECTION
  2
HEADER
  9
$ACADVER
  1
AC1015
  9
$ACADMAINTVER
 70
     6
  9
$DWGCODEPAGE
  3
ANSI_932
  9
$INSBASE
 10
0.0
 20
0.0
 30
0.0
  9
$EXTMIN
 10
-3.227295
 20
-10.482162
 30
0.0
  9
$EXTMAX
 10
290.403992
 20
222.014221
 30
0.0
  9
$LIMMIN
 10
0.0
 20
0.0
  9
$LIMMAX
 10
12.0
 20
9.0
  9
$ORTHOMODE
 70
     0
  9
$REGENMODE
 70
     1
  9
$FILLMODE
 70
     1
  9
$QTEXTMODE
 70
     0
  9
$MIRRTEXT
 70
     1
  9
$LTSCALE
 40
3.745316
  9
$ATTMODE
 70
     1
  9
$TEXTSIZE
 40
3.2
  9
$TRACEWID
 40
1.0
  9
$TEXTSTYLE
  7
Standard
  9
$CLAYER
  8
0
  9
$CELTYPE
  6
ByLayer
  9
$CECOLOR
 62
   256
  9
$CELTSCALE
 40
1.0
  9
$DISPSILH
 70
     0
  9
$DIMSCALE
 40
1.0
  9
$DIMASZ
 40
2.5
  9
$DIMEXO
 40
0.625
  9
$DIMDLI
 40
3.75
  9
$DIMRND
 40
0.0
  9
$DIMDLE
 40
0.0
  9
$DIMEXE
 40
1.25
  9
$DIMTP
 40
0.0
  9
$DIMTM
 40
0.0
  9
$DIMTXT
 40
2.5
  9
$DIMCEN
 40
0.09
  9
$DIMTSZ
 40
0.0
  9
$DIMTOL
 70
     0
  9
$DIMLIM
 70
     0
  9
$DIMTIH
 70
     0
  9
$DIMTOH
 70
     0
  9
$DIMSE1
 70
     0
  9
$DIMSE2
 70
     0
  9
$DIMTAD
 70
     0
  9
$DIMZIN
 70
     8
  9
$DIMBLK
  1

  9
$DIMASO
 70
     1
  9
$DIMSHO
 70
     0
  9
$DIMPOST
  1

  9
$DIMAPOST
  1

  9
$DIMALT
 70
     0
  9
$DIMALTD
 70
     3
  9
$DIMALTF
 40
0.03937
  9
$DIMLFAC
 40
1.0
  9
$DIMTOFL
 70
     1
  9
$DIMTVP
 40
0.0
  9
$DIMTIX
 70
     0
  9
$DIMSOXD
 70
     0
  9
$DIMSAH
 70
     0
  9
$DIMBLK1
  1

  9
$DIMBLK2
  1

  9
$DIMSTYLE
  2
ISO-25
  9
$DIMCLRD
 70
     0
  9
$DIMCLRE
 70
     0
  9
$DIMCLRT
 70
     0
  9
$DIMTFAC
 40
1.0
  9
$DIMGAP
 40
0.625
  9
$DIMJUST
 70
     0
  9
$DIMSD1
 70
     0
  9
$DIMSD2
 70
     0
  9
$DIMTOLJ
 70
     0
  9
$DIMTZIN
 70
     8
  9
$DIMALTZ
 70
     0
  9
$DIMALTTZ
 70
     0
  9
$DIMUPT
 70
     0
  9
$DIMDEC
 70
     2
  9
$DIMTDEC
 70
     2
  9
$DIMALTU
 70
     2
  9
$DIMALTTD
 70
     3
  9
$DIMTXSTY
  7
Standard
  9
$DIMAUNIT
 70
     0
  9
$DIMADEC
 70
     0
  9
$DIMALTRND
 40
0.0
  9
$DIMAZIN
 70
     0
  9
$DIMDSEP
 70
    44
  9
$DIMATFIT
 70
     3
  9
$DIMFRAC
 70
     0
  9
$DIMLDRBLK
  1

  9
$DIMLUNIT
 70
     2
  9
$DIMLWD
 70
    -2
  9
$DIMLWE
 70
    -2
  9
$DIMTMOVE
 70
     0
  9
$LUNITS
 70
     2
  9
$LUPREC
 70
     4
  9
$SKETCHINC
 40
1.0
  9
$FILLETRAD
 40
0.0
  9
$AUNITS
 70
     0
  9
$AUPREC
 70
     0
  9
$MENU
  1
.
  9
$ELEVATION
 40
0.0
  9
$PELEVATION
 40
0.0
  9
$THICKNESS
 40
0.0
  9
$LIMCHECK
 70
     0
  9
$CHAMFERA
 40
10.0
  9
$CHAMFERB
 40
10.0
  9
$CHAMFERC
 40
20.0
  9
$CHAMFERD
 40
0.0
  9
$SKPOLY
 70
     0
  9
$TDCREATE
 40
2455405.448046146
  9
$TDUCREATE
 40
2455405.073046146
  9
$TDUPDATE
 40
2455405.448046158
  9
$TDUUPDATE
 40
2455405.073046158
  9
$TDINDWG
 40
0.0000000116
  9
$TDUSRTIMER
 40
0.0000000116
  9
$USRTIMER
 70
     1
  9
$ANGBASE
 50
0.0
  9
$ANGDIR
 70
     0
  9
$PDMODE
 70
     0
  9
$PDSIZE
 40
0.0
  9
$PLINEWID
 40
0.0
  9
$SPLFRAME
 70
     0
  9
$SPLINETYPE
 70
     6
  9
$SPLINESEGS
 70
     8
  9
$HANDSEED
  5
468
  9
$SURFTAB1
 70
     6
  9
$SURFTAB2
 70
     6
  9
$SURFTYPE
 70
     6
  9
$SURFU
 70
     6
  9
$SURFV
 70
     6
  9
$UCSBASE
  2

  9
$UCSNAME
  2

  9
$UCSORG
 10
0.0
 20
0.0
 30
0.0
  9
$UCSXDIR
 10
1.0
 20
0.0
 30
0.0
  9
$UCSYDIR
 10
0.0
 20
1.0
 30
0.0
  9
$UCSORTHOREF
  2

  9
$UCSORTHOVIEW
 70
     0
  9
$UCSORGTOP
 10
0.0
 20
0.0
 30
0.0
  9
$UCSORGBOTTOM
 10
0.0
 20
0.0
 30
0.0
  9
$UCSORGLEFT
 10
0.0
 20
0.0
 30
0.0
  9
$UCSORGRIGHT
 10
0.0
 20
0.0
 30
0.0
  9
$UCSORGFRONT
 10
0.0
 20
0.0
 30
0.0
  9
$UCSORGBACK
 10
0.0
 20
0.0
 30
0.0
  9
$PUCSBASE
  2

  9
$PUCSNAME
  2

  9
$PUCSORG
 10
0.0
 20
0.0
 30
0.0
  9
$PUCSXDIR
 10
1.0
 20
0.0
 30
0.0
  9
$PUCSYDIR
 10
0.0
 20
1.0
 30
0.0
  9
$PUCSORTHOREF
  2

  9
$PUCSORTHOVIEW
 70
     0
  9
$PUCSORGTOP
 10
0.0
 20
0.0
 30
0.0
  9
$PUCSORGBOTTOM
 10
0.0
 20
0.0
 30
0.0
  9
$PUCSORGLEFT
 10
0.0
 20
0.0
 30
0.0
  9
$PUCSORGRIGHT
 10
0.0
 20
0.0
 30
0.0
  9
$PUCSORGFRONT
 10
0.0
 20
0.0
 30
0.0
  9
$PUCSORGBACK
 10
0.0
 20
0.0
 30
0.0
  9
$USERI1
 70
     0
  9
$USERI2
 70
     0
  9
$USERI3
 70
     0
  9
$USERI4
 70
     0
  9
$USERI5
 70
     0
  9
$USERR1
 40
0.0
  9
$USERR2
 40
0.0
  9
$USERR3
 40
0.0
  9
$USERR4
 40
0.0
  9
$USERR5
 40
0.0
  9
$WORLDVIEW
 70
     1
  9
$SHADEDGE
 70
     3
  9
$SHADEDIF
 70
    70
  9
$TILEMODE
 70
     1
  9
$MAXACTVP
 70
    64
  9
$PINSBASE
 10
0.0
 20
0.0
 30
0.0
  9
$PLIMCHECK
 70
     0
  9
$PEXTMIN
 10
1.000000E+20
 20
1.000000E+20
 30
0.0
  9
$PEXTMAX
 10
-1.000000E+20
 20
-1.000000E+20
 30
0.0
  9
$PLIMMIN
 10
0.0
 20
0.0
  9
$PLIMMAX
 10
12.0
 20
9.0
  9
$UNITMODE
 70
     0
  9
$VISRETAIN
 70
     1
  9
$PLINEGEN
 70
     0
  9
$PSLTSCALE
 70
     1
  9
$TREEDEPTH
 70
  3020
  9
$CMLSTYLE
  2
Standard
  9
$CMLJUST
 70
     0
  9
$CMLSCALE
 40
20.0
  9
$PROXYGRAPHICS
 70
     1
  9
$MEASUREMENT
 70
     1
  9
$CELWEIGHT
370
    -1
  9
$ENDCAPS
280
     0
  9
$JOINSTYLE
280
     0
  9
$LWDISPLAY
290
     0
  9
$INSUNITS
 70
     4
  9
$HYPERLINKBASE
  1

  9
$STYLESHEET
  1

  9
$XEDIT
290
     1
  9
$CEPSNTYPE
380
     0
  9
$PSTYLEMODE
290
     1
  9
$FINGERPRINTGUID
  2
{CB1840E6-F85E-4A4B-9615-6021B8F76742}
  9
$VERSIONGUID
  2
{FAEB1C32-E019-11D5-929B-00C0DF256EC4}
  9
$EXTNAMES
290
     1
  9
$PSVPSCALE
 40
0.0
  9
$OLESTARTUP
290
     0
  0
ENDSEC
  0
SECTION
  2
CLASSES
  0
CLASS
  1
ACDBDICTIONARYWDFLT
  2
AcDbDictionaryWithDefault
  3
ObjectDBX Classes
 90
        0
280
     0
281
     0
  0
CLASS
  1
VISUALSTYLE
  2
AcDbVisualStyle
  3
ObjectDBX Classes
 90
     4095
280
     0
281
     0
  0
CLASS
  1
SCALE
  2
AcDbScale
  3
ObjectDBX Classes
 90
     1153
280
     0
281
     0
  0
CLASS
  1
DICTIONARYVAR
  2
AcDbDictionaryVar
  3
ObjectDBX Classes
 90
        0
280
     0
281
     0
  0
CLASS
  1
ACDBPLACEHOLDER
  2
AcDbPlaceHolder
  3
ObjectDBX Classes
 90
        0
280
     0
281
     0
  0
CLASS
  1
LAYOUT
  2
AcDbLayout
  3
ObjectDBX Classes
 90
        0
280
     0
281
     0
  0
ENDSEC
  0
SECTION
  2
TABLES
  0
TABLE
  2
VPORT
  5
8
330
0
100
AcDbSymbolTable
 70
     1
  0
VPORT
  5
29
330
8
100
AcDbSymbolTableRecord
100
AcDbViewportTableRecord
  2
*Active
 70
     0
 10
0.0
 20
0.0
 11
1.0
 21
1.0
 12
143.588348
 22
105.766029
 13
0.0
 23
0.0
 14
1.0
 24
1.0
 15
0.0
 25
0.0
 16
0.0
 26
0.0
 36
1.0
 17
0.0
 27
0.0
 37
0.0
 40
234.821348
 41
1.691288
 42
50.0
 43
0.0
 44
0.0
 50
0.0
 51
0.0
 71
     0
 72
   100
 73
     1
 74
     3
 75
     0
 76
     0
 77
     0
 78
     0
281
     0
 65
     1
110
0.0
120
0.0
130
0.0
111
1.0
121
0.0
131
0.0
112
0.0
122
1.0
132
0.0
 79
     0
146
0.0
  0
ENDTAB
  0
TABLE
  2
LTYPE
  5
5
330
0
100
AcDbSymbolTable
 70
     5
  0
LTYPE
  5
14
330
5
100
AcDbSymbolTableRecord
100
AcDbLinetypeTableRecord
  2
ByBlock
 70
     0
  3

 72
    65
 73
     0
 40
0.0
  0
LTYPE
  5
15
330
5
100
AcDbSymbolTableRecord
100
AcDbLinetypeTableRecord
  2
ByLayer
 70
     0
  3

 72
    65
 73
     0
 40
0.0
  0
LTYPE
  5
16
330
5
100
AcDbSymbolTableRecord
100
AcDbLinetypeTableRecord
  2
Continuous
 70
     0
  3
Solid line
 72
    65
 73
     0
 40
0.0
  0
LTYPE
  5
5D
330
5
100
AcDbSymbolTableRecord
100
AcDbLinetypeTableRecord
  2
DASHED
 70
     0
  3
DASHED
 72
    83
 73
     2
 40
0.75
 49
0.5
 74
     0
 49
-0.25
 74
     0
  0
LTYPE
  5
5E
330
5
100
AcDbSymbolTableRecord
100
AcDbLinetypeTableRecord
  2
HIDDEN
 70
     0
  3
HIDDEN
 72
    83
 73
     2
 40
0.375
 49
0.25
 74
     0
 49
-0.125
 74
     0
  0
LTYPE
  5
5F
330
5
100
AcDbSymbolTableRecord
100
AcDbLinetypeTableRecord
  2
CENTER
 70
     0
  3
CENTER
 72
    83
 73
     4
 40
2.0
 49
1.25
 74
     0
 49
-0.25
 74
     0
 49
0.25
 74
     0
 49
-0.25
 74
     0
  0
LTYPE
  5
60
330
5
100
AcDbSymbolTableRecord
100
AcDbLinetypeTableRecord
  2
PHANTOM
 70
     0
  3
PHANTOM
 72
    83
 73
     6
 40
2.5
 49
1.25
 74
     0
 49
-0.25
 74
     0
 49
0.25
 74
     0
 49
-0.25
 74
     0
 49
0.25
 74
     0
 49
-0.25
 74
     0
  0
ENDTAB
  0
TABLE
  2
LAYER
  5
2
330
0
100
AcDbSymbolTable
 70
     2
  0
LAYER
  5
10
330
2
100
AcDbSymbolTableRecord
100
AcDbLayerTableRecord
  2
0
 70
     0
 62
     7
  6
Continuous
370
    -3
390
F
  0
LAYER
  5
61
330
2
100
AcDbSymbolTableRecord
100
AcDbLayerTableRecord
  2
001
 70
     0
 62
     7
  6
Continuous
370
    -3
390
F
  0
ENDTAB
  0
TABLE
  2
STYLE
  5
3
330
0
100
AcDbSymbolTable
 70
     2
  0
STYLE
  5
11
330
3
100
AcDbSymbolTableRecord
100
AcDbTextStyleTableRecord
  2
Standard
 70
     0
 40
0.0
 41
1.0
 50
0.0
 71
     0
 42
0.2
  3
TXT
  4
BIGFONT
  0
STYLE
  5
62
330
3
100
AcDbSymbolTableRecord
100
AcDbTextStyleTableRecord
  2
TATEGAKI
 70
     4
 40
1.0
 41
1.0
 50
0.0
 71
     0
 42
0.2
  3
TXT
  4
BIGFONT
  0
ENDTAB
  0
TABLE
  2
VIEW
  5
6
330
0
100
AcDbSymbolTable
 70
     0
  0
ENDTAB
  0
TABLE
  2
UCS
  5
7
330
0
100
AcDbSymbolTable
 70
     0
  0
ENDTAB
  0
TABLE
  2
APPID
  5
9
330
0
100
AcDbSymbolTable
 70
     1
  0
APPID
  5
12
330
9
100
AcDbSymbolTableRecord
100
AcDbRegAppTableRecord
  2
ACAD
 70
     0
  0
ENDTAB
  0
TABLE
  2
DIMSTYLE
  5
A
330
0
100
AcDbSymbolTable
 70
     2
100
AcDbDimStyleTable
  0
DIMSTYLE
105
27
330
A
100
AcDbSymbolTableRecord
100
AcDbDimStyleTableRecord
  2
ISO-25
 70
     0
 41
2.5
 42
0.625
 43
3.75
 44
1.25
 73
     0
 74
     0
 77
     1
 78
     8
140
2.5
141
2.5
143
0.03937
147
0.625
171
     3
172
     1
271
     2
272
     2
274
     3
278
    44
283
     0
284
     8
340
11
  0
DIMSTYLE
105
63
102
{ACAD_REACTORS
330
1CE
330
1CF
330
1D0
330
1D1
330
1D2
330
1D4
330
1D5
330
1D6
330
1DE
330
1DF
330
1E0
330
1E1
330
1E2
330
1E3
330
1E4
330
1E5
102
}
330
A
100
AcDbSymbolTableRecord
100
AcDbDimStyleTableRecord
  2
Standard
 70
     0
 41
1.5
 42
0.0
 44
0.5
 73
     0
 74
     0
 77
     1
 78
     8
 79
     2
140
4.0
146
0.8
147
1.0
172
     1
179
     1
271
     1
340
11
  0
ENDTAB
  0
TABLE
  2
BLOCK_RECORD
  5
1
330
0
100
AcDbSymbolTable
 70
    20
  0
BLOCK_RECORD
  5
1F
330
1
100
AcDbSymbolTableRecord
100
AcDbBlockTableRecord
  2
*Model_Space
340
22
  0
BLOCK_RECORD
  5
1B
330
1
100
AcDbSymbolTableRecord
100
AcDbBlockTableRecord
  2
*Paper_Space
340
1E
  0
BLOCK_RECORD
  5
23
330
1
100
AcDbSymbolTableRecord
100
AcDbBlockTableRecord
  2
*Paper_Space0
340
26
  0
BLOCK_RECORD
  5
64
330
1
100
AcDbSymbolTableRecord
100
AcDbBlockTableRecord
  2
JZB-1
340
0
102
{BLKREFS
331
1BB
102
}
  0
BLOCK_RECORD
  5
6F
330
1
100
AcDbSymbolTableRecord
100
AcDbBlockTableRecord
  2
JZB-2
340
0
102
{BLKREFS
331
1BC
102
}
  0
BLOCK_RECORD
  5
7A
330
1
100
AcDbSymbolTableRecord
100
AcDbBlockTableRecord
  2
*D3
340
0
  0
BLOCK_RECORD
  5
8D
330
1
100
AcDbSymbolTableRecord
100
AcDbBlockTableRecord
  2
*D4
340
0
  0
BLOCK_RECORD
  5
A1
330
1
100
AcDbSymbolTableRecord
100
AcDbBlockTableRecord
  2
*D5
340
0
  0
BLOCK_RECORD
  5
B5
330
1
100
AcDbSymbolTableRecord
100
AcDbBlockTableRecord
  2
*D6
340
0
  0
BLOCK_RECORD
  5
CB
330
1
100
AcDbSymbolTableRecord
100
AcDbBlockTableRecord
  2
*D7
340
0
  0
BLOCK_RECORD
  5
E0
330
1
100
AcDbSymbolTableRecord
100
AcDbBlockTableRecord
  2
DIM-3
340
0
102
{BLKREFS
331
1D3
102
}
  0
BLOCK_RECORD
  5
EE
330
1
100
AcDbSymbolTableRecord
100
AcDbBlockTableRecord
  2
*D9
340
0
  0
BLOCK_RECORD
  5
102
330
1
100
AcDbSymbolTableRecord
100
AcDbBlockTableRecord
  2
*D10
340
0
  0
BLOCK_RECORD
  5
116
330
1
100
AcDbSymbolTableRecord
100
AcDbBlockTableRecord
  2
*D11
340
0
  0
BLOCK_RECORD
  5
12C
330
1
100
AcDbSymbolTableRecord
100
AcDbBlockTableRecord
  2
*D12
340
0
  0
BLOCK_RECORD
  5
139
330
1
100
AcDbSymbolTableRecord
100
AcDbBlockTableRecord
  2
*D13
340
0
  0
BLOCK_RECORD
  5
146
330
1
100
AcDbSymbolTableRecord
100
AcDbBlockTableRecord
  2
*D14
340
0
  0
BLOCK_RECORD
  5
153
330
1
100
AcDbSymbolTableRecord
100
AcDbBlockTableRecord
  2
*D15
340
0
  0
BLOCK_RECORD
  5
169
330
1
100
AcDbSymbolTableRecord
100
AcDbBlockTableRecord
  2
*D16
340
0
  0
BLOCK_RECORD
  5
17F
330
1
100
AcDbSymbolTableRecord
100
AcDbBlockTableRecord
  2
*D17
340
0
  0
BLOCK_RECORD
  5
193
330
1
100
AcDbSymbolTableRecord
100
AcDbBlockTableRecord
  2
*D18
340
0
  0
BLOCK_RECORD
  5
1A7
330
1
100
AcDbSymbolTableRecord
100
AcDbBlockTableRecord
  2
*D19
340
0
  0
ENDTAB
  0
ENDSEC
  0
SECTION
  2
BLOCKS
  0
BLOCK
  5
20
330
1F
100
AcDbEntity
  8
0
100
AcDbBlockBegin
  2
*Model_Space
 70
     0
 10
0.0
 20
0.0
 30
0.0
  3
*Model_Space
  1

  0
ENDBLK
  5
21
330
1F
100
AcDbEntity
  8
0
100
AcDbBlockEnd
  0
BLOCK
  5
1C
330
1B
100
AcDbEntity
 67
     1
  8
0
100
AcDbBlockBegin
  2
*Paper_Space
 70
     0
 10
0.0
 20
0.0
 30
0.0
  3
*Paper_Space
  1

  0
ENDBLK
  5
1D
330
1B
100
AcDbEntity
 67
     1
  8
0
100
AcDbBlockEnd
  0
BLOCK
  5
24
330
23
100
AcDbEntity
  8
0
100
AcDbBlockBegin
  2
*Paper_Space0
 70
     0
 10
0.0
 20
0.0
 30
0.0
  3
*Paper_Space0
  1

  0
ENDBLK
  5
25
330
23
100
AcDbEntity
  8
0
100
AcDbBlockEnd
  0
BLOCK
  5
65
330
64
100
AcDbEntity
  8
0
100
AcDbBlockBegin
  2
JZB-1
 70
     0
 10
0.0
 20
0.0
 30
0.0
  3
JZB-1
  1

  0
LINE
  5
67
330
64
100
AcDbEntity
  8
001
 62
     2
370
    30
100
AcDbLine
 10
103.620636
 20
147.947955
 30
0.0
 11
103.270157
 21
150.230606
 31
0.0
  0
LINE
  5
68
330
64
100
AcDbEntity
  8
001
 62
     2
370
    30
100
AcDbLine
 10
105.77271
 20
147.110153
 30
0.0
 11
103.620636
 21
147.947955
 31
0.0
  0
LINE
  5
69
330
64
100
AcDbEntity
  8
001
 62
     2
370
    30
100
AcDbLine
 10
107.574304
 20
148.555003
 30
0.0
 11
105.77271
 21
147.110153
 31
0.0
  0
LINE
  5
6A
330
64
100
AcDbEntity
  8
001
 62
     2
370
    30
100
AcDbLine
 10
107.223825
 20
150.837654
 30
0.0
 11
107.574304
 21
148.555003
 31
0.0
  0
LINE
  5
6B
330
64
100
AcDbEntity
  8
001
 62
     2
370
    30
100
AcDbLine
 10
105.071751
 20
151.675456
 30
0.0
 11
107.223825
 21
150.837654
 31
0.0
  0
LINE
  5
6C
330
64
100
AcDbEntity
  8
001
 62
     2
370
    30
100
AcDbLine
 10
103.270157
 20
150.230606
 30
0.0
 11
105.071751
 21
151.675456
 31
0.0
  0
CIRCLE
  5
6D
330
64
100
AcDbEntity
  8
001
 62
     2
370
    30
100
AcDbCircle
 10
105.42223
 20
149.392805
 30
0.0
 40
3.3235
  0
CIRCLE
  5
6E
330
64
100
AcDbEntity
  8
001
 62
     2
370
    30
100
AcDbCircle
 10
105.42223
 20
149.392805
 30
0.0
 40
4.0
  0
ENDBLK
  5
66
330
64
100
AcDbEntity
  8
0
100
AcDbBlockEnd
  0
BLOCK
  5
70
330
6F
100
AcDbEntity
  8
0
100
AcDbBlockBegin
  2
JZB-2
 70
     0
 10
0.0
 20
0.0
 30
0.0
  3
JZB-2
  1

  0
LINE
  5
72
330
6F
100
AcDbEntity
  8
001
 62
     2
370
    30
100
AcDbLine
 10
88.620636
 20
147.947955
 30
0.0
 11
88.270157
 21
150.230606
 31
0.0
  0
LINE
  5
73
330
6F
100
AcDbEntity
  8
001
 62
     2
370
    30
100
AcDbLine
 10
90.77271
 20
147.110153
 30
0.0
 11
88.620636
 21
147.947955
 31
0.0
  0
LINE
  5
74
330
6F
100
AcDbEntity
  8
001
 62
     2
370
    30
100
AcDbLine
 10
92.574304
 20
148.555003
 30
0.0
 11
90.77271
 21
147.110153
 31
0.0
  0
LINE
  5
75
330
6F
100
AcDbEntity
  8
001
 62
     2
370
    30
100
AcDbLine
 10
92.223825
 20
150.837654
 30
0.0
 11
92.574304
 21
148.555003
 31
0.0
  0
LINE
  5
76
330
6F
100
AcDbEntity
  8
001
 62
     2
370
    30
100
AcDbLine
 10
90.071751
 20
151.675456
 30
0.0
 11
92.223825
 21
150.837654
 31
0.0
  0
LINE
  5
77
330
6F
100
AcDbEntity
  8
001
 62
     2
370
    30
100
AcDbLine
 10
88.270157
 20
150.230606
 30
0.0
 11
90.071751
 21
151.675456
 31
0.0
  0
CIRCLE
  5
78
330
6F
100
AcDbEntity
  8
001
 62
     2
370
    30
100
AcDbCircle
 10
90.42223
 20
149.392805
 30
0.0
 40
3.3235
  0
CIRCLE
  5
79
330
6F
100
AcDbEntity
  8
001
 62
     2
370
    30
100
AcDbCircle
 10
90.42223
 20
149.392805
 30
0.0
 40
4.0
  0
ENDBLK
  5
71
330
6F
100
AcDbEntity
  8
0
100
AcDbBlockEnd
  0
BLOCK
  5
7B
330
7A
100
AcDbEntity
  8
0
100
AcDbBlockBegin
  2
*D3
 70
     1
 10
0.0
 20
0.0
 30
0.0
  3
*D3
  1

  0
LINE
  5
7D
330
7A
100
AcDbEntity
  8
001
370
     9
100
AcDbLine
 10
97.42223
 20
133.892805
 30
0.0
 11
97.42223
 21
109.532135
 31
0.0
  0
LINE
  5
7E
330
7A
100
AcDbEntity
  8
001
370
     9
100
AcDbLine
 10
97.42223
 20
112.969635
 30
0.0
 11
77.42223
 21
112.969635
 31
0.0
  0
POLYLINE
  5
7F
330
7A
100
AcDbEntity
  8
001
370
     9
100
AcDb2dPolyline
 66
     1
 10
0.0
 20
0.0
 30
0.0
  0
VERTEX
  5
81
330
7F
100
AcDbEntity
  8
001
370
     9
100
AcDbVertex
100
AcDb2dVertex
 10
95.54723
 20
113.472039
 30
0.0
  0
VERTEX
  5
82
330
7F
100
AcDbEntity
  8
001
370
     9
100
AcDbVertex
100
AcDb2dVertex
 10
97.42223
 20
112.969635
 30
0.0
  0
VERTEX
  5
83
330
7F
100
AcDbEntity
  8
001
370
     9
100
AcDbVertex
100
AcDb2dVertex
 10
95.54723
 20
112.46723
 30
0.0
  0
SEQEND
  5
80
330
7F
100
AcDbEntity
  8
001
370
     9
  0
POLYLINE
  5
84
330
7A
100
AcDbEntity
  8
001
370
     9
100
AcDb2dPolyline
 66
     1
 10
0.0
 20
0.0
 30
0.0
  0
VERTEX
  5
86
330
84
100
AcDbEntity
  8
001
370
     9
100
AcDbVertex
100
AcDb2dVertex
 10
79.29723
 20
112.46723
 30
0.0
  0
VERTEX
  5
87
330
84
100
AcDbEntity
  8
001
370
     9
100
AcDbVertex
100
AcDb2dVertex
 10
77.42223
 20
112.969635
 30
0.0
  0
VERTEX
  5
88
330
84
100
AcDbEntity
  8
001
370
     9
100
AcDbVertex
100
AcDb2dVertex
 10
79.29723
 20
113.472039
 30
0.0
  0
SEQEND
  5
85
330
84
100
AcDbEntity
  8
001
370
     9
  0
TEXT
  5
89
330
7A
100
AcDbEntity
  8
001
370
    30
100
AcDbText
 10
82.42223
 20
114.219635
 30
0.0
 40
5.0
  1
２０
 41
0.833333
100
AcDbText
  0
POINT
  5
8A
330
7A
100
AcDbEntity
  8
001
370
     9
100
AcDbPoint
 10
97.42223
 20
133.892805
 30
0.0
  0
POINT
  5
8B
330
7A
100
AcDbEntity
  8
001
370
     9
100
AcDbPoint
 10
77.42223
 20
116.407135
 30
0.0
  0
POINT
  5
8C
330
7A
100
AcDbEntity
  8
001
370
     9
100
AcDbPoint
 10
77.42223
 20
112.969635
 30
0.0
  0
ENDBLK
  5
7C
330
7A
100
AcDbEntity
  8
0
100
AcDbBlockEnd
  0
BLOCK
  5
8E
330
8D
100
AcDbEntity
  8
0
100
AcDbBlockBegin
  2
*D4
 70
     1
 10
0.0
 20
0.0
 30
0.0
  3
*D4
  1

  0
LINE
  5
90
330
8D
100
AcDbEntity
  8
001
370
     9
100
AcDbLine
 10
117.42223
 20
126.892805
 30
0.0
 11
117.42223
 21
96.738123
 31
0.0
  0
LINE
  5
91
330
8D
100
AcDbEntity
  8
001
370
     9
100
AcDbLine
 10
197.42223
 20
131.392805
 30
0.0
 11
197.42223
 21
96.738123
 31
0.0
  0
LINE
  5
92
330
8D
100
AcDbEntity
  8
001
370
     9
100
AcDbLine
 10
117.42223
 20
100.175623
 30
0.0
 11
197.42223
 21
100.175623
 31
0.0
  0
POLYLINE
  5
93
330
8D
100
AcDbEntity
  8
001
370
     9
100
AcDb2dPolyline
 66
     1
 10
0.0
 20
0.0
 30
0.0
  0
VERTEX
  5
95
330
93
100
AcDbEntity
  8
001
370
     9
100
AcDbVertex
100
AcDb2dVertex
 10
119.29723
 20
99.673219
 30
0.0
  0
VERTEX
  5
96
330
93
100
AcDbEntity
  8
001
370
     9
100
AcDbVertex
100
AcDb2dVertex
 10
117.42223
 20
100.175623
 30
0.0
  0
VERTEX
  5
97
330
93
100
AcDbEntity
  8
001
370
     9
100
AcDbVertex
100
AcDb2dVertex
 10
119.29723
 20
100.678028
 30
0.0
  0
SEQEND
  5
94
330
93
100
AcDbEntity
  8
001
370
     9
  0
POLYLINE
  5
98
330
8D
100
AcDbEntity
  8
001
370
     9
100
AcDb2dPolyline
 66
     1
 10
0.0
 20
0.0
 30
0.0
  0
VERTEX
  5
9A
330
98
100
AcDbEntity
  8
001
370
     9
100
AcDbVertex
100
AcDb2dVertex
 10
195.54723
 20
100.678028
 30
0.0
  0
VERTEX
  5
9B
330
98
100
AcDbEntity
  8
001
370
     9
100
AcDbVertex
100
AcDb2dVertex
 10
197.42223
 20
100.175623
 30
0.0
  0
VERTEX
  5
9C
330
98
100
AcDbEntity
  8
001
370
     9
100
AcDbVertex
100
AcDb2dVertex
 10
195.54723
 20
99.673219
 30
0.0
  0
SEQEND
  5
99
330
98
100
AcDbEntity
  8
001
370
     9
  0
TEXT
  5
9D
330
8D
100
AcDbEntity
  8
001
370
    30
100
AcDbText
 10
148.794382
 20
101.425623
 30
0.0
 40
5.0
  1
（８０）
 41
0.833333
100
AcDbText
  0
POINT
  5
9E
330
8D
100
AcDbEntity
  8
001
370
     9
100
AcDbPoint
 10
117.42223
 20
126.892805
 30
0.0
  0
POINT
  5
9F
330
8D
100
AcDbEntity
  8
001
370
     9
100
AcDbPoint
 10
197.42223
 20
131.392805
 30
0.0
  0
POINT
  5
A0
330
8D
100
AcDbEntity
  8
001
370
     9
100
AcDbPoint
 10
197.42223
 20
100.175623
 30
0.0
  0
ENDBLK
  5
8F
330
8D
100
AcDbEntity
  8
0
100
AcDbBlockEnd
  0
BLOCK
  5
A2
330
A1
100
AcDbEntity
  8
0
100
AcDbBlockBegin
  2
*D5
 70
     1
 10
0.0
 20
0.0
 30
0.0
  3
*D5
  1

  0
LINE
  5
A4
330
A1
100
AcDbEntity
  8
001
370
     9
100
AcDbLine
 10
97.92223
 20
165.392805
 30
0.0
 11
42.177233
 21
165.392805
 31
0.0
  0
LINE
  5
A5
330
A1
100
AcDbEntity
  8
001
370
     9
100
AcDbLine
 10
97.92223
 20
133.392805
 30
0.0
 11
42.177233
 21
133.392805
 31
0.0
  0
LINE
  5
A6
330
A1
100
AcDbEntity
  8
001
370
     9
100
AcDbLine
 10
45.614733
 20
165.392805
 30
0.0
 11
45.614733
 21
133.392805
 31
0.0
  0
POLYLINE
  5
A7
330
A1
100
AcDbEntity
  8
001
370
     9
100
AcDb2dPolyline
 66
     1
 10
0.0
 20
0.0
 30
0.0
  0
VERTEX
  5
A9
330
A7
100
AcDbEntity
  8
001
370
     9
100
AcDbVertex
100
AcDb2dVertex
 10
45.112328
 20
163.517805
 30
0.0
  0
VERTEX
  5
AA
330
A7
100
AcDbEntity
  8
001
370
     9
100
AcDbVertex
100
AcDb2dVertex
 10
45.614733
 20
165.392805
 30
0.0
  0
VERTEX
  5
AB
330
A7
100
AcDbEntity
  8
001
370
     9
100
AcDbVertex
100
AcDb2dVertex
 10
46.117137
 20
163.517805
 30
0.0
  0
SEQEND
  5
A8
330
A7
100
AcDbEntity
  8
001
370
     9
  0
POLYLINE
  5
AC
330
A1
100
AcDbEntity
  8
001
370
     9
100
AcDb2dPolyline
 66
     1
 10
0.0
 20
0.0
 30
0.0
  0
VERTEX
  5
AE
330
AC
100
AcDbEntity
  8
001
370
     9
100
AcDbVertex
100
AcDb2dVertex
 10
46.117137
 20
135.267805
 30
0.0
  0
VERTEX
  5
AF
330
AC
100
AcDbEntity
  8
001
370
     9
100
AcDbVertex
100
AcDb2dVertex
 10
45.614733
 20
133.392805
 30
0.0
  0
VERTEX
  5
B0
330
AC
100
AcDbEntity
  8
001
370
     9
100
AcDbVertex
100
AcDb2dVertex
 10
45.112328
 20
135.267805
 30
0.0
  0
SEQEND
  5
AD
330
AC
100
AcDbEntity
  8
001
370
     9
  0
TEXT
  5
B1
330
A1
100
AcDbEntity
  8
001
370
    30
100
AcDbText
 10
44.364733
 20
141.892805
 30
0.0
 40
5.0
  1
%%c３２
 50
90.000003
 41
0.882353
100
AcDbText
  0
POINT
  5
B2
330
A1
100
AcDbEntity
  8
001
370
     9
100
AcDbPoint
 10
97.92223
 20
165.392805
 30
0.0
  0
POINT
  5
B3
330
A1
100
AcDbEntity
  8
001
370
     9
100
AcDbPoint
 10
97.92223
 20
133.392805
 30
0.0
  0
POINT
  5
B4
330
A1
100
AcDbEntity
  8
001
370
     9
100
AcDbPoint
 10
45.614733
 20
133.392805
 30
0.0
  0
ENDBLK
  5
A3
330
A1
100
AcDbEntity
  8
0
100
AcDbBlockEnd
  0
BLOCK
  5
B6
330
B5
100
AcDbEntity
  8
0
100
AcDbBlockBegin
  2
*D6
 70
     1
 10
0.0
 20
0.0
 30
0.0
  3
*D6
  1

  0
LINE
  5
B8
330
B5
100
AcDbEntity
  8
001
370
     9
100
AcDbLine
 10
90.42223
 20
56.313369
 30
0.0
 11
90.42223
 21
63.107482
 31
0.0
  0
LINE
  5
B9
330
B5
100
AcDbEntity
  8
001
370
     9
100
AcDbLine
 10
77.42223
 20
46.49783
 30
0.0
 11
77.42223
 21
63.107482
 31
0.0
  0
LINE
  5
BA
330
B5
100
AcDbEntity
  8
001
370
     9
100
AcDbLine
 10
90.42223
 20
59.669982
 30
0.0
 11
77.42223
 21
59.669982
 31
0.0
  0
POLYLINE
  5
BB
330
B5
100
AcDbEntity
  8
001
370
     9
100
AcDb2dPolyline
 66
     1
 10
0.0
 20
0.0
 30
0.0
  0
VERTEX
  5
BD
330
BB
100
AcDbEntity
  8
001
370
     9
100
AcDbVertex
100
AcDb2dVertex
 10
92.29723
 20
59.167577
 30
0.0
  0
VERTEX
  5
BE
330
BB
100
AcDbEntity
  8
001
370
     9
100
AcDbVertex
100
AcDb2dVertex
 10
90.42223
 20
59.669982
 30
0.0
  0
VERTEX
  5
BF
330
BB
100
AcDbEntity
  8
001
370
     9
100
AcDbVertex
100
AcDb2dVertex
 10
92.29723
 20
60.172387
 30
0.0
  0
SEQEND
  5
BC
330
BB
100
AcDbEntity
  8
001
370
     9
  0
POLYLINE
  5
C0
330
B5
100
AcDbEntity
  8
001
370
     9
100
AcDb2dPolyline
 66
     1
 10
0.0
 20
0.0
 30
0.0
  0
VERTEX
  5
C2
330
C0
100
AcDbEntity
  8
001
370
     9
100
AcDbVertex
100
AcDb2dVertex
 10
75.54723
 20
60.172387
 30
0.0
  0
VERTEX
  5
C3
330
C0
100
AcDbEntity
  8
001
370
     9
100
AcDbVertex
100
AcDb2dVertex
 10
77.42223
 20
59.669982
 30
0.0
  0
VERTEX
  5
C4
330
C0
100
AcDbEntity
  8
001
370
     9
100
AcDbVertex
100
AcDb2dVertex
 10
75.54723
 20
59.167577
 30
0.0
  0
SEQEND
  5
C1
330
C0
100
AcDbEntity
  8
001
370
     9
  0
TEXT
  5
C5
330
B5
100
AcDbEntity
  8
001
370
    30
100
AcDbText
 10
63.04723
 20
60.919982
 30
0.0
 40
5.0
  1
１３
 41
0.833333
100
AcDbText
  0
POINT
  5
C6
330
B5
100
AcDbEntity
  8
001
370
     9
100
AcDbPoint
 10
90.42223
 20
56.313369
 30
0.0
  0
POINT
  5
C7
330
B5
100
AcDbEntity
  8
001
370
     9
100
AcDbPoint
 10
77.42223
 20
46.49783
 30
0.0
  0
POINT
  5
C8
330
B5
100
AcDbEntity
  8
001
370
     9
100
AcDbPoint
 10
77.42223
 20
59.669982
 30
0.0
  0
LINE
  5
C9
330
B5
100
AcDbEntity
  8
001
370
     9
100
AcDbLine
 10
90.42223
 20
59.669982
 30
0.0
 11
93.54723
 21
59.669982
 31
0.0
  0
LINE
  5
CA
330
B5
100
AcDbEntity
  8
001
370
     9
100
AcDbLine
 10
77.42223
 20
59.669982
 30
0.0
 11
59.29723
 21
59.669982
 31
0.0
  0
ENDBLK
  5
B7
330
B5
100
AcDbEntity
  8
0
100
AcDbBlockEnd
  0
BLOCK
  5
CC
330
CB
100
AcDbEntity
  8
0
100
AcDbBlockBegin
  2
*D7
 70
     1
 10
0.0
 20
0.0
 30
0.0
  3
*D7
  1

  0
LINE
  5
CE
330
CB
100
AcDbEntity
  8
001
370
     9
100
AcDbLine
 10
195.42223
 20
169.392805
 30
0.0
 11
227.016096
 21
169.392805
 31
0.0
  0
LINE
  5
CF
330
CB
100
AcDbEntity
  8
001
370
     9
100
AcDbLine
 10
195.42223
 20
129.392805
 30
0.0
 11
227.016096
 21
129.392805
 31
0.0
  0
LINE
  5
D0
330
CB
100
AcDbEntity
  8
001
370
     9
100
AcDbLine
 10
223.578596
 20
169.392805
 30
0.0
 11
223.578596
 21
129.392805
 31
0.0
  0
POLYLINE
  5
D1
330
CB
100
AcDbEntity
  8
001
370
     9
100
AcDb2dPolyline
 66
     1
 10
0.0
 20
0.0
 30
0.0
  0
VERTEX
  5
D3
330
D1
100
AcDbEntity
  8
001
370
     9
100
AcDbVertex
100
AcDb2dVertex
 10
223.076191
 20
167.517805
 30
0.0
  0
VERTEX
  5
D4
330
D1
100
AcDbEntity
  8
001
370
     9
100
AcDbVertex
100
AcDb2dVertex
 10
223.578596
 20
169.392805
 30
0.0
  0
VERTEX
  5
D5
330
D1
100
AcDbEntity
  8
001
370
     9
100
AcDbVertex
100
AcDb2dVertex
 10
224.081001
 20
167.517805
 30
0.0
  0
SEQEND
  5
D2
330
D1
100
AcDbEntity
  8
001
370
     9
  0
POLYLINE
  5
D6
330
CB
100
AcDbEntity
  8
001
370
     9
100
AcDb2dPolyline
 66
     1
 10
0.0
 20
0.0
 30
0.0
  0
VERTEX
  5
D8
330
D6
100
AcDbEntity
  8
001
370
     9
100
AcDbVertex
100
AcDb2dVertex
 10
224.081001
 20
131.267805
 30
0.0
  0
VERTEX
  5
D9
330
D6
100
AcDbEntity
  8
001
370
     9
100
AcDbVertex
100
AcDb2dVertex
 10
223.578596
 20
129.392805
 30
0.0
  0
VERTEX
  5
DA
330
D6
100
AcDbEntity
  8
001
370
     9
100
AcDbVertex
100
AcDb2dVertex
 10
223.076191
 20
131.267805
 30
0.0
  0
SEQEND
  5
D7
330
D6
100
AcDbEntity
  8
001
370
     9
  0
TEXT
  5
DB
330
CB
100
AcDbEntity
  8
001
370
    30
100
AcDbText
 10
222.328596
 20
137.892805
 30
0.0
 40
5.0
  1
%%c４０
 50
90.000003
 41
0.882353
100
AcDbText
  0
TEXT
  5
DC
330
CB
100
AcDbEntity
  8
001
370
    30
100
AcDbText
 10
221.828596
 20
152.892805
 30
0.0
 40
4.0
  1
ｈ７
 50
90.000003
 41
0.833333
100
AcDbText
  0
POINT
  5
DD
330
CB
100
AcDbEntity
  8
001
370
     9
100
AcDbPoint
 10
195.42223
 20
169.392805
 30
0.0
  0
POINT
  5
DE
330
CB
100
AcDbEntity
  8
001
370
     9
100
AcDbPoint
 10
195.42223
 20
129.392805
 30
0.0
  0
POINT
  5
DF
330
CB
100
AcDbEntity
  8
001
370
     9
100
AcDbPoint
 10
223.578596
 20
129.392805
 30
0.0
  0
ENDBLK
  5
CD
330
CB
100
AcDbEntity
  8
0
100
AcDbBlockEnd
  0
BLOCK
  5
E1
330
E0
100
AcDbEntity
  8
0
100
AcDbBlockBegin
  2
DIM-3
 70
     0
 10
0.0
 20
0.0
 30
0.0
  3
DIM-3
  1

  0
TEXT
  5
E3
330
E0
100
AcDbEntity
  8
001
370
    30
100
AcDbText
 10
-0.727291
 20
112.134035
 30
0.0
 40
5.0
  1
２－Ｍ８×１．２５，貫通
 41
0.833333
100
AcDbText
  0
POLYLINE
  5
E4
330
E0
100
AcDbEntity
  8
001
370
     9
100
AcDb2dPolyline
 66
     1
 10
0.0
 20
0.0
 30
0.0
  0
VERTEX
  5
E6
330
E4
100
AcDbEntity
  8
001
370
     9
100
AcDbVertex
100
AcDb2dVertex
 10
86.771776
 20
145.327924
 30
0.0
  0
VERTEX
  5
E7
330
E4
100
AcDbEntity
  8
001
370
     9
100
AcDbVertex
100
AcDb2dVertex
 10
88.294051
 20
146.532381
 30
0.0
  0
VERTEX
  5
E8
330
E4
100
AcDbEntity
  8
001
370
     9
100
AcDbVertex
100
AcDb2dVertex
 10
87.577951
 20
144.728154
 30
0.0
  0
SEQEND
  5
E5
330
E4
100
AcDbEntity
  8
001
370
     9
  0
POLYLINE
  5
E9
330
E0
100
AcDbEntity
  8
001
370
     9
100
AcDb2dPolyline
 66
     1
 10
0.0
 20
0.0
 30
0.0
  0
VERTEX
  5
EB
330
E9
100
AcDbEntity
  8
001
370
     9
100
AcDbVertex
100
AcDb2dVertex
 10
88.294051
 20
146.532381
 30
0.0
  0
VERTEX
  5
EC
330
E9
100
AcDbEntity
  8
001
370
     9
100
AcDbVertex
100
AcDb2dVertex
 10
61.772709
 20
110.884035
 30
0.0
  0
VERTEX
  5
ED
330
E9
100
AcDbEntity
  8
001
370
     9
100
AcDbVertex
100
AcDb2dVertex
 10
-3.227291
 20
110.884035
 30
0.0
  0
SEQEND
  5
EA
330
E9
100
AcDbEntity
  8
001
370
     9
  0
ENDBLK
  5
E2
330
E0
100
AcDbEntity
  8
0
100
AcDbBlockEnd
  0
BLOCK
  5
EF
330
EE
100
AcDbEntity
  8
0
100
AcDbBlockBegin
  2
*D9
 70
     1
 10
0.0
 20
0.0
 30
0.0
  3
*D9
  1

  0
LINE
  5
F1
330
EE
100
AcDbEntity
  8
001
370
     9
100
AcDbLine
 10
284.903999
 20
142.121984
 30
0.0
 11
284.903999
 21
88.406879
 31
0.0
  0
LINE
  5
F2
330
EE
100
AcDbEntity
  8
001
370
     9
100
AcDbLine
 10
246.903999
 20
133.404186
 30
0.0
 11
246.903999
 21
88.406879
 31
0.0
  0
LINE
  5
F3
330
EE
100
AcDbEntity
  8
001
370
     9
100
AcDbLine
 10
284.903999
 20
91.844379
 30
0.0
 11
246.903999
 21
91.844379
 31
0.0
  0
POLYLINE
  5
F4
330
EE
100
AcDbEntity
  8
001
370
     9
100
AcDb2dPolyline
 66
     1
 10
0.0
 20
0.0
 30
0.0
  0
VERTEX
  5
F6
330
F4
100
AcDbEntity
  8
001
370
     9
100
AcDbVertex
100
AcDb2dVertex
 10
283.028999
 20
92.346784
 30
0.0
  0
VERTEX
  5
F7
330
F4
100
AcDbEntity
  8
001
370
     9
100
AcDbVertex
100
AcDb2dVertex
 10
284.903999
 20
91.844379
 30
0.0
  0
VERTEX
  5
F8
330
F4
100
AcDbEntity
  8
001
370
     9
100
AcDbVertex
100
AcDb2dVertex
 10
283.028999
 20
91.341974
 30
0.0
  0
SEQEND
  5
F5
330
F4
100
AcDbEntity
  8
001
370
     9
  0
POLYLINE
  5
F9
330
EE
100
AcDbEntity
  8
001
370
     9
100
AcDb2dPolyline
 66
     1
 10
0.0
 20
0.0
 30
0.0
  0
VERTEX
  5
FB
330
F9
100
AcDbEntity
  8
001
370
     9
100
AcDbVertex
100
AcDb2dVertex
 10
248.778999
 20
91.341974
 30
0.0
  0
VERTEX
  5
FC
330
F9
100
AcDbEntity
  8
001
370
     9
100
AcDbVertex
100
AcDb2dVertex
 10
246.903999
 20
91.844379
 30
0.0
  0
VERTEX
  5
FD
330
F9
100
AcDbEntity
  8
001
370
     9
100
AcDbVertex
100
AcDb2dVertex
 10
248.778999
 20
92.346784
 30
0.0
  0
SEQEND
  5
FA
330
F9
100
AcDbEntity
  8
001
370
     9
  0
TEXT
  5
FE
330
EE
100
AcDbEntity
  8
001
370
    30
100
AcDbText
 10
260.903999
 20
93.094379
 30
0.0
 40
5.0
  1
３８
 41
0.833333
100
AcDbText
  0
POINT
  5
FF
330
EE
100
AcDbEntity
  8
001
370
     9
100
AcDbPoint
 10
284.903999
 20
142.121984
 30
0.0
  0
POINT
  5
100
330
EE
100
AcDbEntity
  8
001
370
     9
100
AcDbPoint
 10
246.903999
 20
133.404186
 30
0.0
  0
POINT
  5
101
330
EE
100
AcDbEntity
  8
001
370
     9
100
AcDbPoint
 10
246.903999
 20
91.844379
 30
0.0
  0
ENDBLK
  5
F0
330
EE
100
AcDbEntity
  8
0
100
AcDbBlockEnd
  0
BLOCK
  5
103
330
102
100
AcDbEntity
  8
0
100
AcDbBlockBegin
  2
*D10
 70
     1
 10
0.0
 20
0.0
 30
0.0
  3
*D10
  1

  0
LINE
  5
105
330
102
100
AcDbEntity
  8
001
370
     9
100
AcDbLine
 10
113.42223
 20
125.892805
 30
0.0
 11
28.951271
 21
125.892805
 31
0.0
  0
LINE
  5
106
330
102
100
AcDbEntity
  8
001
370
     9
100
AcDbLine
 10
113.42223
 20
172.892805
 30
0.0
 11
28.951271
 21
172.892805
 31
0.0
  0
LINE
  5
107
330
102
100
AcDbEntity
  8
001
370
     9
100
AcDbLine
 10
32.388771
 20
125.892805
 30
0.0
 11
32.388771
 21
172.892805
 31
0.0
  0
POLYLINE
  5
108
330
102
100
AcDbEntity
  8
001
370
     9
100
AcDb2dPolyline
 66
     1
 10
0.0
 20
0.0
 30
0.0
  0
VERTEX
  5
10A
330
108
100
AcDbEntity
  8
001
370
     9
100
AcDbVertex
100
AcDb2dVertex
 10
32.891176
 20
127.767805
 30
0.0
  0
VERTEX
  5
10B
330
108
100
AcDbEntity
  8
001
370
     9
100
AcDbVertex
100
AcDb2dVertex
 10
32.388771
 20
125.892805
 30
0.0
  0
VERTEX
  5
10C
330
108
100
AcDbEntity
  8
001
370
     9
100
AcDbVertex
100
AcDb2dVertex
 10
31.886367
 20
127.767805
 30
0.0
  0
SEQEND
  5
109
330
108
100
AcDbEntity
  8
001
370
     9
  0
POLYLINE
  5
10D
330
102
100
AcDbEntity
  8
001
370
     9
100
AcDb2dPolyline
 66
     1
 10
0.0
 20
0.0
 30
0.0
  0
VERTEX
  5
10F
330
10D
100
AcDbEntity
  8
001
370
     9
100
AcDbVertex
100
AcDb2dVertex
 10
31.886367
 20
171.017805
 30
0.0
  0
VERTEX
  5
110
330
10D
100
AcDbEntity
  8
001
370
     9
100
AcDbVertex
100
AcDb2dVertex
 10
32.388771
 20
172.892805
 30
0.0
  0
VERTEX
  5
111
330
10D
100
AcDbEntity
  8
001
370
     9
100
AcDbVertex
100
AcDb2dVertex
 10
32.891176
 20
171.017805
 30
0.0
  0
SEQEND
  5
10E
330
10D
100
AcDbEntity
  8
001
370
     9
  0
TEXT
  5
112
330
102
100
AcDbEntity
  8
001
370
    30
100
AcDbText
 10
31.138771
 20
141.892805
 30
0.0
 40
5.0
  1
%%c４７
 50
90.000003
 41
0.882353
100
AcDbText
  0
POINT
  5
113
330
102
100
AcDbEntity
  8
001
370
     9
100
AcDbPoint
 10
113.42223
 20
125.892805
 30
0.0
  0
POINT
  5
114
330
102
100
AcDbEntity
  8
001
370
     9
100
AcDbPoint
 10
113.42223
 20
172.892805
 30
0.0
  0
POINT
  5
115
330
102
100
AcDbEntity
  8
001
370
     9
100
AcDbPoint
 10
32.388771
 20
172.892805
 30
0.0
  0
ENDBLK
  5
104
330
102
100
AcDbEntity
  8
0
100
AcDbBlockEnd
  0
BLOCK
  5
117
330
116
100
AcDbEntity
  8
0
100
AcDbBlockBegin
  2
*D11
 70
     1
 10
0.0
 20
0.0
 30
0.0
  3
*D11
  1

  0
LINE
  5
119
330
116
100
AcDbEntity
  8
001
370
     9
100
AcDbLine
 10
105.42223
 20
56.313369
 30
0.0
 11
105.42223
 21
63.107482
 31
0.0
  0
LINE
  5
11A
330
116
100
AcDbEntity
  8
001
370
     9
100
AcDbLine
 10
90.42223
 20
56.313369
 30
0.0
 11
90.42223
 21
63.107482
 31
0.0
  0
LINE
  5
11B
330
116
100
AcDbEntity
  8
001
370
     9
100
AcDbLine
 10
105.42223
 20
59.669982
 30
0.0
 11
90.42223
 21
59.669982
 31
0.0
  0
POLYLINE
  5
11C
330
116
100
AcDbEntity
  8
001
370
     9
100
AcDb2dPolyline
 66
     1
 10
0.0
 20
0.0
 30
0.0
  0
VERTEX
  5
11E
330
11C
100
AcDbEntity
  8
001
370
     9
100
AcDbVertex
100
AcDb2dVertex
 10
107.29723
 20
59.167577
 30
0.0
  0
VERTEX
  5
11F
330
11C
100
AcDbEntity
  8
001
370
     9
100
AcDbVertex
100
AcDb2dVertex
 10
105.42223
 20
59.669982
 30
0.0
  0
VERTEX
  5
120
330
11C
100
AcDbEntity
  8
001
370
     9
100
AcDbVertex
100
AcDb2dVertex
 10
107.29723
 20
60.172387
 30
0.0
  0
SEQEND
  5
11D
330
11C
100
AcDbEntity
  8
001
370
     9
  0
POLYLINE
  5
121
330
116
100
AcDbEntity
  8
001
370
     9
100
AcDb2dPolyline
 66
     1
 10
0.0
 20
0.0
 30
0.0
  0
VERTEX
  5
123
330
121
100
AcDbEntity
  8
001
370
     9
100
AcDbVertex
100
AcDb2dVertex
 10
88.54723
 20
60.172387
 30
0.0
  0
VERTEX
  5
124
330
121
100
AcDbEntity
  8
001
370
     9
100
AcDbVertex
100
AcDb2dVertex
 10
90.42223
 20
59.669982
 30
0.0
  0
VERTEX
  5
125
330
121
100
AcDbEntity
  8
001
370
     9
100
AcDbVertex
100
AcDb2dVertex
 10
88.54723
 20
59.167577
 30
0.0
  0
SEQEND
  5
122
330
121
100
AcDbEntity
  8
001
370
     9
  0
TEXT
  5
126
330
116
100
AcDbEntity
  8
001
370
    30
100
AcDbText
 10
92.92223
 20
60.919982
 30
0.0
 40
5.0
  1
１５
 41
0.833333
100
AcDbText
  0
POINT
  5
127
330
116
100
AcDbEntity
  8
001
370
     9
100
AcDbPoint
 10
105.42223
 20
56.313369
 30
0.0
  0
POINT
  5
128
330
116
100
AcDbEntity
  8
001
370
     9
100
AcDbPoint
 10
90.42223
 20
56.313369
 30
0.0
  0
POINT
  5
129
330
116
100
AcDbEntity
  8
001
370
     9
100
AcDbPoint
 10
90.42223
 20
59.669982
 30
0.0
  0
LINE
  5
12A
330
116
100
AcDbEntity
  8
001
370
     9
100
AcDbLine
 10
105.42223
 20
59.669982
 30
0.0
 11
108.54723
 21
59.669982
 31
0.0
  0
LINE
  5
12B
330
116
100
AcDbEntity
  8
001
370
     9
100
AcDbLine
 10
90.42223
 20
59.669982
 30
0.0
 11
87.29723
 21
59.669982
 31
0.0
  0
ENDBLK
  5
118
330
116
100
AcDbEntity
  8
0
100
AcDbBlockEnd
  0
BLOCK
  5
12D
330
12C
100
AcDbEntity
  8
0
100
AcDbBlockBegin
  2
*D12
 70
     1
 10
0.0
 20
0.0
 30
0.0
  3
*D12
  1

  0
LINE
  5
12F
330
12C
100
AcDbEntity
  8
001
370
     9
100
AcDbLine
 10
195.42223
 20
167.392805
 30
0.0
 11
197.069247
 21
168.527413
 31
0.0
  0
POLYLINE
  5
130
330
12C
100
AcDbEntity
  8
001
370
     9
100
AcDb2dPolyline
 66
     1
 10
0.0
 20
0.0
 30
0.0
  0
VERTEX
  5
132
330
130
100
AcDbEntity
  8
001
370
     9
100
AcDbVertex
100
AcDb2dVertex
 10
198.898342
 20
169.177373
 30
0.0
  0
VERTEX
  5
133
330
130
100
AcDbEntity
  8
001
370
     9
100
AcDbVertex
100
AcDb2dVertex
 10
197.069247
 20
168.527413
 30
0.0
  0
VERTEX
  5
134
330
130
100
AcDbEntity
  8
001
370
     9
100
AcDbVertex
100
AcDb2dVertex
 10
198.32831
 20
170.004842
 30
0.0
  0
SEQEND
  5
131
330
130
100
AcDbEntity
  8
001
370
     9
  0
TEXT
  5
135
330
12C
100
AcDbEntity
  8
001
370
    30
100
AcDbText
 10
199.962967
 20
172.038753
 30
0.0
 40
5.0
  1
Ｒ２
 50
34.562434
 41
0.833333
100
AcDbText
  0
POINT
  5
136
330
12C
100
AcDbEntity
  8
001
370
     9
100
AcDbPoint
 10
197.069247
 20
168.527413
 30
0.0
  0
POINT
  5
137
330
12C
100
AcDbEntity
  8
001
370
     9
100
AcDbPoint
 10
195.42223
 20
167.392805
 30
0.0
  0
LINE
  5
138
330
12C
100
AcDbEntity
  8
001
370
     9
100
AcDbLine
 10
197.069247
 20
168.527413
 30
0.0
 11
211.995339
 21
178.809797
 31
0.0
  0
ENDBLK
  5
12E
330
12C
100
AcDbEntity
  8
0
100
AcDbBlockEnd
  0
BLOCK
  5
13A
330
139
100
AcDbEntity
  8
0
100
AcDbBlockBegin
  2
*D13
 70
     1
 10
0.0
 20
0.0
 30
0.0
  3
*D13
  1

  0
LINE
  5
13C
330
139
100
AcDbEntity
  8
001
370
     9
100
AcDbLine
 10
78.42223
 20
24.652531
 30
0.0
 11
77.59639
 21
24.088627
 31
0.0
  0
POLYLINE
  5
13D
330
139
100
AcDbEntity
  8
001
370
     9
100
AcDb2dPolyline
 66
     1
 10
0.0
 20
0.0
 30
0.0
  0
VERTEX
  5
13F
330
13D
100
AcDbEntity
  8
001
370
     9
100
AcDbVertex
100
AcDb2dVertex
 10
75.76463
 20
23.446215
 30
0.0
  0
VERTEX
  5
140
330
13D
100
AcDbEntity
  8
001
370
     9
100
AcDbVertex
100
AcDb2dVertex
 10
77.59639
 20
24.088627
 30
0.0
  0
VERTEX
  5
141
330
13D
100
AcDbEntity
  8
001
370
     9
100
AcDbVertex
100
AcDb2dVertex
 10
76.331246
 20
22.616402
 30
0.0
  0
SEQEND
  5
13E
330
13D
100
AcDbEntity
  8
001
370
     9
  0
TEXT
  5
142
330
139
100
AcDbEntity
  8
001
370
    30
100
AcDbText
 10
56.761641
 20
11.375785
 30
0.0
 40
5.0
  1
２－Ｒ１
 50
34.326171
 41
0.833333
100
AcDbText
  0
POINT
  5
143
330
139
100
AcDbEntity
  8
001
370
     9
100
AcDbPoint
 10
77.59639
 20
24.088627
 30
0.0
  0
POINT
  5
144
330
139
100
AcDbEntity
  8
001
370
     9
100
AcDbPoint
 10
78.42223
 20
24.652531
 30
0.0
  0
LINE
  5
145
330
139
100
AcDbEntity
  8
001
370
     9
100
AcDbLine
 10
77.59639
 20
24.088627
 30
0.0
 11
54.369617
 21
8.228846
 31
0.0
  0
ENDBLK
  5
13B
330
139
100
AcDbEntity
  8
0
100
AcDbBlockEnd
  0
BLOCK
  5
147
330
146
100
AcDbEntity
  8
0
100
AcDbBlockBegin
  2
*D14
 70
     1
 10
0.0
 20
0.0
 30
0.0
  3
*D14
  1

  0
LINE
  5
149
330
146
100
AcDbEntity
  8
001
370
     9
100
AcDbLine
 10
116.42223
 20
13.075181
 30
0.0
 11
117.010265
 21
12.266345
 31
0.0
  0
POLYLINE
  5
14A
330
146
100
AcDbEntity
  8
001
370
     9
100
AcDb2dPolyline
 66
     1
 10
0.0
 20
0.0
 30
0.0
  0
VERTEX
  5
14C
330
14A
100
AcDbEntity
  8
001
370
     9
100
AcDbVertex
100
AcDb2dVertex
 10
117.706467
 20
10.454346
 30
0.0
  0
VERTEX
  5
14D
330
14A
100
AcDbEntity
  8
001
370
     9
100
AcDbVertex
100
AcDb2dVertex
 10
117.010265
 20
12.266345
 30
0.0
  0
VERTEX
  5
14E
330
14A
100
AcDbEntity
  8
001
370
     9
100
AcDbVertex
100
AcDb2dVertex
 10
118.519192
 20
11.045209
 30
0.0
  0
SEQEND
  5
14B
330
14A
100
AcDbEntity
  8
001
370
     9
  0
TEXT
  5
14F
330
146
100
AcDbEntity
  8
001
370
    30
100
AcDbText
 10
120.59396
 20
9.462731
 30
0.0
 40
5.0
  1
２－Ｒ１
 50
306.017637
 41
0.833333
100
AcDbText
  0
POINT
  5
150
330
146
100
AcDbEntity
  8
001
370
     9
100
AcDbPoint
 10
117.010265
 20
12.266345
 30
0.0
  0
POINT
  5
151
330
146
100
AcDbEntity
  8
001
370
     9
100
AcDbPoint
 10
116.42223
 20
13.075181
 30
0.0
  0
LINE
  5
152
330
146
100
AcDbEntity
  8
001
370
     9
100
AcDbLine
 10
117.010265
 20
12.266345
 30
0.0
 11
133.548735
 21
-10.482164
 31
0.0
  0
ENDBLK
  5
148
330
146
100
AcDbEntity
  8
0
100
AcDbBlockEnd
  0
BLOCK
  5
154
330
153
100
AcDbEntity
  8
0
100
AcDbBlockBegin
  2
*D15
 70
     1
 10
0.0
 20
0.0
 30
0.0
  3
*D15
  1

  0
LINE
  5
156
330
153
100
AcDbEntity
  8
001
370
     9
100
AcDbLine
 10
77.42223
 20
41.575181
 30
0.0
 11
48.39392
 21
41.575181
 31
0.0
  0
LINE
  5
157
330
153
100
AcDbEntity
  8
001
370
     9
100
AcDbLine
 10
77.42223
 20
29.575181
 30
0.0
 11
48.39392
 21
29.575181
 31
0.0
  0
LINE
  5
158
330
153
100
AcDbEntity
  8
001
370
     9
100
AcDbLine
 10
51.83142
 20
41.575181
 30
0.0
 11
51.83142
 21
29.575181
 31
0.0
  0
POLYLINE
  5
159
330
153
100
AcDbEntity
  8
001
370
     9
100
AcDb2dPolyline
 66
     1
 10
0.0
 20
0.0
 30
0.0
  0
VERTEX
  5
15B
330
159
100
AcDbEntity
  8
001
370
     9
100
AcDbVertex
100
AcDb2dVertex
 10
52.333825
 20
43.450181
 30
0.0
  0
VERTEX
  5
15C
330
159
100
AcDbEntity
  8
001
370
     9
100
AcDbVertex
100
AcDb2dVertex
 10
51.83142
 20
41.575181
 30
0.0
  0
VERTEX
  5
15D
330
159
100
AcDbEntity
  8
001
370
     9
100
AcDbVertex
100
AcDb2dVertex
 10
51.329015
 20
43.450181
 30
0.0
  0
SEQEND
  5
15A
330
159
100
AcDbEntity
  8
001
370
     9
  0
POLYLINE
  5
15E
330
153
100
AcDbEntity
  8
001
370
     9
100
AcDb2dPolyline
 66
     1
 10
0.0
 20
0.0
 30
0.0
  0
VERTEX
  5
160
330
15E
100
AcDbEntity
  8
001
370
     9
100
AcDbVertex
100
AcDb2dVertex
 10
51.329015
 20
27.700181
 30
0.0
  0
VERTEX
  5
161
330
15E
100
AcDbEntity
  8
001
370
     9
100
AcDbVertex
100
AcDb2dVertex
 10
51.83142
 20
29.575181
 30
0.0
  0
VERTEX
  5
162
330
15E
100
AcDbEntity
  8
001
370
     9
100
AcDbVertex
100
AcDb2dVertex
 10
52.333825
 20
27.700181
 30
0.0
  0
SEQEND
  5
15F
330
15E
100
AcDbEntity
  8
001
370
     9
  0
TEXT
  5
163
330
153
100
AcDbEntity
  8
001
370
    30
100
AcDbText
 10
50.58142
 20
45.950181
 30
0.0
 40
5.0
  1
%%c１２
 50
90.000003
 41
0.882353
100
AcDbText
  0
POINT
  5
164
330
153
100
AcDbEntity
  8
001
370
     9
100
AcDbPoint
 10
77.42223
 20
41.575181
 30
0.0
  0
POINT
  5
165
330
153
100
AcDbEntity
  8
001
370
     9
100
AcDbPoint
 10
77.42223
 20
29.575181
 30
0.0
  0
POINT
  5
166
330
153
100
AcDbEntity
  8
001
370
     9
100
AcDbPoint
 10
51.83142
 20
29.575181
 30
0.0
  0
LINE
  5
167
330
153
100
AcDbEntity
  8
001
370
     9
100
AcDbLine
 10
51.83142
 20
41.575181
 30
0.0
 11
51.83142
 21
64.700181
 31
0.0
  0
LINE
  5
168
330
153
100
AcDbEntity
  8
001
370
     9
100
AcDbLine
 10
51.83142
 20
29.575181
 30
0.0
 11
51.83142
 21
26.450181
 31
0.0
  0
ENDBLK
  5
155
330
153
100
AcDbEntity
  8
0
100
AcDbBlockEnd
  0
BLOCK
  5
16A
330
169
100
AcDbEntity
  8
0
100
AcDbBlockBegin
  2
*D16
 70
     1
 10
0.0
 20
0.0
 30
0.0
  3
*D16
  1

  0
LINE
  5
16C
330
169
100
AcDbEntity
  8
001
370
     9
100
AcDbLine
 10
77.42223
 20
159.928703
 30
0.0
 11
77.42223
 21
186.579581
 31
0.0
  0
LINE
  5
16D
330
169
100
AcDbEntity
  8
001
370
     9
100
AcDbLine
 10
82.42223
 20
163.392805
 30
0.0
 11
82.42223
 21
186.579581
 31
0.0
  0
LINE
  5
16E
330
169
100
AcDbEntity
  8
001
370
     9
100
AcDbLine
 10
77.42223
 20
183.142081
 30
0.0
 11
82.42223
 21
183.142081
 31
0.0
  0
POLYLINE
  5
16F
330
169
100
AcDbEntity
  8
001
370
     9
100
AcDb2dPolyline
 66
     1
 10
0.0
 20
0.0
 30
0.0
  0
VERTEX
  5
171
330
16F
100
AcDbEntity
  8
001
370
     9
100
AcDbVertex
100
AcDb2dVertex
 10
75.54723
 20
183.644486
 30
0.0
  0
VERTEX
  5
172
330
16F
100
AcDbEntity
  8
001
370
     9
100
AcDbVertex
100
AcDb2dVertex
 10
77.42223
 20
183.142081
 30
0.0
  0
VERTEX
  5
173
330
16F
100
AcDbEntity
  8
001
370
     9
100
AcDbVertex
100
AcDb2dVertex
 10
75.54723
 20
182.639676
 30
0.0
  0
SEQEND
  5
170
330
16F
100
AcDbEntity
  8
001
370
     9
  0
POLYLINE
  5
174
330
169
100
AcDbEntity
  8
001
370
     9
100
AcDb2dPolyline
 66
     1
 10
0.0
 20
0.0
 30
0.0
  0
VERTEX
  5
176
330
174
100
AcDbEntity
  8
001
370
     9
100
AcDbVertex
100
AcDb2dVertex
 10
84.29723
 20
182.639676
 30
0.0
  0
VERTEX
  5
177
330
174
100
AcDbEntity
  8
001
370
     9
100
AcDbVertex
100
AcDb2dVertex
 10
82.42223
 20
183.142081
 30
0.0
  0
VERTEX
  5
178
330
174
100
AcDbEntity
  8
001
370
     9
100
AcDbVertex
100
AcDb2dVertex
 10
84.29723
 20
183.644486
 30
0.0
  0
SEQEND
  5
175
330
174
100
AcDbEntity
  8
001
370
     9
  0
TEXT
  5
179
330
169
100
AcDbEntity
  8
001
370
    30
100
AcDbText
 10
58.567454
 20
184.392081
 30
0.0
 40
5.0
  1
（５）
 41
0.833333
100
AcDbText
  0
POINT
  5
17A
330
169
100
AcDbEntity
  8
001
370
     9
100
AcDbPoint
 10
77.42223
 20
159.928703
 30
0.0
  0
POINT
  5
17B
330
169
100
AcDbEntity
  8
001
370
     9
100
AcDbPoint
 10
82.42223
 20
163.392805
 30
0.0
  0
POINT
  5
17C
330
169
100
AcDbEntity
  8
001
370
     9
100
AcDbPoint
 10
82.42223
 20
183.142081
 30
0.0
  0
LINE
  5
17D
330
169
100
AcDbEntity
  8
001
370
     9
100
AcDbLine
 10
77.42223
 20
183.142081
 30
0.0
 11
54.817454
 21
183.142081
 31
0.0
  0
LINE
  5
17E
330
169
100
AcDbEntity
  8
001
370
     9
100
AcDbLine
 10
82.42223
 20
183.142081
 30
0.0
 11
85.54723
 21
183.142081
 31
0.0
  0
ENDBLK
  5
16B
330
169
100
AcDbEntity
  8
0
100
AcDbBlockEnd
  0
BLOCK
  5
180
330
17F
100
AcDbEntity
  8
0
100
AcDbBlockBegin
  2
*D17
 70
     1
 10
0.0
 20
0.0
 30
0.0
  3
*D17
  1

  0
LINE
  5
182
330
17F
100
AcDbEntity
  8
001
370
     9
100
AcDbLine
 10
82.19018
 20
163.25883
 30
0.0
 11
125.328424
 21
188.164707
 31
0.0
  0
ARC
  5
183
330
17F
100
AcDbEntity
  8
001
370
     9
100
AcDbCircle
 10
58.173519
 20
149.392805
 30
0.0
 40
74.10630538834144
100
AcDbArc
 50
0.0
 51
30.0
  0
POLYLINE
  5
184
330
17F
100
AcDbEntity
  8
001
370
     9
100
AcDb2dPolyline
 66
     1
 10
0.0
 20
0.0
 30
0.0
  0
VERTEX
  5
186
330
184
100
AcDbEntity
  8
001
370
     9
100
AcDbVertex
100
AcDb2dVertex
 10
122.830107
 20
184.564752
 30
0.0
  0
VERTEX
  5
187
330
184
100
AcDbEntity
  8
001
370
     9
100
AcDbVertex
100
AcDb2dVertex
 10
122.351462
 20
186.445957
 30
0.0
  0
VERTEX
  5
188
330
184
100
AcDbEntity
  8
001
370
     9
100
AcDbVertex
100
AcDb2dVertex
 10
123.706584
 20
185.056108
 30
0.0
  0
SEQEND
  5
185
330
184
100
AcDbEntity
  8
001
370
     9
  0
POLYLINE
  5
189
330
17F
100
AcDbEntity
  8
001
370
     9
100
AcDb2dPolyline
 66
     1
 10
0.0
 20
0.0
 30
0.0
  0
VERTEX
  5
18B
330
189
100
AcDbEntity
  8
001
370
     9
100
AcDbVertex
100
AcDb2dVertex
 10
132.758469
 20
151.27401
 30
0.0
  0
VERTEX
  5
18C
330
189
100
AcDbEntity
  8
001
370
     9
100
AcDbVertex
100
AcDb2dVertex
 10
132.279824
 20
149.392805
 30
0.0
  0
VERTEX
  5
18D
330
189
100
AcDbEntity
  8
001
370
     9
100
AcDbVertex
100
AcDb2dVertex
 10
131.75374
 20
151.261299
 30
0.0
  0
SEQEND
  5
18A
330
189
100
AcDbEntity
  8
001
370
     9
  0
TEXT
  5
18E
330
17F
100
AcDbEntity
  8
001
370
    30
100
AcDbText
 10
125.185272
 20
184.6667
 30
0.0
 40
5.0
  1
３０%%d
 50
292.077822
 41
0.978261
100
AcDbText
  0
POINT
  5
18F
330
17F
100
AcDbEntity
  8
001
370
     9
100
AcDbPoint
 10
82.19018
 20
163.25883
 30
0.0
  0
POINT
  5
190
330
17F
100
AcDbEntity
  8
001
370
     9
100
AcDbPoint
 10
58.173519
 20
149.392805
 30
0.0
  0
POINT
  5
191
330
17F
100
AcDbEntity
  8
001
370
     9
100
AcDbPoint
 10
58.173519
 20
149.392805
 30
0.0
  0
POINT
  5
192
330
17F
100
AcDbEntity
  8
001
370
     9
100
AcDbPoint
 10
70.23846
 20
149.392805
 30
0.0
  0
ENDBLK
  5
181
330
17F
100
AcDbEntity
  8
0
100
AcDbBlockEnd
  0
BLOCK
  5
194
330
193
100
AcDbEntity
  8
0
100
AcDbBlockBegin
  2
*D18
 70
     1
 10
0.0
 20
0.0
 30
0.0
  3
*D18
  1

  0
LINE
  5
196
330
193
100
AcDbEntity
  8
001
370
     9
100
AcDbLine
 10
82.69018
 20
135.392805
 30
0.0
 11
54.718905
 21
135.392805
 31
0.0
  0
LINE
  5
197
330
193
100
AcDbEntity
  8
001
370
     9
100
AcDbLine
 10
82.69018
 20
163.392805
 30
0.0
 11
54.718905
 21
163.392805
 31
0.0
  0
LINE
  5
198
330
193
100
AcDbEntity
  8
001
370
     9
100
AcDbLine
 10
58.156405
 20
135.392805
 30
0.0
 11
58.156405
 21
163.392805
 31
0.0
  0
POLYLINE
  5
199
330
193
100
AcDbEntity
  8
001
370
     9
100
AcDb2dPolyline
 66
     1
 10
0.0
 20
0.0
 30
0.0
  0
VERTEX
  5
19B
330
199
100
AcDbEntity
  8
001
370
     9
100
AcDbVertex
100
AcDb2dVertex
 10
58.658809
 20
137.267805
 30
0.0
  0
VERTEX
  5
19C
330
199
100
AcDbEntity
  8
001
370
     9
100
AcDbVertex
100
AcDb2dVertex
 10
58.156405
 20
135.392805
 30
0.0
  0
VERTEX
  5
19D
330
199
100
AcDbEntity
  8
001
370
     9
100
AcDbVertex
100
AcDb2dVertex
 10
57.654
 20
137.267805
 30
0.0
  0
SEQEND
  5
19A
330
199
100
AcDbEntity
  8
001
370
     9
  0
POLYLINE
  5
19E
330
193
100
AcDbEntity
  8
001
370
     9
100
AcDb2dPolyline
 66
     1
 10
0.0
 20
0.0
 30
0.0
  0
VERTEX
  5
1A0
330
19E
100
AcDbEntity
  8
001
370
     9
100
AcDbVertex
100
AcDb2dVertex
 10
57.654
 20
161.517805
 30
0.0
  0
VERTEX
  5
1A1
330
19E
100
AcDbEntity
  8
001
370
     9
100
AcDbVertex
100
AcDb2dVertex
 10
58.156405
 20
163.392805
 30
0.0
  0
VERTEX
  5
1A2
330
19E
100
AcDbEntity
  8
001
370
     9
100
AcDbVertex
100
AcDb2dVertex
 10
58.658809
 20
161.517805
 30
0.0
  0
SEQEND
  5
19F
330
19E
100
AcDbEntity
  8
001
370
     9
  0
TEXT
  5
1A3
330
193
100
AcDbEntity
  8
001
370
    30
100
AcDbText
 10
56.906405
 20
141.892805
 30
0.0
 40
5.0
  1
%%c２８
 50
90.000003
 41
0.882353
100
AcDbText
  0
POINT
  5
1A4
330
193
100
AcDbEntity
  8
001
370
     9
100
AcDbPoint
 10
82.69018
 20
135.392805
 30
0.0
  0
POINT
  5
1A5
330
193
100
AcDbEntity
  8
001
370
     9
100
AcDbPoint
 10
82.69018
 20
163.392805
 30
0.0
  0
POINT
  5
1A6
330
193
100
AcDbEntity
  8
001
370
     9
100
AcDbPoint
 10
58.156405
 20
163.392805
 30
0.0
  0
ENDBLK
  5
195
330
193
100
AcDbEntity
  8
0
100
AcDbBlockEnd
  0
BLOCK
  5
1A8
330
1A7
100
AcDbEntity
  8
0
100
AcDbBlockBegin
  2
*D19
 70
     1
 10
0.0
 20
0.0
 30
0.0
  3
*D19
  1

  0
LINE
  5
1AA
330
1A7
100
AcDbEntity
  8
001
370
     9
100
AcDbLine
 10
77.42223
 20
138.856906
 30
0.0
 11
77.42223
 21
96.738123
 31
0.0
  0
LINE
  5
1AB
330
1A7
100
AcDbEntity
  8
001
370
     9
100
AcDbLine
 10
112.42223
 20
126.892805
 30
0.0
 11
112.42223
 21
96.738123
 31
0.0
  0
LINE
  5
1AC
330
1A7
100
AcDbEntity
  8
001
370
     9
100
AcDbLine
 10
77.42223
 20
100.175623
 30
0.0
 11
112.42223
 21
100.175623
 31
0.0
  0
POLYLINE
  5
1AD
330
1A7
100
AcDbEntity
  8
001
370
     9
100
AcDb2dPolyline
 66
     1
 10
0.0
 20
0.0
 30
0.0
  0
VERTEX
  5
1AF
330
1AD
100
AcDbEntity
  8
001
370
     9
100
AcDbVertex
100
AcDb2dVertex
 10
79.29723
 20
99.673219
 30
0.0
  0
VERTEX
  5
1B0
330
1AD
100
AcDbEntity
  8
001
370
     9
100
AcDbVertex
100
AcDb2dVertex
 10
77.42223
 20
100.175623
 30
0.0
  0
VERTEX
  5
1B1
330
1AD
100
AcDbEntity
  8
001
370
     9
100
AcDbVertex
100
AcDb2dVertex
 10
79.29723
 20
100.678028
 30
0.0
  0
SEQEND
  5
1AE
330
1AD
100
AcDbEntity
  8
001
370
     9
  0
POLYLINE
  5
1B2
330
1A7
100
AcDbEntity
  8
001
370
     9
100
AcDb2dPolyline
 66
     1
 10
0.0
 20
0.0
 30
0.0
  0
VERTEX
  5
1B4
330
1B2
100
AcDbEntity
  8
001
370
     9
100
AcDbVertex
100
AcDb2dVertex
 10
110.54723
 20
100.678028
 30
0.0
  0
VERTEX
  5
1B5
330
1B2
100
AcDbEntity
  8
001
370
     9
100
AcDbVertex
100
AcDb2dVertex
 10
112.42223
 20
100.175623
 30
0.0
  0
VERTEX
  5
1B6
330
1B2
100
AcDbEntity
  8
001
370
     9
100
AcDbVertex
100
AcDb2dVertex
 10
110.54723
 20
99.673219
 30
0.0
  0
SEQEND
  5
1B3
330
1B2
100
AcDbEntity
  8
001
370
     9
  0
TEXT
  5
1B7
330
1A7
100
AcDbEntity
  8
001
370
    30
100
AcDbText
 10
89.92223
 20
101.425623
 30
0.0
 40
5.0
  1
３５
 41
0.833333
100
AcDbText
  0
POINT
  5
1B8
330
1A7
100
AcDbEntity
  8
001
370
     9
100
AcDbPoint
 10
77.42223
 20
138.856906
 30
0.0
  0
POINT
  5
1B9
330
1A7
100
AcDbEntity
  8
001
370
     9
100
AcDbPoint
 10
112.42223
 20
126.892805
 30
0.0
  0
POINT
  5
1BA
330
1A7
100
AcDbEntity
  8
001
370
     9
100
AcDbPoint
 10
112.42223
 20
100.175623
 30
0.0
  0
ENDBLK
  5
1A9
330
1A7
100
AcDbEntity
  8
0
100
AcDbBlockEnd
  0
ENDSEC
  0
SECTION
  2
ENTITIES
  0
INSERT
  5
1BB
330
1F
100
AcDbEntity
  8
001
  6
ByBlock
 62
     0
370
    -2
100
AcDbBlockReference
  2
JZB-1
 10
0.0
 20
0.0
 30
0.0
  0
INSERT
  5
1BC
330
1F
100
AcDbEntity
  8
001
  6
ByBlock
 62
     0
370
    -2
100
AcDbBlockReference
  2
JZB-2
 10
0.0
 20
0.0
 30
0.0
  0
TEXT
  5
1BD
330
1F
100
AcDbEntity
  8
001
370
    30
100
AcDbText
 10
112.42223
 20
101.425623
 30
0.0
 40
5.0
  1
５
 41
0.833333
100
AcDbText
  0
POLYLINE
  5
1BE
330
1F
100
AcDbEntity
  8
001
370
     9
100
AcDb2dPolyline
 66
     1
 10
0.0
 20
0.0
 30
0.0
  0
VERTEX
  5
1C0
330
1BE
100
AcDbEntity
  8
001
370
     9
100
AcDbVertex
100
AcDb2dVertex
 10
110.54723
 20
100.678028
 30
0.0
  0
VERTEX
  5
1C1
330
1BE
100
AcDbEntity
  8
001
370
     9
100
AcDbVertex
100
AcDb2dVertex
 10
112.42223
 20
100.175623
 30
0.0
  0
VERTEX
  5
1C2
330
1BE
100
AcDbEntity
  8
001
370
     9
100
AcDbVertex
100
AcDb2dVertex
 10
110.54723
 20
99.673219
 30
0.0
  0
SEQEND
  5
1BF
330
1BE
100
AcDbEntity
  8
001
370
     9
  0
POLYLINE
  5
1C3
330
1F
100
AcDbEntity
  8
001
370
     9
100
AcDb2dPolyline
 66
     1
 10
0.0
 20
0.0
 30
0.0
  0
VERTEX
  5
1C5
330
1C3
100
AcDbEntity
  8
001
370
     9
100
AcDbVertex
100
AcDb2dVertex
 10
119.29723
 20
99.673219
 30
0.0
  0
VERTEX
  5
1C6
330
1C3
100
AcDbEntity
  8
001
370
     9
100
AcDbVertex
100
AcDb2dVertex
 10
117.42223
 20
100.175623
 30
0.0
  0
VERTEX
  5
1C7
330
1C3
100
AcDbEntity
  8
001
370
     9
100
AcDbVertex
100
AcDb2dVertex
 10
119.29723
 20
100.678028
 30
0.0
  0
SEQEND
  5
1C4
330
1C3
100
AcDbEntity
  8
001
370
     9
  0
LINE
  5
1C8
330
1F
100
AcDbEntity
  8
001
370
     9
100
AcDbLine
 10
109.29723
 20
100.175623
 30
0.0
 11
120.54723
 21
100.175623
 31
0.0
  0
POLYLINE
  5
1C9
330
1F
100
AcDbEntity
  8
001
370
     9
100
AcDb2dPolyline
 66
     1
 10
0.0
 20
0.0
 30
0.0
  0
VERTEX
  5
1CB
330
1C9
100
AcDbEntity
  8
001
370
     9
100
AcDbVertex
100
AcDb2dVertex
 10
112.42223
 20
133.392805
 30
0.0
  0
VERTEX
  5
1CC
330
1C9
100
AcDbEntity
  8
001
370
     9
100
AcDbVertex
100
AcDb2dVertex
 10
112.42223
 20
100.175623
 30
0.0
  0
VERTEX
  5
1CD
330
1C9
100
AcDbEntity
  8
001
370
     9
100
AcDbVertex
100
AcDb2dVertex
 10
112.42223
 20
96.738123
 30
0.0
  0
SEQEND
  5
1CA
330
1C9
100
AcDbEntity
  8
001
370
     9
  0
DIMENSION
  5
1CE
330
1F
100
AcDbEntity
  8
001
370
     9
100
AcDbDimension
  2
*D3
 10
77.42223
 20
112.969635
 30
0.0
 11
87.42223
 21
116.719635
 31
0.0
 70
   160
 71
     5
 42
-1.0
  3
Standard
100
AcDbAlignedDimension
 13
97.42223
 23
133.892805
 33
0.0
 14
77.42223
 24
116.407135
 34
0.0
 50
180.0
100
AcDbRotatedDimension
  0
DIMENSION
  5
1CF
330
1F
100
AcDbEntity
  8
001
370
     9
100
AcDbDimension
  2
*D4
 10
197.42223
 20
100.175623
 30
0.0
 11
158.794382
 21
103.925623
 31
0.0
 70
   160
 71
     5
 42
-1.0
  3
Standard
100
AcDbAlignedDimension
 13
117.42223
 23
126.892805
 33
0.0
 14
197.42223
 24
131.392805
 34
0.0
100
AcDbRotatedDimension
  0
DIMENSION
  5
1D0
330
1F
100
AcDbEntity
  8
001
370
     9
100
AcDbDimension
  2
*D5
 10
45.614733
 20
133.392805
 30
0.0
 11
41.864732
 21
149.392805
 31
0.0
 70
   160
 71
     5
 42
-1.0
  3
Standard
100
AcDbAlignedDimension
 13
97.92223
 23
165.392805
 33
0.0
 14
97.92223
 24
133.392805
 34
0.0
 50
270.0
100
AcDbRotatedDimension
  0
DIMENSION
  5
1D1
330
1F
100
AcDbEntity
  8
001
370
     9
100
AcDbDimension
  2
*D6
 10
77.42223
 20
59.669982
 30
0.0
 11
68.04723
 21
63.419982
 31
0.0
 70
   160
 71
     5
 42
-1.0
  3
Standard
100
AcDbAlignedDimension
 13
90.42223
 23
56.313369
 33
0.0
 14
77.42223
 24
46.49783
 34
0.0
 50
180.0
100
AcDbRotatedDimension
  0
DIMENSION
  5
1D2
330
1F
100
AcDbEntity
  8
001
370
     9
100
AcDbDimension
  2
*D7
 10
223.578596
 20
129.392805
 30
0.0
 11
219.828596
 21
149.392805
 31
0.0
 70
   160
 71
     5
 42
-1.0
  3
Standard
100
AcDbAlignedDimension
 13
195.42223
 23
169.392805
 33
0.0
 14
195.42223
 24
129.392805
 34
0.0
 50
270.0
100
AcDbRotatedDimension
  0
INSERT
  5
1D3
330
1F
100
AcDbEntity
  8
001
  6
ByBlock
 62
     0
370
    -2
100
AcDbBlockReference
  2
DIM-3
 10
0.0
 20
0.0
 30
0.0
  0
DIMENSION
  5
1D4
330
1F
100
AcDbEntity
  8
001
370
     9
100
AcDbDimension
  2
*D9
 10
246.903999
 20
91.844379
 30
0.0
 11
265.903999
 21
95.594379
 31
0.0
 70
   160
 71
     5
 42
-1.0
  3
Standard
100
AcDbAlignedDimension
 13
284.903999
 23
142.121984
 33
0.0
 14
246.903999
 24
133.404186
 34
0.0
 50
180.0
100
AcDbRotatedDimension
  0
DIMENSION
  5
1D5
330
1F
100
AcDbEntity
  8
001
370
     9
100
AcDbDimension
  2
*D10
 10
32.388771
 20
172.892805
 30
0.0
 11
28.638771
 21
149.392805
 31
0.0
 70
   160
 71
     5
 42
-1.0
  3
Standard
100
AcDbAlignedDimension
 13
113.42223
 23
125.892805
 33
0.0
 14
113.42223
 24
172.892805
 34
0.0
 50
90.0
100
AcDbRotatedDimension
  0
DIMENSION
  5
1D6
330
1F
100
AcDbEntity
  8
001
370
     9
100
AcDbDimension
  2
*D11
 10
90.42223
 20
59.669982
 30
0.0
 11
97.92223
 21
63.419982
 31
0.0
 70
   160
 71
     5
 42
-1.0
  3
Standard
100
AcDbAlignedDimension
 13
105.42223
 23
56.313369
 33
0.0
 14
90.42223
 24
56.313369
 34
0.0
 50
180.0
100
AcDbRotatedDimension
  0
TEXT
  5
1D7
330
1F
100
AcDbEntity
  8
001
370
    30
100
AcDbText
 10
79.552619
 20
3.473336
 30
0.0
 40
5.0
  1
Ｃ０．５
 50
45.000001
 41
0.833333
100
AcDbText
  0
POLYLINE
  5
1D8
330
1F
100
AcDbEntity
  8
001
370
     9
100
AcDb2dPolyline
 66
     1
 10
0.0
 20
0.0
 30
0.0
  0
VERTEX
  5
1DA
330
1D8
100
AcDbEntity
  8
001
370
     9
100
AcDbVertex
100
AcDb2dVertex
 10
95.991151
 20
18.854609
 30
0.0
  0
VERTEX
  5
1DB
330
1D8
100
AcDbEntity
  8
001
370
     9
100
AcDbVertex
100
AcDb2dVertex
 10
97.67223
 20
19.825181
 30
0.0
  0
VERTEX
  5
1DC
330
1D8
100
AcDbEntity
  8
001
370
     9
100
AcDbVertex
100
AcDb2dVertex
 10
96.701659
 20
18.144102
 30
0.0
  0
SEQEND
  5
1D9
330
1D8
100
AcDbEntity
  8
001
370
     9
  0
LINE
  5
1DD
330
1F
100
AcDbEntity
  8
001
370
     9
100
AcDbLine
 10
97.67223
 20
19.825181
 30
0.0
 11
77.784852
 21
-0.062198
 31
0.0
  0
DIMENSION
  5
1DE
330
1F
100
AcDbEntity
  8
001
370
     9
100
AcDbDimension
  2
*D12
 10
195.42223
 20
167.392805
 30
0.0
 11
202.66225
 21
176.934044
 31
0.0
 70
   164
 71
     5
 42
-1.0
  3
Standard
100
AcDbRadialDimension
 15
197.069247
 25
168.527413
 35
0.0
 40
0.0
  0
DIMENSION
  5
1DF
330
1F
100
AcDbEntity
  8
001
370
     9
100
AcDbDimension
  2
*D13
 10
78.42223
 20
24.652531
 30
0.0
 11
63.61029
 21
19.07942
 31
0.0
 70
   164
 71
     5
 42
-1.0
  3
Standard
100
AcDbRadialDimension
 15
77.59639
 25
24.088627
 35
0.0
 40
0.0
  0
DIMENSION
  5
1E0
330
1F
100
AcDbEntity
  8
001
370
     9
100
AcDbDimension
  2
*D14
 10
116.42223
 20
13.075181
 30
0.0
 11
128.496393
 21
2.844456
 31
0.0
 70
   164
 71
     5
 42
-1.0
  3
Standard
100
AcDbRadialDimension
 15
117.010265
 25
12.266345
 35
0.0
 40
0.0
  0
DIMENSION
  5
1E1
330
1F
100
AcDbEntity
  8
001
370
     9
100
AcDbDimension
  2
*D15
 10
51.83142
 20
29.575181
 30
0.0
 11
48.08142
 21
53.45018
 31
0.0
 70
   160
 71
     5
 42
-1.0
  3
Standard
100
AcDbAlignedDimension
 13
77.42223
 23
41.575181
 33
0.0
 14
77.42223
 24
29.575181
 34
0.0
 50
270.0
100
AcDbRotatedDimension
  0
DIMENSION
  5
1E2
330
1F
100
AcDbEntity
  8
001
370
     9
100
AcDbDimension
  2
*D16
 10
82.42223
 20
183.142081
 30
0.0
 11
66.067454
 21
186.892081
 31
0.0
 70
   160
 71
     5
 42
-1.0
  3
Standard
100
AcDbAlignedDimension
 13
77.42223
 23
159.928703
 33
0.0
 14
82.42223
 24
163.392805
 34
0.0
100
AcDbRotatedDimension
  0
DIMENSION
  5
1E3
330
1F
100
AcDbEntity
  8
001
370
     9
100
AcDbDimension
  2
*D17
 10
58.173519
 20
149.392805
 30
0.0
 11
130.32095
 21
178.656308
 31
0.0
 70
    34
 71
     5
 42
-1.0
  3
Standard
100
AcDb2LineAngularDimension
 13
82.19018
 23
163.25883
 33
0.0
 14
58.173519
 24
149.392805
 34
0.0
 15
70.23846
 25
149.392805
 35
0.0
 16
129.754713
 26
168.572928
 36
0.0
  0
DIMENSION
  5
1E4
330
1F
100
AcDbEntity
  8
001
370
     9
100
AcDbDimension
  2
*D18
 10
58.156405
 20
163.392805
 30
0.0
 11
54.406404
 21
149.392805
 31
0.0
 70
   160
 71
     5
 42
-1.0
  3
Standard
100
AcDbAlignedDimension
 13
82.69018
 23
135.392805
 33
0.0
 14
82.69018
 24
163.392805
 34
0.0
 50
90.0
100
AcDbRotatedDimension
  0
DIMENSION
  5
1E5
330
1F
100
AcDbEntity
  8
001
370
     9
100
AcDbDimension
  2
*D19
 10
112.42223
 20
100.175623
 30
0.0
 11
94.92223
 21
103.925623
 31
0.0
 70
   160
 71
     5
 42
-1.0
  3
Standard
100
AcDbAlignedDimension
 13
77.42223
 23
138.856906
 33
0.0
 14
112.42223
 24
126.892805
 34
0.0
100
AcDbRotatedDimension
  0
TEXT
  5
1E6
330
1F
100
AcDbEntity
  8
001
370
    30
100
AcDbText
 10
46.547902
 20
212.014228
 30
0.0
 40
10.0
  1
オイルッシャー　ＫＪＤ４０Ｓ１２
 41
0.833333
100
AcDbText
  0
LINE
  5
1E7
330
1F
100
AcDbEntity
  8
001
  6
CENTER
 62
   253
370
     9
100
AcDbLine
 10
239.403999
 20
142.121984
 30
0.0
 11
290.403999
 21
142.121984
 31
0.0
  0
LINE
  5
1E8
330
1F
100
AcDbEntity
  8
001
  6
CENTER
 62
   253
370
     9
100
AcDbLine
 10
264.903999
 20
116.621984
 30
0.0
 11
264.903999
 21
167.621984
 31
0.0
  0
LINE
  5
1E9
330
1F
100
AcDbEntity
  8
001
 62
   253
370
    50
100
AcDbLine
 10
113.42223
 20
125.892805
 30
0.0
 11
116.42223
 21
125.892805
 31
0.0
  0
LINE
  5
1EA
330
1F
100
AcDbEntity
  8
001
 62
   253
370
    50
100
AcDbLine
 10
116.42223
 20
172.892805
 30
0.0
 11
113.42223
 21
172.892805
 31
0.0
  0
ARC
  5
1EB
330
1F
100
AcDbEntity
  8
001
 62
   253
370
    50
100
AcDbCircle
 10
116.42223
 20
126.892805
 30
0.0
 40
1.000000000000001
100
AcDbArc
 50
270.0
 51
0.0
  0
ARC
  5
1EC
330
1F
100
AcDbEntity
  8
001
 62
   253
370
    50
100
AcDbCircle
 10
116.42223
 20
171.892805
 30
0.0
 40
1.000000000000001
100
AcDbArc
 50
0.0
 51
90.0
  0
LINE
  5
1ED
330
1F
100
AcDbEntity
  8
001
 62
   253
370
    50
100
AcDbLine
 10
117.42223
 20
171.892805
 30
0.0
 11
117.42223
 21
126.892805
 31
0.0
  0
ARC
  5
1EE
330
1F
100
AcDbEntity
  8
001
 62
   253
370
    50
100
AcDbCircle
 10
113.42223
 20
126.892805
 30
0.0
 40
1.000000000000001
100
AcDbArc
 50
180.0
 51
270.0
  0
ARC
  5
1EF
330
1F
100
AcDbEntity
  8
001
 62
   253
370
    50
100
AcDbCircle
 10
113.42223
 20
171.892805
 30
0.0
 40
1.000000000000001
100
AcDbArc
 50
90.0
 51
180.0
  0
LINE
  5
1F0
330
1F
100
AcDbEntity
  8
001
 62
   253
370
    50
100
AcDbLine
 10
112.42223
 20
171.892805
 30
0.0
 11
112.42223
 21
126.892805
 31
0.0
  0
LINE
  5
1F1
330
1F
100
AcDbEntity
  8
001
 62
   253
370
    50
100
AcDbLine
 10
120.42223
 20
129.392805
 30
0.0
 11
195.42223
 21
129.392805
 31
0.0
  0
LINE
  5
1F2
330
1F
100
AcDbEntity
  8
001
 62
   253
370
    50
100
AcDbLine
 10
195.42223
 20
169.392805
 30
0.0
 11
120.42223
 21
169.392805
 31
0.0
  0
LINE
  5
1F3
330
1F
100
AcDbEntity
  8
001
 62
   253
370
    50
100
AcDbLine
 10
120.42223
 20
157.461881
 30
0.0
 11
195.42223
 21
157.461881
 31
0.0
  0
LINE
  5
1F4
330
1F
100
AcDbEntity
  8
001
 62
   253
370
    50
100
AcDbLine
 10
195.42223
 20
141.323728
 30
0.0
 11
120.42223
 21
141.323728
 31
0.0
  0
LINE
  5
1F5
330
1F
100
AcDbEntity
  8
001
 62
   253
370
    50
100
AcDbLine
 10
117.42223
 20
129.892805
 30
0.0
 11
120.42223
 21
129.892805
 31
0.0
  0
LINE
  5
1F6
330
1F
100
AcDbEntity
  8
001
 62
   253
370
    50
100
AcDbLine
 10
120.42223
 20
168.892805
 30
0.0
 11
117.42223
 21
168.892805
 31
0.0
  0
LINE
  5
1F7
330
1F
100
AcDbEntity
  8
001
 62
   253
370
    50
100
AcDbLine
 10
117.42223
 20
156.127788
 30
0.0
 11
120.42223
 21
156.127788
 31
0.0
  0
LINE
  5
1F8
330
1F
100
AcDbEntity
  8
001
 62
   253
370
    50
100
AcDbLine
 10
120.42223
 20
142.657821
 30
0.0
 11
117.42223
 21
142.657821
 31
0.0
  0
POLYLINE
  5
1F9
330
1F
100
AcDbEntity
  8
001
 62
   253
370
    50
100
AcDb2dPolyline
 66
     1
 10
0.0
 20
0.0
 30
0.0
  0
VERTEX
  5
1FB
330
1F9
100
AcDbEntity
  8
001
 62
   253
370
    50
100
AcDbVertex
100
AcDb2dVertex
 10
195.42223
 20
157.461881
 30
0.0
  0
VERTEX
  5
1FC
330
1F9
100
AcDbEntity
  8
001
 62
   253
370
    50
100
AcDbVertex
100
AcDb2dVertex
 10
195.483136
 20
157.458636
 30
0.0
  0
VERTEX
  5
1FD
330
1F9
100
AcDbEntity
  8
001
 62
   253
370
    50
100
AcDbVertex
100
AcDb2dVertex
 10
195.543728
 20
157.452721
 30
0.0
  0
VERTEX
  5
1FE
330
1F9
100
AcDbEntity
  8
001
 62
   253
370
    50
100
AcDbVertex
100
AcDb2dVertex
 10
195.677665
 20
157.421778
 30
0.0
  0
VERTEX
  5
1FF
330
1F9
100
AcDbEntity
  8
001
 62
   253
370
    50
100
AcDbVertex
100
AcDb2dVertex
 10
195.80552
 20
157.369554
 30
0.0
  0
VERTEX
  5
200
330
1F9
100
AcDbEntity
  8
001
 62
   253
370
    50
100
AcDbVertex
100
AcDb2dVertex
 10
195.894412
 20
157.320601
 30
0.0
  0
VERTEX
  5
201
330
1F9
100
AcDbEntity
  8
001
 62
   253
370
    50
100
AcDbVertex
100
AcDb2dVertex
 10
195.9785
 20
157.26419
 30
0.0
  0
VERTEX
  5
202
330
1F9
100
AcDbEntity
  8
001
 62
   253
370
    50
100
AcDbVertex
100
AcDb2dVertex
 10
196.058032
 20
157.20114
 30
0.0
  0
VERTEX
  5
203
330
1F9
100
AcDbEntity
  8
001
 62
   253
370
    50
100
AcDbVertex
100
AcDb2dVertex
 10
196.133005
 20
157.13261
 30
0.0
  0
VERTEX
  5
204
330
1F9
100
AcDbEntity
  8
001
 62
   253
370
    50
100
AcDbVertex
100
AcDb2dVertex
 10
196.249723
 20
157.007124
 30
0.0
  0
VERTEX
  5
205
330
1F9
100
AcDbEntity
  8
001
 62
   253
370
    50
100
AcDbVertex
100
AcDb2dVertex
 10
196.354998
 20
156.871815
 30
0.0
  0
VERTEX
  5
206
330
1F9
100
AcDbEntity
  8
001
 62
   253
370
    50
100
AcDbVertex
100
AcDb2dVertex
 10
196.450168
 20
156.728835
 30
0.0
  0
VERTEX
  5
207
330
1F9
100
AcDbEntity
  8
001
 62
   253
370
    50
100
AcDbVertex
100
AcDb2dVertex
 10
196.536445
 20
156.58031
 30
0.0
  0
VERTEX
  5
208
330
1F9
100
AcDbEntity
  8
001
 62
   253
370
    50
100
AcDbVertex
100
AcDb2dVertex
 10
196.668282
 20
156.314365
 30
0.0
  0
VERTEX
  5
209
330
1F9
100
AcDbEntity
  8
001
 62
   253
370
    50
100
AcDbVertex
100
AcDb2dVertex
 10
196.780777
 20
156.03956
 30
0.0
  0
VERTEX
  5
20A
330
1F9
100
AcDbEntity
  8
001
 62
   253
370
    50
100
AcDbVertex
100
AcDb2dVertex
 10
196.876865
 20
155.757054
 30
0.0
  0
VERTEX
  5
20B
330
1F9
100
AcDbEntity
  8
001
 62
   253
370
    50
100
AcDbVertex
100
AcDb2dVertex
 10
196.958373
 20
155.470047
 30
0.0
  0
VERTEX
  5
20C
330
1F9
100
AcDbEntity
  8
001
 62
   253
370
    50
100
AcDbVertex
100
AcDb2dVertex
 10
197.027763
 20
155.180147
 30
0.0
  0
VERTEX
  5
20D
330
1F9
100
AcDbEntity
  8
001
 62
   253
370
    50
100
AcDbVertex
100
AcDb2dVertex
 10
197.087737
 20
154.888118
 30
0.0
  0
VERTEX
  5
20E
330
1F9
100
AcDbEntity
  8
001
 62
   253
370
    50
100
AcDbVertex
100
AcDb2dVertex
 10
197.200161
 20
154.20992
 30
0.0
  0
VERTEX
  5
20F
330
1F9
100
AcDbEntity
  8
001
 62
   253
370
    50
100
AcDbVertex
100
AcDb2dVertex
 10
197.281832
 20
153.527234
 30
0.0
  0
VERTEX
  5
210
330
1F9
100
AcDbEntity
  8
001
 62
   253
370
    50
100
AcDbVertex
100
AcDb2dVertex
 10
197.337873
 20
152.840648
 30
0.0
  0
VERTEX
  5
211
330
1F9
100
AcDbEntity
  8
001
 62
   253
370
    50
100
AcDbVertex
100
AcDb2dVertex
 10
197.372884
 20
152.152704
 30
0.0
  0
VERTEX
  5
212
330
1F9
100
AcDbEntity
  8
001
 62
   253
370
    50
100
AcDbVertex
100
AcDb2dVertex
 10
197.391703
 20
151.462492
 30
0.0
  0
VERTEX
  5
213
330
1F9
100
AcDbEntity
  8
001
 62
   253
370
    50
100
AcDbVertex
100
AcDb2dVertex
 10
197.399329
 20
150.772053
 30
0.0
  0
VERTEX
  5
214
330
1F9
100
AcDbEntity
  8
001
 62
   253
370
    50
100
AcDbVertex
100
AcDb2dVertex
 10
197.400675
 20
150.082425
 30
0.0
  0
VERTEX
  5
215
330
1F9
100
AcDbEntity
  8
001
 62
   253
370
    50
100
AcDbVertex
100
AcDb2dVertex
 10
197.399602
 20
149.392805
 30
0.0
  0
VERTEX
  5
216
330
1F9
100
AcDbEntity
  8
001
 62
   253
370
    50
100
AcDbVertex
100
AcDb2dVertex
 10
197.398421
 20
148.725549
 30
0.0
  0
VERTEX
  5
217
330
1F9
100
AcDbEntity
  8
001
 62
   253
370
    50
100
AcDbVertex
100
AcDb2dVertex
 10
197.394294
 20
148.058306
 30
0.0
  0
VERTEX
  5
218
330
1F9
100
AcDbEntity
  8
001
 62
   253
370
    50
100
AcDbVertex
100
AcDb2dVertex
 10
197.383452
 20
147.391138
 30
0.0
  0
VERTEX
  5
219
330
1F9
100
AcDbEntity
  8
001
 62
   253
370
    50
100
AcDbVertex
100
AcDb2dVertex
 10
197.363172
 20
146.724183
 30
0.0
  0
VERTEX
  5
21A
330
1F9
100
AcDbEntity
  8
001
 62
   253
370
    50
100
AcDbVertex
100
AcDb2dVertex
 10
197.330879
 20
146.058035
 30
0.0
  0
VERTEX
  5
21B
330
1F9
100
AcDbEntity
  8
001
 62
   253
370
    50
100
AcDbVertex
100
AcDb2dVertex
 10
197.283437
 20
145.392805
 30
0.0
  0
VERTEX
  5
21C
330
1F9
100
AcDbEntity
  8
001
 62
   253
370
    50
100
AcDbVertex
100
AcDb2dVertex
 10
197.243451
 20
144.96975
 30
0.0
  0
VERTEX
  5
21D
330
1F9
100
AcDbEntity
  8
001
 62
   253
370
    50
100
AcDbVertex
100
AcDb2dVertex
 10
197.19297
 20
144.547838
 30
0.0
  0
VERTEX
  5
21E
330
1F9
100
AcDbEntity
  8
001
 62
   253
370
    50
100
AcDbVertex
100
AcDb2dVertex
 10
197.12921
 20
144.127903
 30
0.0
  0
VERTEX
  5
21F
330
1F9
100
AcDbEntity
  8
001
 62
   253
370
    50
100
AcDbVertex
100
AcDb2dVertex
 10
197.050123
 20
143.710584
 30
0.0
  0
VERTEX
  5
220
330
1F9
100
AcDbEntity
  8
001
 62
   253
370
    50
100
AcDbVertex
100
AcDb2dVertex
 10
196.986874
 20
143.430819
 30
0.0
  0
VERTEX
  5
221
330
1F9
100
AcDbEntity
  8
001
 62
   253
370
    50
100
AcDbVertex
100
AcDb2dVertex
 10
196.913715
 20
143.153501
 30
0.0
  0
VERTEX
  5
222
330
1F9
100
AcDbEntity
  8
001
 62
   253
370
    50
100
AcDbVertex
100
AcDb2dVertex
 10
196.828392
 20
142.879388
 30
0.0
  0
VERTEX
  5
223
330
1F9
100
AcDbEntity
  8
001
 62
   253
370
    50
100
AcDbVertex
100
AcDb2dVertex
 10
196.728385
 20
142.610245
 30
0.0
  0
VERTEX
  5
224
330
1F9
100
AcDbEntity
  8
001
 62
   253
370
    50
100
AcDbVertex
100
AcDb2dVertex
 10
196.611824
 20
142.349591
 30
0.0
  0
VERTEX
  5
225
330
1F9
100
AcDbEntity
  8
001
 62
   253
370
    50
100
AcDbVertex
100
AcDb2dVertex
 10
196.475666
 20
142.098755
 30
0.0
  0
VERTEX
  5
226
330
1F9
100
AcDbEntity
  8
001
 62
   253
370
    50
100
AcDbVertex
100
AcDb2dVertex
 10
196.395754
 20
141.972784
 30
0.0
  0
VERTEX
  5
227
330
1F9
100
AcDbEntity
  8
001
 62
   253
370
    50
100
AcDbVertex
100
AcDb2dVertex
 10
196.308708
 20
141.851685
 30
0.0
  0
VERTEX
  5
228
330
1F9
100
AcDbEntity
  8
001
 62
   253
370
    50
100
AcDbVertex
100
AcDb2dVertex
 10
196.213661
 20
141.737089
 30
0.0
  0
VERTEX
  5
229
330
1F9
100
AcDbEntity
  8
001
 62
   253
370
    50
100
AcDbVertex
100
AcDb2dVertex
 10
196.109547
 20
141.630562
 30
0.0
  0
VERTEX
  5
22A
330
1F9
100
AcDbEntity
  8
001
 62
   253
370
    50
100
AcDbVertex
100
AcDb2dVertex
 10
195.967112
 20
141.513278
 30
0.0
  0
VERTEX
  5
22B
330
1F9
100
AcDbEntity
  8
001
 62
   253
370
    50
100
AcDbVertex
100
AcDb2dVertex
 10
195.809066
 20
141.417797
 30
0.0
  0
VERTEX
  5
22C
330
1F9
100
AcDbEntity
  8
001
 62
   253
370
    50
100
AcDbVertex
100
AcDb2dVertex
 10
195.671026
 20
141.361761
 30
0.0
  0
VERTEX
  5
22D
330
1F9
100
AcDbEntity
  8
001
 62
   253
370
    50
100
AcDbVertex
100
AcDb2dVertex
 10
195.526234
 20
141.330437
 30
0.0
  0
VERTEX
  5
22E
330
1F9
100
AcDbEntity
  8
001
 62
   253
370
    50
100
AcDbVertex
100
AcDb2dVertex
 10
195.474329
 20
141.326118
 30
0.0
  0
VERTEX
  5
22F
330
1F9
100
AcDbEntity
  8
001
 62
   253
370
    50
100
AcDbVertex
100
AcDb2dVertex
 10
195.42223
 20
141.323728
 30
0.0
  0
SEQEND
  5
1FA
330
1F9
100
AcDbEntity
  8
001
370
    50
  0
LINE
  5
230
330
1F
100
AcDbEntity
  8
001
 62
   253
370
    50
100
AcDbLine
 10
120.42223
 20
156.127788
 30
0.0
 11
120.42223
 21
169.392805
 31
0.0
  0
LINE
  5
231
330
1F
100
AcDbEntity
  8
001
 62
   253
370
    50
100
AcDbLine
 10
120.42223
 20
129.392805
 30
0.0
 11
120.42223
 21
142.657821
 31
0.0
  0
ARC
  5
232
330
1F
100
AcDbEntity
  8
001
 62
   253
370
    50
100
AcDbCircle
 10
195.42223
 20
131.392805
 30
0.0
 40
2.000000000000002
100
AcDbArc
 50
270.0
 51
0.0
  0
ARC
  5
233
330
1F
100
AcDbEntity
  8
001
 62
   253
370
    50
100
AcDbCircle
 10
195.42223
 20
167.392805
 30
0.0
 40
2.000000000000002
100
AcDbArc
 50
0.0
 51
90.0
  0
LINE
  5
234
330
1F
100
AcDbEntity
  8
001
 62
   253
370
    50
100
AcDbLine
 10
197.42223
 20
167.392805
 30
0.0
 11
197.42223
 21
131.392805
 31
0.0
  0
LINE
  5
235
330
1F
100
AcDbEntity
  8
001
 62
   253
370
    50
100
AcDbLine
 10
107.184091
 20
145.516927
 30
0.0
 11
107.212993
 21
145.530196
 31
0.0
  0
POLYLINE
  5
236
330
1F
100
AcDbEntity
  8
001
 62
   253
370
    50
100
AcDb2dPolyline
 66
     1
 10
0.0
 20
0.0
 30
0.0
  0
VERTEX
  5
238
330
236
100
AcDbEntity
  8
001
 62
   253
370
    50
100
AcDbVertex
100
AcDb2dVertex
 10
107.212993
 20
145.530196
 30
0.0
  0
VERTEX
  5
239
330
236
100
AcDbEntity
  8
001
 62
   253
370
    50
100
AcDbVertex
100
AcDb2dVertex
 10
107.248222
 20
145.546774
 30
0.0
  0
VERTEX
  5
23A
330
236
100
AcDbEntity
  8
001
 62
   253
370
    50
100
AcDbVertex
100
AcDb2dVertex
 10
107.283333
 20
145.563591
 30
0.0
  0
VERTEX
  5
23B
330
236
100
AcDbEntity
  8
001
 62
   253
370
    50
100
AcDbVertex
100
AcDb2dVertex
 10
107.372192
 20
145.608396
 30
0.0
  0
VERTEX
  5
23C
330
236
100
AcDbEntity
  8
001
 62
   253
370
    50
100
AcDbVertex
100
AcDb2dVertex
 10
107.460277
 20
145.654765
 30
0.0
  0
SEQEND
  5
237
330
236
100
AcDbEntity
  8
001
370
    50
  0
LINE
  5
23D
330
1F
100
AcDbEntity
  8
001
 62
   253
370
    50
100
AcDbLine
 10
107.460277
 20
145.654765
 30
0.0
 11
107.530012
 21
145.693638
 31
0.0
  0
LINE
  5
23E
330
1F
100
AcDbEntity
  8
001
 62
   253
370
    50
100
AcDbLine
 10
107.04815
 20
145.457965
 30
0.0
 11
107.237603
 21
145.541701
 31
0.0
  0
POLYLINE
  5
23F
330
1F
100
AcDbEntity
  8
001
 62
   253
370
    50
100
AcDb2dPolyline
 66
     1
 10
0.0
 20
0.0
 30
0.0
  0
VERTEX
  5
241
330
23F
100
AcDbEntity
  8
001
 62
   253
370
    50
100
AcDbVertex
100
AcDb2dVertex
 10
105.019521
 20
145.160281
 30
0.0
  0
VERTEX
  5
242
330
23F
100
AcDbEntity
  8
001
 62
   253
370
    50
100
AcDbVertex
100
AcDb2dVertex
 10
105.226623
 20
145.144324
 30
0.0
  0
VERTEX
  5
243
330
23F
100
AcDbEntity
  8
001
 62
   253
370
    50
100
AcDbVertex
100
AcDb2dVertex
 10
105.433902
 20
145.135579
 30
0.0
  0
VERTEX
  5
244
330
23F
100
AcDbEntity
  8
001
 62
   253
370
    50
100
AcDbVertex
100
AcDb2dVertex
 10
105.712927
 20
145.144112
 30
0.0
  0
VERTEX
  5
245
330
23F
100
AcDbEntity
  8
001
 62
   253
370
    50
100
AcDbVertex
100
AcDb2dVertex
 10
105.990923
 20
145.173751
 30
0.0
  0
VERTEX
  5
246
330
23F
100
AcDbEntity
  8
001
 62
   253
370
    50
100
AcDbVertex
100
AcDb2dVertex
 10
106.27355
 20
145.221944
 30
0.0
  0
VERTEX
  5
247
330
23F
100
AcDbEntity
  8
001
 62
   253
370
    50
100
AcDbVertex
100
AcDb2dVertex
 10
106.552396
 20
145.288098
 30
0.0
  0
VERTEX
  5
248
330
23F
100
AcDbEntity
  8
001
 62
   253
370
    50
100
AcDbVertex
100
AcDb2dVertex
 10
106.825724
 20
145.373057
 30
0.0
  0
VERTEX
  5
249
330
23F
100
AcDbEntity
  8
001
 62
   253
370
    50
100
AcDbVertex
100
AcDb2dVertex
 10
107.091784
 20
145.478145
 30
0.0
  0
VERTEX
  5
24A
330
23F
100
AcDbEntity
  8
001
 62
   253
370
    50
100
AcDbVertex
100
AcDb2dVertex
 10
107.120043
 20
145.490756
 30
0.0
  0
VERTEX
  5
24B
330
23F
100
AcDbEntity
  8
001
 62
   253
370
    50
100
AcDbVertex
100
AcDb2dVertex
 10
107.148244
 20
145.503493
 30
0.0
  0
SEQEND
  5
240
330
23F
100
AcDbEntity
  8
001
370
    50
  0
LINE
  5
24C
330
1F
100
AcDbEntity
  8
001
 62
   253
370
    50
100
AcDbLine
 10
107.148244
 20
145.503493
 30
0.0
 11
107.213398
 21
145.532427
 31
0.0
  0
POLYLINE
  5
24D
330
1F
100
AcDbEntity
  8
001
 62
   253
370
    50
100
AcDb2dPolyline
 66
     1
 10
0.0
 20
0.0
 30
0.0
  0
VERTEX
  5
24F
330
24D
100
AcDbEntity
  8
001
 62
   253
370
    50
100
AcDbVertex
100
AcDb2dVertex
 10
107.213398
 20
145.532427
 30
0.0
  0
VERTEX
  5
250
330
24D
100
AcDbEntity
  8
001
 62
   253
370
    50
100
AcDbVertex
100
AcDb2dVertex
 10
107.297467
 20
145.572131
 30
0.0
  0
VERTEX
  5
251
330
24D
100
AcDbEntity
  8
001
 62
   253
370
    50
100
AcDbVertex
100
AcDb2dVertex
 10
107.380805
 20
145.613284
 30
0.0
  0
VERTEX
  5
252
330
24D
100
AcDbEntity
  8
001
 62
   253
370
    50
100
AcDbVertex
100
AcDb2dVertex
 10
107.42141
 20
145.634445
 30
0.0
  0
VERTEX
  5
253
330
24D
100
AcDbEntity
  8
001
 62
   253
370
    50
100
AcDbVertex
100
AcDb2dVertex
 10
107.461837
 20
145.655957
 30
0.0
  0
SEQEND
  5
24E
330
24D
100
AcDbEntity
  8
001
370
    50
  0
LINE
  5
254
330
1F
100
AcDbEntity
  8
001
 62
   253
370
    50
100
AcDbLine
 10
107.461837
 20
145.655957
 30
0.0
 11
107.531653
 21
145.694676
 31
0.0
  0
POLYLINE
  5
255
330
1F
100
AcDbEntity
  8
001
 62
   253
370
    50
100
AcDb2dPolyline
 66
     1
 10
0.0
 20
0.0
 30
0.0
  0
VERTEX
  5
257
330
255
100
AcDbEntity
  8
001
 62
   253
370
    50
100
AcDbVertex
100
AcDb2dVertex
 10
104.539601
 20
145.287295
 30
0.0
  0
VERTEX
  5
258
330
255
100
AcDbEntity
  8
001
 62
   253
370
    50
100
AcDbVertex
100
AcDb2dVertex
 10
104.622831
 20
145.251194
 30
0.0
  0
VERTEX
  5
259
330
255
100
AcDbEntity
  8
001
 62
   253
370
    50
100
AcDbVertex
100
AcDb2dVertex
 10
104.707657
 20
145.219967
 30
0.0
  0
VERTEX
  5
25A
330
255
100
AcDbEntity
  8
001
 62
   253
370
    50
100
AcDbVertex
100
AcDb2dVertex
 10
104.799043
 20
145.19626
 30
0.0
  0
VERTEX
  5
25B
330
255
100
AcDbEntity
  8
001
 62
   253
370
    50
100
AcDbVertex
100
AcDb2dVertex
 10
104.892187
 20
145.179189
 30
0.0
  0
VERTEX
  5
25C
330
255
100
AcDbEntity
  8
001
 62
   253
370
    50
100
AcDbVertex
100
AcDb2dVertex
 10
104.955849
 20
145.169428
 30
0.0
  0
VERTEX
  5
25D
330
255
100
AcDbEntity
  8
001
 62
   253
370
    50
100
AcDbVertex
100
AcDb2dVertex
 10
105.019521
 20
145.160281
 30
0.0
  0
SEQEND
  5
256
330
255
100
AcDbEntity
  8
001
370
    50
  0
POLYLINE
  5
25E
330
1F
100
AcDbEntity
  8
001
 62
   253
370
    50
100
AcDb2dPolyline
 66
     1
 10
0.0
 20
0.0
 30
0.0
  0
VERTEX
  5
260
330
25E
100
AcDbEntity
  8
001
 62
   253
370
    50
100
AcDbVertex
100
AcDb2dVertex
 10
104.539601
 20
145.287295
 30
0.0
  0
VERTEX
  5
261
330
25E
100
AcDbEntity
  8
001
 62
   253
370
    50
100
AcDbVertex
100
AcDb2dVertex
 10
104.481646
 20
145.297576
 30
0.0
  0
VERTEX
  5
262
330
25E
100
AcDbEntity
  8
001
 62
   253
370
    50
100
AcDbVertex
100
AcDb2dVertex
 10
104.423756
 20
145.308218
 30
0.0
  0
VERTEX
  5
263
330
25E
100
AcDbEntity
  8
001
 62
   253
370
    50
100
AcDbVertex
100
AcDb2dVertex
 10
104.143302
 20
145.370006
 30
0.0
  0
VERTEX
  5
264
330
25E
100
AcDbEntity
  8
001
 62
   253
370
    50
100
AcDbVertex
100
AcDb2dVertex
 10
103.86673
 20
145.447773
 30
0.0
  0
VERTEX
  5
265
330
25E
100
AcDbEntity
  8
001
 62
   253
370
    50
100
AcDbVertex
100
AcDb2dVertex
 10
103.594461
 20
145.540658
 30
0.0
  0
VERTEX
  5
266
330
25E
100
AcDbEntity
  8
001
 62
   253
370
    50
100
AcDbVertex
100
AcDb2dVertex
 10
103.327794
 20
145.648461
 30
0.0
  0
VERTEX
  5
267
330
25E
100
AcDbEntity
  8
001
 62
   253
370
    50
100
AcDbVertex
100
AcDb2dVertex
 10
103.068992
 20
145.770616
 30
0.0
  0
VERTEX
  5
268
330
25E
100
AcDbEntity
  8
001
 62
   253
370
    50
100
AcDbVertex
100
AcDb2dVertex
 10
102.817746
 20
145.907648
 30
0.0
  0
VERTEX
  5
269
330
25E
100
AcDbEntity
  8
001
 62
   253
370
    50
100
AcDbVertex
100
AcDb2dVertex
 10
102.579008
 20
146.056878
 30
0.0
  0
VERTEX
  5
26A
330
25E
100
AcDbEntity
  8
001
 62
   253
370
    50
100
AcDbVertex
100
AcDb2dVertex
 10
102.349538
 20
146.220006
 30
0.0
  0
VERTEX
  5
26B
330
25E
100
AcDbEntity
  8
001
 62
   253
370
    50
100
AcDbVertex
100
AcDb2dVertex
 10
102.12964
 20
146.397069
 30
0.0
  0
VERTEX
  5
26C
330
25E
100
AcDbEntity
  8
001
 62
   253
370
    50
100
AcDbVertex
100
AcDb2dVertex
 10
101.920961
 20
146.587239
 30
0.0
  0
VERTEX
  5
26D
330
25E
100
AcDbEntity
  8
001
 62
   253
370
    50
100
AcDbVertex
100
AcDb2dVertex
 10
101.725352
 20
146.789309
 30
0.0
  0
VERTEX
  5
26E
330
25E
100
AcDbEntity
  8
001
 62
   253
370
    50
100
AcDbVertex
100
AcDb2dVertex
 10
101.543344
 20
147.003667
 30
0.0
  0
VERTEX
  5
26F
330
25E
100
AcDbEntity
  8
001
 62
   253
370
    50
100
AcDbVertex
100
AcDb2dVertex
 10
101.388682
 20
147.211898
 30
0.0
  0
VERTEX
  5
270
330
25E
100
AcDbEntity
  8
001
 62
   253
370
    50
100
AcDbVertex
100
AcDb2dVertex
 10
101.24742
 20
147.429453
 30
0.0
  0
VERTEX
  5
271
330
25E
100
AcDbEntity
  8
001
 62
   253
370
    50
100
AcDbVertex
100
AcDb2dVertex
 10
101.119512
 20
147.656773
 30
0.0
  0
VERTEX
  5
272
330
25E
100
AcDbEntity
  8
001
 62
   253
370
    50
100
AcDbVertex
100
AcDb2dVertex
 10
101.00654
 20
147.891872
 30
0.0
  0
VERTEX
  5
273
330
25E
100
AcDbEntity
  8
001
 62
   253
370
    50
100
AcDbVertex
100
AcDb2dVertex
 10
100.909623
 20
148.133206
 30
0.0
  0
VERTEX
  5
274
330
25E
100
AcDbEntity
  8
001
 62
   253
370
    50
100
AcDbVertex
100
AcDb2dVertex
 10
100.829486
 20
148.380618
 30
0.0
  0
VERTEX
  5
275
330
25E
100
AcDbEntity
  8
001
 62
   253
370
    50
100
AcDbVertex
100
AcDb2dVertex
 10
100.752284
 20
148.707483
 30
0.0
  0
VERTEX
  5
276
330
25E
100
AcDbEntity
  8
001
 62
   253
370
    50
100
AcDbVertex
100
AcDb2dVertex
 10
100.704959
 20
149.040145
 30
0.0
  0
VERTEX
  5
277
330
25E
100
AcDbEntity
  8
001
 62
   253
370
    50
100
AcDbVertex
100
AcDb2dVertex
 10
100.687653
 20
149.375934
 30
0.0
  0
VERTEX
  5
278
330
25E
100
AcDbEntity
  8
001
 62
   253
370
    50
100
AcDbVertex
100
AcDb2dVertex
 10
100.701165
 20
149.711759
 30
0.0
  0
VERTEX
  5
279
330
25E
100
AcDbEntity
  8
001
 62
   253
370
    50
100
AcDbVertex
100
AcDb2dVertex
 10
100.7402
 20
150.012233
 30
0.0
  0
VERTEX
  5
27A
330
25E
100
AcDbEntity
  8
001
 62
   253
370
    50
100
AcDbVertex
100
AcDb2dVertex
 10
100.803767
 20
150.308542
 30
0.0
  0
VERTEX
  5
27B
330
25E
100
AcDbEntity
  8
001
 62
   253
370
    50
100
AcDbVertex
100
AcDb2dVertex
 10
100.890583
 20
150.598417
 30
0.0
  0
VERTEX
  5
27C
330
25E
100
AcDbEntity
  8
001
 62
   253
370
    50
100
AcDbVertex
100
AcDb2dVertex
 10
101.000059
 20
150.880463
 30
0.0
  0
VERTEX
  5
27D
330
25E
100
AcDbEntity
  8
001
 62
   253
370
    50
100
AcDbVertex
100
AcDb2dVertex
 10
101.134168
 20
151.158088
 30
0.0
  0
VERTEX
  5
27E
330
25E
100
AcDbEntity
  8
001
 62
   253
370
    50
100
AcDbVertex
100
AcDb2dVertex
 10
101.289423
 20
151.424521
 30
0.0
  0
VERTEX
  5
27F
330
25E
100
AcDbEntity
  8
001
 62
   253
370
    50
100
AcDbVertex
100
AcDb2dVertex
 10
101.463853
 20
151.678251
 30
0.0
  0
VERTEX
  5
280
330
25E
100
AcDbEntity
  8
001
 62
   253
370
    50
100
AcDbVertex
100
AcDb2dVertex
 10
101.656382
 20
151.918507
 30
0.0
  0
VERTEX
  5
281
330
25E
100
AcDbEntity
  8
001
 62
   253
370
    50
100
AcDbVertex
100
AcDb2dVertex
 10
101.889703
 20
152.168137
 30
0.0
  0
VERTEX
  5
282
330
25E
100
AcDbEntity
  8
001
 62
   253
370
    50
100
AcDbVertex
100
AcDb2dVertex
 10
102.14158
 20
152.399119
 30
0.0
  0
VERTEX
  5
283
330
25E
100
AcDbEntity
  8
001
 62
   253
370
    50
100
AcDbVertex
100
AcDb2dVertex
 10
102.410038
 20
152.610925
 30
0.0
  0
VERTEX
  5
284
330
25E
100
AcDbEntity
  8
001
 62
   253
370
    50
100
AcDbVertex
100
AcDb2dVertex
 10
102.693178
 20
152.802623
 30
0.0
  0
VERTEX
  5
285
330
25E
100
AcDbEntity
  8
001
 62
   253
370
    50
100
AcDbVertex
100
AcDb2dVertex
 10
103.029095
 20
152.994419
 30
0.0
  0
VERTEX
  5
286
330
25E
100
AcDbEntity
  8
001
 62
   253
370
    50
100
AcDbVertex
100
AcDb2dVertex
 10
103.379072
 20
153.159349
 30
0.0
  0
VERTEX
  5
287
330
25E
100
AcDbEntity
  8
001
 62
   253
370
    50
100
AcDbVertex
100
AcDb2dVertex
 10
103.741475
 20
153.297506
 30
0.0
  0
VERTEX
  5
288
330
25E
100
AcDbEntity
  8
001
 62
   253
370
    50
100
AcDbVertex
100
AcDb2dVertex
 10
104.113245
 20
153.40786
 30
0.0
  0
VERTEX
  5
289
330
25E
100
AcDbEntity
  8
001
 62
   253
370
    50
100
AcDbVertex
100
AcDb2dVertex
 10
104.524821
 20
153.495584
 30
0.0
  0
VERTEX
  5
28A
330
25E
100
AcDbEntity
  8
001
 62
   253
370
    50
100
AcDbVertex
100
AcDb2dVertex
 10
104.942193
 20
153.550151
 30
0.0
  0
VERTEX
  5
28B
330
25E
100
AcDbEntity
  8
001
 62
   253
370
    50
100
AcDbVertex
100
AcDb2dVertex
 10
105.363003
 20
153.57177
 30
0.0
  0
VERTEX
  5
28C
330
25E
100
AcDbEntity
  8
001
 62
   253
370
    50
100
AcDbVertex
100
AcDb2dVertex
 10
105.784057
 20
153.559946
 30
0.0
  0
VERTEX
  5
28D
330
25E
100
AcDbEntity
  8
001
 62
   253
370
    50
100
AcDbVertex
100
AcDb2dVertex
 10
106.070065
 20
153.532463
 30
0.0
  0
VERTEX
  5
28E
330
25E
100
AcDbEntity
  8
001
 62
   253
370
    50
100
AcDbVertex
100
AcDb2dVertex
 10
106.354123
 20
153.489407
 30
0.0
  0
VERTEX
  5
28F
330
25E
100
AcDbEntity
  8
001
 62
   253
370
    50
100
AcDbVertex
100
AcDb2dVertex
 10
106.635978
 20
153.430883
 30
0.0
  0
VERTEX
  5
290
330
25E
100
AcDbEntity
  8
001
 62
   253
370
    50
100
AcDbVertex
100
AcDb2dVertex
 10
106.91422
 20
153.357054
 30
0.0
  0
VERTEX
  5
291
330
25E
100
AcDbEntity
  8
001
 62
   253
370
    50
100
AcDbVertex
100
AcDb2dVertex
 10
107.186617
 20
153.268436
 30
0.0
  0
VERTEX
  5
292
330
25E
100
AcDbEntity
  8
001
 62
   253
370
    50
100
AcDbVertex
100
AcDb2dVertex
 10
107.453604
 20
153.164641
 30
0.0
  0
VERTEX
  5
293
330
25E
100
AcDbEntity
  8
001
 62
   253
370
    50
100
AcDbVertex
100
AcDb2dVertex
 10
107.712802
 20
153.046337
 30
0.0
  0
VERTEX
  5
294
330
25E
100
AcDbEntity
  8
001
 62
   253
370
    50
100
AcDbVertex
100
AcDb2dVertex
 10
107.964658
 20
152.91321
 30
0.0
  0
VERTEX
  5
295
330
25E
100
AcDbEntity
  8
001
 62
   253
370
    50
100
AcDbVertex
100
AcDb2dVertex
 10
108.208697
 20
152.765327
 30
0.0
  0
VERTEX
  5
296
330
25E
100
AcDbEntity
  8
001
 62
   253
370
    50
100
AcDbVertex
100
AcDb2dVertex
 10
108.443986
 20
152.603619
 30
0.0
  0
VERTEX
  5
297
330
25E
100
AcDbEntity
  8
001
 62
   253
370
    50
100
AcDbVertex
100
AcDb2dVertex
 10
108.668594
 20
152.42927
 30
0.0
  0
VERTEX
  5
298
330
25E
100
AcDbEntity
  8
001
 62
   253
370
    50
100
AcDbVertex
100
AcDb2dVertex
 10
108.880463
 20
152.240175
 30
0.0
  0
VERTEX
  5
299
330
25E
100
AcDbEntity
  8
001
 62
   253
370
    50
100
AcDbVertex
100
AcDb2dVertex
 10
109.068481
 20
152.046541
 30
0.0
  0
VERTEX
  5
29A
330
25E
100
AcDbEntity
  8
001
 62
   253
370
    50
100
AcDbVertex
100
AcDb2dVertex
 10
109.249053
 20
151.845417
 30
0.0
  0
SEQEND
  5
25F
330
25E
100
AcDbEntity
  8
001
370
    50
  0
POLYLINE
  5
29B
330
1F
100
AcDbEntity
  8
001
 62
   253
370
    50
100
AcDb2dPolyline
 66
     1
 10
0.0
 20
0.0
 30
0.0
  0
VERTEX
  5
29D
330
29B
100
AcDbEntity
  8
001
 62
   253
370
    50
100
AcDbVertex
100
AcDb2dVertex
 10
109.249053
 20
151.845417
 30
0.0
  0
VERTEX
  5
29E
330
29B
100
AcDbEntity
  8
001
 62
   253
370
    50
100
AcDbVertex
100
AcDb2dVertex
 10
109.412515
 20
151.628547
 30
0.0
  0
VERTEX
  5
29F
330
29B
100
AcDbEntity
  8
001
 62
   253
370
    50
100
AcDbVertex
100
AcDb2dVertex
 10
109.566702
 20
151.405477
 30
0.0
  0
VERTEX
  5
2A0
330
29B
100
AcDbEntity
  8
001
 62
   253
370
    50
100
AcDbVertex
100
AcDb2dVertex
 10
109.703617
 20
151.172202
 30
0.0
  0
VERTEX
  5
2A1
330
29B
100
AcDbEntity
  8
001
 62
   253
370
    50
100
AcDbVertex
100
AcDb2dVertex
 10
109.822876
 20
150.929046
 30
0.0
  0
VERTEX
  5
2A2
330
29B
100
AcDbEntity
  8
001
 62
   253
370
    50
100
AcDbVertex
100
AcDb2dVertex
 10
109.953503
 20
150.597983
 30
0.0
  0
VERTEX
  5
2A3
330
29B
100
AcDbEntity
  8
001
 62
   253
370
    50
100
AcDbVertex
100
AcDb2dVertex
 10
110.053291
 20
150.256416
 30
0.0
  0
VERTEX
  5
2A4
330
29B
100
AcDbEntity
  8
001
 62
   253
370
    50
100
AcDbVertex
100
AcDb2dVertex
 10
110.120648
 20
149.906355
 30
0.0
  0
VERTEX
  5
2A5
330
29B
100
AcDbEntity
  8
001
 62
   253
370
    50
100
AcDbVertex
100
AcDb2dVertex
 10
110.15379
 20
149.551506
 30
0.0
  0
VERTEX
  5
2A6
330
29B
100
AcDbEntity
  8
001
 62
   253
370
    50
100
AcDbVertex
100
AcDb2dVertex
 10
110.153826
 20
149.240724
 30
0.0
  0
VERTEX
  5
2A7
330
29B
100
AcDbEntity
  8
001
 62
   253
370
    50
100
AcDbVertex
100
AcDb2dVertex
 10
110.127471
 20
148.931016
 30
0.0
  0
VERTEX
  5
2A8
330
29B
100
AcDbEntity
  8
001
 62
   253
370
    50
100
AcDbVertex
100
AcDb2dVertex
 10
110.075536
 20
148.624797
 30
0.0
  0
VERTEX
  5
2A9
330
29B
100
AcDbEntity
  8
001
 62
   253
370
    50
100
AcDbVertex
100
AcDb2dVertex
 10
109.99836
 20
148.324063
 30
0.0
  0
VERTEX
  5
2AA
330
29B
100
AcDbEntity
  8
001
 62
   253
370
    50
100
AcDbVertex
100
AcDb2dVertex
 10
109.935091
 20
148.133235
 30
0.0
  0
VERTEX
  5
2AB
330
29B
100
AcDbEntity
  8
001
 62
   253
370
    50
100
AcDbVertex
100
AcDb2dVertex
 10
109.86184
 20
147.946039
 30
0.0
  0
VERTEX
  5
2AC
330
29B
100
AcDbEntity
  8
001
 62
   253
370
    50
100
AcDbVertex
100
AcDb2dVertex
 10
109.779176
 20
147.763103
 30
0.0
  0
VERTEX
  5
2AD
330
29B
100
AcDbEntity
  8
001
 62
   253
370
    50
100
AcDbVertex
100
AcDb2dVertex
 10
109.687265
 20
147.584608
 30
0.0
  0
VERTEX
  5
2AE
330
29B
100
AcDbEntity
  8
001
 62
   253
370
    50
100
AcDbVertex
100
AcDb2dVertex
 10
109.509712
 20
147.291106
 30
0.0
  0
VERTEX
  5
2AF
330
29B
100
AcDbEntity
  8
001
 62
   253
370
    50
100
AcDbVertex
100
AcDb2dVertex
 10
109.308277
 20
147.013239
 30
0.0
  0
VERTEX
  5
2B0
330
29B
100
AcDbEntity
  8
001
 62
   253
370
    50
100
AcDbVertex
100
AcDb2dVertex
 10
109.085498
 20
146.752607
 30
0.0
  0
VERTEX
  5
2B1
330
29B
100
AcDbEntity
  8
001
 62
   253
370
    50
100
AcDbVertex
100
AcDb2dVertex
 10
108.842991
 20
146.510406
 30
0.0
  0
VERTEX
  5
2B2
330
29B
100
AcDbEntity
  8
001
 62
   253
370
    50
100
AcDbVertex
100
AcDb2dVertex
 10
108.571676
 20
146.279208
 30
0.0
  0
VERTEX
  5
2B3
330
29B
100
AcDbEntity
  8
001
 62
   253
370
    50
100
AcDbVertex
100
AcDb2dVertex
 10
108.283478
 20
146.069007
 30
0.0
  0
VERTEX
  5
2B4
330
29B
100
AcDbEntity
  8
001
 62
   253
370
    50
100
AcDbVertex
100
AcDb2dVertex
 10
107.980258
 20
145.879786
 30
0.0
  0
VERTEX
  5
2B5
330
29B
100
AcDbEntity
  8
001
 62
   253
370
    50
100
AcDbVertex
100
AcDb2dVertex
 10
107.66346
 20
145.715294
 30
0.0
  0
VERTEX
  5
2B6
330
29B
100
AcDbEntity
  8
001
 62
   253
370
    50
100
AcDbVertex
100
AcDb2dVertex
 10
107.407822
 20
145.604994
 30
0.0
  0
VERTEX
  5
2B7
330
29B
100
AcDbEntity
  8
001
 62
   253
370
    50
100
AcDbVertex
100
AcDb2dVertex
 10
107.148244
 20
145.503493
 30
0.0
  0
SEQEND
  5
29C
330
29B
100
AcDbEntity
  8
001
370
    50
  0
LINE
  5
2B8
330
1F
100
AcDbEntity
  8
001
 62
   253
370
    50
100
AcDbLine
 10
97.92223
 20
133.392805
 30
0.0
 11
97.92223
 21
165.392805
 31
0.0
  0
LINE
  5
2B9
330
1F
100
AcDbEntity
  8
001
 62
   253
370
    50
100
AcDbLine
 10
97.92223
 20
133.392805
 30
0.0
 11
112.42223
 21
133.392805
 31
0.0
  0
LINE
  5
2BA
330
1F
100
AcDbEntity
  8
001
 62
   253
370
    50
100
AcDbLine
 10
112.42223
 20
165.392805
 30
0.0
 11
97.92223
 21
165.392805
 31
0.0
  0
LINE
  5
2BB
330
1F
100
AcDbEntity
  8
001
 62
   253
370
    50
100
AcDbLine
 10
97.42223
 20
133.892805
 30
0.0
 11
97.42223
 21
164.892805
 31
0.0
  0
LINE
  5
2BC
330
1F
100
AcDbEntity
  8
001
 62
   253
370
    50
100
AcDbLine
 10
97.92223
 20
165.392805
 30
0.0
 11
97.42223
 21
164.892805
 31
0.0
  0
LINE
  5
2BD
330
1F
100
AcDbEntity
  8
001
 62
   253
370
    50
100
AcDbLine
 10
97.42223
 20
133.892805
 30
0.0
 11
97.92223
 21
133.392805
 31
0.0
  0
LINE
  5
2BE
330
1F
100
AcDbEntity
  8
001
 62
   253
370
    50
100
AcDbLine
 10
92.468865
 20
145.659537
 30
0.0
 11
92.544841
 21
145.702199
 31
0.0
  0
POLYLINE
  5
2BF
330
1F
100
AcDbEntity
  8
001
 62
   253
370
    50
100
AcDb2dPolyline
 66
     1
 10
0.0
 20
0.0
 30
0.0
  0
VERTEX
  5
2C1
330
2BF
100
AcDbEntity
  8
001
 62
   253
370
    50
100
AcDbVertex
100
AcDb2dVertex
 10
89.715949
 20
145.194312
 30
0.0
  0
VERTEX
  5
2C2
330
2BF
100
AcDbEntity
  8
001
 62
   253
370
    50
100
AcDbVertex
100
AcDb2dVertex
 10
89.867765
 20
145.174536
 30
0.0
  0
VERTEX
  5
2C3
330
2BF
100
AcDbEntity
  8
001
 62
   253
370
    50
100
AcDbVertex
100
AcDb2dVertex
 10
90.019917
 20
145.158425
 30
0.0
  0
VERTEX
  5
2C4
330
2BF
100
AcDbEntity
  8
001
 62
   253
370
    50
100
AcDbVertex
100
AcDb2dVertex
 10
90.379873
 20
145.146583
 30
0.0
  0
VERTEX
  5
2C5
330
2BF
100
AcDbEntity
  8
001
 62
   253
370
    50
100
AcDbVertex
100
AcDb2dVertex
 10
90.740077
 20
145.166835
 30
0.0
  0
VERTEX
  5
2C6
330
2BF
100
AcDbEntity
  8
001
 62
   253
370
    50
100
AcDbVertex
100
AcDb2dVertex
 10
91.096633
 20
145.211997
 30
0.0
  0
VERTEX
  5
2C7
330
2BF
100
AcDbEntity
  8
001
 62
   253
370
    50
100
AcDbVertex
100
AcDb2dVertex
 10
91.449356
 20
145.280891
 30
0.0
  0
VERTEX
  5
2C8
330
2BF
100
AcDbEntity
  8
001
 62
   253
370
    50
100
AcDbVertex
100
AcDb2dVertex
 10
91.790557
 20
145.372915
 30
0.0
  0
VERTEX
  5
2C9
330
2BF
100
AcDbEntity
  8
001
 62
   253
370
    50
100
AcDbVertex
100
AcDb2dVertex
 10
92.121744
 20
145.494464
 30
0.0
  0
VERTEX
  5
2CA
330
2BF
100
AcDbEntity
  8
001
 62
   253
370
    50
100
AcDbVertex
100
AcDb2dVertex
 10
92.296471
 20
145.574335
 30
0.0
  0
VERTEX
  5
2CB
330
2BF
100
AcDbEntity
  8
001
 62
   253
370
    50
100
AcDbVertex
100
AcDb2dVertex
 10
92.468865
 20
145.659537
 30
0.0
  0
SEQEND
  5
2C0
330
2BF
100
AcDbEntity
  8
001
370
    50
  0
LINE
  5
2CC
330
1F
100
AcDbEntity
  8
001
 62
   253
370
    50
100
AcDbLine
 10
92.466302
 20
145.658056
 30
0.0
 11
92.648012
 21
145.763414
 31
0.0
  0
LINE
  5
2CD
330
1F
100
AcDbEntity
  8
001
 62
   253
370
    50
100
AcDbLine
 10
89.49049
 20
145.238477
 30
0.0
 11
89.708598
 21
145.195507
 31
0.0
  0
LINE
  5
2CE
330
1F
100
AcDbEntity
  8
001
 62
   253
370
    50
100
AcDbLine
 10
92.544841
 20
145.702199
 30
0.0
 11
92.650644
 21
145.765058
 31
0.0
  0
POLYLINE
  5
2CF
330
1F
100
AcDbEntity
  8
001
 62
   253
370
    50
100
AcDb2dPolyline
 66
     1
 10
0.0
 20
0.0
 30
0.0
  0
VERTEX
  5
2D1
330
2CF
100
AcDbEntity
  8
001
 62
   253
370
    50
100
AcDbVertex
100
AcDb2dVertex
 10
89.064775
 20
145.43477
 30
0.0
  0
VERTEX
  5
2D2
330
2CF
100
AcDbEntity
  8
001
 62
   253
370
    50
100
AcDbVertex
100
AcDb2dVertex
 10
89.104637
 20
145.399817
 30
0.0
  0
VERTEX
  5
2D3
330
2CF
100
AcDbEntity
  8
001
 62
   253
370
    50
100
AcDbVertex
100
AcDb2dVertex
 10
89.146417
 20
145.367834
 30
0.0
  0
VERTEX
  5
2D4
330
2CF
100
AcDbEntity
  8
001
 62
   253
370
    50
100
AcDbVertex
100
AcDb2dVertex
 10
89.244584
 20
145.317038
 30
0.0
  0
VERTEX
  5
2D5
330
2CF
100
AcDbEntity
  8
001
 62
   253
370
    50
100
AcDbVertex
100
AcDb2dVertex
 10
89.350717
 20
145.281153
 30
0.0
  0
VERTEX
  5
2D6
330
2CF
100
AcDbEntity
  8
001
 62
   253
370
    50
100
AcDbVertex
100
AcDb2dVertex
 10
89.422555
 20
145.26017
 30
0.0
  0
VERTEX
  5
2D7
330
2CF
100
AcDbEntity
  8
001
 62
   253
370
    50
100
AcDbVertex
100
AcDb2dVertex
 10
89.494163
 20
145.239994
 30
0.0
  0
SEQEND
  5
2D0
330
2CF
100
AcDbEntity
  8
001
370
    50
  0
POLYLINE
  5
2D8
330
1F
100
AcDbEntity
  8
001
 62
   253
370
    50
100
AcDb2dPolyline
 66
     1
 10
0.0
 20
0.0
 30
0.0
  0
VERTEX
  5
2DA
330
2D8
100
AcDbEntity
  8
001
 62
   253
370
    50
100
AcDbVertex
100
AcDb2dVertex
 10
89.494163
 20
145.239994
 30
0.0
  0
VERTEX
  5
2DB
330
2D8
100
AcDbEntity
  8
001
 62
   253
370
    50
100
AcDbVertex
100
AcDb2dVertex
 10
89.533283
 20
145.230614
 30
0.0
  0
VERTEX
  5
2DC
330
2D8
100
AcDbEntity
  8
001
 62
   253
370
    50
100
AcDbVertex
100
AcDb2dVertex
 10
89.572496
 20
145.221668
 30
0.0
  0
VERTEX
  5
2DD
330
2D8
100
AcDbEntity
  8
001
 62
   253
370
    50
100
AcDbVertex
100
AcDb2dVertex
 10
89.644071
 20
145.207275
 30
0.0
  0
VERTEX
  5
2DE
330
2D8
100
AcDbEntity
  8
001
 62
   253
370
    50
100
AcDbVertex
100
AcDb2dVertex
 10
89.715949
 20
145.194312
 30
0.0
  0
SEQEND
  5
2D9
330
2D8
100
AcDbEntity
  8
001
370
    50
  0
POLYLINE
  5
2DF
330
1F
100
AcDbEntity
  8
001
 62
   253
370
    50
100
AcDb2dPolyline
 66
     1
 10
0.0
 20
0.0
 30
0.0
  0
VERTEX
  5
2E1
330
2DF
100
AcDbEntity
  8
001
 62
   253
370
    50
100
AcDbVertex
100
AcDb2dVertex
 10
89.064775
 20
145.43477
 30
0.0
  0
VERTEX
  5
2E2
330
2DF
100
AcDbEntity
  8
001
 62
   253
370
    50
100
AcDbVertex
100
AcDb2dVertex
 10
88.732991
 20
145.538774
 30
0.0
  0
VERTEX
  5
2E3
330
2DF
100
AcDbEntity
  8
001
 62
   253
370
    50
100
AcDbVertex
100
AcDb2dVertex
 10
88.406473
 20
145.656698
 30
0.0
  0
VERTEX
  5
2E4
330
2DF
100
AcDbEntity
  8
001
 62
   253
370
    50
100
AcDbVertex
100
AcDb2dVertex
 10
88.090591
 20
145.799069
 30
0.0
  0
VERTEX
  5
2E5
330
2DF
100
AcDbEntity
  8
001
 62
   253
370
    50
100
AcDbVertex
100
AcDb2dVertex
 10
87.7861
 20
145.965214
 30
0.0
  0
VERTEX
  5
2E6
330
2DF
100
AcDbEntity
  8
001
 62
   253
370
    50
100
AcDbVertex
100
AcDb2dVertex
 10
87.54721
 20
146.11582
 30
0.0
  0
VERTEX
  5
2E7
330
2DF
100
AcDbEntity
  8
001
 62
   253
370
    50
100
AcDbVertex
100
AcDb2dVertex
 10
87.317578
 20
146.279931
 30
0.0
  0
VERTEX
  5
2E8
330
2DF
100
AcDbEntity
  8
001
 62
   253
370
    50
100
AcDbVertex
100
AcDb2dVertex
 10
87.097704
 20
146.458227
 30
0.0
  0
VERTEX
  5
2E9
330
2DF
100
AcDbEntity
  8
001
 62
   253
370
    50
100
AcDbVertex
100
AcDb2dVertex
 10
86.889274
 20
146.64986
 30
0.0
  0
VERTEX
  5
2EA
330
2DF
100
AcDbEntity
  8
001
 62
   253
370
    50
100
AcDbVertex
100
AcDb2dVertex
 10
86.694147
 20
146.85347
 30
0.0
  0
VERTEX
  5
2EB
330
2DF
100
AcDbEntity
  8
001
 62
   253
370
    50
100
AcDbVertex
100
AcDb2dVertex
 10
86.512849
 20
147.069455
 30
0.0
  0
VERTEX
  5
2EC
330
2DF
100
AcDbEntity
  8
001
 62
   253
370
    50
100
AcDbVertex
100
AcDb2dVertex
 10
86.32258
 20
147.33348
 30
0.0
  0
VERTEX
  5
2ED
330
2DF
100
AcDbEntity
  8
001
 62
   253
370
    50
100
AcDbVertex
100
AcDb2dVertex
 10
86.154015
 20
147.611964
 30
0.0
  0
VERTEX
  5
2EE
330
2DF
100
AcDbEntity
  8
001
 62
   253
370
    50
100
AcDbVertex
100
AcDb2dVertex
 10
86.008415
 20
147.903873
 30
0.0
  0
VERTEX
  5
2EF
330
2DF
100
AcDbEntity
  8
001
 62
   253
370
    50
100
AcDbVertex
100
AcDb2dVertex
 10
85.888275
 20
148.207056
 30
0.0
  0
VERTEX
  5
2F0
330
2DF
100
AcDbEntity
  8
001
 62
   253
370
    50
100
AcDbVertex
100
AcDb2dVertex
 10
85.794934
 20
148.522293
 30
0.0
  0
VERTEX
  5
2F1
330
2DF
100
AcDbEntity
  8
001
 62
   253
370
    50
100
AcDbVertex
100
AcDb2dVertex
 10
85.730159
 20
148.844717
 30
0.0
  0
VERTEX
  5
2F2
330
2DF
100
AcDbEntity
  8
001
 62
   253
370
    50
100
AcDbVertex
100
AcDb2dVertex
 10
85.694424
 20
149.172061
 30
0.0
  0
VERTEX
  5
2F3
330
2DF
100
AcDbEntity
  8
001
 62
   253
370
    50
100
AcDbVertex
100
AcDb2dVertex
 10
85.688869
 20
149.501182
 30
0.0
  0
VERTEX
  5
2F4
330
2DF
100
AcDbEntity
  8
001
 62
   253
370
    50
100
AcDbVertex
100
AcDb2dVertex
 10
85.71049
 20
149.798065
 30
0.0
  0
VERTEX
  5
2F5
330
2DF
100
AcDbEntity
  8
001
 62
   253
370
    50
100
AcDbVertex
100
AcDb2dVertex
 10
85.756663
 20
150.092184
 30
0.0
  0
VERTEX
  5
2F6
330
2DF
100
AcDbEntity
  8
001
 62
   253
370
    50
100
AcDbVertex
100
AcDb2dVertex
 10
85.826289
 20
150.381201
 30
0.0
  0
VERTEX
  5
2F7
330
2DF
100
AcDbEntity
  8
001
 62
   253
370
    50
100
AcDbVertex
100
AcDb2dVertex
 10
85.918899
 20
150.663636
 30
0.0
  0
VERTEX
  5
2F8
330
2DF
100
AcDbEntity
  8
001
 62
   253
370
    50
100
AcDbVertex
100
AcDb2dVertex
 10
86.033883
 20
150.937732
 30
0.0
  0
VERTEX
  5
2F9
330
2DF
100
AcDbEntity
  8
001
 62
   253
370
    50
100
AcDbVertex
100
AcDb2dVertex
 10
86.169746
 20
151.202152
 30
0.0
  0
VERTEX
  5
2FA
330
2DF
100
AcDbEntity
  8
001
 62
   253
370
    50
100
AcDbVertex
100
AcDb2dVertex
 10
86.324574
 20
151.455234
 30
0.0
  0
VERTEX
  5
2FB
330
2DF
100
AcDbEntity
  8
001
 62
   253
370
    50
100
AcDbVertex
100
AcDb2dVertex
 10
86.497426
 20
151.696338
 30
0.0
  0
VERTEX
  5
2FC
330
2DF
100
AcDbEntity
  8
001
 62
   253
370
    50
100
AcDbVertex
100
AcDb2dVertex
 10
86.708588
 20
151.948272
 30
0.0
  0
VERTEX
  5
2FD
330
2DF
100
AcDbEntity
  8
001
 62
   253
370
    50
100
AcDbVertex
100
AcDb2dVertex
 10
86.93838
 20
152.183416
 30
0.0
  0
VERTEX
  5
2FE
330
2DF
100
AcDbEntity
  8
001
 62
   253
370
    50
100
AcDbVertex
100
AcDb2dVertex
 10
87.184786
 20
152.401116
 30
0.0
  0
VERTEX
  5
2FF
330
2DF
100
AcDbEntity
  8
001
 62
   253
370
    50
100
AcDbVertex
100
AcDb2dVertex
 10
87.446141
 20
152.600595
 30
0.0
  0
VERTEX
  5
300
330
2DF
100
AcDbEntity
  8
001
 62
   253
370
    50
100
AcDbVertex
100
AcDb2dVertex
 10
87.761993
 20
152.805971
 30
0.0
  0
VERTEX
  5
301
330
2DF
100
AcDbEntity
  8
001
 62
   253
370
    50
100
AcDbVertex
100
AcDb2dVertex
 10
88.092886
 20
152.986267
 30
0.0
  0
VERTEX
  5
302
330
2DF
100
AcDbEntity
  8
001
 62
   253
370
    50
100
AcDbVertex
100
AcDb2dVertex
 10
88.437294
 20
153.141618
 30
0.0
  0
VERTEX
  5
303
330
2DF
100
AcDbEntity
  8
001
 62
   253
370
    50
100
AcDbVertex
100
AcDb2dVertex
 10
88.79226
 20
153.270955
 30
0.0
  0
VERTEX
  5
304
330
2DF
100
AcDbEntity
  8
001
 62
   253
370
    50
100
AcDbVertex
100
AcDb2dVertex
 10
89.194501
 20
153.383099
 30
0.0
  0
VERTEX
  5
305
330
2DF
100
AcDbEntity
  8
001
 62
   253
370
    50
100
AcDbVertex
100
AcDb2dVertex
 10
89.604449
 20
153.463018
 30
0.0
  0
VERTEX
  5
306
330
2DF
100
AcDbEntity
  8
001
 62
   253
370
    50
100
AcDbVertex
100
AcDb2dVertex
 10
90.020146
 20
153.510917
 30
0.0
  0
VERTEX
  5
307
330
2DF
100
AcDbEntity
  8
001
 62
   253
370
    50
100
AcDbVertex
100
AcDb2dVertex
 10
90.438254
 20
153.526172
 30
0.0
  0
VERTEX
  5
308
330
2DF
100
AcDbEntity
  8
001
 62
   253
370
    50
100
AcDbVertex
100
AcDb2dVertex
 10
90.869932
 20
153.507253
 30
0.0
  0
VERTEX
  5
309
330
2DF
100
AcDbEntity
  8
001
 62
   253
370
    50
100
AcDbVertex
100
AcDb2dVertex
 10
91.298773
 20
153.453538
 30
0.0
  0
VERTEX
  5
30A
330
2DF
100
AcDbEntity
  8
001
 62
   253
370
    50
100
AcDbVertex
100
AcDb2dVertex
 10
91.721072
 20
153.365729
 30
0.0
  0
VERTEX
  5
30B
330
2DF
100
AcDbEntity
  8
001
 62
   253
370
    50
100
AcDbVertex
100
AcDb2dVertex
 10
92.134573
 20
153.243581
 30
0.0
  0
VERTEX
  5
30C
330
2DF
100
AcDbEntity
  8
001
 62
   253
370
    50
100
AcDbVertex
100
AcDb2dVertex
 10
92.403223
 20
153.143201
 30
0.0
  0
VERTEX
  5
30D
330
2DF
100
AcDbEntity
  8
001
 62
   253
370
    50
100
AcDbVertex
100
AcDb2dVertex
 10
92.665737
 20
153.027792
 30
0.0
  0
VERTEX
  5
30E
330
2DF
100
AcDbEntity
  8
001
 62
   253
370
    50
100
AcDbVertex
100
AcDb2dVertex
 10
92.921594
 20
152.897474
 30
0.0
  0
VERTEX
  5
30F
330
2DF
100
AcDbEntity
  8
001
 62
   253
370
    50
100
AcDbVertex
100
AcDb2dVertex
 10
93.169505
 20
152.752586
 30
0.0
  0
VERTEX
  5
310
330
2DF
100
AcDbEntity
  8
001
 62
   253
370
    50
100
AcDbVertex
100
AcDb2dVertex
 10
93.407236
 20
152.594136
 30
0.0
  0
VERTEX
  5
311
330
2DF
100
AcDbEntity
  8
001
 62
   253
370
    50
100
AcDbVertex
100
AcDb2dVertex
 10
93.634837
 20
152.421485
 30
0.0
  0
VERTEX
  5
312
330
2DF
100
AcDbEntity
  8
001
 62
   253
370
    50
100
AcDbVertex
100
AcDb2dVertex
 10
93.843614
 20
152.241637
 30
0.0
  0
VERTEX
  5
313
330
2DF
100
AcDbEntity
  8
001
 62
   253
370
    50
100
AcDbVertex
100
AcDb2dVertex
 10
94.040896
 20
152.049241
 30
0.0
  0
VERTEX
  5
314
330
2DF
100
AcDbEntity
  8
001
 62
   253
370
    50
100
AcDbVertex
100
AcDb2dVertex
 10
94.226545
 20
151.84401
 30
0.0
  0
VERTEX
  5
315
330
2DF
100
AcDbEntity
  8
001
 62
   253
370
    50
100
AcDbVertex
100
AcDb2dVertex
 10
94.398671
 20
151.627297
 30
0.0
  0
VERTEX
  5
316
330
2DF
100
AcDbEntity
  8
001
 62
   253
370
    50
100
AcDbVertex
100
AcDb2dVertex
 10
94.55565
 20
151.400408
 30
0.0
  0
VERTEX
  5
317
330
2DF
100
AcDbEntity
  8
001
 62
   253
370
    50
100
AcDbVertex
100
AcDb2dVertex
 10
94.696582
 20
151.16327
 30
0.0
  0
VERTEX
  5
318
330
2DF
100
AcDbEntity
  8
001
 62
   253
370
    50
100
AcDbVertex
100
AcDb2dVertex
 10
94.806119
 20
150.946875
 30
0.0
  0
VERTEX
  5
319
330
2DF
100
AcDbEntity
  8
001
 62
   253
370
    50
100
AcDbVertex
100
AcDb2dVertex
 10
94.901713
 20
150.723961
 30
0.0
  0
VERTEX
  5
31A
330
2DF
100
AcDbEntity
  8
001
 62
   253
370
    50
100
AcDbVertex
100
AcDb2dVertex
 10
94.983461
 20
150.49402
 30
0.0
  0
VERTEX
  5
31B
330
2DF
100
AcDbEntity
  8
001
 62
   253
370
    50
100
AcDbVertex
100
AcDb2dVertex
 10
95.050227
 20
150.259291
 30
0.0
  0
VERTEX
  5
31C
330
2DF
100
AcDbEntity
  8
001
 62
   253
370
    50
100
AcDbVertex
100
AcDb2dVertex
 10
95.101287
 20
150.021438
 30
0.0
  0
VERTEX
  5
31D
330
2DF
100
AcDbEntity
  8
001
 62
   253
370
    50
100
AcDbVertex
100
AcDb2dVertex
 10
95.136118
 20
149.780674
 30
0.0
  0
VERTEX
  5
31E
330
2DF
100
AcDbEntity
  8
001
 62
   253
370
    50
100
AcDbVertex
100
AcDb2dVertex
 10
95.156105
 20
149.471429
 30
0.0
  0
VERTEX
  5
31F
330
2DF
100
AcDbEntity
  8
001
 62
   253
370
    50
100
AcDbVertex
100
AcDb2dVertex
 10
95.149184
 20
149.161486
 30
0.0
  0
VERTEX
  5
320
330
2DF
100
AcDbEntity
  8
001
 62
   253
370
    50
100
AcDbVertex
100
AcDb2dVertex
 10
95.11598
 20
148.853428
 30
0.0
  0
VERTEX
  5
321
330
2DF
100
AcDbEntity
  8
001
 62
   253
370
    50
100
AcDbVertex
100
AcDb2dVertex
 10
95.056579
 20
148.549448
 30
0.0
  0
VERTEX
  5
322
330
2DF
100
AcDbEntity
  8
001
 62
   253
370
    50
100
AcDbVertex
100
AcDb2dVertex
 10
94.987246
 20
148.300968
 30
0.0
  0
VERTEX
  5
323
330
2DF
100
AcDbEntity
  8
001
 62
   253
370
    50
100
AcDbVertex
100
AcDb2dVertex
 10
94.900756
 20
148.057919
 30
0.0
  0
VERTEX
  5
324
330
2DF
100
AcDbEntity
  8
001
 62
   253
370
    50
100
AcDbVertex
100
AcDb2dVertex
 10
94.798282
 20
147.821719
 30
0.0
  0
VERTEX
  5
325
330
2DF
100
AcDbEntity
  8
001
 62
   253
370
    50
100
AcDbVertex
100
AcDb2dVertex
 10
94.680288
 20
147.592872
 30
0.0
  0
VERTEX
  5
326
330
2DF
100
AcDbEntity
  8
001
 62
   253
370
    50
100
AcDbVertex
100
AcDb2dVertex
 10
94.500723
 20
147.301816
 30
0.0
  0
VERTEX
  5
327
330
2DF
100
AcDbEntity
  8
001
 62
   253
370
    50
100
AcDbVertex
100
AcDb2dVertex
 10
94.297308
 20
147.026742
 30
0.0
  0
VERTEX
  5
328
330
2DF
100
AcDbEntity
  8
001
 62
   253
370
    50
100
AcDbVertex
100
AcDb2dVertex
 10
94.072724
 20
146.769178
 30
0.0
  0
VERTEX
  5
329
330
2DF
100
AcDbEntity
  8
001
 62
   253
370
    50
100
AcDbVertex
100
AcDb2dVertex
 10
93.828676
 20
146.53009
 30
0.0
  0
VERTEX
  5
32A
330
2DF
100
AcDbEntity
  8
001
 62
   253
370
    50
100
AcDbVertex
100
AcDb2dVertex
 10
93.557067
 20
146.302811
 30
0.0
  0
VERTEX
  5
32B
330
2DF
100
AcDbEntity
  8
001
 62
   253
370
    50
100
AcDbVertex
100
AcDb2dVertex
 10
93.26888
 20
146.09673
 30
0.0
  0
VERTEX
  5
32C
330
2DF
100
AcDbEntity
  8
001
 62
   253
370
    50
100
AcDbVertex
100
AcDb2dVertex
 10
92.965823
 20
145.911838
 30
0.0
  0
VERTEX
  5
32D
330
2DF
100
AcDbEntity
  8
001
 62
   253
370
    50
100
AcDbVertex
100
AcDb2dVertex
 10
92.650084
 20
145.750082
 30
0.0
  0
VERTEX
  5
32E
330
2DF
100
AcDbEntity
  8
001
 62
   253
370
    50
100
AcDbVertex
100
AcDb2dVertex
 10
92.597537
 20
145.725975
 30
0.0
  0
VERTEX
  5
32F
330
2DF
100
AcDbEntity
  8
001
 62
   253
370
    50
100
AcDbVertex
100
AcDb2dVertex
 10
92.544841
 20
145.702199
 30
0.0
  0
SEQEND
  5
2E0
330
2DF
100
AcDbEntity
  8
001
370
    50
  0
LINE
  5
330
330
1F
100
AcDbEntity
  8
001
 62
   253
370
    50
100
AcDbLine
 10
113.42223
 20
12.075181
 30
0.0
 11
116.42223
 21
12.075181
 31
0.0
  0
LINE
  5
331
330
1F
100
AcDbEntity
  8
001
 62
   253
370
    50
100
AcDbLine
 10
116.42223
 20
59.075181
 30
0.0
 11
113.42223
 21
59.075181
 31
0.0
  0
ARC
  5
332
330
1F
100
AcDbEntity
  8
001
 62
   253
370
    50
100
AcDbCircle
 10
116.42223
 20
13.075181
 30
0.0
 40
1.000000000000001
100
AcDbArc
 50
270.0
 51
0.0
  0
ARC
  5
333
330
1F
100
AcDbEntity
  8
001
 62
   253
370
    50
100
AcDbCircle
 10
116.42223
 20
58.075181
 30
0.0
 40
1.000000000000001
100
AcDbArc
 50
0.0
 51
90.0
  0
LINE
  5
334
330
1F
100
AcDbEntity
  8
001
 62
   253
370
    50
100
AcDbLine
 10
117.42223
 20
13.075181
 30
0.0
 11
117.42223
 21
58.075181
 31
0.0
  0
ARC
  5
335
330
1F
100
AcDbEntity
  8
001
 62
   253
370
    50
100
AcDbCircle
 10
113.42223
 20
13.075181
 30
0.0
 40
1.000000000000001
100
AcDbArc
 50
180.0
 51
270.0
  0
ARC
  5
336
330
1F
100
AcDbEntity
  8
001
 62
   253
370
    50
100
AcDbCircle
 10
113.42223
 20
58.075181
 30
0.0
 40
1.000000000000001
100
AcDbArc
 50
90.0
 51
180.0
  0
LINE
  5
337
330
1F
100
AcDbEntity
  8
001
 62
   253
370
    50
100
AcDbLine
 10
112.42223
 20
13.075181
 30
0.0
 11
112.42223
 21
58.075181
 31
0.0
  0
LINE
  5
338
330
1F
100
AcDbEntity
  8
001
 62
   253
370
    50
100
AcDbLine
 10
117.42223
 20
16.075181
 30
0.0
 11
120.42223
 21
16.075181
 31
0.0
  0
LINE
  5
339
330
1F
100
AcDbEntity
  8
001
 62
   253
370
    50
100
AcDbLine
 10
97.92223
 20
19.575181
 30
0.0
 11
97.92223
 21
51.575181
 31
0.0
  0
LINE
  5
33A
330
1F
100
AcDbEntity
  8
001
 62
   253
370
    50
100
AcDbLine
 10
97.42223
 20
20.075181
 30
0.0
 11
97.42223
 21
51.075181
 31
0.0
  0
LINE
  5
33B
330
1F
100
AcDbEntity
  8
001
 62
   253
370
    50
100
AcDbLine
 10
97.92223
 20
51.575181
 30
0.0
 11
97.42223
 21
51.075181
 31
0.0
  0
LINE
  5
33C
330
1F
100
AcDbEntity
  8
001
 62
   253
370
    50
100
AcDbLine
 10
97.42223
 20
20.075181
 30
0.0
 11
97.92223
 21
19.575181
 31
0.0
  0
POLYLINE
  5
33D
330
1F
100
AcDbEntity
  8
001
 62
   253
370
    50
100
AcDb2dPolyline
 66
     1
 10
0.0
 20
0.0
 30
0.0
  0
VERTEX
  5
33F
330
33D
100
AcDbEntity
  8
001
 62
   253
370
    50
100
AcDbVertex
100
AcDb2dVertex
 10
110.157238
 20
51.575181
 30
0.0
  0
VERTEX
  5
340
330
33D
100
AcDbEntity
  8
001
 62
   253
370
    50
100
AcDbVertex
100
AcDb2dVertex
 10
110.143182
 20
51.571977
 30
0.0
  0
VERTEX
  5
341
330
33D
100
AcDbEntity
  8
001
 62
   253
370
    50
100
AcDbVertex
100
AcDb2dVertex
 10
110.129125
 20
51.568778
 30
0.0
  0
VERTEX
  5
342
330
33D
100
AcDbEntity
  8
001
 62
   253
370
    50
100
AcDbVertex
100
AcDb2dVertex
 10
110.063763
 20
51.554021
 30
0.0
  0
VERTEX
  5
343
330
33D
100
AcDbEntity
  8
001
 62
   253
370
    50
100
AcDbVertex
100
AcDb2dVertex
 10
109.99836
 20
51.539447
 30
0.0
  0
VERTEX
  5
344
330
33D
100
AcDbEntity
  8
001
 62
   253
370
    50
100
AcDbVertex
100
AcDb2dVertex
 10
109.93058
 20
51.524538
 30
0.0
  0
VERTEX
  5
345
330
33D
100
AcDbEntity
  8
001
 62
   253
370
    50
100
AcDbVertex
100
AcDb2dVertex
 10
109.862758
 20
51.509819
 30
0.0
  0
VERTEX
  5
346
330
33D
100
AcDbEntity
  8
001
 62
   253
370
    50
100
AcDbVertex
100
AcDb2dVertex
 10
109.775046
 20
51.491085
 30
0.0
  0
VERTEX
  5
347
330
33D
100
AcDbEntity
  8
001
 62
   253
370
    50
100
AcDbVertex
100
AcDb2dVertex
 10
109.687265
 20
51.472678
 30
0.0
  0
VERTEX
  5
348
330
33D
100
AcDbEntity
  8
001
 62
   253
370
    50
100
AcDbVertex
100
AcDb2dVertex
 10
109.500829
 20
51.434725
 30
0.0
  0
VERTEX
  5
349
330
33D
100
AcDbEntity
  8
001
 62
   253
370
    50
100
AcDbVertex
100
AcDb2dVertex
 10
109.314091
 20
51.398274
 30
0.0
  0
VERTEX
  5
34A
330
33D
100
AcDbEntity
  8
001
 62
   253
370
    50
100
AcDbVertex
100
AcDb2dVertex
 10
109.078765
 20
51.354593
 30
0.0
  0
VERTEX
  5
34B
330
33D
100
AcDbEntity
  8
001
 62
   253
370
    50
100
AcDbVertex
100
AcDb2dVertex
 10
108.842991
 20
51.313407
 30
0.0
  0
VERTEX
  5
34C
330
33D
100
AcDbEntity
  8
001
 62
   253
370
    50
100
AcDbVertex
100
AcDb2dVertex
 10
108.566905
 20
51.268514
 30
0.0
  0
VERTEX
  5
34D
330
33D
100
AcDbEntity
  8
001
 62
   253
370
    50
100
AcDbVertex
100
AcDb2dVertex
 10
108.290276
 20
51.22705
 30
0.0
  0
VERTEX
  5
34E
330
33D
100
AcDbEntity
  8
001
 62
   253
370
    50
100
AcDbVertex
100
AcDb2dVertex
 10
107.977186
 20
51.184379
 30
0.0
  0
VERTEX
  5
34F
330
33D
100
AcDbEntity
  8
001
 62
   253
370
    50
100
AcDbVertex
100
AcDb2dVertex
 10
107.66346
 20
51.146819
 30
0.0
  0
VERTEX
  5
350
330
33D
100
AcDbEntity
  8
001
 62
   253
370
    50
100
AcDbVertex
100
AcDb2dVertex
 10
107.40596
 20
51.120043
 30
0.0
  0
VERTEX
  5
351
330
33D
100
AcDbEntity
  8
001
 62
   253
370
    50
100
AcDbVertex
100
AcDb2dVertex
 10
107.148244
 20
51.095273
 30
0.0
  0
SEQEND
  5
33E
330
33D
100
AcDbEntity
  8
001
370
    50
  0
POLYLINE
  5
352
330
1F
100
AcDbEntity
  8
001
 62
   253
370
    50
100
AcDb2dPolyline
 66
     1
 10
0.0
 20
0.0
 30
0.0
  0
VERTEX
  5
354
330
352
100
AcDbEntity
  8
001
 62
   253
370
    50
100
AcDbVertex
100
AcDb2dVertex
 10
104.623088
 20
51.035917
 30
0.0
  0
VERTEX
  5
355
330
352
100
AcDbEntity
  8
001
 62
   253
370
    50
100
AcDbVertex
100
AcDb2dVertex
 10
104.776885
 20
51.03052
 30
0.0
  0
VERTEX
  5
356
330
352
100
AcDbEntity
  8
001
 62
   253
370
    50
100
AcDbVertex
100
AcDb2dVertex
 10
104.930703
 20
51.025812
 30
0.0
  0
VERTEX
  5
357
330
352
100
AcDbEntity
  8
001
 62
   253
370
    50
100
AcDbVertex
100
AcDb2dVertex
 10
105.357349
 20
51.019512
 30
0.0
  0
VERTEX
  5
358
330
352
100
AcDbEntity
  8
001
 62
   253
370
    50
100
AcDbVertex
100
AcDb2dVertex
 10
105.784057
 20
51.022994
 30
0.0
  0
VERTEX
  5
359
330
352
100
AcDbEntity
  8
001
 62
   253
370
    50
100
AcDbVertex
100
AcDb2dVertex
 10
106.204238
 20
51.035333
 30
0.0
  0
VERTEX
  5
35A
330
352
100
AcDbEntity
  8
001
 62
   253
370
    50
100
AcDbVertex
100
AcDb2dVertex
 10
106.624055
 20
51.056391
 30
0.0
  0
VERTEX
  5
35B
330
352
100
AcDbEntity
  8
001
 62
   253
370
    50
100
AcDbVertex
100
AcDb2dVertex
 10
106.83453
 20
51.070276
 30
0.0
  0
VERTEX
  5
35C
330
352
100
AcDbEntity
  8
001
 62
   253
370
    50
100
AcDbVertex
100
AcDb2dVertex
 10
107.04483
 20
51.086529
 30
0.0
  0
VERTEX
  5
35D
330
352
100
AcDbEntity
  8
001
 62
   253
370
    50
100
AcDbVertex
100
AcDb2dVertex
 10
107.148511
 20
51.095416
 30
0.0
  0
VERTEX
  5
35E
330
352
100
AcDbEntity
  8
001
 62
   253
370
    50
100
AcDbVertex
100
AcDb2dVertex
 10
107.252167
 20
51.104612
 30
0.0
  0
SEQEND
  5
353
330
352
100
AcDbEntity
  8
001
370
    50
  0
LINE
  5
35F
330
1F
100
AcDbEntity
  8
001
 62
   253
370
    50
100
AcDbLine
 10
97.92223
 20
19.575181
 30
0.0
 11
112.42223
 21
19.575181
 31
0.0
  0
LINE
  5
360
330
1F
100
AcDbEntity
  8
001
 62
   253
370
    50
100
AcDbLine
 10
100.703161
 20
51.575181
 30
0.0
 11
97.92223
 21
51.575181
 31
0.0
  0
LINE
  5
361
330
1F
100
AcDbEntity
  8
001
 62
   253
370
    50
100
AcDbLine
 10
112.42223
 20
51.575181
 30
0.0
 11
110.147387
 21
51.575181
 31
0.0
  0
POLYLINE
  5
362
330
1F
100
AcDbEntity
  8
001
 62
   253
370
    50
100
AcDb2dPolyline
 66
     1
 10
0.0
 20
0.0
 30
0.0
  0
VERTEX
  5
364
330
362
100
AcDbEntity
  8
001
 62
   253
370
    50
100
AcDbVertex
100
AcDb2dVertex
 10
104.539601
 20
51.039488
 30
0.0
  0
VERTEX
  5
365
330
362
100
AcDbEntity
  8
001
 62
   253
370
    50
100
AcDbVertex
100
AcDb2dVertex
 10
104.481677
 20
51.042212
 30
0.0
  0
VERTEX
  5
366
330
362
100
AcDbEntity
  8
001
 62
   253
370
    50
100
AcDbVertex
100
AcDb2dVertex
 10
104.423756
 20
51.045027
 30
0.0
  0
VERTEX
  5
367
330
362
100
AcDbEntity
  8
001
 62
   253
370
    50
100
AcDbVertex
100
AcDb2dVertex
 10
104.014652
 20
51.069908
 30
0.0
  0
VERTEX
  5
368
330
362
100
AcDbEntity
  8
001
 62
   253
370
    50
100
AcDbVertex
100
AcDb2dVertex
 10
103.606144
 20
51.103336
 30
0.0
  0
VERTEX
  5
369
330
362
100
AcDbEntity
  8
001
 62
   253
370
    50
100
AcDbVertex
100
AcDb2dVertex
 10
103.404746
 20
51.122841
 30
0.0
  0
VERTEX
  5
36A
330
362
100
AcDbEntity
  8
001
 62
   253
370
    50
100
AcDbVertex
100
AcDb2dVertex
 10
103.203551
 20
51.144302
 30
0.0
  0
VERTEX
  5
36B
330
362
100
AcDbEntity
  8
001
 62
   253
370
    50
100
AcDbVertex
100
AcDb2dVertex
 10
103.010541
 20
51.166753
 30
0.0
  0
VERTEX
  5
36C
330
362
100
AcDbEntity
  8
001
 62
   253
370
    50
100
AcDbVertex
100
AcDb2dVertex
 10
102.817746
 20
51.190996
 30
0.0
  0
VERTEX
  5
36D
330
362
100
AcDbEntity
  8
001
 62
   253
370
    50
100
AcDbVertex
100
AcDb2dVertex
 10
102.642929
 20
51.214541
 30
0.0
  0
VERTEX
  5
36E
330
362
100
AcDbEntity
  8
001
 62
   253
370
    50
100
AcDbVertex
100
AcDb2dVertex
 10
102.468311
 20
51.239525
 30
0.0
  0
VERTEX
  5
36F
330
362
100
AcDbEntity
  8
001
 62
   253
370
    50
100
AcDbVertex
100
AcDb2dVertex
 10
102.304173
 20
51.264327
 30
0.0
  0
VERTEX
  5
370
330
362
100
AcDbEntity
  8
001
 62
   253
370
    50
100
AcDbVertex
100
AcDb2dVertex
 10
102.140229
 20
51.290373
 30
0.0
  0
VERTEX
  5
371
330
362
100
AcDbEntity
  8
001
 62
   253
370
    50
100
AcDbVertex
100
AcDb2dVertex
 10
101.983425
 20
51.316471
 30
0.0
  0
VERTEX
  5
372
330
362
100
AcDbEntity
  8
001
 62
   253
370
    50
100
AcDbVertex
100
AcDb2dVertex
 10
101.826811
 20
51.343683
 30
0.0
  0
VERTEX
  5
373
330
362
100
AcDbEntity
  8
001
 62
   253
370
    50
100
AcDbVertex
100
AcDb2dVertex
 10
101.684996
 20
51.369296
 30
0.0
  0
VERTEX
  5
374
330
362
100
AcDbEntity
  8
001
 62
   253
370
    50
100
AcDbVertex
100
AcDb2dVertex
 10
101.543344
 20
51.395801
 30
0.0
  0
VERTEX
  5
375
330
362
100
AcDbEntity
  8
001
 62
   253
370
    50
100
AcDbVertex
100
AcDb2dVertex
 10
101.334479
 20
51.436551
 30
0.0
  0
VERTEX
  5
376
330
362
100
AcDbEntity
  8
001
 62
   253
370
    50
100
AcDbVertex
100
AcDb2dVertex
 10
101.12599
 20
51.479182
 30
0.0
  0
VERTEX
  5
377
330
362
100
AcDbEntity
  8
001
 62
   253
370
    50
100
AcDbVertex
100
AcDb2dVertex
 10
101.042378
 20
51.49682
 30
0.0
  0
VERTEX
  5
378
330
362
100
AcDbEntity
  8
001
 62
   253
370
    50
100
AcDbVertex
100
AcDb2dVertex
 10
100.95883
 20
51.514755
 30
0.0
  0
VERTEX
  5
379
330
362
100
AcDbEntity
  8
001
 62
   253
370
    50
100
AcDbVertex
100
AcDb2dVertex
 10
100.894139
 20
51.528857
 30
0.0
  0
VERTEX
  5
37A
330
362
100
AcDbEntity
  8
001
 62
   253
370
    50
100
AcDbVertex
100
AcDb2dVertex
 10
100.829486
 20
51.543132
 30
0.0
  0
VERTEX
  5
37B
330
362
100
AcDbEntity
  8
001
 62
   253
370
    50
100
AcDbVertex
100
AcDb2dVertex
 10
100.767447
 20
51.556998
 30
0.0
  0
VERTEX
  5
37C
330
362
100
AcDbEntity
  8
001
 62
   253
370
    50
100
AcDbVertex
100
AcDb2dVertex
 10
100.705444
 20
51.571027
 30
0.0
  0
VERTEX
  5
37D
330
362
100
AcDbEntity
  8
001
 62
   253
370
    50
100
AcDbVertex
100
AcDb2dVertex
 10
100.696333
 20
51.573103
 30
0.0
  0
VERTEX
  5
37E
330
362
100
AcDbEntity
  8
001
 62
   253
370
    50
100
AcDbVertex
100
AcDb2dVertex
 10
100.687223
 20
51.575181
 30
0.0
  0
SEQEND
  5
363
330
362
100
AcDbEntity
  8
001
370
    50
  0
POLYLINE
  5
37F
330
1F
100
AcDbEntity
  8
001
 62
   253
370
    50
100
AcDb2dPolyline
 66
     1
 10
0.0
 20
0.0
 30
0.0
  0
VERTEX
  5
381
330
37F
100
AcDbEntity
  8
001
 62
   253
370
    50
100
AcDbVertex
100
AcDb2dVertex
 10
104.539601
 20
51.039488
 30
0.0
  0
VERTEX
  5
382
330
37F
100
AcDbEntity
  8
001
 62
   253
370
    50
100
AcDbVertex
100
AcDb2dVertex
 10
104.624754
 20
51.029496
 30
0.0
  0
VERTEX
  5
383
330
37F
100
AcDbEntity
  8
001
 62
   253
370
    50
100
AcDbVertex
100
AcDb2dVertex
 10
104.710035
 20
51.020991
 30
0.0
  0
VERTEX
  5
384
330
37F
100
AcDbEntity
  8
001
 62
   253
370
    50
100
AcDbVertex
100
AcDb2dVertex
 10
104.801036
 20
51.014708
 30
0.0
  0
VERTEX
  5
385
330
37F
100
AcDbEntity
  8
001
 62
   253
370
    50
100
AcDbVertex
100
AcDb2dVertex
 10
104.892187
 20
51.010382
 30
0.0
  0
VERTEX
  5
386
330
37F
100
AcDbEntity
  8
001
 62
   253
370
    50
100
AcDbVertex
100
AcDb2dVertex
 10
105.166413
 20
51.001483
 30
0.0
  0
VERTEX
  5
387
330
37F
100
AcDbEntity
  8
001
 62
   253
370
    50
100
AcDbVertex
100
AcDb2dVertex
 10
105.440709
 20
50.998173
 30
0.0
  0
VERTEX
  5
388
330
37F
100
AcDbEntity
  8
001
 62
   253
370
    50
100
AcDbVertex
100
AcDb2dVertex
 10
105.715856
 20
51.000858
 30
0.0
  0
VERTEX
  5
389
330
37F
100
AcDbEntity
  8
001
 62
   253
370
    50
100
AcDbVertex
100
AcDb2dVertex
 10
105.990923
 20
51.008896
 30
0.0
  0
VERTEX
  5
38A
330
37F
100
AcDbEntity
  8
001
 62
   253
370
    50
100
AcDbVertex
100
AcDb2dVertex
 10
106.271795
 20
51.021879
 30
0.0
  0
VERTEX
  5
38B
330
37F
100
AcDbEntity
  8
001
 62
   253
370
    50
100
AcDbVertex
100
AcDb2dVertex
 10
106.552396
 20
51.039701
 30
0.0
  0
VERTEX
  5
38C
330
37F
100
AcDbEntity
  8
001
 62
   253
370
    50
100
AcDbVertex
100
AcDb2dVertex
 10
106.822334
 20
51.061696
 30
0.0
  0
VERTEX
  5
38D
330
37F
100
AcDbEntity
  8
001
 62
   253
370
    50
100
AcDbVertex
100
AcDb2dVertex
 10
107.091784
 20
51.088898
 30
0.0
  0
VERTEX
  5
38E
330
37F
100
AcDbEntity
  8
001
 62
   253
370
    50
100
AcDbVertex
100
AcDb2dVertex
 10
107.120016
 20
51.09207
 30
0.0
  0
VERTEX
  5
38F
330
37F
100
AcDbEntity
  8
001
 62
   253
370
    50
100
AcDbVertex
100
AcDb2dVertex
 10
107.148244
 20
51.095273
 30
0.0
  0
SEQEND
  5
380
330
37F
100
AcDbEntity
  8
001
370
    50
  0
ARC
  5
390
330
1F
100
AcDbEntity
  8
001
 62
   253
370
    50
100
AcDbCircle
 10
264.903999
 20
142.121984
 30
0.0
 40
20.0
100
AcDbArc
 50
205.841933
 51
154.158067
  0
CIRCLE
  5
391
330
1F
100
AcDbEntity
  8
001
 62
   253
370
    50
100
AcDbCircle
 10
264.903999
 20
142.121984
 30
0.0
 40
5.999999999999992
  0
CIRCLE
  5
392
330
1F
100
AcDbEntity
  8
001
 62
   253
370
    50
100
AcDbCircle
 10
264.903999
 20
142.121984
 30
0.0
 40
23.5
  0
LINE
  5
393
330
1F
100
AcDbEntity
  8
001
  6
DASHED
370
    50
100
AcDbLine
 10
197.42223
 20
155.392805
 30
0.0
 11
77.42223
 21
155.392805
 31
0.0
  0
LINE
  5
394
330
1F
100
AcDbEntity
  8
001
  6
DASHED
370
    50
100
AcDbLine
 10
197.42223
 20
143.392805
 30
0.0
 11
77.42223
 21
143.392805
 31
0.0
  0
LINE
  5
395
330
1F
100
AcDbEntity
  8
001
  6
CENTER
370
     9
100
AcDbLine
 10
70.23846
 20
149.392805
 30
0.0
 11
202.673622
 21
149.392805
 31
0.0
  0
LINE
  5
396
330
1F
100
AcDbEntity
  8
001
  6
CENTER
 62
   253
370
     9
100
AcDbLine
 10
90.42223
 20
138.470155
 30
0.0
 11
90.42223
 21
160.315454
 31
0.0
  0
LINE
  5
397
330
1F
100
AcDbEntity
  8
001
  6
CENTER
 62
   253
370
     9
100
AcDbLine
 10
105.42223
 20
138.470155
 30
0.0
 11
105.42223
 21
160.315454
 31
0.0
  0
LINE
  5
398
330
1F
100
AcDbEntity
  8
001
  6
CENTER
 62
   253
370
     9
100
AcDbLine
 10
105.42223
 20
37.353384
 30
0.0
 11
105.42223
 21
56.313369
 31
0.0
  0
LINE
  5
399
330
1F
100
AcDbEntity
  8
001
  6
CENTER
 62
   253
370
     9
100
AcDbLine
 10
90.42223
 20
37.353384
 30
0.0
 11
90.42223
 21
56.313369
 31
0.0
  0
LINE
  5
39A
330
1F
100
AcDbEntity
  8
001
 62
   253
370
    50
100
AcDbLine
 10
120.42223
 20
15.575181
 30
0.0
 11
120.42223
 21
53.575181
 31
0.0
  0
LINE
  5
39B
330
1F
100
AcDbEntity
  8
001
 62
   253
370
    50
100
AcDbLine
 10
120.42223
 20
15.575181
 30
0.0
 11
145.43163
 21
15.575181
 31
0.0
  0
LINE
  5
39C
330
1F
100
AcDbEntity
  8
001
 62
   253
370
    50
100
AcDbLine
 10
145.43163
 20
53.575181
 30
0.0
 11
117.42223
 21
53.575181
 31
0.0
  0
LINE
  5
39D
330
1F
100
AcDbEntity
  8
001
  6
DASHED
370
    50
100
AcDbLine
 10
145.43163
 20
29.575181
 30
0.0
 11
77.42223
 21
29.575181
 31
0.0
  0
LINE
  5
39E
330
1F
100
AcDbEntity
  8
001
  6
DASHED
370
    50
100
AcDbLine
 10
145.43163
 20
41.575181
 30
0.0
 11
77.42223
 21
41.575181
 31
0.0
  0
LINE
  5
39F
330
1F
100
AcDbEntity
  8
001
  6
CENTER
370
     9
100
AcDbLine
 10
70.23846
 20
35.575181
 30
0.0
 11
155.0679
 21
35.575181
 31
0.0
  0
LINE
  5
3A0
330
1F
100
AcDbEntity
  8
001
370
    50
100
AcDbLine
 10
246.903999
 20
150.839782
 30
0.0
 11
246.903999
 21
133.404186
 31
0.0
  0
LINE
  5
3A1
330
1F
100
AcDbEntity
  8
001
370
     9
100
AcDbLine
 10
120.42223
 20
157.461881
 30
0.0
 11
195.42223
 21
141.323728
 31
0.0
  0
LINE
  5
3A2
330
1F
100
AcDbEntity
  8
001
370
     9
100
AcDbLine
 10
195.42223
 20
157.461881
 30
0.0
 11
120.42223
 21
141.323728
 31
0.0
  0
LINE
  5
3A3
330
1F
100
AcDbEntity
  8
001
 62
   253
370
    50
100
AcDbLine
 10
82.69018
 20
163.392805
 30
0.0
 11
97.42223
 21
163.392805
 31
0.0
  0
LINE
  5
3A4
330
1F
100
AcDbEntity
  8
001
370
    50
100
AcDbLine
 10
77.92223
 20
160.794728
 30
0.0
 11
82.19018
 21
163.25883
 31
0.0
  0
ARC
  5
3A5
330
1F
100
AcDbEntity
  8
001
370
    50
100
AcDbCircle
 10
82.69018
 20
162.392805
 30
0.0
 40
1.0
100
AcDbArc
 50
90.0
 51
120.0
  0
ARC
  5
3A6
330
1F
100
AcDbEntity
  8
001
 62
   253
370
    50
100
AcDbCircle
 10
78.42223
 20
159.928703
 30
0.0
 40
1.0
100
AcDbArc
 50
120.0
 51
180.0
  0
LINE
  5
3A7
330
1F
100
AcDbEntity
  8
001
  6
CENTER
 62
   253
370
     9
100
AcDbLine
 10
82.69018
 20
163.392805
 30
0.0
 11
82.42223
 21
163.392805
 31
0.0
  0
LINE
  5
3A8
330
1F
100
AcDbEntity
  8
001
  6
CENTER
370
     9
100
AcDbLine
 10
82.19018
 20
163.25883
 30
0.0
 11
82.42223
 21
163.392805
 31
0.0
  0
LINE
  5
3A9
330
1F
100
AcDbEntity
  8
001
 62
   253
370
    50
100
AcDbLine
 10
77.42223
 20
159.928703
 30
0.0
 11
77.42223
 21
149.392805
 31
0.0
  0
LINE
  5
3AA
330
1F
100
AcDbEntity
  8
001
 62
   253
370
    50
100
AcDbLine
 10
82.69018
 20
135.392805
 30
0.0
 11
97.42223
 21
135.392805
 31
0.0
  0
LINE
  5
3AB
330
1F
100
AcDbEntity
  8
001
370
    50
100
AcDbLine
 10
77.92223
 20
137.990881
 30
0.0
 11
82.19018
 21
135.526779
 31
0.0
  0
ARC
  5
3AC
330
1F
100
AcDbEntity
  8
001
370
    50
100
AcDbCircle
 10
82.69018
 20
136.392805
 30
0.0
 40
1.0
100
AcDbArc
 50
240.0
 51
270.0
  0
ARC
  5
3AD
330
1F
100
AcDbEntity
  8
001
 62
   253
370
    50
100
AcDbCircle
 10
78.42223
 20
138.856906
 30
0.0
 40
1.0
100
AcDbArc
 50
180.0
 51
240.0
  0
LINE
  5
3AE
330
1F
100
AcDbEntity
  8
001
 62
   253
370
    50
100
AcDbLine
 10
77.42223
 20
138.856906
 30
0.0
 11
77.42223
 21
149.392805
 31
0.0
  0
LINE
  5
3AF
330
1F
100
AcDbEntity
  8
001
 62
   253
370
    50
100
AcDbLine
 10
97.92223
 20
19.575181
 30
0.0
 11
97.92223
 21
51.575181
 31
0.0
  0
LINE
  5
3B0
330
1F
100
AcDbEntity
  8
001
 62
   253
370
    50
100
AcDbLine
 10
97.42223
 20
20.075181
 30
0.0
 11
97.42223
 21
51.075181
 31
0.0
  0
LINE
  5
3B1
330
1F
100
AcDbEntity
  8
001
 62
   253
370
    50
100
AcDbLine
 10
97.92223
 20
51.575181
 30
0.0
 11
97.42223
 21
51.075181
 31
0.0
  0
POLYLINE
  5
3B2
330
1F
100
AcDbEntity
  8
001
 62
   253
370
    50
100
AcDb2dPolyline
 66
     1
 10
0.0
 20
0.0
 30
0.0
  0
VERTEX
  5
3B4
330
3B2
100
AcDbEntity
  8
001
 62
   253
370
    50
100
AcDbVertex
100
AcDb2dVertex
 10
110.157238
 20
51.575181
 30
0.0
  0
VERTEX
  5
3B5
330
3B2
100
AcDbEntity
  8
001
 62
   253
370
    50
100
AcDbVertex
100
AcDb2dVertex
 10
110.143182
 20
51.571977
 30
0.0
  0
VERTEX
  5
3B6
330
3B2
100
AcDbEntity
  8
001
 62
   253
370
    50
100
AcDbVertex
100
AcDb2dVertex
 10
110.129125
 20
51.568778
 30
0.0
  0
VERTEX
  5
3B7
330
3B2
100
AcDbEntity
  8
001
 62
   253
370
    50
100
AcDbVertex
100
AcDb2dVertex
 10
110.063763
 20
51.554021
 30
0.0
  0
VERTEX
  5
3B8
330
3B2
100
AcDbEntity
  8
001
 62
   253
370
    50
100
AcDbVertex
100
AcDb2dVertex
 10
109.99836
 20
51.539447
 30
0.0
  0
VERTEX
  5
3B9
330
3B2
100
AcDbEntity
  8
001
 62
   253
370
    50
100
AcDbVertex
100
AcDb2dVertex
 10
109.93058
 20
51.524538
 30
0.0
  0
VERTEX
  5
3BA
330
3B2
100
AcDbEntity
  8
001
 62
   253
370
    50
100
AcDbVertex
100
AcDb2dVertex
 10
109.862758
 20
51.509819
 30
0.0
  0
VERTEX
  5
3BB
330
3B2
100
AcDbEntity
  8
001
 62
   253
370
    50
100
AcDbVertex
100
AcDb2dVertex
 10
109.775046
 20
51.491085
 30
0.0
  0
VERTEX
  5
3BC
330
3B2
100
AcDbEntity
  8
001
 62
   253
370
    50
100
AcDbVertex
100
AcDb2dVertex
 10
109.687265
 20
51.472678
 30
0.0
  0
VERTEX
  5
3BD
330
3B2
100
AcDbEntity
  8
001
 62
   253
370
    50
100
AcDbVertex
100
AcDb2dVertex
 10
109.500829
 20
51.434725
 30
0.0
  0
VERTEX
  5
3BE
330
3B2
100
AcDbEntity
  8
001
 62
   253
370
    50
100
AcDbVertex
100
AcDb2dVertex
 10
109.314091
 20
51.398274
 30
0.0
  0
VERTEX
  5
3BF
330
3B2
100
AcDbEntity
  8
001
 62
   253
370
    50
100
AcDbVertex
100
AcDb2dVertex
 10
109.078765
 20
51.354593
 30
0.0
  0
VERTEX
  5
3C0
330
3B2
100
AcDbEntity
  8
001
 62
   253
370
    50
100
AcDbVertex
100
AcDb2dVertex
 10
108.842991
 20
51.313407
 30
0.0
  0
VERTEX
  5
3C1
330
3B2
100
AcDbEntity
  8
001
 62
   253
370
    50
100
AcDbVertex
100
AcDb2dVertex
 10
108.566905
 20
51.268514
 30
0.0
  0
VERTEX
  5
3C2
330
3B2
100
AcDbEntity
  8
001
 62
   253
370
    50
100
AcDbVertex
100
AcDb2dVertex
 10
108.290276
 20
51.22705
 30
0.0
  0
VERTEX
  5
3C3
330
3B2
100
AcDbEntity
  8
001
 62
   253
370
    50
100
AcDbVertex
100
AcDb2dVertex
 10
107.977186
 20
51.184379
 30
0.0
  0
VERTEX
  5
3C4
330
3B2
100
AcDbEntity
  8
001
 62
   253
370
    50
100
AcDbVertex
100
AcDb2dVertex
 10
107.66346
 20
51.146819
 30
0.0
  0
VERTEX
  5
3C5
330
3B2
100
AcDbEntity
  8
001
 62
   253
370
    50
100
AcDbVertex
100
AcDb2dVertex
 10
107.40596
 20
51.120043
 30
0.0
  0
VERTEX
  5
3C6
330
3B2
100
AcDbEntity
  8
001
 62
   253
370
    50
100
AcDbVertex
100
AcDb2dVertex
 10
107.148244
 20
51.095273
 30
0.0
  0
SEQEND
  5
3B3
330
3B2
100
AcDbEntity
  8
001
370
    50
  0
POLYLINE
  5
3C7
330
1F
100
AcDbEntity
  8
001
 62
   253
370
    50
100
AcDb2dPolyline
 66
     1
 10
0.0
 20
0.0
 30
0.0
  0
VERTEX
  5
3C9
330
3C7
100
AcDbEntity
  8
001
 62
   253
370
    50
100
AcDbVertex
100
AcDb2dVertex
 10
104.623088
 20
51.035917
 30
0.0
  0
VERTEX
  5
3CA
330
3C7
100
AcDbEntity
  8
001
 62
   253
370
    50
100
AcDbVertex
100
AcDb2dVertex
 10
104.776885
 20
51.03052
 30
0.0
  0
VERTEX
  5
3CB
330
3C7
100
AcDbEntity
  8
001
 62
   253
370
    50
100
AcDbVertex
100
AcDb2dVertex
 10
104.930703
 20
51.025812
 30
0.0
  0
VERTEX
  5
3CC
330
3C7
100
AcDbEntity
  8
001
 62
   253
370
    50
100
AcDbVertex
100
AcDb2dVertex
 10
105.357349
 20
51.019512
 30
0.0
  0
VERTEX
  5
3CD
330
3C7
100
AcDbEntity
  8
001
 62
   253
370
    50
100
AcDbVertex
100
AcDb2dVertex
 10
105.784057
 20
51.022994
 30
0.0
  0
VERTEX
  5
3CE
330
3C7
100
AcDbEntity
  8
001
 62
   253
370
    50
100
AcDbVertex
100
AcDb2dVertex
 10
106.204238
 20
51.035333
 30
0.0
  0
VERTEX
  5
3CF
330
3C7
100
AcDbEntity
  8
001
 62
   253
370
    50
100
AcDbVertex
100
AcDb2dVertex
 10
106.624055
 20
51.056391
 30
0.0
  0
VERTEX
  5
3D0
330
3C7
100
AcDbEntity
  8
001
 62
   253
370
    50
100
AcDbVertex
100
AcDb2dVertex
 10
106.83453
 20
51.070276
 30
0.0
  0
VERTEX
  5
3D1
330
3C7
100
AcDbEntity
  8
001
 62
   253
370
    50
100
AcDbVertex
100
AcDb2dVertex
 10
107.04483
 20
51.086529
 30
0.0
  0
VERTEX
  5
3D2
330
3C7
100
AcDbEntity
  8
001
 62
   253
370
    50
100
AcDbVertex
100
AcDb2dVertex
 10
107.148511
 20
51.095416
 30
0.0
  0
VERTEX
  5
3D3
330
3C7
100
AcDbEntity
  8
001
 62
   253
370
    50
100
AcDbVertex
100
AcDb2dVertex
 10
107.252167
 20
51.104612
 30
0.0
  0
SEQEND
  5
3C8
330
3C7
100
AcDbEntity
  8
001
370
    50
  0
LINE
  5
3D4
330
1F
100
AcDbEntity
  8
001
 62
   253
370
    50
100
AcDbLine
 10
100.703161
 20
51.575181
 30
0.0
 11
97.92223
 21
51.575181
 31
0.0
  0
POLYLINE
  5
3D5
330
1F
100
AcDbEntity
  8
001
 62
   253
370
    50
100
AcDb2dPolyline
 66
     1
 10
0.0
 20
0.0
 30
0.0
  0
VERTEX
  5
3D7
330
3D5
100
AcDbEntity
  8
001
 62
   253
370
    50
100
AcDbVertex
100
AcDb2dVertex
 10
104.539601
 20
51.039488
 30
0.0
  0
VERTEX
  5
3D8
330
3D5
100
AcDbEntity
  8
001
 62
   253
370
    50
100
AcDbVertex
100
AcDb2dVertex
 10
104.481677
 20
51.042212
 30
0.0
  0
VERTEX
  5
3D9
330
3D5
100
AcDbEntity
  8
001
 62
   253
370
    50
100
AcDbVertex
100
AcDb2dVertex
 10
104.423756
 20
51.045027
 30
0.0
  0
VERTEX
  5
3DA
330
3D5
100
AcDbEntity
  8
001
 62
   253
370
    50
100
AcDbVertex
100
AcDb2dVertex
 10
104.014652
 20
51.069908
 30
0.0
  0
VERTEX
  5
3DB
330
3D5
100
AcDbEntity
  8
001
 62
   253
370
    50
100
AcDbVertex
100
AcDb2dVertex
 10
103.606144
 20
51.103336
 30
0.0
  0
VERTEX
  5
3DC
330
3D5
100
AcDbEntity
  8
001
 62
   253
370
    50
100
AcDbVertex
100
AcDb2dVertex
 10
103.404746
 20
51.122841
 30
0.0
  0
VERTEX
  5
3DD
330
3D5
100
AcDbEntity
  8
001
 62
   253
370
    50
100
AcDbVertex
100
AcDb2dVertex
 10
103.203551
 20
51.144302
 30
0.0
  0
VERTEX
  5
3DE
330
3D5
100
AcDbEntity
  8
001
 62
   253
370
    50
100
AcDbVertex
100
AcDb2dVertex
 10
103.010541
 20
51.166753
 30
0.0
  0
VERTEX
  5
3DF
330
3D5
100
AcDbEntity
  8
001
 62
   253
370
    50
100
AcDbVertex
100
AcDb2dVertex
 10
102.817746
 20
51.190996
 30
0.0
  0
VERTEX
  5
3E0
330
3D5
100
AcDbEntity
  8
001
 62
   253
370
    50
100
AcDbVertex
100
AcDb2dVertex
 10
102.642929
 20
51.214541
 30
0.0
  0
VERTEX
  5
3E1
330
3D5
100
AcDbEntity
  8
001
 62
   253
370
    50
100
AcDbVertex
100
AcDb2dVertex
 10
102.468311
 20
51.239525
 30
0.0
  0
VERTEX
  5
3E2
330
3D5
100
AcDbEntity
  8
001
 62
   253
370
    50
100
AcDbVertex
100
AcDb2dVertex
 10
102.304173
 20
51.264327
 30
0.0
  0
VERTEX
  5
3E3
330
3D5
100
AcDbEntity
  8
001
 62
   253
370
    50
100
AcDbVertex
100
AcDb2dVertex
 10
102.140229
 20
51.290373
 30
0.0
  0
VERTEX
  5
3E4
330
3D5
100
AcDbEntity
  8
001
 62
   253
370
    50
100
AcDbVertex
100
AcDb2dVertex
 10
101.983425
 20
51.316471
 30
0.0
  0
VERTEX
  5
3E5
330
3D5
100
AcDbEntity
  8
001
 62
   253
370
    50
100
AcDbVertex
100
AcDb2dVertex
 10
101.826811
 20
51.343683
 30
0.0
  0
VERTEX
  5
3E6
330
3D5
100
AcDbEntity
  8
001
 62
   253
370
    50
100
AcDbVertex
100
AcDb2dVertex
 10
101.684996
 20
51.369296
 30
0.0
  0
VERTEX
  5
3E7
330
3D5
100
AcDbEntity
  8
001
 62
   253
370
    50
100
AcDbVertex
100
AcDb2dVertex
 10
101.543344
 20
51.395801
 30
0.0
  0
VERTEX
  5
3E8
330
3D5
100
AcDbEntity
  8
001
 62
   253
370
    50
100
AcDbVertex
100
AcDb2dVertex
 10
101.334479
 20
51.436551
 30
0.0
  0
VERTEX
  5
3E9
330
3D5
100
AcDbEntity
  8
001
 62
   253
370
    50
100
AcDbVertex
100
AcDb2dVertex
 10
101.12599
 20
51.479182
 30
0.0
  0
VERTEX
  5
3EA
330
3D5
100
AcDbEntity
  8
001
 62
   253
370
    50
100
AcDbVertex
100
AcDb2dVertex
 10
101.042378
 20
51.49682
 30
0.0
  0
VERTEX
  5
3EB
330
3D5
100
AcDbEntity
  8
001
 62
   253
370
    50
100
AcDbVertex
100
AcDb2dVertex
 10
100.95883
 20
51.514755
 30
0.0
  0
VERTEX
  5
3EC
330
3D5
100
AcDbEntity
  8
001
 62
   253
370
    50
100
AcDbVertex
100
AcDb2dVertex
 10
100.894139
 20
51.528857
 30
0.0
  0
VERTEX
  5
3ED
330
3D5
100
AcDbEntity
  8
001
 62
   253
370
    50
100
AcDbVertex
100
AcDb2dVertex
 10
100.829486
 20
51.543132
 30
0.0
  0
VERTEX
  5
3EE
330
3D5
100
AcDbEntity
  8
001
 62
   253
370
    50
100
AcDbVertex
100
AcDb2dVertex
 10
100.767447
 20
51.556998
 30
0.0
  0
VERTEX
  5
3EF
330
3D5
100
AcDbEntity
  8
001
 62
   253
370
    50
100
AcDbVertex
100
AcDb2dVertex
 10
100.705444
 20
51.571027
 30
0.0
  0
VERTEX
  5
3F0
330
3D5
100
AcDbEntity
  8
001
 62
   253
370
    50
100
AcDbVertex
100
AcDb2dVertex
 10
100.696333
 20
51.573103
 30
0.0
  0
VERTEX
  5
3F1
330
3D5
100
AcDbEntity
  8
001
 62
   253
370
    50
100
AcDbVertex
100
AcDb2dVertex
 10
100.687223
 20
51.575181
 30
0.0
  0
SEQEND
  5
3D6
330
3D5
100
AcDbEntity
  8
001
370
    50
  0
POLYLINE
  5
3F2
330
1F
100
AcDbEntity
  8
001
 62
   253
370
    50
100
AcDb2dPolyline
 66
     1
 10
0.0
 20
0.0
 30
0.0
  0
VERTEX
  5
3F4
330
3F2
100
AcDbEntity
  8
001
 62
   253
370
    50
100
AcDbVertex
100
AcDb2dVertex
 10
104.539601
 20
51.039488
 30
0.0
  0
VERTEX
  5
3F5
330
3F2
100
AcDbEntity
  8
001
 62
   253
370
    50
100
AcDbVertex
100
AcDb2dVertex
 10
104.624754
 20
51.029496
 30
0.0
  0
VERTEX
  5
3F6
330
3F2
100
AcDbEntity
  8
001
 62
   253
370
    50
100
AcDbVertex
100
AcDb2dVertex
 10
104.710035
 20
51.020991
 30
0.0
  0
VERTEX
  5
3F7
330
3F2
100
AcDbEntity
  8
001
 62
   253
370
    50
100
AcDbVertex
100
AcDb2dVertex
 10
104.801036
 20
51.014708
 30
0.0
  0
VERTEX
  5
3F8
330
3F2
100
AcDbEntity
  8
001
 62
   253
370
    50
100
AcDbVertex
100
AcDb2dVertex
 10
104.892187
 20
51.010382
 30
0.0
  0
VERTEX
  5
3F9
330
3F2
100
AcDbEntity
  8
001
 62
   253
370
    50
100
AcDbVertex
100
AcDb2dVertex
 10
105.166413
 20
51.001483
 30
0.0
  0
VERTEX
  5
3FA
330
3F2
100
AcDbEntity
  8
001
 62
   253
370
    50
100
AcDbVertex
100
AcDb2dVertex
 10
105.440709
 20
50.998173
 30
0.0
  0
VERTEX
  5
3FB
330
3F2
100
AcDbEntity
  8
001
 62
   253
370
    50
100
AcDbVertex
100
AcDb2dVertex
 10
105.715856
 20
51.000858
 30
0.0
  0
VERTEX
  5
3FC
330
3F2
100
AcDbEntity
  8
001
 62
   253
370
    50
100
AcDbVertex
100
AcDb2dVertex
 10
105.990923
 20
51.008896
 30
0.0
  0
VERTEX
  5
3FD
330
3F2
100
AcDbEntity
  8
001
 62
   253
370
    50
100
AcDbVertex
100
AcDb2dVertex
 10
106.271795
 20
51.021879
 30
0.0
  0
VERTEX
  5
3FE
330
3F2
100
AcDbEntity
  8
001
 62
   253
370
    50
100
AcDbVertex
100
AcDb2dVertex
 10
106.552396
 20
51.039701
 30
0.0
  0
VERTEX
  5
3FF
330
3F2
100
AcDbEntity
  8
001
 62
   253
370
    50
100
AcDbVertex
100
AcDb2dVertex
 10
106.822334
 20
51.061696
 30
0.0
  0
VERTEX
  5
400
330
3F2
100
AcDbEntity
  8
001
 62
   253
370
    50
100
AcDbVertex
100
AcDb2dVertex
 10
107.091784
 20
51.088898
 30
0.0
  0
VERTEX
  5
401
330
3F2
100
AcDbEntity
  8
001
 62
   253
370
    50
100
AcDbVertex
100
AcDb2dVertex
 10
107.120016
 20
51.09207
 30
0.0
  0
VERTEX
  5
402
330
3F2
100
AcDbEntity
  8
001
 62
   253
370
    50
100
AcDbVertex
100
AcDb2dVertex
 10
107.148244
 20
51.095273
 30
0.0
  0
SEQEND
  5
3F3
330
3F2
100
AcDbEntity
  8
001
370
    50
  0
POLYLINE
  5
403
330
1F
100
AcDbEntity
  8
001
 62
   253
370
    50
100
AcDb2dPolyline
 66
     1
 10
0.0
 20
0.0
 30
0.0
  0
VERTEX
  5
405
330
403
100
AcDbEntity
  8
001
 62
   253
370
    50
100
AcDbVertex
100
AcDb2dVertex
 10
95.157238
 20
49.575181
 30
0.0
  0
VERTEX
  5
406
330
403
100
AcDbEntity
  8
001
 62
   253
370
    50
100
AcDbVertex
100
AcDb2dVertex
 10
95.106916
 20
49.562874
 30
0.0
  0
VERTEX
  5
407
330
403
100
AcDbEntity
  8
001
 62
   253
370
    50
100
AcDbVertex
100
AcDb2dVertex
 10
95.056579
 20
49.550634
 30
0.0
  0
VERTEX
  5
408
330
403
100
AcDbEntity
  8
001
 62
   253
370
    50
100
AcDbVertex
100
AcDb2dVertex
 10
94.979699
 20
49.532189
 30
0.0
  0
VERTEX
  5
409
330
403
100
AcDbEntity
  8
001
 62
   253
370
    50
100
AcDbVertex
100
AcDb2dVertex
 10
94.902752
 20
49.514024
 30
0.0
  0
VERTEX
  5
40A
330
403
100
AcDbEntity
  8
001
 62
   253
370
    50
100
AcDbVertex
100
AcDb2dVertex
 10
94.791582
 20
49.488256
 30
0.0
  0
VERTEX
  5
40B
330
403
100
AcDbEntity
  8
001
 62
   253
370
    50
100
AcDbVertex
100
AcDb2dVertex
 10
94.680288
 20
49.463031
 30
0.0
  0
VERTEX
  5
40C
330
403
100
AcDbEntity
  8
001
 62
   253
370
    50
100
AcDbVertex
100
AcDb2dVertex
 10
94.491919
 20
49.421681
 30
0.0
  0
VERTEX
  5
40D
330
403
100
AcDbEntity
  8
001
 62
   253
370
    50
100
AcDbVertex
100
AcDb2dVertex
 10
94.303197
 20
49.381964
 30
0.0
  0
VERTEX
  5
40E
330
403
100
AcDbEntity
  8
001
 62
   253
370
    50
100
AcDbVertex
100
AcDb2dVertex
 10
94.066196
 20
49.334533
 30
0.0
  0
VERTEX
  5
40F
330
403
100
AcDbEntity
  8
001
 62
   253
370
    50
100
AcDbVertex
100
AcDb2dVertex
 10
93.828676
 20
49.289781
 30
0.0
  0
VERTEX
  5
410
330
403
100
AcDbEntity
  8
001
 62
   253
370
    50
100
AcDbVertex
100
AcDb2dVertex
 10
93.552421
 20
49.241296
 30
0.0
  0
VERTEX
  5
411
330
403
100
AcDbEntity
  8
001
 62
   253
370
    50
100
AcDbVertex
100
AcDb2dVertex
 10
93.27553
 20
49.196556
 30
0.0
  0
VERTEX
  5
412
330
403
100
AcDbEntity
  8
001
 62
   253
370
    50
100
AcDbVertex
100
AcDb2dVertex
 10
92.963159
 20
49.150772
 30
0.0
  0
VERTEX
  5
413
330
403
100
AcDbEntity
  8
001
 62
   253
370
    50
100
AcDbVertex
100
AcDb2dVertex
 10
92.650084
 20
49.110157
 30
0.0
  0
VERTEX
  5
414
330
403
100
AcDbEntity
  8
001
 62
   253
370
    50
100
AcDbVertex
100
AcDb2dVertex
 10
92.597467
 20
49.103861
 30
0.0
  0
VERTEX
  5
415
330
403
100
AcDbEntity
  8
001
 62
   253
370
    50
100
AcDbVertex
100
AcDb2dVertex
 10
92.544841
 20
49.097642
 30
0.0
  0
SEQEND
  5
404
330
403
100
AcDbEntity
  8
001
370
    50
  0
POLYLINE
  5
416
330
1F
100
AcDbEntity
  8
001
 62
   253
370
    50
100
AcDb2dPolyline
 66
     1
 10
0.0
 20
0.0
 30
0.0
  0
VERTEX
  5
418
330
416
100
AcDbEntity
  8
001
 62
   253
370
    50
100
AcDbVertex
100
AcDb2dVertex
 10
89.103109
 20
49.021687
 30
0.0
  0
VERTEX
  5
419
330
416
100
AcDbEntity
  8
001
 62
   253
370
    50
100
AcDbVertex
100
AcDb2dVertex
 10
89.34815
 20
49.006149
 30
0.0
  0
VERTEX
  5
41A
330
416
100
AcDbEntity
  8
001
 62
   253
370
    50
100
AcDbVertex
100
AcDb2dVertex
 10
89.593295
 20
48.992598
 30
0.0
  0
VERTEX
  5
41B
330
416
100
AcDbEntity
  8
001
 62
   253
370
    50
100
AcDbVertex
100
AcDb2dVertex
 10
90.01563
 20
48.977805
 30
0.0
  0
VERTEX
  5
41C
330
416
100
AcDbEntity
  8
001
 62
   253
370
    50
100
AcDbVertex
100
AcDb2dVertex
 10
90.438254
 20
48.973572
 30
0.0
  0
VERTEX
  5
41D
330
416
100
AcDbEntity
  8
001
 62
   253
370
    50
100
AcDbVertex
100
AcDb2dVertex
 10
90.862586
 20
48.978998
 30
0.0
  0
VERTEX
  5
41E
330
416
100
AcDbEntity
  8
001
 62
   253
370
    50
100
AcDbVertex
100
AcDb2dVertex
 10
91.286643
 20
48.99426
 30
0.0
  0
VERTEX
  5
41F
330
416
100
AcDbEntity
  8
001
 62
   253
370
    50
100
AcDbVertex
100
AcDb2dVertex
 10
91.501061
 20
49.005823
 30
0.0
  0
VERTEX
  5
420
330
416
100
AcDbEntity
  8
001
 62
   253
370
    50
100
AcDbVertex
100
AcDb2dVertex
 10
91.715338
 20
49.01983
 30
0.0
  0
VERTEX
  5
421
330
416
100
AcDbEntity
  8
001
 62
   253
370
    50
100
AcDbVertex
100
AcDb2dVertex
 10
91.92507
 20
49.035852
 30
0.0
  0
VERTEX
  5
422
330
416
100
AcDbEntity
  8
001
 62
   253
370
    50
100
AcDbVertex
100
AcDb2dVertex
 10
92.134573
 20
49.054505
 30
0.0
  0
VERTEX
  5
423
330
416
100
AcDbEntity
  8
001
 62
   253
370
    50
100
AcDbVertex
100
AcDb2dVertex
 10
92.471164
 20
49.090226
 30
0.0
  0
VERTEX
  5
424
330
416
100
AcDbEntity
  8
001
 62
   253
370
    50
100
AcDbVertex
100
AcDb2dVertex
 10
92.807348
 20
49.129952
 30
0.0
  0
SEQEND
  5
417
330
416
100
AcDbEntity
  8
001
370
    50
  0
LINE
  5
425
330
1F
100
AcDbEntity
  8
001
 62
   253
370
    50
100
AcDbLine
 10
85.695749
 20
49.575181
 30
0.0
 11
82.886332
 21
49.575181
 31
0.0
  0
LINE
  5
426
330
1F
100
AcDbEntity
  8
001
 62
   253
370
    50
100
AcDbLine
 10
97.42223
 20
49.575181
 30
0.0
 11
95.145184
 21
49.575181
 31
0.0
  0
POLYLINE
  5
427
330
1F
100
AcDbEntity
  8
001
 62
   253
370
    50
100
AcDb2dPolyline
 66
     1
 10
0.0
 20
0.0
 30
0.0
  0
VERTEX
  5
429
330
427
100
AcDbEntity
  8
001
 62
   253
370
    50
100
AcDbVertex
100
AcDb2dVertex
 10
89.064775
 20
49.024516
 30
0.0
  0
VERTEX
  5
42A
330
427
100
AcDbEntity
  8
001
 62
   253
370
    50
100
AcDbVertex
100
AcDb2dVertex
 10
88.738497
 20
49.052889
 30
0.0
  0
VERTEX
  5
42B
330
427
100
AcDbEntity
  8
001
 62
   253
370
    50
100
AcDbVertex
100
AcDb2dVertex
 10
88.412588
 20
49.084865
 30
0.0
  0
VERTEX
  5
42C
330
427
100
AcDbEntity
  8
001
 62
   253
370
    50
100
AcDbVertex
100
AcDb2dVertex
 10
88.099
 20
49.121754
 30
0.0
  0
VERTEX
  5
42D
330
427
100
AcDbEntity
  8
001
 62
   253
370
    50
100
AcDbVertex
100
AcDb2dVertex
 10
87.7861
 20
49.164241
 30
0.0
  0
VERTEX
  5
42E
330
427
100
AcDbEntity
  8
001
 62
   253
370
    50
100
AcDbVertex
100
AcDb2dVertex
 10
87.611168
 20
49.190115
 30
0.0
  0
VERTEX
  5
42F
330
427
100
AcDbEntity
  8
001
 62
   253
370
    50
100
AcDbVertex
100
AcDb2dVertex
 10
87.436467
 20
49.217471
 30
0.0
  0
VERTEX
  5
430
330
427
100
AcDbEntity
  8
001
 62
   253
370
    50
100
AcDbVertex
100
AcDb2dVertex
 10
87.272356
 20
49.244605
 30
0.0
  0
VERTEX
  5
431
330
427
100
AcDbEntity
  8
001
 62
   253
370
    50
100
AcDbVertex
100
AcDb2dVertex
 10
87.108471
 20
49.27308
 30
0.0
  0
VERTEX
  5
432
330
427
100
AcDbEntity
  8
001
 62
   253
370
    50
100
AcDbVertex
100
AcDb2dVertex
 10
86.951824
 20
49.301561
 30
0.0
  0
VERTEX
  5
433
330
427
100
AcDbEntity
  8
001
 62
   253
370
    50
100
AcDbVertex
100
AcDb2dVertex
 10
86.795396
 20
49.331219
 30
0.0
  0
VERTEX
  5
434
330
427
100
AcDbEntity
  8
001
 62
   253
370
    50
100
AcDbVertex
100
AcDb2dVertex
 10
86.654029
 20
49.359058
 30
0.0
  0
VERTEX
  5
435
330
427
100
AcDbEntity
  8
001
 62
   253
370
    50
100
AcDbVertex
100
AcDb2dVertex
 10
86.512849
 20
49.387834
 30
0.0
  0
VERTEX
  5
436
330
427
100
AcDbEntity
  8
001
 62
   253
370
    50
100
AcDbVertex
100
AcDb2dVertex
 10
86.335308
 20
49.425393
 30
0.0
  0
VERTEX
  5
437
330
427
100
AcDbEntity
  8
001
 62
   253
370
    50
100
AcDbVertex
100
AcDb2dVertex
 10
86.158079
 20
49.464397
 30
0.0
  0
VERTEX
  5
438
330
427
100
AcDbEntity
  8
001
 62
   253
370
    50
100
AcDbVertex
100
AcDb2dVertex
 10
86.023085
 20
49.495106
 30
0.0
  0
VERTEX
  5
439
330
427
100
AcDbEntity
  8
001
 62
   253
370
    50
100
AcDbVertex
100
AcDb2dVertex
 10
85.888275
 20
49.526616
 30
0.0
  0
VERTEX
  5
43A
330
427
100
AcDbEntity
  8
001
 62
   253
370
    50
100
AcDbVertex
100
AcDb2dVertex
 10
85.80975
 20
49.545356
 30
0.0
  0
VERTEX
  5
43B
330
427
100
AcDbEntity
  8
001
 62
   253
370
    50
100
AcDbVertex
100
AcDb2dVertex
 10
85.731293
 20
49.564376
 30
0.0
  0
VERTEX
  5
43C
330
427
100
AcDbEntity
  8
001
 62
   253
370
    50
100
AcDbVertex
100
AcDb2dVertex
 10
85.709257
 20
49.569773
 30
0.0
  0
VERTEX
  5
43D
330
427
100
AcDbEntity
  8
001
 62
   253
370
    50
100
AcDbVertex
100
AcDb2dVertex
 10
85.687223
 20
49.575181
 30
0.0
  0
SEQEND
  5
428
330
427
100
AcDbEntity
  8
001
370
    50
  0
POLYLINE
  5
43E
330
1F
100
AcDbEntity
  8
001
 62
   253
370
    50
100
AcDb2dPolyline
 66
     1
 10
0.0
 20
0.0
 30
0.0
  0
VERTEX
  5
440
330
43E
100
AcDbEntity
  8
001
 62
   253
370
    50
100
AcDbVertex
100
AcDb2dVertex
 10
89.064775
 20
49.024516
 30
0.0
  0
VERTEX
  5
441
330
43E
100
AcDbEntity
  8
001
 62
   253
370
    50
100
AcDbVertex
100
AcDb2dVertex
 10
89.10551
 20
49.01448
 30
0.0
  0
VERTEX
  5
442
330
43E
100
AcDbEntity
  8
001
 62
   253
370
    50
100
AcDbVertex
100
AcDb2dVertex
 10
89.146417
 20
49.00535
 30
0.0
  0
VERTEX
  5
443
330
43E
100
AcDbEntity
  8
001
 62
   253
370
    50
100
AcDbVertex
100
AcDb2dVertex
 10
89.248919
 20
48.989294
 30
0.0
  0
VERTEX
  5
444
330
43E
100
AcDbEntity
  8
001
 62
   253
370
    50
100
AcDbVertex
100
AcDb2dVertex
 10
89.352395
 20
48.979159
 30
0.0
  0
VERTEX
  5
445
330
43E
100
AcDbEntity
  8
001
 62
   253
370
    50
100
AcDbVertex
100
AcDb2dVertex
 10
89.462456
 20
48.970165
 30
0.0
  0
VERTEX
  5
446
330
43E
100
AcDbEntity
  8
001
 62
   253
370
    50
100
AcDbVertex
100
AcDb2dVertex
 10
89.572496
 20
48.962283
 30
0.0
  0
VERTEX
  5
447
330
43E
100
AcDbEntity
  8
001
 62
   253
370
    50
100
AcDbVertex
100
AcDb2dVertex
 10
89.796056
 20
48.950301
 30
0.0
  0
VERTEX
  5
448
330
43E
100
AcDbEntity
  8
001
 62
   253
370
    50
100
AcDbVertex
100
AcDb2dVertex
 10
90.019917
 20
48.94313
 30
0.0
  0
VERTEX
  5
449
330
43E
100
AcDbEntity
  8
001
 62
   253
370
    50
100
AcDbVertex
100
AcDb2dVertex
 10
90.380032
 20
48.939903
 30
0.0
  0
VERTEX
  5
44A
330
43E
100
AcDbEntity
  8
001
 62
   253
370
    50
100
AcDbVertex
100
AcDb2dVertex
 10
90.740077
 20
48.945695
 30
0.0
  0
VERTEX
  5
44B
330
43E
100
AcDbEntity
  8
001
 62
   253
370
    50
100
AcDbVertex
100
AcDb2dVertex
 10
91.094874
 20
48.959214
 30
0.0
  0
VERTEX
  5
44C
330
43E
100
AcDbEntity
  8
001
 62
   253
370
    50
100
AcDbVertex
100
AcDb2dVertex
 10
91.449356
 20
48.979934
 30
0.0
  0
VERTEX
  5
44D
330
43E
100
AcDbEntity
  8
001
 62
   253
370
    50
100
AcDbVertex
100
AcDb2dVertex
 10
91.78597
 20
49.006379
 30
0.0
  0
VERTEX
  5
44E
330
43E
100
AcDbEntity
  8
001
 62
   253
370
    50
100
AcDbVertex
100
AcDb2dVertex
 10
92.121744
 20
49.041316
 30
0.0
  0
VERTEX
  5
44F
330
43E
100
AcDbEntity
  8
001
 62
   253
370
    50
100
AcDbVertex
100
AcDb2dVertex
 10
92.333424
 20
49.068394
 30
0.0
  0
VERTEX
  5
450
330
43E
100
AcDbEntity
  8
001
 62
   253
370
    50
100
AcDbVertex
100
AcDb2dVertex
 10
92.544841
 20
49.097642
 30
0.0
  0
SEQEND
  5
43F
330
43E
100
AcDbEntity
  8
001
370
    50
  0
ARC
  5
451
330
1F
100
AcDbEntity
  8
001
 62
   253
370
    50
100
AcDbCircle
 10
82.886332
 20
48.575181
 30
0.0
 40
0.9999999999999974
100
AcDbArc
 50
90.0
 51
120.0
  0
LINE
  5
452
330
1F
100
AcDbEntity
  8
001
 62
   253
370
    50
100
AcDbLine
 10
82.386332
 20
49.441206
 30
0.0
 11
77.92223
 21
46.863856
 31
0.0
  0
ARC
  5
453
330
1F
100
AcDbEntity
  8
001
 62
   253
370
    50
100
AcDbCircle
 10
78.42223
 20
45.99783
 30
0.0
 40
0.9999999999999981
100
AcDbArc
 50
120.0
 51
180.0
  0
ARC
  5
454
330
1F
100
AcDbEntity
  8
001
 62
   253
370
    50
100
AcDbCircle
 10
82.886332
 20
22.575181
 30
0.0
 40
0.9999999999999974
100
AcDbArc
 50
240.0
 51
270.0
  0
LINE
  5
455
330
1F
100
AcDbEntity
  8
001
 62
   253
370
    50
100
AcDbLine
 10
82.386332
 20
21.709155
 30
0.0
 11
77.92223
 21
24.286505
 31
0.0
  0
ARC
  5
456
330
1F
100
AcDbEntity
  8
001
 62
   253
370
    50
100
AcDbCircle
 10
78.42223
 20
25.152531
 30
0.0
 40
0.9999999999999981
100
AcDbArc
 50
180.0
 51
240.0
  0
LINE
  5
457
330
1F
100
AcDbEntity
  8
001
370
    50
100
AcDbLine
 10
77.42223
 20
35.575181
 30
0.0
 11
77.42223
 21
45.99783
 31
0.0
  0
LINE
  5
458
330
1F
100
AcDbEntity
  8
001
370
    50
100
AcDbLine
 10
77.42223
 20
35.575181
 30
0.0
 11
77.42223
 21
25.152531
 31
0.0
  0
LINE
  5
459
330
1F
100
AcDbEntity
  8
001
 62
   253
370
    50
100
AcDbLine
 10
97.42223
 20
21.575181
 30
0.0
 11
82.886332
 21
21.575181
 31
0.0
  0
LINE
  5
45A
330
1F
100
AcDbEntity
  8
001
  6
DASHED
370
    30
100
AcDbLine
 10
109.42223
 20
51.439125
 30
0.0
 11
109.42223
 21
41.575181
 31
0.0
  0
LINE
  5
45B
330
1F
100
AcDbEntity
  8
001
  6
DASHED
370
    30
100
AcDbLine
 10
108.82223
 20
51.339032
 30
0.0
 11
108.82223
 21
41.575181
 31
0.0
  0
LINE
  5
45C
330
1F
100
AcDbEntity
  8
001
  6
DASHED
370
    30
100
AcDbLine
 10
102.02223
 20
51.239388
 30
0.0
 11
102.02223
 21
41.575181
 31
0.0
  0
LINE
  5
45D
330
1F
100
AcDbEntity
  8
001
  6
DASHED
370
    30
100
AcDbLine
 10
101.42223
 20
51.36566
 30
0.0
 11
101.42223
 21
41.575181
 31
0.0
  0
LINE
  5
45E
330
1F
100
AcDbEntity
  8
001
  6
DASHED
370
    30
100
AcDbLine
 10
94.42223
 20
49.406815
 30
0.0
 11
94.42223
 21
41.575181
 31
0.0
  0
LINE
  5
45F
330
1F
100
AcDbEntity
  8
001
  6
DASHED
370
    30
100
AcDbLine
 10
93.82223
 20
49.288606
 30
0.0
 11
93.82223
 21
41.575181
 31
0.0
  0
LINE
  5
460
330
1F
100
AcDbEntity
  8
001
  6
DASHED
370
    30
100
AcDbLine
 10
87.02223
 20
49.288608
 30
0.0
 11
87.02223
 21
41.575181
 31
0.0
  0
LINE
  5
461
330
1F
100
AcDbEntity
  8
001
  6
DASHED
370
    30
100
AcDbLine
 10
86.42223
 20
49.406814
 30
0.0
 11
86.42223
 21
41.575181
 31
0.0
  0
ENDSEC
  0
SECTION
  2
OBJECTS
  0
DICTIONARY
  5
C
330
0
100
AcDbDictionary
281
     1
  3
ACAD_GROUP
350
D
  3
ACAD_LAYOUT
350
1A
  3
ACAD_MLEADERSTYLE
350
465
  3
ACAD_MLINESTYLE
350
17
  3
ACAD_PLOTSETTINGS
350
19
  3
ACAD_PLOTSTYLENAME
350
E
  3
ACAD_SCALELIST
350
3B
  3
ACAD_TABLESTYLE
350
464
  3
ACAD_VISUALSTYLE
350
2A
  3
AcDbVariableDictionary
350
462
  0
DICTIONARY
  5
D
102
{ACAD_REACTORS
330
C
102
}
330
C
100
AcDbDictionary
281
     1
  0
DICTIONARY
  5
1A
102
{ACAD_REACTORS
330
C
102
}
330
C
100
AcDbDictionary
281
     1
  3
Layout1
350
1E
  3
Layout2
350
26
  3
Model
350
22
  0
DICTIONARY
  5
465
102
{ACAD_REACTORS
330
C
102
}
330
C
100
AcDbDictionary
281
     1
  0
DICTIONARY
  5
17
102
{ACAD_REACTORS
330
C
102
}
330
C
100
AcDbDictionary
281
     1
  3
Standard
350
18
  0
DICTIONARY
  5
19
102
{ACAD_REACTORS
330
C
102
}
330
C
100
AcDbDictionary
281
     1
  0
ACDBDICTIONARYWDFLT
  5
E
102
{ACAD_REACTORS
330
C
102
}
330
C
100
AcDbDictionary
281
     1
  3
Normal
350
F
100
AcDbDictionaryWithDefault
340
F
  0
DICTIONARY
  5
3B
102
{ACAD_REACTORS
330
C
102
}
330
C
100
AcDbDictionary
281
     1
  3
A0
350
3C
  3
A1
350
3D
  3
A2
350
3E
  3
A3
350
3F
  3
A4
350
40
  3
A5
350
41
  3
A6
350
42
  3
A7
350
43
  3
A8
350
44
  3
A9
350
45
  3
B0
350
46
  3
B1
350
47
  3
B2
350
48
  3
B3
350
49
  3
B4
350
4A
  3
B5
350
4B
  3
B6
350
4C
  3
B7
350
4D
  3
B8
350
4E
  3
B9
350
4F
  3
C0
350
50
  3
C1
350
51
  3
C2
350
52
  3
C3
350
53
  3
C4
350
54
  3
C5
350
55
  3
C6
350
56
  3
C7
350
57
  3
C8
350
58
  3
C9
350
59
  3
D0
350
5A
  3
D1
350
5B
  3
D2
350
5C
  0
DICTIONARY
  5
464
102
{ACAD_REACTORS
330
C
102
}
330
C
100
AcDbDictionary
281
     1
  0
DICTIONARY
  5
2A
102
{ACAD_REACTORS
330
C
102
}
330
C
100
AcDbDictionary
281
     1
  3
2dWireframe
350
2F
  3
3D Hidden
350
31
  3
3dWireframe
350
30
  3
Basic
350
32
  3
Brighten
350
36
  3
ColorChange
350
3A
  3
Conceptual
350
34
  3
Dim
350
35
  3
Facepattern
350
39
  3
Flat
350
2B
  3
FlatWithEdges
350
2C
  3
Gouraud
350
2D
  3
GouraudWithEdges
350
2E
  3
Linepattern
350
38
  3
Realistic
350
33
  3
Thicken
350
37
  0
DICTIONARY
  5
462
102
{ACAD_REACTORS
330
C
102
}
330
C
100
AcDbDictionary
281
     1
  3
CANNOSCALE
350
463
  3
PSOLHEIGHT
350
467
  3
PSOLWIDTH
350
466
  0
LAYOUT
  5
1E
102
{ACAD_REACTORS
330
1A
102
}
330
1A
100
AcDbPlotSettings
  1

  2
none_device
  4

  6

 40
0.0
 41
0.0
 42
0.0
 43
0.0
 44
0.0
 45
0.0
 46
0.0
 47
0.0
 48
0.0
 49
0.0
140
0.0
141
0.0
142
1.0
143
1.0
 70
   688
 72
     0
 73
     0
 74
     5
  7

 75
    16
147
1.0
148
0.0
149
0.0
100
AcDbLayout
  1
Layout1
 70
     1
 71
     1
 10
0.0
 20
0.0
 11
12.0
 21
9.0
 12
0.0
 22
0.0
 32
0.0
 14
1.000000E+20
 24
1.000000E+20
 34
0.0
 15
-1.000000E+20
 25
-1.000000E+20
 35
0.0
146
0.0
 13
0.0
 23
0.0
 33
0.0
 16
1.0
 26
0.0
 36
0.0
 17
0.0
 27
1.0
 37
0.0
 76
     0
330
1B
  0
LAYOUT
  5
26
102
{ACAD_REACTORS
330
1A
102
}
330
1A
100
AcDbPlotSettings
  1

  2
none_device
  4

  6

 40
0.0
 41
0.0
 42
0.0
 43
0.0
 44
0.0
 45
0.0
 46
0.0
 47
0.0
 48
0.0
 49
0.0
140
0.0
141
0.0
142
1.0
143
1.0
 70
   688
 72
     0
 73
     0
 74
     5
  7

 75
    16
147
1.0
148
0.0
149
0.0
100
AcDbLayout
  1
Layout2
 70
     1
 71
     2
 10
0.0
 20
0.0
 11
0.0
 21
0.0
 12
0.0
 22
0.0
 32
0.0
 14
0.0
 24
0.0
 34
0.0
 15
0.0
 25
0.0
 35
0.0
146
0.0
 13
0.0
 23
0.0
 33
0.0
 16
1.0
 26
0.0
 36
0.0
 17
0.0
 27
1.0
 37
0.0
 76
     0
330
23
  0
LAYOUT
  5
22
102
{ACAD_REACTORS
330
1A
102
}
330
1A
100
AcDbPlotSettings
  1

  2
none_device
  4

  6

 40
0.0
 41
0.0
 42
0.0
 43
0.0
 44
0.0
 45
0.0
 46
0.0
 47
0.0
 48
0.0
 49
0.0
140
0.0
141
0.0
142
1.0
143
1.0
 70
  1712
 72
     0
 73
     0
 74
     0
  7

 75
     0
147
1.0
148
0.0
149
0.0
100
AcDbLayout
  1
Model
 70
     1
 71
     0
 10
0.0
 20
0.0
 11
12.0
 21
9.0
 12
0.0
 22
0.0
 32
0.0
 14
-3.227295
 24
-10.482162
 34
0.0
 15
290.403992
 25
222.014221
 35
0.0
146
0.0
 13
0.0
 23
0.0
 33
0.0
 16
1.0
 26
0.0
 36
0.0
 17
0.0
 27
1.0
 37
0.0
 76
     0
330
1F
331
29
  0
MLINESTYLE
  5
18
102
{ACAD_REACTORS
330
17
102
}
330
17
100
AcDbMlineStyle
  2
Standard
 70
     0
  3

 62
   256
 51
90.0
 52
90.0
 71
     2
 49
0.5
 62
   256
  6
BYLAYER
 49
-0.5
 62
   256
  6
BYLAYER
  0
ACDBPLACEHOLDER
  5
F
102
{ACAD_REACTORS
330
E
102
}
330
E
  0
SCALE
  5
3C
102
{ACAD_REACTORS
330
3B
102
}
330
3B
100
AcDbScale
 70
     0
300
1:1
140
1.0
141
1.0
290
     1
  0
SCALE
  5
3D
102
{ACAD_REACTORS
330
3B
102
}
330
3B
100
AcDbScale
 70
     0
300
1:2
140
1.0
141
2.0
290
     0
  0
SCALE
  5
3E
102
{ACAD_REACTORS
330
3B
102
}
330
3B
100
AcDbScale
 70
     0
300
1:4
140
1.0
141
4.0
290
     0
  0
SCALE
  5
3F
102
{ACAD_REACTORS
330
3B
102
}
330
3B
100
AcDbScale
 70
     0
300
1:5
140
1.0
141
5.0
290
     0
  0
SCALE
  5
40
102
{ACAD_REACTORS
330
3B
102
}
330
3B
100
AcDbScale
 70
     0
300
1:8
140
1.0
141
8.0
290
     0
  0
SCALE
  5
41
102
{ACAD_REACTORS
330
3B
102
}
330
3B
100
AcDbScale
 70
     0
300
1:10
140
1.0
141
10.0
290
     0
  0
SCALE
  5
42
102
{ACAD_REACTORS
330
3B
102
}
330
3B
100
AcDbScale
 70
     0
300
1:16
140
1.0
141
16.0
290
     0
  0
SCALE
  5
43
102
{ACAD_REACTORS
330
3B
102
}
330
3B
100
AcDbScale
 70
     0
300
1:20
140
1.0
141
20.0
290
     0
  0
SCALE
  5
44
102
{ACAD_REACTORS
330
3B
102
}
330
3B
100
AcDbScale
 70
     0
300
1:30
140
1.0
141
30.0
290
     0
  0
SCALE
  5
45
102
{ACAD_REACTORS
330
3B
102
}
330
3B
100
AcDbScale
 70
     0
300
1:40
140
1.0
141
40.0
290
     0
  0
SCALE
  5
46
102
{ACAD_REACTORS
330
3B
102
}
330
3B
100
AcDbScale
 70
     0
300
1:50
140
1.0
141
50.0
290
     0
  0
SCALE
  5
47
102
{ACAD_REACTORS
330
3B
102
}
330
3B
100
AcDbScale
 70
     0
300
1:100
140
1.0
141
100.0
290
     0
  0
SCALE
  5
48
102
{ACAD_REACTORS
330
3B
102
}
330
3B
100
AcDbScale
 70
     0
300
2:1
140
2.0
141
1.0
290
     0
  0
SCALE
  5
49
102
{ACAD_REACTORS
330
3B
102
}
330
3B
100
AcDbScale
 70
     0
300
4:1
140
4.0
141
1.0
290
     0
  0
SCALE
  5
4A
102
{ACAD_REACTORS
330
3B
102
}
330
3B
100
AcDbScale
 70
     0
300
8:1
140
8.0
141
1.0
290
     0
  0
SCALE
  5
4B
102
{ACAD_REACTORS
330
3B
102
}
330
3B
100
AcDbScale
 70
     0
300
10:1
140
10.0
141
1.0
290
     0
  0
SCALE
  5
4C
102
{ACAD_REACTORS
330
3B
102
}
330
3B
100
AcDbScale
 70
     0
300
100:1
140
100.0
141
1.0
290
     0
  0
SCALE
  5
4D
102
{ACAD_REACTORS
330
3B
102
}
330
3B
100
AcDbScale
 70
     0
300
1/128" = 1'-0"
140
0.007812
141
12.0
290
     0
  0
SCALE
  5
4E
102
{ACAD_REACTORS
330
3B
102
}
330
3B
100
AcDbScale
 70
     0
300
1/64" = 1'-0"
140
0.015625
141
12.0
290
     0
  0
SCALE
  5
4F
102
{ACAD_REACTORS
330
3B
102
}
330
3B
100
AcDbScale
 70
     0
300
1/32" = 1'-0"
140
0.03125
141
12.0
290
     0
  0
SCALE
  5
50
102
{ACAD_REACTORS
330
3B
102
}
330
3B
100
AcDbScale
 70
     0
300
1/16" = 1'-0"
140
0.0625
141
12.0
290
     0
  0
SCALE
  5
51
102
{ACAD_REACTORS
330
3B
102
}
330
3B
100
AcDbScale
 70
     0
300
3/32" = 1'-0"
140
0.09375
141
12.0
290
     0
  0
SCALE
  5
52
102
{ACAD_REACTORS
330
3B
102
}
330
3B
100
AcDbScale
 70
     0
300
1/8" = 1'-0"
140
0.125
141
12.0
290
     0
  0
SCALE
  5
53
102
{ACAD_REACTORS
330
3B
102
}
330
3B
100
AcDbScale
 70
     0
300
3/16" = 1'-0"
140
0.1875
141
12.0
290
     0
  0
SCALE
  5
54
102
{ACAD_REACTORS
330
3B
102
}
330
3B
100
AcDbScale
 70
     0
300
1/4" = 1'-0"
140
0.25
141
12.0
290
     0
  0
SCALE
  5
55
102
{ACAD_REACTORS
330
3B
102
}
330
3B
100
AcDbScale
 70
     0
300
3/8" = 1'-0"
140
0.375
141
12.0
290
     0
  0
SCALE
  5
56
102
{ACAD_REACTORS
330
3B
102
}
330
3B
100
AcDbScale
 70
     0
300
1/2" = 1'-0"
140
0.5
141
12.0
290
     0
  0
SCALE
  5
57
102
{ACAD_REACTORS
330
3B
102
}
330
3B
100
AcDbScale
 70
     0
300
3/4" = 1'-0"
140
0.75
141
12.0
290
     0
  0
SCALE
  5
58
102
{ACAD_REACTORS
330
3B
102
}
330
3B
100
AcDbScale
 70
     0
300
1" = 1'-0"
140
1.0
141
12.0
290
     0
  0
SCALE
  5
59
102
{ACAD_REACTORS
330
3B
102
}
330
3B
100
AcDbScale
 70
     0
300
1-1/2" = 1'-0"
140
1.5
141
12.0
290
     0
  0
SCALE
  5
5A
102
{ACAD_REACTORS
330
3B
102
}
330
3B
100
AcDbScale
 70
     0
300
3" = 1'-0"
140
3.0
141
12.0
290
     0
  0
SCALE
  5
5B
102
{ACAD_REACTORS
330
3B
102
}
330
3B
100
AcDbScale
 70
     0
300
6" = 1'-0"
140
6.0
141
12.0
290
     0
  0
SCALE
  5
5C
102
{ACAD_REACTORS
330
3B
102
}
330
3B
100
AcDbScale
 70
     0
300
1'-0" = 1'-0"
140
12.0
141
12.0
290
     0
  0
VISUALSTYLE
  5
2F
102
{ACAD_REACTORS
330
2A
102
}
330
2A
100
AcDbVisualStyle
  2
2dWireframe
 70
     4
 71
     0
 72
     2
 73
     0
 90
        0
 40
-0.6
 41
-30.0
 62
     5
 63
     7
 74
     1
 91
        4
 64
     7
 65
   257
 75
     1
175
     1
 42
1.0
 92
        0
 66
   257
 43
1.0
 76
     1
 77
     6
 78
     2
 67
     7
 79
     5
170
     0
171
     0
290
     0
174
     0
 93
        1
 44
0.0
173
     0
291
     0
 45
0.0
1001
ACAD
1000
AcDbSavedByObjectVersion
1070
     0
  0
VISUALSTYLE
  5
31
102
{ACAD_REACTORS
330
2A
102
}
330
2A
100
AcDbVisualStyle
  2
3D Hidden
 70
     6
 71
     1
 72
     2
 73
     2
 90
        0
 40
-0.6
 41
-30.0
 62
     5
 63
     7
 74
     2
 91
        2
 64
     7
 65
   257
 75
     2
175
     1
 42
40.0
 92
        0
 66
   257
 43
1.0
 76
     1
 77
     6
 78
     2
 67
     7
 79
     3
170
     0
171
     0
290
     0
174
     0
 93
        1
 44
0.0
173
     0
291
     0
 45
0.0
1001
ACAD
1000
AcDbSavedByObjectVersion
1070
     0
  0
VISUALSTYLE
  5
30
102
{ACAD_REACTORS
330
2A
102
}
330
2A
100
AcDbVisualStyle
  2
3dWireframe
 70
     5
 71
     0
 72
     2
 73
     0
 90
        0
 40
-0.6
 41
-30.0
 62
     5
 63
     7
 74
     1
 91
        4
 64
     7
 65
   257
 75
     1
175
     1
 42
1.0
 92
        0
 66
   257
 43
1.0
 76
     1
 77
     6
 78
     2
 67
     7
 79
     5
170
     0
171
     0
290
     0
174
     0
 93
        1
 44
0.0
173
     0
291
     0
 45
0.0
1001
ACAD
1000
AcDbSavedByObjectVersion
1070
     0
  0
VISUALSTYLE
  5
32
102
{ACAD_REACTORS
330
2A
102
}
330
2A
100
AcDbVisualStyle
  2
Basic
 70
     7
 71
     1
 72
     0
 73
     1
 90
        0
 40
-0.6
 41
-30.0
 62
     5
 63
     7
 74
     0
 91
        4
 64
     7
 65
   257
 75
     1
175
     1
 42
1.0
 92
        8
 66
     7
 43
1.0
 76
     1
 77
     6
 78
     2
 67
     7
 79
     5
170
     0
171
     0
290
     0
174
     0
 93
        1
 44
0.0
173
     0
291
     1
 45
0.0
1001
ACAD
1000
AcDbSavedByObjectVersion
1070
     0
  0
VISUALSTYLE
  5
36
102
{ACAD_REACTORS
330
2A
102
}
330
2A
100
AcDbVisualStyle
  2
Brighten
 70
    12
 71
     2
 72
     2
 73
     0
 90
        0
 40
-0.6
 41
-30.0
 62
     5
 63
     7
 74
     1
 91
        4
 64
     7
 65
   257
 75
     1
175
     1
 42
1.0
 92
        8
 66
     7
 43
1.0
 76
     1
 77
     6
 78
     2
 67
     7
 79
     5
170
     0
171
     0
290
     0
174
     0
 93
        1
 44
50.0
173
     0
291
     1
 45
0.0
1001
ACAD
1000
AcDbSavedByObjectVersion
1070
     0
  0
VISUALSTYLE
  5
3A
102
{ACAD_REACTORS
330
2A
102
}
330
2A
100
AcDbVisualStyle
  2
ColorChange
 70
    16
 71
     2
 72
     2
 73
     3
 90
        0
 40
-0.6
 41
-30.0
 62
     5
 63
     8
 74
     1
 91
        4
 64
     7
 65
   257
 75
     1
175
     1
 42
1.0
 92
        8
 66
     8
 43
1.0
 76
     1
 77
     6
 78
     2
 67
     7
 79
     5
170
     0
171
     0
290
     0
174
     0
 93
        1
 44
0.0
173
     0
291
     1
 45
0.0
1001
ACAD
1000
AcDbSavedByObjectVersion
1070
     0
  0
VISUALSTYLE
  5
34
102
{ACAD_REACTORS
330
2A
102
}
330
2A
100
AcDbVisualStyle
  2
Conceptual
 70
     9
 71
     3
 72
     2
 73
     0
 90
        0
 40
-0.6
 41
-30.0
 62
     5
 63
     7
 74
     2
 91
        2
 64
     7
 65
   257
 75
     1
175
     1
 42
40.0
 92
        8
 66
     7
 43
1.0
 76
     1
 77
     6
 78
     2
 67
     7
 79
     3
170
     0
171
     0
290
     0
174
     0
 93
        1
 44
0.0
173
     0
291
     0
 45
0.0
1001
ACAD
1000
AcDbSavedByObjectVersion
1070
     0
  0
VISUALSTYLE
  5
35
102
{ACAD_REACTORS
330
2A
102
}
330
2A
100
AcDbVisualStyle
  2
Dim
 70
    11
 71
     2
 72
     2
 73
     0
 90
        0
 40
-0.6
 41
-30.0
 62
     5
 63
     7
 74
     1
 91
        4
 64
     7
 65
   257
 75
     1
175
     1
 42
1.0
 92
        8
 66
     7
 43
1.0
 76
     1
 77
     6
 78
     2
 67
     7
 79
     5
170
     0
171
     0
290
     0
174
     0
 93
        1
 44
-50.0
173
     0
291
     1
 45
0.0
1001
ACAD
1000
AcDbSavedByObjectVersion
1070
     0
  0
VISUALSTYLE
  5
39
102
{ACAD_REACTORS
330
2A
102
}
330
2A
100
AcDbVisualStyle
  2
Facepattern
 70
    15
 71
     2
 72
     2
 73
     0
 90
        0
 40
-0.6
 41
-30.0
 62
     5
 63
     7
 74
     1
 91
        4
 64
     7
 65
   257
 75
     1
175
     1
 42
1.0
 92
        8
 66
     7
 43
1.0
 76
     1
 77
     6
 78
     2
 67
     7
 79
     5
170
     0
171
     0
290
     0
174
     0
 93
        1
 44
0.0
173
     0
291
     1
 45
0.0
1001
ACAD
1000
AcDbSavedByObjectVersion
1070
     0
  0
VISUALSTYLE
  5
2B
102
{ACAD_REACTORS
330
2A
102
}
330
2A
100
AcDbVisualStyle
  2
Flat
 70
     0
 71
     2
 72
     1
 73
     1
 90
        2
 40
-0.6
 41
30.0
 62
     5
 63
     7
 74
     0
 91
        4
 64
     7
 65
   257
 75
     1
175
     1
 42
1.0
 92
        8
 66
     7
 43
1.0
 76
     1
 77
     6
 78
     2
 67
     7
 79
     5
170
     0
171
     0
290
     0
174
     0
 93
       13
 44
0.0
173
     0
291
     1
 45
0.0
1001
ACAD
1000
AcDbSavedByObjectVersion
1070
     0
  0
VISUALSTYLE
  5
2C
102
{ACAD_REACTORS
330
2A
102
}
330
2A
100
AcDbVisualStyle
  2
FlatWithEdges
 70
     1
 71
     2
 72
     1
 73
     1
 90
        2
 40
-0.6
 41
30.0
 62
     5
 63
     7
 74
     1
 91
        4
 64
     7
 65
   257
 75
     1
175
     1
 42
1.0
 92
        0
 66
   257
 43
1.0
 76
     1
 77
     6
 78
     2
 67
     7
 79
     5
170
     0
171
     0
290
     0
174
     0
 93
       13
 44
0.0
173
     0
291
     1
 45
0.0
1001
ACAD
1000
AcDbSavedByObjectVersion
1070
     0
  0
VISUALSTYLE
  5
2D
102
{ACAD_REACTORS
330
2A
102
}
330
2A
100
AcDbVisualStyle
  2
Gouraud
 70
     2
 71
     2
 72
     2
 73
     1
 90
        2
 40
-0.6
 41
30.0
 62
     5
 63
     7
 74
     0
 91
        4
 64
     7
 65
   257
 75
     1
175
     1
 42
1.0
 92
        0
 66
     7
 43
1.0
 76
     1
 77
     6
 78
     2
 67
     7
 79
     5
170
     0
171
     0
290
     0
174
     0
 93
       13
 44
0.0
173
     0
291
     1
 45
0.0
1001
ACAD
1000
AcDbSavedByObjectVersion
1070
     0
  0
VISUALSTYLE
  5
2E
102
{ACAD_REACTORS
330
2A
102
}
330
2A
100
AcDbVisualStyle
  2
GouraudWithEdges
 70
     3
 71
     2
 72
     2
 73
     1
 90
        2
 40
-0.6
 41
30.0
 62
     5
 63
     7
 74
     1
 91
        4
 64
     7
 65
   257
 75
     1
175
     1
 42
1.0
 92
        0
 66
   257
 43
1.0
 76
     1
 77
     6
 78
     2
 67
     7
 79
     5
170
     0
171
     0
290
     0
174
     0
 93
       13
 44
0.0
173
     0
291
     1
 45
0.0
1001
ACAD
1000
AcDbSavedByObjectVersion
1070
     0
  0
VISUALSTYLE
  5
38
102
{ACAD_REACTORS
330
2A
102
}
330
2A
100
AcDbVisualStyle
  2
Linepattern
 70
    14
 71
     2
 72
     2
 73
     0
 90
        0
 40
-0.6
 41
-30.0
 62
     5
 63
     7
 74
     1
 91
        4
 64
     7
 65
   257
 75
     7
175
     7
 42
1.0
 92
        8
 66
     7
 43
1.0
 76
     1
 77
     6
 78
     2
 67
     7
 79
     5
170
     0
171
     0
290
     0
174
     0
 93
        1
 44
0.0
173
     0
291
     1
 45
0.0
1001
ACAD
1000
AcDbSavedByObjectVersion
1070
     0
  0
VISUALSTYLE
  5
33
102
{ACAD_REACTORS
330
2A
102
}
330
2A
100
AcDbVisualStyle
  2
Realistic
 70
     8
 71
     2
 72
     2
 73
     0
 90
        0
 40
-0.6
 41
-30.0
 62
     5
 63
     7
 74
     1
 91
        0
 64
     7
 65
   257
 75
     1
175
     1
 42
1.0
 92
        8
 66
     8
 43
1.0
 76
     1
 77
     6
 78
     2
 67
     7
 79
     5
170
     0
171
     0
290
     0
174
     0
 93
       13
 44
0.0
173
     0
291
     0
 45
0.0
1001
ACAD
1000
AcDbSavedByObjectVersion
1070
     0
  0
VISUALSTYLE
  5
37
102
{ACAD_REACTORS
330
2A
102
}
330
2A
100
AcDbVisualStyle
  2
Thicken
 70
    13
 71
     2
 72
     2
 73
     0
 90
        0
 40
-0.6
 41
-30.0
 62
     5
 63
     7
 74
     1
 91
        4
 64
     7
 65
   257
 75
     1
175
     1
 42
1.0
 92
       12
 66
     7
 43
1.0
 76
     1
 77
     6
 78
     2
 67
     7
 79
     5
170
     0
171
     0
290
     0
174
     0
 93
        1
 44
0.0
173
     0
291
     1
 45
0.0
1001
ACAD
1000
AcDbSavedByObjectVersion
1070
     0
  0
DICTIONARYVAR
  5
463
102
{ACAD_REACTORS
330
462
102
}
330
462
100
DictionaryVariables
280
     0
  1
1:1
  0
DICTIONARYVAR
  5
467
102
{ACAD_REACTORS
330
462
102
}
330
462
100
DictionaryVariables
280
     0
  1
80.000000
  0
DICTIONARYVAR
  5
466
102
{ACAD_REACTORS
330
462
102
}
330
462
100
DictionaryVariables
280
     0
  1
5.000000
  0
ENDSEC
  0
EOF
