  0
SECTION
  2
HEADER
  9
$ACADVER
  1
AC1015
  9
$ACADMAINTVER
 70
     6
  9
$DWGCODEPAGE
  3
ANSI_932
  9
$INSBASE
 10
0.0
 20
0.0
 30
0.0
  9
$EXTMIN
 10
-13.748291
 20
7.85788
 30
0.0
  9
$EXTMAX
 10
273.308197
 20
222.014221
 30
0.0
  9
$LIMMIN
 10
0.0
 20
0.0
  9
$LIMMAX
 10
12.0
 20
9.0
  9
$ORTHOMODE
 70
     0
  9
$REGENMODE
 70
     1
  9
$FILLMODE
 70
     1
  9
$QTEXTMODE
 70
     0
  9
$MIRRTEXT
 70
     1
  9
$LTSCALE
 40
3.581401
  9
$ATTMODE
 70
     1
  9
$TEXTSIZE
 40
3.2
  9
$TRACEWID
 40
1.0
  9
$TEXTSTYLE
  7
Standard
  9
$CLAYER
  8
0
  9
$CELTYPE
  6
ByLayer
  9
$CECOLOR
 62
   256
  9
$CELTSCALE
 40
1.0
  9
$DISPSILH
 70
     0
  9
$DIMSCALE
 40
1.0
  9
$DIMASZ
 40
2.5
  9
$DIMEXO
 40
0.625
  9
$DIMDLI
 40
3.75
  9
$DIMRND
 40
0.0
  9
$DIMDLE
 40
0.0
  9
$DIMEXE
 40
1.25
  9
$DIMTP
 40
0.0
  9
$DIMTM
 40
0.0
  9
$DIMTXT
 40
2.5
  9
$DIMCEN
 40
0.09
  9
$DIMTSZ
 40
0.0
  9
$DIMTOL
 70
     0
  9
$DIMLIM
 70
     0
  9
$DIMTIH
 70
     0
  9
$DIMTOH
 70
     0
  9
$DIMSE1
 70
     0
  9
$DIMSE2
 70
     0
  9
$DIMTAD
 70
     0
  9
$DIMZIN
 70
     8
  9
$DIMBLK
  1

  9
$DIMASO
 70
     1
  9
$DIMSHO
 70
     0
  9
$DIMPOST
  1

  9
$DIMAPOST
  1

  9
$DIMALT
 70
     0
  9
$DIMALTD
 70
     3
  9
$DIMALTF
 40
0.03937
  9
$DIMLFAC
 40
1.0
  9
$DIMTOFL
 70
     1
  9
$DIMTVP
 40
0.0
  9
$DIMTIX
 70
     0
  9
$DIMSOXD
 70
     0
  9
$DIMSAH
 70
     0
  9
$DIMBLK1
  1

  9
$DIMBLK2
  1

  9
$DIMSTYLE
  2
ISO-25
  9
$DIMCLRD
 70
     0
  9
$DIMCLRE
 70
     0
  9
$DIMCLRT
 70
     0
  9
$DIMTFAC
 40
1.0
  9
$DIMGAP
 40
0.625
  9
$DIMJUST
 70
     0
  9
$DIMSD1
 70
     0
  9
$DIMSD2
 70
     0
  9
$DIMTOLJ
 70
     0
  9
$DIMTZIN
 70
     8
  9
$DIMALTZ
 70
     0
  9
$DIMALTTZ
 70
     0
  9
$DIMUPT
 70
     0
  9
$DIMDEC
 70
     2
  9
$DIMTDEC
 70
     2
  9
$DIMALTU
 70
     2
  9
$DIMALTTD
 70
     3
  9
$DIMTXSTY
  7
Standard
  9
$DIMAUNIT
 70
     0
  9
$DIMADEC
 70
     0
  9
$DIMALTRND
 40
0.0
  9
$DIMAZIN
 70
     0
  9
$DIMDSEP
 70
    44
  9
$DIMATFIT
 70
     3
  9
$DIMFRAC
 70
     0
  9
$DIMLDRBLK
  1

  9
$DIMLUNIT
 70
     2
  9
$DIMLWD
 70
    -2
  9
$DIMLWE
 70
    -2
  9
$DIMTMOVE
 70
     0
  9
$LUNITS
 70
     2
  9
$LUPREC
 70
     4
  9
$SKETCHINC
 40
1.0
  9
$FILLETRAD
 40
0.0
  9
$AUNITS
 70
     0
  9
$AUPREC
 70
     0
  9
$MENU
  1
.
  9
$ELEVATION
 40
0.0
  9
$PELEVATION
 40
0.0
  9
$THICKNESS
 40
0.0
  9
$LIMCHECK
 70
     0
  9
$CHAMFERA
 40
10.0
  9
$CHAMFERB
 40
10.0
  9
$CHAMFERC
 40
20.0
  9
$CHAMFERD
 40
0.0
  9
$SKPOLY
 70
     0
  9
$TDCREATE
 40
2455405.448287037
  9
$TDUCREATE
 40
2455405.073287037
  9
$TDUPDATE
 40
2455405.448287049
  9
$TDUUPDATE
 40
2455405.073287049
  9
$TDINDWG
 40
0.0000000116
  9
$TDUSRTIMER
 40
0.0000000116
  9
$USRTIMER
 70
     1
  9
$ANGBASE
 50
0.0
  9
$ANGDIR
 70
     0
  9
$PDMODE
 70
     0
  9
$PDSIZE
 40
0.0
  9
$PLINEWID
 40
0.0
  9
$SPLFRAME
 70
     0
  9
$SPLINETYPE
 70
     6
  9
$SPLINESEGS
 70
     8
  9
$HANDSEED
  5
435
  9
$SURFTAB1
 70
     6
  9
$SURFTAB2
 70
     6
  9
$SURFTYPE
 70
     6
  9
$SURFU
 70
     6
  9
$SURFV
 70
     6
  9
$UCSBASE
  2

  9
$UCSNAME
  2

  9
$UCSORG
 10
0.0
 20
0.0
 30
0.0
  9
$UCSXDIR
 10
1.0
 20
0.0
 30
0.0
  9
$UCSYDIR
 10
0.0
 20
1.0
 30
0.0
  9
$UCSORTHOREF
  2

  9
$UCSORTHOVIEW
 70
     0
  9
$UCSORGTOP
 10
0.0
 20
0.0
 30
0.0
  9
$UCSORGBOTTOM
 10
0.0
 20
0.0
 30
0.0
  9
$UCSORGLEFT
 10
0.0
 20
0.0
 30
0.0
  9
$UCSORGRIGHT
 10
0.0
 20
0.0
 30
0.0
  9
$UCSORGFRONT
 10
0.0
 20
0.0
 30
0.0
  9
$UCSORGBACK
 10
0.0
 20
0.0
 30
0.0
  9
$PUCSBASE
  2

  9
$PUCSNAME
  2

  9
$PUCSORG
 10
0.0
 20
0.0
 30
0.0
  9
$PUCSXDIR
 10
1.0
 20
0.0
 30
0.0
  9
$PUCSYDIR
 10
0.0
 20
1.0
 30
0.0
  9
$PUCSORTHOREF
  2

  9
$PUCSORTHOVIEW
 70
     0
  9
$PUCSORGTOP
 10
0.0
 20
0.0
 30
0.0
  9
$PUCSORGBOTTOM
 10
0.0
 20
0.0
 30
0.0
  9
$PUCSORGLEFT
 10
0.0
 20
0.0
 30
0.0
  9
$PUCSORGRIGHT
 10
0.0
 20
0.0
 30
0.0
  9
$PUCSORGFRONT
 10
0.0
 20
0.0
 30
0.0
  9
$PUCSORGBACK
 10
0.0
 20
0.0
 30
0.0
  9
$USERI1
 70
     0
  9
$USERI2
 70
     0
  9
$USERI3
 70
     0
  9
$USERI4
 70
     0
  9
$USERI5
 70
     0
  9
$USERR1
 40
0.0
  9
$USERR2
 40
0.0
  9
$USERR3
 40
0.0
  9
$USERR4
 40
0.0
  9
$USERR5
 40
0.0
  9
$WORLDVIEW
 70
     1
  9
$SHADEDGE
 70
     3
  9
$SHADEDIF
 70
    70
  9
$TILEMODE
 70
     1
  9
$MAXACTVP
 70
    64
  9
$PINSBASE
 10
0.0
 20
0.0
 30
0.0
  9
$PLIMCHECK
 70
     0
  9
$PEXTMIN
 10
1.000000E+20
 20
1.000000E+20
 30
0.0
  9
$PEXTMAX
 10
-1.000000E+20
 20
-1.000000E+20
 30
0.0
  9
$PLIMMIN
 10
0.0
 20
0.0
  9
$PLIMMAX
 10
12.0
 20
9.0
  9
$UNITMODE
 70
     0
  9
$VISRETAIN
 70
     1
  9
$PLINEGEN
 70
     0
  9
$PSLTSCALE
 70
     1
  9
$TREEDEPTH
 70
  3020
  9
$CMLSTYLE
  2
Standard
  9
$CMLJUST
 70
     0
  9
$CMLSCALE
 40
20.0
  9
$PROXYGRAPHICS
 70
     1
  9
$MEASUREMENT
 70
     1
  9
$CELWEIGHT
370
    -1
  9
$ENDCAPS
280
     0
  9
$JOINSTYLE
280
     0
  9
$LWDISPLAY
290
     0
  9
$INSUNITS
 70
     4
  9
$HYPERLINKBASE
  1

  9
$STYLESHEET
  1

  9
$XEDIT
290
     1
  9
$CEPSNTYPE
380
     0
  9
$PSTYLEMODE
290
     1
  9
$FINGERPRINTGUID
  2
{D54CF3FE-BB6F-479D-85B9-FAC6240AA28F}
  9
$VERSIONGUID
  2
{FAEB1C32-E019-11D5-929B-00C0DF256EC4}
  9
$EXTNAMES
290
     1
  9
$PSVPSCALE
 40
0.0
  9
$OLESTARTUP
290
     0
  0
ENDSEC
  0
SECTION
  2
CLASSES
  0
CLASS
  1
ACDBDICTIONARYWDFLT
  2
AcDbDictionaryWithDefault
  3
ObjectDBX Classes
 90
        0
280
     0
281
     0
  0
CLASS
  1
VISUALSTYLE
  2
AcDbVisualStyle
  3
ObjectDBX Classes
 90
     4095
280
     0
281
     0
  0
CLASS
  1
SCALE
  2
AcDbScale
  3
ObjectDBX Classes
 90
     1153
280
     0
281
     0
  0
CLASS
  1
DICTIONARYVAR
  2
AcDbDictionaryVar
  3
ObjectDBX Classes
 90
        0
280
     0
281
     0
  0
CLASS
  1
ACDBPLACEHOLDER
  2
AcDbPlaceHolder
  3
ObjectDBX Classes
 90
        0
280
     0
281
     0
  0
CLASS
  1
LAYOUT
  2
AcDbLayout
  3
ObjectDBX Classes
 90
        0
280
     0
281
     0
  0
ENDSEC
  0
SECTION
  2
TABLES
  0
TABLE
  2
VPORT
  5
8
330
0
100
AcDbSymbolTable
 70
     1
  0
VPORT
  5
29
330
8
100
AcDbSymbolTableRecord
100
AcDbViewportTableRecord
  2
*Active
 70
     0
 10
0.0
 20
0.0
 11
1.0
 21
1.0
 12
129.779953
 22
114.93605
 13
0.0
 23
0.0
 14
1.0
 24
1.0
 15
0.0
 25
0.0
 16
0.0
 26
0.0
 36
1.0
 17
0.0
 27
0.0
 37
0.0
 40
216.297905
 41
1.691288
 42
50.0
 43
0.0
 44
0.0
 50
0.0
 51
0.0
 71
     0
 72
   100
 73
     1
 74
     3
 75
     0
 76
     0
 77
     0
 78
     0
281
     0
 65
     1
110
0.0
120
0.0
130
0.0
111
1.0
121
0.0
131
0.0
112
0.0
122
1.0
132
0.0
 79
     0
146
0.0
  0
ENDTAB
  0
TABLE
  2
LTYPE
  5
5
330
0
100
AcDbSymbolTable
 70
     5
  0
LTYPE
  5
14
330
5
100
AcDbSymbolTableRecord
100
AcDbLinetypeTableRecord
  2
ByBlock
 70
     0
  3

 72
    65
 73
     0
 40
0.0
  0
LTYPE
  5
15
330
5
100
AcDbSymbolTableRecord
100
AcDbLinetypeTableRecord
  2
ByLayer
 70
     0
  3

 72
    65
 73
     0
 40
0.0
  0
LTYPE
  5
16
330
5
100
AcDbSymbolTableRecord
100
AcDbLinetypeTableRecord
  2
Continuous
 70
     0
  3
Solid line
 72
    65
 73
     0
 40
0.0
  0
LTYPE
  5
5D
330
5
100
AcDbSymbolTableRecord
100
AcDbLinetypeTableRecord
  2
DASHED
 70
     0
  3
DASHED
 72
    83
 73
     2
 40
0.75
 49
0.5
 74
     0
 49
-0.25
 74
     0
  0
LTYPE
  5
5E
330
5
100
AcDbSymbolTableRecord
100
AcDbLinetypeTableRecord
  2
HIDDEN
 70
     0
  3
HIDDEN
 72
    83
 73
     2
 40
0.375
 49
0.25
 74
     0
 49
-0.125
 74
     0
  0
LTYPE
  5
5F
330
5
100
AcDbSymbolTableRecord
100
AcDbLinetypeTableRecord
  2
CENTER
 70
     0
  3
CENTER
 72
    83
 73
     4
 40
2.0
 49
1.25
 74
     0
 49
-0.25
 74
     0
 49
0.25
 74
     0
 49
-0.25
 74
     0
  0
LTYPE
  5
60
330
5
100
AcDbSymbolTableRecord
100
AcDbLinetypeTableRecord
  2
PHANTOM
 70
     0
  3
PHANTOM
 72
    83
 73
     6
 40
2.5
 49
1.25
 74
     0
 49
-0.25
 74
     0
 49
0.25
 74
     0
 49
-0.25
 74
     0
 49
0.25
 74
     0
 49
-0.25
 74
     0
  0
ENDTAB
  0
TABLE
  2
LAYER
  5
2
330
0
100
AcDbSymbolTable
 70
     2
  0
LAYER
  5
10
330
2
100
AcDbSymbolTableRecord
100
AcDbLayerTableRecord
  2
0
 70
     0
 62
     7
  6
Continuous
370
    -3
390
F
  0
LAYER
  5
61
330
2
100
AcDbSymbolTableRecord
100
AcDbLayerTableRecord
  2
001
 70
     0
 62
     7
  6
Continuous
370
    -3
390
F
  0
ENDTAB
  0
TABLE
  2
STYLE
  5
3
330
0
100
AcDbSymbolTable
 70
     2
  0
STYLE
  5
11
330
3
100
AcDbSymbolTableRecord
100
AcDbTextStyleTableRecord
  2
Standard
 70
     0
 40
0.0
 41
1.0
 50
0.0
 71
     0
 42
0.2
  3
TXT
  4
BIGFONT
  0
STYLE
  5
62
330
3
100
AcDbSymbolTableRecord
100
AcDbTextStyleTableRecord
  2
TATEGAKI
 70
     4
 40
1.0
 41
1.0
 50
0.0
 71
     0
 42
0.2
  3
TXT
  4
BIGFONT
  0
ENDTAB
  0
TABLE
  2
VIEW
  5
6
330
0
100
AcDbSymbolTable
 70
     0
  0
ENDTAB
  0
TABLE
  2
UCS
  5
7
330
0
100
AcDbSymbolTable
 70
     0
  0
ENDTAB
  0
TABLE
  2
APPID
  5
9
330
0
100
AcDbSymbolTable
 70
     1
  0
APPID
  5
12
330
9
100
AcDbSymbolTableRecord
100
AcDbRegAppTableRecord
  2
ACAD
 70
     0
  0
ENDTAB
  0
TABLE
  2
DIMSTYLE
  5
A
330
0
100
AcDbSymbolTable
 70
     2
100
AcDbDimStyleTable
  0
DIMSTYLE
105
27
330
A
100
AcDbSymbolTableRecord
100
AcDbDimStyleTableRecord
  2
ISO-25
 70
     0
 41
2.5
 42
0.625
 43
3.75
 44
1.25
 73
     0
 74
     0
 77
     1
 78
     8
140
2.5
141
2.5
143
0.03937
147
0.625
171
     3
172
     1
271
     2
272
     2
274
     3
278
    44
283
     0
284
     8
340
11
  0
DIMSTYLE
105
63
102
{ACAD_REACTORS
330
1D5
330
1D6
330
1D7
330
1D8
330
1D9
330
1DA
330
1DB
330
1DD
330
1DE
330
1DF
330
1E0
330
1E1
330
1E2
330
1E3
330
1E4
330
1E5
102
}
330
A
100
AcDbSymbolTableRecord
100
AcDbDimStyleTableRecord
  2
Standard
 70
     0
 41
1.5
 42
0.0
 44
0.5
 73
     0
 74
     0
 77
     1
 78
     8
 79
     2
140
4.0
146
0.8
147
1.0
172
     1
179
     1
271
     1
340
11
  0
ENDTAB
  0
TABLE
  2
BLOCK_RECORD
  5
1
330
0
100
AcDbSymbolTable
 70
    23
  0
BLOCK_RECORD
  5
1F
330
1
100
AcDbSymbolTableRecord
100
AcDbBlockTableRecord
  2
*Model_Space
340
22
  0
BLOCK_RECORD
  5
1B
330
1
100
AcDbSymbolTableRecord
100
AcDbBlockTableRecord
  2
*Paper_Space
340
1E
  0
BLOCK_RECORD
  5
23
330
1
100
AcDbSymbolTableRecord
100
AcDbBlockTableRecord
  2
*Paper_Space0
340
26
  0
BLOCK_RECORD
  5
64
330
1
100
AcDbSymbolTableRecord
100
AcDbBlockTableRecord
  2
JZB-1
340
0
102
{BLKREFS
331
1D0
102
}
  0
BLOCK_RECORD
  5
6F
330
1
100
AcDbSymbolTableRecord
100
AcDbBlockTableRecord
  2
JZB-2
340
0
102
{BLKREFS
331
1D1
102
}
  0
BLOCK_RECORD
  5
7A
330
1
100
AcDbSymbolTableRecord
100
AcDbBlockTableRecord
  2
JZB-3
340
0
102
{BLKREFS
331
1D2
102
}
  0
BLOCK_RECORD
  5
7E
330
1
100
AcDbSymbolTableRecord
100
AcDbBlockTableRecord
  2
JZB-4
340
0
102
{BLKREFS
331
1D3
102
}
  0
BLOCK_RECORD
  5
85
330
1
100
AcDbSymbolTableRecord
100
AcDbBlockTableRecord
  2
JZB-5
340
0
102
{BLKREFS
331
1D4
102
}
  0
BLOCK_RECORD
  5
8C
330
1
100
AcDbSymbolTableRecord
100
AcDbBlockTableRecord
  2
*D6
340
0
  0
BLOCK_RECORD
  5
A0
330
1
100
AcDbSymbolTableRecord
100
AcDbBlockTableRecord
  2
*D7
340
0
  0
BLOCK_RECORD
  5
B4
330
1
100
AcDbSymbolTableRecord
100
AcDbBlockTableRecord
  2
*D8
340
0
  0
BLOCK_RECORD
  5
CA
330
1
100
AcDbSymbolTableRecord
100
AcDbBlockTableRecord
  2
*D9
340
0
  0
BLOCK_RECORD
  5
DE
330
1
100
AcDbSymbolTableRecord
100
AcDbBlockTableRecord
  2
*D10
340
0
  0
BLOCK_RECORD
  5
F2
330
1
100
AcDbSymbolTableRecord
100
AcDbBlockTableRecord
  2
*D11
340
0
  0
BLOCK_RECORD
  5
108
330
1
100
AcDbSymbolTableRecord
100
AcDbBlockTableRecord
  2
*D12
340
0
  0
BLOCK_RECORD
  5
11E
330
1
100
AcDbSymbolTableRecord
100
AcDbBlockTableRecord
  2
DIM-6
340
0
102
{BLKREFS
331
1DC
102
}
  0
BLOCK_RECORD
  5
12C
330
1
100
AcDbSymbolTableRecord
100
AcDbBlockTableRecord
  2
*D14
340
0
  0
BLOCK_RECORD
  5
141
330
1
100
AcDbSymbolTableRecord
100
AcDbBlockTableRecord
  2
*D15
340
0
  0
BLOCK_RECORD
  5
155
330
1
100
AcDbSymbolTableRecord
100
AcDbBlockTableRecord
  2
*D16
340
0
  0
BLOCK_RECORD
  5
169
330
1
100
AcDbSymbolTableRecord
100
AcDbBlockTableRecord
  2
*D17
340
0
  0
BLOCK_RECORD
  5
17F
330
1
100
AcDbSymbolTableRecord
100
AcDbBlockTableRecord
  2
*D18
340
0
  0
BLOCK_RECORD
  5
193
330
1
100
AcDbSymbolTableRecord
100
AcDbBlockTableRecord
  2
*D19
340
0
  0
BLOCK_RECORD
  5
1A0
330
1
100
AcDbSymbolTableRecord
100
AcDbBlockTableRecord
  2
*D20
340
0
  0
BLOCK_RECORD
  5
1AD
330
1
100
AcDbSymbolTableRecord
100
AcDbBlockTableRecord
  2
*D21
340
0
  0
BLOCK_RECORD
  5
1BA
330
1
100
AcDbSymbolTableRecord
100
AcDbBlockTableRecord
  2
*D22
340
0
  0
ENDTAB
  0
ENDSEC
  0
SECTION
  2
BLOCKS
  0
BLOCK
  5
20
330
1F
100
AcDbEntity
  8
0
100
AcDbBlockBegin
  2
*Model_Space
 70
     0
 10
0.0
 20
0.0
 30
0.0
  3
*Model_Space
  1

  0
ENDBLK
  5
21
330
1F
100
AcDbEntity
  8
0
100
AcDbBlockEnd
  0
BLOCK
  5
1C
330
1B
100
AcDbEntity
 67
     1
  8
0
100
AcDbBlockBegin
  2
*Paper_Space
 70
     0
 10
0.0
 20
0.0
 30
0.0
  3
*Paper_Space
  1

  0
ENDBLK
  5
1D
330
1B
100
AcDbEntity
 67
     1
  8
0
100
AcDbBlockEnd
  0
BLOCK
  5
24
330
23
100
AcDbEntity
  8
0
100
AcDbBlockBegin
  2
*Paper_Space0
 70
     0
 10
0.0
 20
0.0
 30
0.0
  3
*Paper_Space0
  1

  0
ENDBLK
  5
25
330
23
100
AcDbEntity
  8
0
100
AcDbBlockEnd
  0
BLOCK
  5
65
330
64
100
AcDbEntity
  8
0
100
AcDbBlockBegin
  2
JZB-1
 70
     0
 10
0.0
 20
0.0
 30
0.0
  3
JZB-1
  1

  0
CIRCLE
  5
67
330
64
100
AcDbEntity
  8
001
 62
   140
370
    30
100
AcDbCircle
 10
94.925887
 20
150.767443
 30
0.0
 40
4.188
  0
CIRCLE
  5
68
330
64
100
AcDbEntity
  8
001
 62
   140
370
    30
100
AcDbCircle
 10
94.925887
 20
150.767443
 30
0.0
 40
5.0
  0
LINE
  5
69
330
64
100
AcDbEntity
  8
001
 62
   140
370
    30
100
AcDbLine
 10
94.925887
 20
153.654195
 30
0.0
 11
97.425887
 21
152.210819
 31
0.0
  0
LINE
  5
6A
330
64
100
AcDbEntity
  8
001
 62
   140
370
    30
100
AcDbLine
 10
97.425887
 20
152.210819
 30
0.0
 11
97.425887
 21
149.324068
 31
0.0
  0
LINE
  5
6B
330
64
100
AcDbEntity
  8
001
 62
   140
370
    30
100
AcDbLine
 10
92.425887
 20
149.324068
 30
0.0
 11
92.425887
 21
152.210819
 31
0.0
  0
LINE
  5
6C
330
64
100
AcDbEntity
  8
001
 62
   140
370
    30
100
AcDbLine
 10
94.925887
 20
147.880692
 30
0.0
 11
92.425887
 21
149.324068
 31
0.0
  0
LINE
  5
6D
330
64
100
AcDbEntity
  8
001
 62
   140
370
    30
100
AcDbLine
 10
97.425887
 20
149.324068
 30
0.0
 11
94.925887
 21
147.880692
 31
0.0
  0
LINE
  5
6E
330
64
100
AcDbEntity
  8
001
 62
   140
370
    30
100
AcDbLine
 10
92.425887
 20
152.210819
 30
0.0
 11
94.925887
 21
153.654195
 31
0.0
  0
ENDBLK
  5
66
330
64
100
AcDbEntity
  8
0
100
AcDbBlockEnd
  0
BLOCK
  5
70
330
6F
100
AcDbEntity
  8
0
100
AcDbBlockBegin
  2
JZB-2
 70
     0
 10
0.0
 20
0.0
 30
0.0
  3
JZB-2
  1

  0
CIRCLE
  5
72
330
6F
100
AcDbEntity
  8
001
 62
   140
370
    30
100
AcDbCircle
 10
79.925887
 20
150.767443
 30
0.0
 40
4.188
  0
CIRCLE
  5
73
330
6F
100
AcDbEntity
  8
001
 62
   140
370
    30
100
AcDbCircle
 10
79.925887
 20
150.767443
 30
0.0
 40
5.0
  0
LINE
  5
74
330
6F
100
AcDbEntity
  8
001
 62
   140
370
    30
100
AcDbLine
 10
79.925887
 20
153.654195
 30
0.0
 11
82.425887
 21
152.210819
 31
0.0
  0
LINE
  5
75
330
6F
100
AcDbEntity
  8
001
 62
   140
370
    30
100
AcDbLine
 10
82.425887
 20
152.210819
 30
0.0
 11
82.425887
 21
149.324068
 31
0.0
  0
LINE
  5
76
330
6F
100
AcDbEntity
  8
001
 62
   140
370
    30
100
AcDbLine
 10
77.425887
 20
149.324068
 30
0.0
 11
77.425887
 21
152.210819
 31
0.0
  0
LINE
  5
77
330
6F
100
AcDbEntity
  8
001
 62
   140
370
    30
100
AcDbLine
 10
79.925887
 20
147.880692
 30
0.0
 11
77.425887
 21
149.324068
 31
0.0
  0
LINE
  5
78
330
6F
100
AcDbEntity
  8
001
 62
   140
370
    30
100
AcDbLine
 10
82.425887
 20
149.324068
 30
0.0
 11
79.925887
 21
147.880692
 31
0.0
  0
LINE
  5
79
330
6F
100
AcDbEntity
  8
001
 62
   140
370
    30
100
AcDbLine
 10
77.425887
 20
152.210819
 30
0.0
 11
79.925887
 21
153.654195
 31
0.0
  0
ENDBLK
  5
71
330
6F
100
AcDbEntity
  8
0
100
AcDbBlockEnd
  0
BLOCK
  5
7B
330
7A
100
AcDbEntity
  8
0
100
AcDbBlockBegin
  2
JZB-3
 70
     0
 10
0.0
 20
0.0
 30
0.0
  3
JZB-3
  1

  0
LINE
  5
7D
330
7A
100
AcDbEntity
  8
001
 62
   140
370
    30
100
AcDbLine
 10
237.810359
 20
150.560016
 30
0.0
 11
237.810359
 21
150.97487
 31
0.0
  0
ENDBLK
  5
7C
330
7A
100
AcDbEntity
  8
0
100
AcDbBlockEnd
  0
BLOCK
  5
7F
330
7E
100
AcDbEntity
  8
0
100
AcDbBlockBegin
  2
JZB-4
 70
     0
 10
0.0
 20
0.0
 30
0.0
  3
JZB-4
  1

  0
LINE
  5
81
330
7E
100
AcDbEntity
  8
001
 62
   140
370
    30
100
AcDbLine
 10
99.113887
 20
71.94665
 30
0.0
 11
90.737887
 21
71.94665
 31
0.0
  0
LINE
  5
82
330
7E
100
AcDbEntity
  8
001
 62
   140
370
    30
100
AcDbLine
 10
99.269649
 20
71.13465
 30
0.0
 11
90.56686
 21
71.13465
 31
0.0
  0
LINE
  5
83
330
7E
100
AcDbEntity
  8
001
 62
   140
370
    30
100
AcDbLine
 10
99.815705
 20
71.244832
 30
0.0
 11
99.113887
 21
71.94665
 31
0.0
  0
LINE
  5
84
330
7E
100
AcDbEntity
  8
001
 62
   140
370
    30
100
AcDbLine
 10
90.737887
 20
71.94665
 30
0.0
 11
90.035883
 21
71.244646
 31
0.0
  0
ENDBLK
  5
80
330
7E
100
AcDbEntity
  8
0
100
AcDbBlockEnd
  0
BLOCK
  5
86
330
85
100
AcDbEntity
  8
0
100
AcDbBlockBegin
  2
JZB-5
 70
     0
 10
0.0
 20
0.0
 30
0.0
  3
JZB-5
  1

  0
LINE
  5
88
330
85
100
AcDbEntity
  8
001
 62
   140
370
    30
100
AcDbLine
 10
84.269209
 20
71.13465
 30
0.0
 11
75.56916
 21
71.13465
 31
0.0
  0
LINE
  5
89
330
85
100
AcDbEntity
  8
001
 62
   140
370
    30
100
AcDbLine
 10
84.113887
 20
71.94665
 30
0.0
 11
75.737887
 21
71.94665
 31
0.0
  0
LINE
  5
8A
330
85
100
AcDbEntity
  8
001
 62
   140
370
    30
100
AcDbLine
 10
84.815651
 20
71.244886
 30
0.0
 11
84.113887
 21
71.94665
 31
0.0
  0
LINE
  5
8B
330
85
100
AcDbEntity
  8
001
 62
   140
370
    30
100
AcDbLine
 10
75.737887
 20
71.94665
 30
0.0
 11
75.03652
 21
71.245283
 31
0.0
  0
ENDBLK
  5
87
330
85
100
AcDbEntity
  8
0
100
AcDbBlockEnd
  0
BLOCK
  5
8D
330
8C
100
AcDbEntity
  8
0
100
AcDbBlockBegin
  2
*D6
 70
     1
 10
0.0
 20
0.0
 30
0.0
  3
*D6
  1

  0
LINE
  5
8F
330
8C
100
AcDbEntity
  8
001
370
     9
100
AcDbLine
 10
74.193836
 20
133.267443
 30
0.0
 11
42.244371
 21
133.267443
 31
0.0
  0
LINE
  5
90
330
8C
100
AcDbEntity
  8
001
370
     9
100
AcDbLine
 10
74.193836
 20
168.267443
 30
0.0
 11
42.244371
 21
168.267443
 31
0.0
  0
LINE
  5
91
330
8C
100
AcDbEntity
  8
001
370
     9
100
AcDbLine
 10
45.681871
 20
133.267443
 30
0.0
 11
45.681871
 21
168.267443
 31
0.0
  0
POLYLINE
  5
92
330
8C
100
AcDbEntity
  8
001
370
     9
100
AcDb2dPolyline
 66
     1
 10
0.0
 20
0.0
 30
0.0
  0
VERTEX
  5
94
330
92
100
AcDbEntity
  8
001
370
     9
100
AcDbVertex
100
AcDb2dVertex
 10
46.184276
 20
135.142443
 30
0.0
  0
VERTEX
  5
95
330
92
100
AcDbEntity
  8
001
370
     9
100
AcDbVertex
100
AcDb2dVertex
 10
45.681871
 20
133.267443
 30
0.0
  0
VERTEX
  5
96
330
92
100
AcDbEntity
  8
001
370
     9
100
AcDbVertex
100
AcDb2dVertex
 10
45.179466
 20
135.142443
 30
0.0
  0
SEQEND
  5
93
330
92
100
AcDbEntity
  8
001
370
     9
  0
POLYLINE
  5
97
330
8C
100
AcDbEntity
  8
001
370
     9
100
AcDb2dPolyline
 66
     1
 10
0.0
 20
0.0
 30
0.0
  0
VERTEX
  5
99
330
97
100
AcDbEntity
  8
001
370
     9
100
AcDbVertex
100
AcDb2dVertex
 10
45.179466
 20
166.392443
 30
0.0
  0
VERTEX
  5
9A
330
97
100
AcDbEntity
  8
001
370
     9
100
AcDbVertex
100
AcDb2dVertex
 10
45.681871
 20
168.267443
 30
0.0
  0
VERTEX
  5
9B
330
97
100
AcDbEntity
  8
001
370
     9
100
AcDbVertex
100
AcDb2dVertex
 10
46.184276
 20
166.392443
 30
0.0
  0
SEQEND
  5
98
330
97
100
AcDbEntity
  8
001
370
     9
  0
TEXT
  5
9C
330
8C
100
AcDbEntity
  8
001
370
    30
100
AcDbText
 10
44.431871
 20
143.267443
 30
0.0
 40
5.0
  1
%%c３５
 50
90.000003
 41
0.882353
100
AcDbText
  0
POINT
  5
9D
330
8C
100
AcDbEntity
  8
001
370
     9
100
AcDbPoint
 10
74.193836
 20
133.267443
 30
0.0
  0
POINT
  5
9E
330
8C
100
AcDbEntity
  8
001
370
     9
100
AcDbPoint
 10
74.193836
 20
168.267443
 30
0.0
  0
POINT
  5
9F
330
8C
100
AcDbEntity
  8
001
370
     9
100
AcDbPoint
 10
45.681871
 20
168.267443
 30
0.0
  0
ENDBLK
  5
8E
330
8C
100
AcDbEntity
  8
0
100
AcDbBlockEnd
  0
BLOCK
  5
A1
330
A0
100
AcDbEntity
  8
0
100
AcDbBlockBegin
  2
*D7
 70
     1
 10
0.0
 20
0.0
 30
0.0
  3
*D7
  1

  0
LINE
  5
A3
330
A0
100
AcDbEntity
  8
001
370
     9
100
AcDbLine
 10
102.925887
 20
127.267443
 30
0.0
 11
28.085789
 21
127.267443
 31
0.0
  0
LINE
  5
A4
330
A0
100
AcDbEntity
  8
001
370
     9
100
AcDbLine
 10
102.925887
 20
174.267443
 30
0.0
 11
28.085789
 21
174.267443
 31
0.0
  0
LINE
  5
A5
330
A0
100
AcDbEntity
  8
001
370
     9
100
AcDbLine
 10
31.523289
 20
127.267443
 30
0.0
 11
31.523289
 21
174.267443
 31
0.0
  0
POLYLINE
  5
A6
330
A0
100
AcDbEntity
  8
001
370
     9
100
AcDb2dPolyline
 66
     1
 10
0.0
 20
0.0
 30
0.0
  0
VERTEX
  5
A8
330
A6
100
AcDbEntity
  8
001
370
     9
100
AcDbVertex
100
AcDb2dVertex
 10
32.025694
 20
129.142443
 30
0.0
  0
VERTEX
  5
A9
330
A6
100
AcDbEntity
  8
001
370
     9
100
AcDbVertex
100
AcDb2dVertex
 10
31.523289
 20
127.267443
 30
0.0
  0
VERTEX
  5
AA
330
A6
100
AcDbEntity
  8
001
370
     9
100
AcDbVertex
100
AcDb2dVertex
 10
31.020884
 20
129.142443
 30
0.0
  0
SEQEND
  5
A7
330
A6
100
AcDbEntity
  8
001
370
     9
  0
POLYLINE
  5
AB
330
A0
100
AcDbEntity
  8
001
370
     9
100
AcDb2dPolyline
 66
     1
 10
0.0
 20
0.0
 30
0.0
  0
VERTEX
  5
AD
330
AB
100
AcDbEntity
  8
001
370
     9
100
AcDbVertex
100
AcDb2dVertex
 10
31.020884
 20
172.392443
 30
0.0
  0
VERTEX
  5
AE
330
AB
100
AcDbEntity
  8
001
370
     9
100
AcDbVertex
100
AcDb2dVertex
 10
31.523289
 20
174.267443
 30
0.0
  0
VERTEX
  5
AF
330
AB
100
AcDbEntity
  8
001
370
     9
100
AcDbVertex
100
AcDb2dVertex
 10
32.025694
 20
172.392443
 30
0.0
  0
SEQEND
  5
AC
330
AB
100
AcDbEntity
  8
001
370
     9
  0
TEXT
  5
B0
330
A0
100
AcDbEntity
  8
001
370
    30
100
AcDbText
 10
30.273289
 20
143.267443
 30
0.0
 40
5.0
  1
%%c４７
 50
90.000003
 41
0.882353
100
AcDbText
  0
POINT
  5
B1
330
A0
100
AcDbEntity
  8
001
370
     9
100
AcDbPoint
 10
102.925887
 20
127.267443
 30
0.0
  0
POINT
  5
B2
330
A0
100
AcDbEntity
  8
001
370
     9
100
AcDbPoint
 10
102.925887
 20
174.267443
 30
0.0
  0
POINT
  5
B3
330
A0
100
AcDbEntity
  8
001
370
     9
100
AcDbPoint
 10
31.523289
 20
174.267443
 30
0.0
  0
ENDBLK
  5
A2
330
A0
100
AcDbEntity
  8
0
100
AcDbBlockEnd
  0
BLOCK
  5
B5
330
B4
100
AcDbEntity
  8
0
100
AcDbBlockBegin
  2
*D8
 70
     1
 10
0.0
 20
0.0
 30
0.0
  3
*D8
  1

  0
LINE
  5
B7
330
B4
100
AcDbEntity
  8
001
370
     9
100
AcDbLine
 10
101.925887
 20
128.267443
 30
0.0
 11
101.925887
 21
103.56636
 31
0.0
  0
LINE
  5
B8
330
B4
100
AcDbEntity
  8
001
370
     9
100
AcDbLine
 10
106.925887
 20
128.267443
 30
0.0
 11
106.925887
 21
103.56636
 31
0.0
  0
LINE
  5
B9
330
B4
100
AcDbEntity
  8
001
370
     9
100
AcDbLine
 10
101.925887
 20
107.00386
 30
0.0
 11
106.925887
 21
107.00386
 31
0.0
  0
POLYLINE
  5
BA
330
B4
100
AcDbEntity
  8
001
370
     9
100
AcDb2dPolyline
 66
     1
 10
0.0
 20
0.0
 30
0.0
  0
VERTEX
  5
BC
330
BA
100
AcDbEntity
  8
001
370
     9
100
AcDbVertex
100
AcDb2dVertex
 10
100.050887
 20
107.506265
 30
0.0
  0
VERTEX
  5
BD
330
BA
100
AcDbEntity
  8
001
370
     9
100
AcDbVertex
100
AcDb2dVertex
 10
101.925887
 20
107.00386
 30
0.0
  0
VERTEX
  5
BE
330
BA
100
AcDbEntity
  8
001
370
     9
100
AcDbVertex
100
AcDb2dVertex
 10
100.050887
 20
106.501455
 30
0.0
  0
SEQEND
  5
BB
330
BA
100
AcDbEntity
  8
001
370
     9
  0
POLYLINE
  5
BF
330
B4
100
AcDbEntity
  8
001
370
     9
100
AcDb2dPolyline
 66
     1
 10
0.0
 20
0.0
 30
0.0
  0
VERTEX
  5
C1
330
BF
100
AcDbEntity
  8
001
370
     9
100
AcDbVertex
100
AcDb2dVertex
 10
108.800887
 20
106.501455
 30
0.0
  0
VERTEX
  5
C2
330
BF
100
AcDbEntity
  8
001
370
     9
100
AcDbVertex
100
AcDb2dVertex
 10
106.925887
 20
107.00386
 30
0.0
  0
VERTEX
  5
C3
330
BF
100
AcDbEntity
  8
001
370
     9
100
AcDbVertex
100
AcDb2dVertex
 10
108.800887
 20
107.506265
 30
0.0
  0
SEQEND
  5
C0
330
BF
100
AcDbEntity
  8
001
370
     9
  0
TEXT
  5
C4
330
B4
100
AcDbEntity
  8
001
370
    30
100
AcDbText
 10
101.925887
 20
108.25386
 30
0.0
 40
5.0
  1
５
 41
0.833333
100
AcDbText
  0
POINT
  5
C5
330
B4
100
AcDbEntity
  8
001
370
     9
100
AcDbPoint
 10
101.925887
 20
128.267443
 30
0.0
  0
POINT
  5
C6
330
B4
100
AcDbEntity
  8
001
370
     9
100
AcDbPoint
 10
106.925887
 20
128.267443
 30
0.0
  0
POINT
  5
C7
330
B4
100
AcDbEntity
  8
001
370
     9
100
AcDbPoint
 10
106.925887
 20
107.00386
 30
0.0
  0
LINE
  5
C8
330
B4
100
AcDbEntity
  8
001
370
     9
100
AcDbLine
 10
101.925887
 20
107.00386
 30
0.0
 11
98.800887
 21
107.00386
 31
0.0
  0
LINE
  5
C9
330
B4
100
AcDbEntity
  8
001
370
     9
100
AcDbLine
 10
106.925887
 20
107.00386
 30
0.0
 11
110.050887
 21
107.00386
 31
0.0
  0
ENDBLK
  5
B6
330
B4
100
AcDbEntity
  8
0
100
AcDbBlockEnd
  0
BLOCK
  5
CB
330
CA
100
AcDbEntity
  8
0
100
AcDbBlockBegin
  2
*D9
 70
     1
 10
0.0
 20
0.0
 30
0.0
  3
*D9
  1

  0
LINE
  5
CD
330
CA
100
AcDbEntity
  8
001
370
     9
100
AcDbLine
 10
66.925887
 20
137.886245
 30
0.0
 11
66.925887
 21
103.56636
 31
0.0
  0
LINE
  5
CE
330
CA
100
AcDbEntity
  8
001
370
     9
100
AcDbLine
 10
101.925887
 20
128.267443
 30
0.0
 11
101.925887
 21
103.56636
 31
0.0
  0
LINE
  5
CF
330
CA
100
AcDbEntity
  8
001
370
     9
100
AcDbLine
 10
66.925887
 20
107.00386
 30
0.0
 11
101.925887
 21
107.00386
 31
0.0
  0
POLYLINE
  5
D0
330
CA
100
AcDbEntity
  8
001
370
     9
100
AcDb2dPolyline
 66
     1
 10
0.0
 20
0.0
 30
0.0
  0
VERTEX
  5
D2
330
D0
100
AcDbEntity
  8
001
370
     9
100
AcDbVertex
100
AcDb2dVertex
 10
68.800887
 20
106.501455
 30
0.0
  0
VERTEX
  5
D3
330
D0
100
AcDbEntity
  8
001
370
     9
100
AcDbVertex
100
AcDb2dVertex
 10
66.925887
 20
107.00386
 30
0.0
  0
VERTEX
  5
D4
330
D0
100
AcDbEntity
  8
001
370
     9
100
AcDbVertex
100
AcDb2dVertex
 10
68.800887
 20
107.506265
 30
0.0
  0
SEQEND
  5
D1
330
D0
100
AcDbEntity
  8
001
370
     9
  0
POLYLINE
  5
D5
330
CA
100
AcDbEntity
  8
001
370
     9
100
AcDb2dPolyline
 66
     1
 10
0.0
 20
0.0
 30
0.0
  0
VERTEX
  5
D7
330
D5
100
AcDbEntity
  8
001
370
     9
100
AcDbVertex
100
AcDb2dVertex
 10
100.050887
 20
107.506265
 30
0.0
  0
VERTEX
  5
D8
330
D5
100
AcDbEntity
  8
001
370
     9
100
AcDbVertex
100
AcDb2dVertex
 10
101.925887
 20
107.00386
 30
0.0
  0
VERTEX
  5
D9
330
D5
100
AcDbEntity
  8
001
370
     9
100
AcDbVertex
100
AcDb2dVertex
 10
100.050887
 20
106.501455
 30
0.0
  0
SEQEND
  5
D6
330
D5
100
AcDbEntity
  8
001
370
     9
  0
TEXT
  5
DA
330
CA
100
AcDbEntity
  8
001
370
    30
100
AcDbText
 10
79.425887
 20
108.25386
 30
0.0
 40
5.0
  1
３５
 41
0.833333
100
AcDbText
  0
POINT
  5
DB
330
CA
100
AcDbEntity
  8
001
370
     9
100
AcDbPoint
 10
66.925887
 20
137.886245
 30
0.0
  0
POINT
  5
DC
330
CA
100
AcDbEntity
  8
001
370
     9
100
AcDbPoint
 10
101.925887
 20
128.267443
 30
0.0
  0
POINT
  5
DD
330
CA
100
AcDbEntity
  8
001
370
     9
100
AcDbPoint
 10
101.925887
 20
107.00386
 30
0.0
  0
ENDBLK
  5
CC
330
CA
100
AcDbEntity
  8
0
100
AcDbBlockEnd
  0
BLOCK
  5
DF
330
DE
100
AcDbEntity
  8
0
100
AcDbBlockBegin
  2
*D10
 70
     1
 10
0.0
 20
0.0
 30
0.0
  3
*D10
  1

  0
LINE
  5
E1
330
DE
100
AcDbEntity
  8
001
370
     9
100
AcDbLine
 10
186.925887
 20
132.767443
 30
0.0
 11
186.925887
 21
91.701972
 31
0.0
  0
LINE
  5
E2
330
DE
100
AcDbEntity
  8
001
370
     9
100
AcDbLine
 10
66.925887
 20
137.886245
 30
0.0
 11
66.925887
 21
91.701972
 31
0.0
  0
LINE
  5
E3
330
DE
100
AcDbEntity
  8
001
370
     9
100
AcDbLine
 10
186.925887
 20
95.139472
 30
0.0
 11
66.925887
 21
95.139472
 31
0.0
  0
POLYLINE
  5
E4
330
DE
100
AcDbEntity
  8
001
370
     9
100
AcDb2dPolyline
 66
     1
 10
0.0
 20
0.0
 30
0.0
  0
VERTEX
  5
E6
330
E4
100
AcDbEntity
  8
001
370
     9
100
AcDbVertex
100
AcDb2dVertex
 10
185.050887
 20
95.641877
 30
0.0
  0
VERTEX
  5
E7
330
E4
100
AcDbEntity
  8
001
370
     9
100
AcDbVertex
100
AcDb2dVertex
 10
186.925887
 20
95.139472
 30
0.0
  0
VERTEX
  5
E8
330
E4
100
AcDbEntity
  8
001
370
     9
100
AcDbVertex
100
AcDb2dVertex
 10
185.050887
 20
94.637067
 30
0.0
  0
SEQEND
  5
E5
330
E4
100
AcDbEntity
  8
001
370
     9
  0
POLYLINE
  5
E9
330
DE
100
AcDbEntity
  8
001
370
     9
100
AcDb2dPolyline
 66
     1
 10
0.0
 20
0.0
 30
0.0
  0
VERTEX
  5
EB
330
E9
100
AcDbEntity
  8
001
370
     9
100
AcDbVertex
100
AcDb2dVertex
 10
68.800887
 20
94.637067
 30
0.0
  0
VERTEX
  5
EC
330
E9
100
AcDbEntity
  8
001
370
     9
100
AcDbVertex
100
AcDb2dVertex
 10
66.925887
 20
95.139472
 30
0.0
  0
VERTEX
  5
ED
330
E9
100
AcDbEntity
  8
001
370
     9
100
AcDbVertex
100
AcDb2dVertex
 10
68.800887
 20
95.641877
 30
0.0
  0
SEQEND
  5
EA
330
E9
100
AcDbEntity
  8
001
370
     9
  0
TEXT
  5
EE
330
DE
100
AcDbEntity
  8
001
370
    30
100
AcDbText
 10
119.425887
 20
96.389472
 30
0.0
 40
5.0
  1
１２０
 41
0.833333
100
AcDbText
  0
POINT
  5
EF
330
DE
100
AcDbEntity
  8
001
370
     9
100
AcDbPoint
 10
186.925887
 20
132.767443
 30
0.0
  0
POINT
  5
F0
330
DE
100
AcDbEntity
  8
001
370
     9
100
AcDbPoint
 10
66.925887
 20
137.886245
 30
0.0
  0
POINT
  5
F1
330
DE
100
AcDbEntity
  8
001
370
     9
100
AcDbPoint
 10
66.925887
 20
95.139472
 30
0.0
  0
ENDBLK
  5
E0
330
DE
100
AcDbEntity
  8
0
100
AcDbBlockEnd
  0
BLOCK
  5
F3
330
F2
100
AcDbEntity
  8
0
100
AcDbBlockBegin
  2
*D11
 70
     1
 10
0.0
 20
0.0
 30
0.0
  3
*D11
  1

  0
LINE
  5
F5
330
F2
100
AcDbEntity
  8
001
370
     9
100
AcDbLine
 10
79.925887
 20
74.998773
 30
0.0
 11
79.925887
 21
85.727525
 31
0.0
  0
LINE
  5
F6
330
F2
100
AcDbEntity
  8
001
370
     9
100
AcDbLine
 10
66.925887
 20
66.829999
 30
0.0
 11
66.925887
 21
85.727525
 31
0.0
  0
LINE
  5
F7
330
F2
100
AcDbEntity
  8
001
370
     9
100
AcDbLine
 10
79.925887
 20
82.290025
 30
0.0
 11
66.925887
 21
82.290025
 31
0.0
  0
POLYLINE
  5
F8
330
F2
100
AcDbEntity
  8
001
370
     9
100
AcDb2dPolyline
 66
     1
 10
0.0
 20
0.0
 30
0.0
  0
VERTEX
  5
FA
330
F8
100
AcDbEntity
  8
001
370
     9
100
AcDbVertex
100
AcDb2dVertex
 10
81.800887
 20
81.787621
 30
0.0
  0
VERTEX
  5
FB
330
F8
100
AcDbEntity
  8
001
370
     9
100
AcDbVertex
100
AcDb2dVertex
 10
79.925887
 20
82.290025
 30
0.0
  0
VERTEX
  5
FC
330
F8
100
AcDbEntity
  8
001
370
     9
100
AcDbVertex
100
AcDb2dVertex
 10
81.800887
 20
82.79243
 30
0.0
  0
SEQEND
  5
F9
330
F8
100
AcDbEntity
  8
001
370
     9
  0
POLYLINE
  5
FD
330
F2
100
AcDbEntity
  8
001
370
     9
100
AcDb2dPolyline
 66
     1
 10
0.0
 20
0.0
 30
0.0
  0
VERTEX
  5
FF
330
FD
100
AcDbEntity
  8
001
370
     9
100
AcDbVertex
100
AcDb2dVertex
 10
65.050887
 20
82.79243
 30
0.0
  0
VERTEX
  5
100
330
FD
100
AcDbEntity
  8
001
370
     9
100
AcDbVertex
100
AcDb2dVertex
 10
66.925887
 20
82.290025
 30
0.0
  0
VERTEX
  5
101
330
FD
100
AcDbEntity
  8
001
370
     9
100
AcDbVertex
100
AcDb2dVertex
 10
65.050887
 20
81.787621
 30
0.0
  0
SEQEND
  5
FE
330
FD
100
AcDbEntity
  8
001
370
     9
  0
TEXT
  5
102
330
F2
100
AcDbEntity
  8
001
370
    30
100
AcDbText
 10
68.425887
 20
83.540025
 30
0.0
 40
5.0
  1
１３
 41
0.833333
100
AcDbText
  0
POINT
  5
103
330
F2
100
AcDbEntity
  8
001
370
     9
100
AcDbPoint
 10
79.925887
 20
74.998773
 30
0.0
  0
POINT
  5
104
330
F2
100
AcDbEntity
  8
001
370
     9
100
AcDbPoint
 10
66.925887
 20
66.829999
 30
0.0
  0
POINT
  5
105
330
F2
100
AcDbEntity
  8
001
370
     9
100
AcDbPoint
 10
66.925887
 20
82.290025
 30
0.0
  0
LINE
  5
106
330
F2
100
AcDbEntity
  8
001
370
     9
100
AcDbLine
 10
79.925887
 20
82.290025
 30
0.0
 11
83.050887
 21
82.290025
 31
0.0
  0
LINE
  5
107
330
F2
100
AcDbEntity
  8
001
370
     9
100
AcDbLine
 10
66.925887
 20
82.290025
 30
0.0
 11
63.800887
 21
82.290025
 31
0.0
  0
ENDBLK
  5
F4
330
F2
100
AcDbEntity
  8
0
100
AcDbBlockEnd
  0
BLOCK
  5
109
330
108
100
AcDbEntity
  8
0
100
AcDbBlockBegin
  2
*D12
 70
     1
 10
0.0
 20
0.0
 30
0.0
  3
*D12
  1

  0
LINE
  5
10B
330
108
100
AcDbEntity
  8
001
370
     9
100
AcDbLine
 10
94.925887
 20
74.998773
 30
0.0
 11
94.925887
 21
85.727525
 31
0.0
  0
LINE
  5
10C
330
108
100
AcDbEntity
  8
001
370
     9
100
AcDbLine
 10
79.925887
 20
74.998773
 30
0.0
 11
79.925887
 21
85.727525
 31
0.0
  0
LINE
  5
10D
330
108
100
AcDbEntity
  8
001
370
     9
100
AcDbLine
 10
94.925887
 20
82.290025
 30
0.0
 11
79.925887
 21
82.290025
 31
0.0
  0
POLYLINE
  5
10E
330
108
100
AcDbEntity
  8
001
370
     9
100
AcDb2dPolyline
 66
     1
 10
0.0
 20
0.0
 30
0.0
  0
VERTEX
  5
110
330
10E
100
AcDbEntity
  8
001
370
     9
100
AcDbVertex
100
AcDb2dVertex
 10
96.800887
 20
81.787621
 30
0.0
  0
VERTEX
  5
111
330
10E
100
AcDbEntity
  8
001
370
     9
100
AcDbVertex
100
AcDb2dVertex
 10
94.925887
 20
82.290025
 30
0.0
  0
VERTEX
  5
112
330
10E
100
AcDbEntity
  8
001
370
     9
100
AcDbVertex
100
AcDb2dVertex
 10
96.800887
 20
82.79243
 30
0.0
  0
SEQEND
  5
10F
330
10E
100
AcDbEntity
  8
001
370
     9
  0
POLYLINE
  5
113
330
108
100
AcDbEntity
  8
001
370
     9
100
AcDb2dPolyline
 66
     1
 10
0.0
 20
0.0
 30
0.0
  0
VERTEX
  5
115
330
113
100
AcDbEntity
  8
001
370
     9
100
AcDbVertex
100
AcDb2dVertex
 10
78.050887
 20
82.79243
 30
0.0
  0
VERTEX
  5
116
330
113
100
AcDbEntity
  8
001
370
     9
100
AcDbVertex
100
AcDb2dVertex
 10
79.925887
 20
82.290025
 30
0.0
  0
VERTEX
  5
117
330
113
100
AcDbEntity
  8
001
370
     9
100
AcDbVertex
100
AcDb2dVertex
 10
78.050887
 20
81.787621
 30
0.0
  0
SEQEND
  5
114
330
113
100
AcDbEntity
  8
001
370
     9
  0
TEXT
  5
118
330
108
100
AcDbEntity
  8
001
370
    30
100
AcDbText
 10
82.425887
 20
83.540025
 30
0.0
 40
5.0
  1
１５
 41
0.833333
100
AcDbText
  0
POINT
  5
119
330
108
100
AcDbEntity
  8
001
370
     9
100
AcDbPoint
 10
94.925887
 20
74.998773
 30
0.0
  0
POINT
  5
11A
330
108
100
AcDbEntity
  8
001
370
     9
100
AcDbPoint
 10
79.925887
 20
74.998773
 30
0.0
  0
POINT
  5
11B
330
108
100
AcDbEntity
  8
001
370
     9
100
AcDbPoint
 10
79.925887
 20
82.290025
 30
0.0
  0
LINE
  5
11C
330
108
100
AcDbEntity
  8
001
370
     9
100
AcDbLine
 10
94.925887
 20
82.290025
 30
0.0
 11
98.050887
 21
82.290025
 31
0.0
  0
LINE
  5
11D
330
108
100
AcDbEntity
  8
001
370
     9
100
AcDbLine
 10
79.925887
 20
82.290025
 30
0.0
 11
76.800887
 21
82.290025
 31
0.0
  0
ENDBLK
  5
10A
330
108
100
AcDbEntity
  8
0
100
AcDbBlockEnd
  0
BLOCK
  5
11F
330
11E
100
AcDbEntity
  8
0
100
AcDbBlockBegin
  2
DIM-6
 70
     0
 10
0.0
 20
0.0
 30
0.0
  3
DIM-6
  1

  0
TEXT
  5
121
330
11E
100
AcDbEntity
  8
001
370
    30
100
AcDbText
 10
-11.248294
 20
110.95555
 30
0.0
 40
5.0
  1
２－Ｍ１０×１．５，貫通
 41
0.833333
100
AcDbText
  0
POLYLINE
  5
122
330
11E
100
AcDbEntity
  8
001
370
     9
100
AcDb2dPolyline
 66
     1
 10
0.0
 20
0.0
 30
0.0
  0
VERTEX
  5
124
330
122
100
AcDbEntity
  8
001
370
     9
100
AcDbVertex
100
AcDb2dVertex
 10
75.846788
 20
145.985136
 30
0.0
  0
VERTEX
  5
125
330
122
100
AcDbEntity
  8
001
370
     9
100
AcDbVertex
100
AcDb2dVertex
 10
77.329236
 20
147.238285
 30
0.0
  0
VERTEX
  5
126
330
122
100
AcDbEntity
  8
001
370
     9
100
AcDbVertex
100
AcDb2dVertex
 10
76.671973
 20
145.411802
 30
0.0
  0
SEQEND
  5
123
330
122
100
AcDbEntity
  8
001
370
     9
  0
POLYLINE
  5
127
330
11E
100
AcDbEntity
  8
001
370
     9
100
AcDb2dPolyline
 66
     1
 10
0.0
 20
0.0
 30
0.0
  0
VERTEX
  5
129
330
127
100
AcDbEntity
  8
001
370
     9
100
AcDbVertex
100
AcDb2dVertex
 10
77.329236
 20
147.238285
 30
0.0
  0
VERTEX
  5
12A
330
127
100
AcDbEntity
  8
001
370
     9
100
AcDbVertex
100
AcDb2dVertex
 10
51.251706
 20
109.70555
 30
0.0
  0
VERTEX
  5
12B
330
127
100
AcDbEntity
  8
001
370
     9
100
AcDbVertex
100
AcDb2dVertex
 10
-13.748294
 20
109.70555
 30
0.0
  0
SEQEND
  5
128
330
127
100
AcDbEntity
  8
001
370
     9
  0
ENDBLK
  5
120
330
11E
100
AcDbEntity
  8
0
100
AcDbBlockEnd
  0
BLOCK
  5
12D
330
12C
100
AcDbEntity
  8
0
100
AcDbBlockBegin
  2
*D14
 70
     1
 10
0.0
 20
0.0
 30
0.0
  3
*D14
  1

  0
LINE
  5
12F
330
12C
100
AcDbEntity
  8
001
370
     9
100
AcDbLine
 10
184.925887
 20
130.767443
 30
0.0
 11
214.799936
 21
130.767443
 31
0.0
  0
LINE
  5
130
330
12C
100
AcDbEntity
  8
001
370
     9
100
AcDbLine
 10
184.925887
 20
170.767443
 30
0.0
 11
214.799936
 21
170.767443
 31
0.0
  0
LINE
  5
131
330
12C
100
AcDbEntity
  8
001
370
     9
100
AcDbLine
 10
211.362436
 20
130.767443
 30
0.0
 11
211.362436
 21
170.767443
 31
0.0
  0
POLYLINE
  5
132
330
12C
100
AcDbEntity
  8
001
370
     9
100
AcDb2dPolyline
 66
     1
 10
0.0
 20
0.0
 30
0.0
  0
VERTEX
  5
134
330
132
100
AcDbEntity
  8
001
370
     9
100
AcDbVertex
100
AcDb2dVertex
 10
211.864841
 20
132.642443
 30
0.0
  0
VERTEX
  5
135
330
132
100
AcDbEntity
  8
001
370
     9
100
AcDbVertex
100
AcDb2dVertex
 10
211.362436
 20
130.767443
 30
0.0
  0
VERTEX
  5
136
330
132
100
AcDbEntity
  8
001
370
     9
100
AcDbVertex
100
AcDb2dVertex
 10
210.860031
 20
132.642443
 30
0.0
  0
SEQEND
  5
133
330
132
100
AcDbEntity
  8
001
370
     9
  0
POLYLINE
  5
137
330
12C
100
AcDbEntity
  8
001
370
     9
100
AcDb2dPolyline
 66
     1
 10
0.0
 20
0.0
 30
0.0
  0
VERTEX
  5
139
330
137
100
AcDbEntity
  8
001
370
     9
100
AcDbVertex
100
AcDb2dVertex
 10
210.860031
 20
168.892443
 30
0.0
  0
VERTEX
  5
13A
330
137
100
AcDbEntity
  8
001
370
     9
100
AcDbVertex
100
AcDb2dVertex
 10
211.362436
 20
170.767443
 30
0.0
  0
VERTEX
  5
13B
330
137
100
AcDbEntity
  8
001
370
     9
100
AcDbVertex
100
AcDb2dVertex
 10
211.864841
 20
168.892443
 30
0.0
  0
SEQEND
  5
138
330
137
100
AcDbEntity
  8
001
370
     9
  0
TEXT
  5
13C
330
12C
100
AcDbEntity
  8
001
370
    30
100
AcDbText
 10
210.112436
 20
139.267443
 30
0.0
 40
5.0
  1
%%c４０
 50
90.000003
 41
0.882353
100
AcDbText
  0
TEXT
  5
13D
330
12C
100
AcDbEntity
  8
001
370
    30
100
AcDbText
 10
209.612436
 20
154.267443
 30
0.0
 40
4.0
  1
ｈ７
 50
90.000003
 41
0.833333
100
AcDbText
  0
POINT
  5
13E
330
12C
100
AcDbEntity
  8
001
370
     9
100
AcDbPoint
 10
184.925887
 20
130.767443
 30
0.0
  0
POINT
  5
13F
330
12C
100
AcDbEntity
  8
001
370
     9
100
AcDbPoint
 10
184.925887
 20
170.767443
 30
0.0
  0
POINT
  5
140
330
12C
100
AcDbEntity
  8
001
370
     9
100
AcDbPoint
 10
211.362436
 20
170.767443
 30
0.0
  0
ENDBLK
  5
12E
330
12C
100
AcDbEntity
  8
0
100
AcDbBlockEnd
  0
BLOCK
  5
142
330
141
100
AcDbEntity
  8
0
100
AcDbBlockBegin
  2
*D15
 70
     1
 10
0.0
 20
0.0
 30
0.0
  3
*D15
  1

  0
LINE
  5
144
330
141
100
AcDbEntity
  8
001
370
     9
100
AcDbLine
 10
106.925887
 20
128.267443
 30
0.0
 11
106.925887
 21
103.56636
 31
0.0
  0
LINE
  5
145
330
141
100
AcDbEntity
  8
001
370
     9
100
AcDbLine
 10
186.925887
 20
132.767443
 30
0.0
 11
186.925887
 21
103.56636
 31
0.0
  0
LINE
  5
146
330
141
100
AcDbEntity
  8
001
370
     9
100
AcDbLine
 10
106.925887
 20
107.00386
 30
0.0
 11
186.925887
 21
107.00386
 31
0.0
  0
POLYLINE
  5
147
330
141
100
AcDbEntity
  8
001
370
     9
100
AcDb2dPolyline
 66
     1
 10
0.0
 20
0.0
 30
0.0
  0
VERTEX
  5
149
330
147
100
AcDbEntity
  8
001
370
     9
100
AcDbVertex
100
AcDb2dVertex
 10
108.800887
 20
106.501455
 30
0.0
  0
VERTEX
  5
14A
330
147
100
AcDbEntity
  8
001
370
     9
100
AcDbVertex
100
AcDb2dVertex
 10
106.925887
 20
107.00386
 30
0.0
  0
VERTEX
  5
14B
330
147
100
AcDbEntity
  8
001
370
     9
100
AcDbVertex
100
AcDb2dVertex
 10
108.800887
 20
107.506265
 30
0.0
  0
SEQEND
  5
148
330
147
100
AcDbEntity
  8
001
370
     9
  0
POLYLINE
  5
14C
330
141
100
AcDbEntity
  8
001
370
     9
100
AcDb2dPolyline
 66
     1
 10
0.0
 20
0.0
 30
0.0
  0
VERTEX
  5
14E
330
14C
100
AcDbEntity
  8
001
370
     9
100
AcDbVertex
100
AcDb2dVertex
 10
185.050887
 20
107.506265
 30
0.0
  0
VERTEX
  5
14F
330
14C
100
AcDbEntity
  8
001
370
     9
100
AcDbVertex
100
AcDb2dVertex
 10
186.925887
 20
107.00386
 30
0.0
  0
VERTEX
  5
150
330
14C
100
AcDbEntity
  8
001
370
     9
100
AcDbVertex
100
AcDb2dVertex
 10
185.050887
 20
106.501455
 30
0.0
  0
SEQEND
  5
14D
330
14C
100
AcDbEntity
  8
001
370
     9
  0
TEXT
  5
151
330
141
100
AcDbEntity
  8
001
370
    30
100
AcDbText
 10
136.925887
 20
108.25386
 30
0.0
 40
5.0
  1
（８０）
 41
0.833333
100
AcDbText
  0
POINT
  5
152
330
141
100
AcDbEntity
  8
001
370
     9
100
AcDbPoint
 10
106.925887
 20
128.267443
 30
0.0
  0
POINT
  5
153
330
141
100
AcDbEntity
  8
001
370
     9
100
AcDbPoint
 10
186.925887
 20
132.767443
 30
0.0
  0
POINT
  5
154
330
141
100
AcDbEntity
  8
001
370
     9
100
AcDbPoint
 10
186.925887
 20
107.00386
 30
0.0
  0
ENDBLK
  5
143
330
141
100
AcDbEntity
  8
0
100
AcDbBlockEnd
  0
BLOCK
  5
156
330
155
100
AcDbEntity
  8
0
100
AcDbBlockBegin
  2
*D16
 70
     1
 10
0.0
 20
0.0
 30
0.0
  3
*D16
  1

  0
LINE
  5
158
330
155
100
AcDbEntity
  8
001
370
     9
100
AcDbLine
 10
73.693836
 20
168.133469
 30
0.0
 11
119.99327
 21
194.864459
 31
0.0
  0
ARC
  5
159
330
155
100
AcDbEntity
  8
001
370
     9
100
AcDbCircle
 10
43.614997
 20
150.767443
 30
0.0
 40
84.75653235968741
100
AcDbArc
 50
0.0
 51
30.0
  0
POLYLINE
  5
15A
330
155
100
AcDbEntity
  8
001
370
     9
100
AcDb2dPolyline
 66
     1
 10
0.0
 20
0.0
 30
0.0
  0
VERTEX
  5
15C
330
15A
100
AcDbEntity
  8
001
370
     9
100
AcDbVertex
100
AcDb2dVertex
 10
117.497942
 20
191.265267
 30
0.0
  0
VERTEX
  5
15D
330
15A
100
AcDbEntity
  8
001
370
     9
100
AcDbVertex
100
AcDb2dVertex
 10
117.016308
 20
193.145709
 30
0.0
  0
VERTEX
  5
15E
330
15A
100
AcDbEntity
  8
001
370
     9
100
AcDbVertex
100
AcDb2dVertex
 10
118.373637
 20
191.758016
 30
0.0
  0
SEQEND
  5
15B
330
15A
100
AcDbEntity
  8
001
370
     9
  0
POLYLINE
  5
15F
330
155
100
AcDbEntity
  8
001
370
     9
100
AcDb2dPolyline
 66
     1
 10
0.0
 20
0.0
 30
0.0
  0
VERTEX
  5
161
330
15F
100
AcDbEntity
  8
001
370
     9
100
AcDbVertex
100
AcDb2dVertex
 10
128.853165
 20
152.647886
 30
0.0
  0
VERTEX
  5
162
330
15F
100
AcDbEntity
  8
001
370
     9
100
AcDbVertex
100
AcDb2dVertex
 10
128.37153
 20
150.767443
 30
0.0
  0
VERTEX
  5
163
330
15F
100
AcDbEntity
  8
001
370
     9
100
AcDbVertex
100
AcDb2dVertex
 10
127.848417
 20
152.636771
 30
0.0
  0
SEQEND
  5
160
330
15F
100
AcDbEntity
  8
001
370
     9
  0
TEXT
  5
164
330
155
100
AcDbEntity
  8
001
370
    30
100
AcDbText
 10
123.225821
 20
184.166402
 30
0.0
 40
5.0
  1
３０%%d
 50
287.775677
 41
0.978261
100
AcDbText
  0
POINT
  5
165
330
155
100
AcDbEntity
  8
001
370
     9
100
AcDbPoint
 10
73.693836
 20
168.133469
 30
0.0
  0
POINT
  5
166
330
155
100
AcDbEntity
  8
001
370
     9
100
AcDbPoint
 10
43.614997
 20
150.767443
 30
0.0
  0
POINT
  5
167
330
155
100
AcDbEntity
  8
001
370
     9
100
AcDbPoint
 10
43.614997
 20
150.767443
 30
0.0
  0
POINT
  5
168
330
155
100
AcDbEntity
  8
001
370
     9
100
AcDbPoint
 10
124.93403
 20
150.767443
 30
0.0
  0
ENDBLK
  5
157
330
155
100
AcDbEntity
  8
0
100
AcDbBlockEnd
  0
BLOCK
  5
16A
330
169
100
AcDbEntity
  8
0
100
AcDbBlockBegin
  2
*D17
 70
     1
 10
0.0
 20
0.0
 30
0.0
  3
*D17
  1

  0
LINE
  5
16C
330
169
100
AcDbEntity
  8
001
370
     9
100
AcDbLine
 10
66.925887
 20
163.648641
 30
0.0
 11
66.925887
 21
189.164481
 31
0.0
  0
LINE
  5
16D
330
169
100
AcDbEntity
  8
001
370
     9
100
AcDbLine
 10
73.925887
 20
168.267443
 30
0.0
 11
73.925887
 21
189.164481
 31
0.0
  0
LINE
  5
16E
330
169
100
AcDbEntity
  8
001
370
     9
100
AcDbLine
 10
66.925887
 20
185.726981
 30
0.0
 11
73.925887
 21
185.726981
 31
0.0
  0
POLYLINE
  5
16F
330
169
100
AcDbEntity
  8
001
370
     9
100
AcDb2dPolyline
 66
     1
 10
0.0
 20
0.0
 30
0.0
  0
VERTEX
  5
171
330
16F
100
AcDbEntity
  8
001
370
     9
100
AcDbVertex
100
AcDb2dVertex
 10
65.050887
 20
186.229386
 30
0.0
  0
VERTEX
  5
172
330
16F
100
AcDbEntity
  8
001
370
     9
100
AcDbVertex
100
AcDb2dVertex
 10
66.925887
 20
185.726981
 30
0.0
  0
VERTEX
  5
173
330
16F
100
AcDbEntity
  8
001
370
     9
100
AcDbVertex
100
AcDb2dVertex
 10
65.050887
 20
185.224577
 30
0.0
  0
SEQEND
  5
170
330
16F
100
AcDbEntity
  8
001
370
     9
  0
POLYLINE
  5
174
330
169
100
AcDbEntity
  8
001
370
     9
100
AcDb2dPolyline
 66
     1
 10
0.0
 20
0.0
 30
0.0
  0
VERTEX
  5
176
330
174
100
AcDbEntity
  8
001
370
     9
100
AcDbVertex
100
AcDb2dVertex
 10
75.800887
 20
185.224577
 30
0.0
  0
VERTEX
  5
177
330
174
100
AcDbEntity
  8
001
370
     9
100
AcDbVertex
100
AcDb2dVertex
 10
73.925887
 20
185.726981
 30
0.0
  0
VERTEX
  5
178
330
174
100
AcDbEntity
  8
001
370
     9
100
AcDbVertex
100
AcDb2dVertex
 10
75.800887
 20
186.229386
 30
0.0
  0
SEQEND
  5
175
330
174
100
AcDbEntity
  8
001
370
     9
  0
TEXT
  5
179
330
169
100
AcDbEntity
  8
001
370
    30
100
AcDbText
 10
47.550887
 20
186.976981
 30
0.0
 40
5.0
  1
（７）
 41
0.833333
100
AcDbText
  0
POINT
  5
17A
330
169
100
AcDbEntity
  8
001
370
     9
100
AcDbPoint
 10
66.925887
 20
163.648641
 30
0.0
  0
POINT
  5
17B
330
169
100
AcDbEntity
  8
001
370
     9
100
AcDbPoint
 10
73.925887
 20
168.267443
 30
0.0
  0
POINT
  5
17C
330
169
100
AcDbEntity
  8
001
370
     9
100
AcDbPoint
 10
73.925887
 20
185.726981
 30
0.0
  0
LINE
  5
17D
330
169
100
AcDbEntity
  8
001
370
     9
100
AcDbLine
 10
66.925887
 20
185.726981
 30
0.0
 11
43.800887
 21
185.726981
 31
0.0
  0
LINE
  5
17E
330
169
100
AcDbEntity
  8
001
370
     9
100
AcDbLine
 10
73.925887
 20
185.726981
 30
0.0
 11
77.050887
 21
185.726981
 31
0.0
  0
ENDBLK
  5
16B
330
169
100
AcDbEntity
  8
0
100
AcDbBlockEnd
  0
BLOCK
  5
180
330
17F
100
AcDbEntity
  8
0
100
AcDbBlockBegin
  2
*D18
 70
     1
 10
0.0
 20
0.0
 30
0.0
  3
*D18
  1

  0
LINE
  5
182
330
17F
100
AcDbEntity
  8
001
370
     9
100
AcDbLine
 10
229.508208
 20
142.698366
 30
0.0
 11
229.508208
 21
97.945047
 31
0.0
  0
LINE
  5
183
330
17F
100
AcDbEntity
  8
001
370
     9
100
AcDbLine
 10
267.808208
 20
150.767443
 30
0.0
 11
267.808208
 21
97.945047
 31
0.0
  0
LINE
  5
184
330
17F
100
AcDbEntity
  8
001
370
     9
100
AcDbLine
 10
229.508208
 20
101.382547
 30
0.0
 11
267.808208
 21
101.382547
 31
0.0
  0
POLYLINE
  5
185
330
17F
100
AcDbEntity
  8
001
370
     9
100
AcDb2dPolyline
 66
     1
 10
0.0
 20
0.0
 30
0.0
  0
VERTEX
  5
187
330
185
100
AcDbEntity
  8
001
370
     9
100
AcDbVertex
100
AcDb2dVertex
 10
231.383208
 20
100.880142
 30
0.0
  0
VERTEX
  5
188
330
185
100
AcDbEntity
  8
001
370
     9
100
AcDbVertex
100
AcDb2dVertex
 10
229.508208
 20
101.382547
 30
0.0
  0
VERTEX
  5
189
330
185
100
AcDbEntity
  8
001
370
     9
100
AcDbVertex
100
AcDb2dVertex
 10
231.383208
 20
101.884952
 30
0.0
  0
SEQEND
  5
186
330
185
100
AcDbEntity
  8
001
370
     9
  0
POLYLINE
  5
18A
330
17F
100
AcDbEntity
  8
001
370
     9
100
AcDb2dPolyline
 66
     1
 10
0.0
 20
0.0
 30
0.0
  0
VERTEX
  5
18C
330
18A
100
AcDbEntity
  8
001
370
     9
100
AcDbVertex
100
AcDb2dVertex
 10
265.933208
 20
101.884952
 30
0.0
  0
VERTEX
  5
18D
330
18A
100
AcDbEntity
  8
001
370
     9
100
AcDbVertex
100
AcDb2dVertex
 10
267.808208
 20
101.382547
 30
0.0
  0
VERTEX
  5
18E
330
18A
100
AcDbEntity
  8
001
370
     9
100
AcDbVertex
100
AcDb2dVertex
 10
265.933208
 20
100.880142
 30
0.0
  0
SEQEND
  5
18B
330
18A
100
AcDbEntity
  8
001
370
     9
  0
TEXT
  5
18F
330
17F
100
AcDbEntity
  8
001
370
    30
100
AcDbText
 10
243.658208
 20
102.632547
 30
0.0
 40
5.0
  1
３８
 41
0.833333
100
AcDbText
  0
POINT
  5
190
330
17F
100
AcDbEntity
  8
001
370
     9
100
AcDbPoint
 10
229.508208
 20
142.698366
 30
0.0
  0
POINT
  5
191
330
17F
100
AcDbEntity
  8
001
370
     9
100
AcDbPoint
 10
267.808208
 20
150.767443
 30
0.0
  0
POINT
  5
192
330
17F
100
AcDbEntity
  8
001
370
     9
100
AcDbPoint
 10
267.808208
 20
101.382547
 30
0.0
  0
ENDBLK
  5
181
330
17F
100
AcDbEntity
  8
0
100
AcDbBlockEnd
  0
BLOCK
  5
194
330
193
100
AcDbEntity
  8
0
100
AcDbBlockBegin
  2
*D19
 70
     1
 10
0.0
 20
0.0
 30
0.0
  3
*D19
  1

  0
LINE
  5
196
330
193
100
AcDbEntity
  8
001
370
     9
100
AcDbLine
 10
105.925887
 20
31.448801
 30
0.0
 11
106.512332
 21
30.638813
 31
0.0
  0
POLYLINE
  5
197
330
193
100
AcDbEntity
  8
001
370
     9
100
AcDb2dPolyline
 66
     1
 10
0.0
 20
0.0
 30
0.0
  0
VERTEX
  5
199
330
197
100
AcDbEntity
  8
001
370
     9
100
AcDbVertex
100
AcDb2dVertex
 10
107.204974
 20
28.82545
 30
0.0
  0
VERTEX
  5
19A
330
197
100
AcDbEntity
  8
001
370
     9
100
AcDbVertex
100
AcDb2dVertex
 10
106.512332
 20
30.638813
 30
0.0
  0
VERTEX
  5
19B
330
197
100
AcDbEntity
  8
001
370
     9
100
AcDbVertex
100
AcDb2dVertex
 10
108.018859
 20
29.414716
 30
0.0
  0
SEQEND
  5
198
330
197
100
AcDbEntity
  8
001
370
     9
  0
TEXT
  5
19C
330
193
100
AcDbEntity
  8
001
370
    30
100
AcDbText
 10
110.090516
 20
27.828168
 30
0.0
 40
5.0
  1
２－Ｒ１
 50
305.905158
 41
0.833333
100
AcDbText
  0
POINT
  5
19D
330
193
100
AcDbEntity
  8
001
370
     9
100
AcDbPoint
 10
106.512332
 20
30.638813
 30
0.0
  0
POINT
  5
19E
330
193
100
AcDbEntity
  8
001
370
     9
100
AcDbPoint
 10
105.925887
 20
31.448801
 30
0.0
  0
LINE
  5
19F
330
193
100
AcDbEntity
  8
001
370
     9
100
AcDbLine
 10
106.512332
 20
30.638813
 30
0.0
 11
123.006104
 21
7.857875
 31
0.0
  0
ENDBLK
  5
195
330
193
100
AcDbEntity
  8
0
100
AcDbBlockEnd
  0
BLOCK
  5
1A1
330
1A0
100
AcDbEntity
  8
0
100
AcDbBlockBegin
  2
*D20
 70
     1
 10
0.0
 20
0.0
 30
0.0
  3
*D20
  1

  0
LINE
  5
1A3
330
1A0
100
AcDbEntity
  8
001
370
     9
100
AcDbLine
 10
74.193836
 20
37.448801
 30
0.0
 11
73.832924
 21
36.516201
 31
0.0
  0
POLYLINE
  5
1A4
330
1A0
100
AcDbEntity
  8
001
370
     9
100
AcDb2dPolyline
 66
     1
 10
0.0
 20
0.0
 30
0.0
  0
VERTEX
  5
1A6
330
1A4
100
AcDbEntity
  8
001
370
     9
100
AcDbVertex
100
AcDb2dVertex
 10
72.687672
 20
34.9489
 30
0.0
  0
VERTEX
  5
1A7
330
1A4
100
AcDbEntity
  8
001
370
     9
100
AcDbVertex
100
AcDb2dVertex
 10
73.832924
 20
36.516201
 30
0.0
  0
VERTEX
  5
1A8
330
1A4
100
AcDbEntity
  8
001
370
     9
100
AcDbVertex
100
AcDb2dVertex
 10
73.624757
 20
34.586253
 30
0.0
  0
SEQEND
  5
1A5
330
1A4
100
AcDbEntity
  8
001
370
     9
  0
TEXT
  5
1A9
330
1A0
100
AcDbEntity
  8
001
370
    30
100
AcDbText
 10
63.869949
 20
14.235217
 30
0.0
 40
5.0
  1
２－Ｒ１
 50
68.843799
 41
0.833333
100
AcDbText
  0
POINT
  5
1AA
330
1A0
100
AcDbEntity
  8
001
370
     9
100
AcDbPoint
 10
73.832924
 20
36.516201
 30
0.0
  0
POINT
  5
1AB
330
1A0
100
AcDbEntity
  8
001
370
     9
100
AcDbPoint
 10
74.193836
 20
37.448801
 30
0.0
  0
LINE
  5
1AC
330
1A0
100
AcDbEntity
  8
001
370
     9
100
AcDbLine
 10
73.832924
 20
36.516201
 30
0.0
 11
63.682279
 21
10.286828
 31
0.0
  0
ENDBLK
  5
1A2
330
1A0
100
AcDbEntity
  8
0
100
AcDbBlockEnd
  0
BLOCK
  5
1AE
330
1AD
100
AcDbEntity
  8
0
100
AcDbBlockBegin
  2
*D21
 70
     1
 10
0.0
 20
0.0
 30
0.0
  3
*D21
  1

  0
LINE
  5
1B0
330
1AD
100
AcDbEntity
  8
001
370
     9
100
AcDbLine
 10
184.925887
 20
168.767443
 30
0.0
 11
186.496252
 21
170.005971
 31
0.0
  0
POLYLINE
  5
1B1
330
1AD
100
AcDbEntity
  8
001
370
     9
100
AcDb2dPolyline
 66
     1
 10
0.0
 20
0.0
 30
0.0
  0
VERTEX
  5
1B3
330
1B1
100
AcDbEntity
  8
001
370
     9
100
AcDbVertex
100
AcDb2dVertex
 10
188.279591
 20
170.772612
 30
0.0
  0
VERTEX
  5
1B4
330
1B1
100
AcDbEntity
  8
001
370
     9
100
AcDbVertex
100
AcDb2dVertex
 10
186.496252
 20
170.005971
 30
0.0
  0
VERTEX
  5
1B5
330
1B1
100
AcDbEntity
  8
001
370
     9
100
AcDbVertex
100
AcDb2dVertex
 10
187.657348
 20
171.561571
 30
0.0
  0
SEQEND
  5
1B2
330
1B1
100
AcDbEntity
  8
001
370
     9
  0
TEXT
  5
1B6
330
1AD
100
AcDbEntity
  8
001
370
    30
100
AcDbText
 10
189.157346
 20
173.69673
 30
0.0
 40
5.0
  1
（Ｒ２）
 50
38.262416
 41
0.833333
100
AcDbText
  0
POINT
  5
1B7
330
1AD
100
AcDbEntity
  8
001
370
     9
100
AcDbPoint
 10
186.496252
 20
170.005971
 30
0.0
  0
POINT
  5
1B8
330
1AD
100
AcDbEntity
  8
001
370
     9
100
AcDbPoint
 10
184.925887
 20
168.767443
 30
0.0
  0
LINE
  5
1B9
330
1AD
100
AcDbEntity
  8
001
370
     9
100
AcDbLine
 10
186.496252
 20
170.005971
 30
0.0
 11
208.579517
 21
187.422774
 31
0.0
  0
ENDBLK
  5
1AF
330
1AD
100
AcDbEntity
  8
0
100
AcDbBlockEnd
  0
BLOCK
  5
1BB
330
1BA
100
AcDbEntity
  8
0
100
AcDbBlockBegin
  2
*D22
 70
     1
 10
0.0
 20
0.0
 30
0.0
  3
*D22
  1

  0
LINE
  5
1BD
330
1BA
100
AcDbEntity
  8
001
370
     9
100
AcDbLine
 10
66.925887
 20
43.948801
 30
0.0
 11
42.349604
 21
43.948801
 31
0.0
  0
LINE
  5
1BE
330
1BA
100
AcDbEntity
  8
001
370
     9
100
AcDbLine
 10
66.925887
 20
63.948801
 30
0.0
 11
42.349604
 21
63.948801
 31
0.0
  0
LINE
  5
1BF
330
1BA
100
AcDbEntity
  8
001
370
     9
100
AcDbLine
 10
45.787104
 20
43.948801
 30
0.0
 11
45.787104
 21
63.948801
 31
0.0
  0
POLYLINE
  5
1C0
330
1BA
100
AcDbEntity
  8
001
370
     9
100
AcDb2dPolyline
 66
     1
 10
0.0
 20
0.0
 30
0.0
  0
VERTEX
  5
1C2
330
1C0
100
AcDbEntity
  8
001
370
     9
100
AcDbVertex
100
AcDb2dVertex
 10
45.2847
 20
42.073801
 30
0.0
  0
VERTEX
  5
1C3
330
1C0
100
AcDbEntity
  8
001
370
     9
100
AcDbVertex
100
AcDb2dVertex
 10
45.787104
 20
43.948801
 30
0.0
  0
VERTEX
  5
1C4
330
1C0
100
AcDbEntity
  8
001
370
     9
100
AcDbVertex
100
AcDb2dVertex
 10
46.289509
 20
42.073801
 30
0.0
  0
SEQEND
  5
1C1
330
1C0
100
AcDbEntity
  8
001
370
     9
  0
POLYLINE
  5
1C5
330
1BA
100
AcDbEntity
  8
001
370
     9
100
AcDb2dPolyline
 66
     1
 10
0.0
 20
0.0
 30
0.0
  0
VERTEX
  5
1C7
330
1C5
100
AcDbEntity
  8
001
370
     9
100
AcDbVertex
100
AcDb2dVertex
 10
46.289509
 20
65.823801
 30
0.0
  0
VERTEX
  5
1C8
330
1C5
100
AcDbEntity
  8
001
370
     9
100
AcDbVertex
100
AcDb2dVertex
 10
45.787104
 20
63.948801
 30
0.0
  0
VERTEX
  5
1C9
330
1C5
100
AcDbEntity
  8
001
370
     9
100
AcDbVertex
100
AcDb2dVertex
 10
45.2847
 20
65.823801
 30
0.0
  0
SEQEND
  5
1C6
330
1C5
100
AcDbEntity
  8
001
370
     9
  0
TEXT
  5
1CA
330
1BA
100
AcDbEntity
  8
001
370
    30
100
AcDbText
 10
44.537104
 20
74.334441
 30
0.0
 40
5.0
  1
%%c２０
 50
90.000003
 41
0.882353
100
AcDbText
  0
POINT
  5
1CB
330
1BA
100
AcDbEntity
  8
001
370
     9
100
AcDbPoint
 10
66.925887
 20
43.948801
 30
0.0
  0
POINT
  5
1CC
330
1BA
100
AcDbEntity
  8
001
370
     9
100
AcDbPoint
 10
66.925887
 20
63.948801
 30
0.0
  0
POINT
  5
1CD
330
1BA
100
AcDbEntity
  8
001
370
     9
100
AcDbPoint
 10
45.787104
 20
63.948801
 30
0.0
  0
LINE
  5
1CE
330
1BA
100
AcDbEntity
  8
001
370
     9
100
AcDbLine
 10
45.787104
 20
43.948801
 30
0.0
 11
45.787104
 21
40.823801
 31
0.0
  0
LINE
  5
1CF
330
1BA
100
AcDbEntity
  8
001
370
     9
100
AcDbLine
 10
45.787104
 20
63.948801
 30
0.0
 11
45.787104
 21
93.084441
 31
0.0
  0
ENDBLK
  5
1BC
330
1BA
100
AcDbEntity
  8
0
100
AcDbBlockEnd
  0
ENDSEC
  0
SECTION
  2
ENTITIES
  0
INSERT
  5
1D0
330
1F
100
AcDbEntity
  8
001
  6
ByBlock
 62
     0
370
    -2
100
AcDbBlockReference
  2
JZB-1
 10
0.0
 20
0.0
 30
0.0
  0
INSERT
  5
1D1
330
1F
100
AcDbEntity
  8
001
  6
ByBlock
 62
     0
370
    -2
100
AcDbBlockReference
  2
JZB-2
 10
0.0
 20
0.0
 30
0.0
  0
INSERT
  5
1D2
330
1F
100
AcDbEntity
  8
001
  6
ByBlock
 62
     0
370
    -2
100
AcDbBlockReference
  2
JZB-3
 10
0.0
 20
0.0
 30
0.0
  0
INSERT
  5
1D3
330
1F
100
AcDbEntity
  8
001
  6
ByBlock
 62
     0
370
    -2
100
AcDbBlockReference
  2
JZB-4
 10
0.0
 20
0.0
 30
0.0
  0
INSERT
  5
1D4
330
1F
100
AcDbEntity
  8
001
  6
ByBlock
 62
     0
370
    -2
100
AcDbBlockReference
  2
JZB-5
 10
0.0
 20
0.0
 30
0.0
  0
DIMENSION
  5
1D5
330
1F
100
AcDbEntity
  8
001
370
     9
100
AcDbDimension
  2
*D6
 10
45.681871
 20
168.267443
 30
0.0
 11
41.93187
 21
150.767443
 31
0.0
 70
   160
 71
     5
 42
-1.0
  3
Standard
100
AcDbAlignedDimension
 13
74.193836
 23
133.267443
 33
0.0
 14
74.193836
 24
168.267443
 34
0.0
 50
90.0
100
AcDbRotatedDimension
  0
DIMENSION
  5
1D6
330
1F
100
AcDbEntity
  8
001
370
     9
100
AcDbDimension
  2
*D7
 10
31.523289
 20
174.267443
 30
0.0
 11
27.773289
 21
150.767443
 31
0.0
 70
   160
 71
     5
 42
-1.0
  3
Standard
100
AcDbAlignedDimension
 13
102.925887
 23
127.267443
 33
0.0
 14
102.925887
 24
174.267443
 34
0.0
 50
90.0
100
AcDbRotatedDimension
  0
DIMENSION
  5
1D7
330
1F
100
AcDbEntity
  8
001
370
     9
100
AcDbDimension
  2
*D8
 10
106.925887
 20
107.00386
 30
0.0
 11
104.425887
 21
110.75386
 31
0.0
 70
   160
 71
     5
 42
-1.0
  3
Standard
100
AcDbAlignedDimension
 13
101.925887
 23
128.267443
 33
0.0
 14
106.925887
 24
128.267443
 34
0.0
100
AcDbRotatedDimension
  0
DIMENSION
  5
1D8
330
1F
100
AcDbEntity
  8
001
370
     9
100
AcDbDimension
  2
*D9
 10
101.925887
 20
107.00386
 30
0.0
 11
84.425887
 21
110.75386
 31
0.0
 70
   160
 71
     5
 42
-1.0
  3
Standard
100
AcDbAlignedDimension
 13
66.925887
 23
137.886245
 33
0.0
 14
101.925887
 24
128.267443
 34
0.0
100
AcDbRotatedDimension
  0
DIMENSION
  5
1D9
330
1F
100
AcDbEntity
  8
001
370
     9
100
AcDbDimension
  2
*D10
 10
66.925887
 20
95.139472
 30
0.0
 11
126.925887
 21
98.889472
 31
0.0
 70
   160
 71
     5
 42
-1.0
  3
Standard
100
AcDbAlignedDimension
 13
186.925887
 23
132.767443
 33
0.0
 14
66.925887
 24
137.886245
 34
0.0
 50
180.0
100
AcDbRotatedDimension
  0
DIMENSION
  5
1DA
330
1F
100
AcDbEntity
  8
001
370
     9
100
AcDbDimension
  2
*D11
 10
66.925887
 20
82.290025
 30
0.0
 11
73.425887
 21
86.040025
 31
0.0
 70
   160
 71
     5
 42
-1.0
  3
Standard
100
AcDbAlignedDimension
 13
79.925887
 23
74.998773
 33
0.0
 14
66.925887
 24
66.829999
 34
0.0
 50
180.0
100
AcDbRotatedDimension
  0
DIMENSION
  5
1DB
330
1F
100
AcDbEntity
  8
001
370
     9
100
AcDbDimension
  2
*D12
 10
79.925887
 20
82.290025
 30
0.0
 11
87.425887
 21
86.040025
 31
0.0
 70
   160
 71
     5
 42
-1.0
  3
Standard
100
AcDbAlignedDimension
 13
94.925887
 23
74.998773
 33
0.0
 14
79.925887
 24
74.998773
 34
0.0
 50
180.0
100
AcDbRotatedDimension
  0
INSERT
  5
1DC
330
1F
100
AcDbEntity
  8
001
  6
ByBlock
 62
     0
370
    -2
100
AcDbBlockReference
  2
DIM-6
 10
0.0
 20
0.0
 30
0.0
  0
DIMENSION
  5
1DD
330
1F
100
AcDbEntity
  8
001
370
     9
100
AcDbDimension
  2
*D14
 10
211.362436
 20
170.767443
 30
0.0
 11
207.612436
 21
150.767443
 31
0.0
 70
   160
 71
     5
 42
-1.0
  3
Standard
100
AcDbAlignedDimension
 13
184.925887
 23
130.767443
 33
0.0
 14
184.925887
 24
170.767443
 34
0.0
 50
90.0
100
AcDbRotatedDimension
  0
DIMENSION
  5
1DE
330
1F
100
AcDbEntity
  8
001
370
     9
100
AcDbDimension
  2
*D15
 10
186.925887
 20
107.00386
 30
0.0
 11
146.925887
 21
110.75386
 31
0.0
 70
   160
 71
     5
 42
-1.0
  3
Standard
100
AcDbAlignedDimension
 13
106.925887
 23
128.267443
 33
0.0
 14
186.925887
 24
132.767443
 34
0.0
100
AcDbRotatedDimension
  0
DIMENSION
  5
1DF
330
1F
100
AcDbEntity
  8
001
370
     9
100
AcDbDimension
  2
*D16
 10
43.614997
 20
150.767443
 30
0.0
 11
127.896152
 21
177.787686
 31
0.0
 70
    34
 71
     5
 42
-1.0
  3
Standard
100
AcDb2LineAngularDimension
 13
73.693836
 23
168.133469
 33
0.0
 14
43.614997
 24
150.767443
 34
0.0
 15
124.93403
 25
150.767443
 35
0.0
 16
125.483521
 26
172.704048
 36
0.0
  0
DIMENSION
  5
1E0
330
1F
100
AcDbEntity
  8
001
370
     9
100
AcDbDimension
  2
*D17
 10
73.925887
 20
185.726981
 30
0.0
 11
55.050887
 21
189.476981
 31
0.0
 70
   160
 71
     5
 42
-1.0
  3
Standard
100
AcDbAlignedDimension
 13
66.925887
 23
163.648641
 33
0.0
 14
73.925887
 24
168.267443
 34
0.0
100
AcDbRotatedDimension
  0
DIMENSION
  5
1E1
330
1F
100
AcDbEntity
  8
001
370
     9
100
AcDbDimension
  2
*D18
 10
267.808208
 20
101.382547
 30
0.0
 11
248.658208
 21
105.132547
 31
0.0
 70
   160
 71
     5
 42
-1.0
  3
Standard
100
AcDbAlignedDimension
 13
229.508208
 23
142.698366
 33
0.0
 14
267.808208
 24
150.767443
 34
0.0
100
AcDbRotatedDimension
  0
DIMENSION
  5
1E2
330
1F
100
AcDbEntity
  8
001
370
     9
100
AcDbDimension
  2
*D19
 10
105.925887
 20
31.448801
 30
0.0
 11
117.979941
 21
21.194392
 31
0.0
 70
   164
 71
     5
 42
-1.0
  3
Standard
100
AcDbRadialDimension
 15
106.512332
 25
30.638813
 35
0.0
 40
0.0
  0
DIMENSION
  5
1E3
330
1F
100
AcDbEntity
  8
001
370
     9
100
AcDbDimension
  2
*D20
 10
74.193836
 20
37.448801
 30
0.0
 11
65.147566
 21
24.463497
 31
0.0
 70
   164
 71
     5
 42
-1.0
  3
Standard
100
AcDbRadialDimension
 15
73.832924
 25
36.516201
 35
0.0
 40
0.0
  0
DIMENSION
  5
1E4
330
1F
100
AcDbEntity
  8
001
370
     9
100
AcDbDimension
  2
*D21
 10
184.925887
 20
168.767443
 30
0.0
 11
195.461014
 21
181.852328
 31
0.0
 70
   164
 71
     5
 42
-1.0
  3
Standard
100
AcDbRadialDimension
 15
186.496252
 25
170.005971
 35
0.0
 40
0.0
  0
DIMENSION
  5
1E5
330
1F
100
AcDbEntity
  8
001
370
     9
100
AcDbDimension
  2
*D22
 10
45.787104
 20
63.948801
 30
0.0
 11
42.037104
 21
81.834441
 31
0.0
 70
   160
 71
     5
 42
-1.0
  3
Standard
100
AcDbAlignedDimension
 13
66.925887
 23
43.948801
 33
0.0
 14
66.925887
 24
63.948801
 34
0.0
 50
90.0
100
AcDbRotatedDimension
  0
TEXT
  5
1E6
330
1F
100
AcDbEntity
  8
001
370
    30
100
AcDbText
 10
46.547902
 20
212.014228
 30
0.0
 40
10.0
  1
オイルッシャー　ＫＪＤ４０Ｓ２０
 41
0.833333
100
AcDbText
  0
ARC
  5
1E7
330
1F
100
AcDbEntity
  8
001
 62
   253
370
    50
100
AcDbCircle
 10
102.925887
 20
128.267443
 30
0.0
 40
0.9999999999999966
100
AcDbArc
 50
180.0
 51
270.0
  0
ARC
  5
1E8
330
1F
100
AcDbEntity
  8
001
 62
   253
370
    50
100
AcDbCircle
 10
102.925887
 20
173.267443
 30
0.0
 40
0.9999999999999966
100
AcDbArc
 50
90.0
 51
180.0
  0
LINE
  5
1E9
330
1F
100
AcDbEntity
  8
001
 62
   253
370
    50
100
AcDbLine
 10
101.925887
 20
128.267443
 30
0.0
 11
101.925887
 21
173.267443
 31
0.0
  0
ARC
  5
1EA
330
1F
100
AcDbEntity
  8
001
 62
   253
370
    50
100
AcDbCircle
 10
105.925887
 20
173.267443
 30
0.0
 40
1.0
100
AcDbArc
 50
0.0
 51
90.0
  0
ARC
  5
1EB
330
1F
100
AcDbEntity
  8
001
 62
   253
370
    50
100
AcDbCircle
 10
105.925887
 20
128.267443
 30
0.0
 40
1.0
100
AcDbArc
 50
270.0
 51
0.0
  0
LINE
  5
1EC
330
1F
100
AcDbEntity
  8
001
 62
   253
370
    50
100
AcDbLine
 10
106.925887
 20
173.267443
 30
0.0
 11
106.925887
 21
128.267443
 31
0.0
  0
LINE
  5
1ED
330
1F
100
AcDbEntity
  8
001
 62
   253
370
    50
100
AcDbLine
 10
105.925887
 20
174.267443
 30
0.0
 11
102.925887
 21
174.267443
 31
0.0
  0
LINE
  5
1EE
330
1F
100
AcDbEntity
  8
001
 62
   253
370
    50
100
AcDbLine
 10
102.925887
 20
127.267443
 30
0.0
 11
105.925887
 21
127.267443
 31
0.0
  0
POLYLINE
  5
1EF
330
1F
100
AcDbEntity
  8
001
 62
   253
370
    50
100
AcDb2dPolyline
 66
     1
 10
0.0
 20
0.0
 30
0.0
  0
VERTEX
  5
1F1
330
1EF
100
AcDbEntity
  8
001
 62
   253
370
    50
100
AcDbVertex
100
AcDb2dVertex
 10
184.925887
 20
142.698366
 30
0.0
  0
VERTEX
  5
1F2
330
1EF
100
AcDbEntity
  8
001
 62
   253
370
    50
100
AcDbVertex
100
AcDb2dVertex
 10
184.986792
 20
142.701611
 30
0.0
  0
VERTEX
  5
1F3
330
1EF
100
AcDbEntity
  8
001
 62
   253
370
    50
100
AcDbVertex
100
AcDb2dVertex
 10
185.047385
 20
142.707526
 30
0.0
  0
VERTEX
  5
1F4
330
1EF
100
AcDbEntity
  8
001
 62
   253
370
    50
100
AcDbVertex
100
AcDb2dVertex
 10
185.181321
 20
142.73847
 30
0.0
  0
VERTEX
  5
1F5
330
1EF
100
AcDbEntity
  8
001
 62
   253
370
    50
100
AcDbVertex
100
AcDb2dVertex
 10
185.309176
 20
142.790694
 30
0.0
  0
VERTEX
  5
1F6
330
1EF
100
AcDbEntity
  8
001
 62
   253
370
    50
100
AcDbVertex
100
AcDb2dVertex
 10
185.398068
 20
142.839646
 30
0.0
  0
VERTEX
  5
1F7
330
1EF
100
AcDbEntity
  8
001
 62
   253
370
    50
100
AcDbVertex
100
AcDb2dVertex
 10
185.482157
 20
142.896058
 30
0.0
  0
VERTEX
  5
1F8
330
1EF
100
AcDbEntity
  8
001
 62
   253
370
    50
100
AcDbVertex
100
AcDb2dVertex
 10
185.561688
 20
142.959108
 30
0.0
  0
VERTEX
  5
1F9
330
1EF
100
AcDbEntity
  8
001
 62
   253
370
    50
100
AcDbVertex
100
AcDb2dVertex
 10
185.636661
 20
143.027638
 30
0.0
  0
VERTEX
  5
1FA
330
1EF
100
AcDbEntity
  8
001
 62
   253
370
    50
100
AcDbVertex
100
AcDb2dVertex
 10
185.75338
 20
143.153124
 30
0.0
  0
VERTEX
  5
1FB
330
1EF
100
AcDbEntity
  8
001
 62
   253
370
    50
100
AcDbVertex
100
AcDb2dVertex
 10
185.858654
 20
143.288433
 30
0.0
  0
VERTEX
  5
1FC
330
1EF
100
AcDbEntity
  8
001
 62
   253
370
    50
100
AcDbVertex
100
AcDb2dVertex
 10
185.953824
 20
143.431413
 30
0.0
  0
VERTEX
  5
1FD
330
1EF
100
AcDbEntity
  8
001
 62
   253
370
    50
100
AcDbVertex
100
AcDb2dVertex
 10
186.040101
 20
143.579938
 30
0.0
  0
VERTEX
  5
1FE
330
1EF
100
AcDbEntity
  8
001
 62
   253
370
    50
100
AcDbVertex
100
AcDb2dVertex
 10
186.171939
 20
143.845883
 30
0.0
  0
VERTEX
  5
1FF
330
1EF
100
AcDbEntity
  8
001
 62
   253
370
    50
100
AcDbVertex
100
AcDb2dVertex
 10
186.284433
 20
144.120688
 30
0.0
  0
VERTEX
  5
200
330
1EF
100
AcDbEntity
  8
001
 62
   253
370
    50
100
AcDbVertex
100
AcDb2dVertex
 10
186.380521
 20
144.403194
 30
0.0
  0
VERTEX
  5
201
330
1EF
100
AcDbEntity
  8
001
 62
   253
370
    50
100
AcDbVertex
100
AcDb2dVertex
 10
186.46203
 20
144.690201
 30
0.0
  0
VERTEX
  5
202
330
1EF
100
AcDbEntity
  8
001
 62
   253
370
    50
100
AcDbVertex
100
AcDb2dVertex
 10
186.531419
 20
144.980101
 30
0.0
  0
VERTEX
  5
203
330
1EF
100
AcDbEntity
  8
001
 62
   253
370
    50
100
AcDbVertex
100
AcDb2dVertex
 10
186.591393
 20
145.27213
 30
0.0
  0
VERTEX
  5
204
330
1EF
100
AcDbEntity
  8
001
 62
   253
370
    50
100
AcDbVertex
100
AcDb2dVertex
 10
186.703817
 20
145.950328
 30
0.0
  0
VERTEX
  5
205
330
1EF
100
AcDbEntity
  8
001
 62
   253
370
    50
100
AcDbVertex
100
AcDb2dVertex
 10
186.785488
 20
146.633014
 30
0.0
  0
VERTEX
  5
206
330
1EF
100
AcDbEntity
  8
001
 62
   253
370
    50
100
AcDbVertex
100
AcDb2dVertex
 10
186.841529
 20
147.3196
 30
0.0
  0
VERTEX
  5
207
330
1EF
100
AcDbEntity
  8
001
 62
   253
370
    50
100
AcDbVertex
100
AcDb2dVertex
 10
186.87654
 20
148.007544
 30
0.0
  0
VERTEX
  5
208
330
1EF
100
AcDbEntity
  8
001
 62
   253
370
    50
100
AcDbVertex
100
AcDb2dVertex
 10
186.895359
 20
148.697756
 30
0.0
  0
VERTEX
  5
209
330
1EF
100
AcDbEntity
  8
001
 62
   253
370
    50
100
AcDbVertex
100
AcDb2dVertex
 10
186.902985
 20
149.388195
 30
0.0
  0
VERTEX
  5
20A
330
1EF
100
AcDbEntity
  8
001
 62
   253
370
    50
100
AcDbVertex
100
AcDb2dVertex
 10
186.904332
 20
150.077823
 30
0.0
  0
VERTEX
  5
20B
330
1EF
100
AcDbEntity
  8
001
 62
   253
370
    50
100
AcDbVertex
100
AcDb2dVertex
 10
186.903259
 20
150.767443
 30
0.0
  0
VERTEX
  5
20C
330
1EF
100
AcDbEntity
  8
001
 62
   253
370
    50
100
AcDbVertex
100
AcDb2dVertex
 10
186.902077
 20
151.434699
 30
0.0
  0
VERTEX
  5
20D
330
1EF
100
AcDbEntity
  8
001
 62
   253
370
    50
100
AcDbVertex
100
AcDb2dVertex
 10
186.897951
 20
152.101941
 30
0.0
  0
VERTEX
  5
20E
330
1EF
100
AcDbEntity
  8
001
 62
   253
370
    50
100
AcDbVertex
100
AcDb2dVertex
 10
186.887109
 20
152.76911
 30
0.0
  0
VERTEX
  5
20F
330
1EF
100
AcDbEntity
  8
001
 62
   253
370
    50
100
AcDbVertex
100
AcDb2dVertex
 10
186.866828
 20
153.436065
 30
0.0
  0
VERTEX
  5
210
330
1EF
100
AcDbEntity
  8
001
 62
   253
370
    50
100
AcDbVertex
100
AcDb2dVertex
 10
186.834535
 20
154.102213
 30
0.0
  0
VERTEX
  5
211
330
1EF
100
AcDbEntity
  8
001
 62
   253
370
    50
100
AcDbVertex
100
AcDb2dVertex
 10
186.787093
 20
154.767443
 30
0.0
  0
VERTEX
  5
212
330
1EF
100
AcDbEntity
  8
001
 62
   253
370
    50
100
AcDbVertex
100
AcDb2dVertex
 10
186.747107
 20
155.190497
 30
0.0
  0
VERTEX
  5
213
330
1EF
100
AcDbEntity
  8
001
 62
   253
370
    50
100
AcDbVertex
100
AcDb2dVertex
 10
186.696626
 20
155.612409
 30
0.0
  0
VERTEX
  5
214
330
1EF
100
AcDbEntity
  8
001
 62
   253
370
    50
100
AcDbVertex
100
AcDb2dVertex
 10
186.632866
 20
156.032345
 30
0.0
  0
VERTEX
  5
215
330
1EF
100
AcDbEntity
  8
001
 62
   253
370
    50
100
AcDbVertex
100
AcDb2dVertex
 10
186.55378
 20
156.449664
 30
0.0
  0
VERTEX
  5
216
330
1EF
100
AcDbEntity
  8
001
 62
   253
370
    50
100
AcDbVertex
100
AcDb2dVertex
 10
186.49053
 20
156.729429
 30
0.0
  0
VERTEX
  5
217
330
1EF
100
AcDbEntity
  8
001
 62
   253
370
    50
100
AcDbVertex
100
AcDb2dVertex
 10
186.417371
 20
157.006747
 30
0.0
  0
VERTEX
  5
218
330
1EF
100
AcDbEntity
  8
001
 62
   253
370
    50
100
AcDbVertex
100
AcDb2dVertex
 10
186.332048
 20
157.28086
 30
0.0
  0
VERTEX
  5
219
330
1EF
100
AcDbEntity
  8
001
 62
   253
370
    50
100
AcDbVertex
100
AcDb2dVertex
 10
186.232041
 20
157.550002
 30
0.0
  0
VERTEX
  5
21A
330
1EF
100
AcDbEntity
  8
001
 62
   253
370
    50
100
AcDbVertex
100
AcDb2dVertex
 10
186.11548
 20
157.810657
 30
0.0
  0
VERTEX
  5
21B
330
1EF
100
AcDbEntity
  8
001
 62
   253
370
    50
100
AcDbVertex
100
AcDb2dVertex
 10
185.979323
 20
158.061493
 30
0.0
  0
VERTEX
  5
21C
330
1EF
100
AcDbEntity
  8
001
 62
   253
370
    50
100
AcDbVertex
100
AcDb2dVertex
 10
185.89941
 20
158.187464
 30
0.0
  0
VERTEX
  5
21D
330
1EF
100
AcDbEntity
  8
001
 62
   253
370
    50
100
AcDbVertex
100
AcDb2dVertex
 10
185.812364
 20
158.308563
 30
0.0
  0
VERTEX
  5
21E
330
1EF
100
AcDbEntity
  8
001
 62
   253
370
    50
100
AcDbVertex
100
AcDb2dVertex
 10
185.717317
 20
158.423159
 30
0.0
  0
VERTEX
  5
21F
330
1EF
100
AcDbEntity
  8
001
 62
   253
370
    50
100
AcDbVertex
100
AcDb2dVertex
 10
185.613203
 20
158.529686
 30
0.0
  0
VERTEX
  5
220
330
1EF
100
AcDbEntity
  8
001
 62
   253
370
    50
100
AcDbVertex
100
AcDb2dVertex
 10
185.470769
 20
158.64697
 30
0.0
  0
VERTEX
  5
221
330
1EF
100
AcDbEntity
  8
001
 62
   253
370
    50
100
AcDbVertex
100
AcDb2dVertex
 10
185.312722
 20
158.742451
 30
0.0
  0
VERTEX
  5
222
330
1EF
100
AcDbEntity
  8
001
 62
   253
370
    50
100
AcDbVertex
100
AcDb2dVertex
 10
185.174683
 20
158.798486
 30
0.0
  0
VERTEX
  5
223
330
1EF
100
AcDbEntity
  8
001
 62
   253
370
    50
100
AcDbVertex
100
AcDb2dVertex
 10
185.02989
 20
158.82981
 30
0.0
  0
VERTEX
  5
224
330
1EF
100
AcDbEntity
  8
001
 62
   253
370
    50
100
AcDbVertex
100
AcDb2dVertex
 10
184.977986
 20
158.83413
 30
0.0
  0
VERTEX
  5
225
330
1EF
100
AcDbEntity
  8
001
 62
   253
370
    50
100
AcDbVertex
100
AcDb2dVertex
 10
184.925887
 20
158.83652
 30
0.0
  0
SEQEND
  5
1F0
330
1EF
100
AcDbEntity
  8
001
370
    50
  0
LINE
  5
226
330
1F
100
AcDbEntity
  8
001
 62
   253
370
    50
100
AcDbLine
 10
109.925887
 20
142.698366
 30
0.0
 11
184.925887
 21
142.698366
 31
0.0
  0
LINE
  5
227
330
1F
100
AcDbEntity
  8
001
 62
   253
370
    50
100
AcDbLine
 10
109.925887
 20
144.03246
 30
0.0
 11
106.925887
 21
144.03246
 31
0.0
  0
LINE
  5
228
330
1F
100
AcDbEntity
  8
001
 62
   253
370
    50
100
AcDbLine
 10
106.925887
 20
157.502426
 30
0.0
 11
109.925887
 21
157.502426
 31
0.0
  0
LINE
  5
229
330
1F
100
AcDbEntity
  8
001
 62
   253
370
    50
100
AcDbLine
 10
184.925887
 20
158.83652
 30
0.0
 11
109.925887
 21
158.83652
 31
0.0
  0
LINE
  5
22A
330
1F
100
AcDbEntity
  8
001
 62
   253
370
    50
100
AcDbLine
 10
109.925887
 20
130.767443
 30
0.0
 11
109.925887
 21
144.03246
 31
0.0
  0
LINE
  5
22B
330
1F
100
AcDbEntity
  8
001
 62
   253
370
    50
100
AcDbLine
 10
184.925887
 20
170.767443
 30
0.0
 11
109.925887
 21
170.767443
 31
0.0
  0
LINE
  5
22C
330
1F
100
AcDbEntity
  8
001
 62
   253
370
    50
100
AcDbLine
 10
109.925887
 20
130.767443
 30
0.0
 11
184.925887
 21
130.767443
 31
0.0
  0
LINE
  5
22D
330
1F
100
AcDbEntity
  8
001
 62
   253
370
    50
100
AcDbLine
 10
109.925887
 20
157.502426
 30
0.0
 11
109.925887
 21
170.767443
 31
0.0
  0
ARC
  5
22E
330
1F
100
AcDbEntity
  8
001
 62
   253
370
    50
100
AcDbCircle
 10
184.925887
 20
168.767443
 30
0.0
 40
2.0
100
AcDbArc
 50
0.0
 51
90.0
  0
ARC
  5
22F
330
1F
100
AcDbEntity
  8
001
 62
   253
370
    50
100
AcDbCircle
 10
184.925887
 20
132.767443
 30
0.0
 40
2.0
100
AcDbArc
 50
270.0
 51
0.0
  0
LINE
  5
230
330
1F
100
AcDbEntity
  8
001
 62
   253
370
    50
100
AcDbLine
 10
186.925887
 20
168.767443
 30
0.0
 11
186.925887
 21
132.767443
 31
0.0
  0
LINE
  5
231
330
1F
100
AcDbEntity
  8
001
 62
   253
370
    50
100
AcDbLine
 10
109.925887
 20
170.267443
 30
0.0
 11
106.925887
 21
170.267443
 31
0.0
  0
LINE
  5
232
330
1F
100
AcDbEntity
  8
001
 62
   253
370
    50
100
AcDbLine
 10
106.925887
 20
131.267443
 30
0.0
 11
109.925887
 21
131.267443
 31
0.0
  0
ARC
  5
233
330
1F
100
AcDbEntity
  8
001
 62
   253
370
    50
100
AcDbCircle
 10
74.193836
 20
134.267443
 30
0.0
 40
0.9999999999999966
100
AcDbArc
 50
240.0
 51
270.0
  0
ARC
  5
234
330
1F
100
AcDbEntity
  8
001
 62
   253
370
    50
100
AcDbCircle
 10
74.193836
 20
167.267443
 30
0.0
 40
0.9999999999999966
100
AcDbArc
 50
90.0
 51
120.0
  0
POLYLINE
  5
235
330
1F
100
AcDbEntity
  8
001
 62
   253
370
    50
100
AcDb2dPolyline
 66
     1
 10
0.0
 20
0.0
 30
0.0
  0
VERTEX
  5
237
330
235
100
AcDbEntity
  8
001
 62
   253
370
    50
100
AcDbVertex
100
AcDb2dVertex
 10
74.193836
 20
151.369301
 30
0.0
  0
VERTEX
  5
238
330
235
100
AcDbEntity
  8
001
 62
   253
370
    50
100
AcDbVertex
100
AcDb2dVertex
 10
74.165789
 20
151.071404
 30
0.0
  0
VERTEX
  5
239
330
235
100
AcDbEntity
  8
001
 62
   253
370
    50
100
AcDbVertex
100
AcDb2dVertex
 10
74.152818
 20
150.773496
 30
0.0
  0
VERTEX
  5
23A
330
235
100
AcDbEntity
  8
001
 62
   253
370
    50
100
AcDbVertex
100
AcDb2dVertex
 10
74.165481
 20
150.469546
 30
0.0
  0
VERTEX
  5
23B
330
235
100
AcDbEntity
  8
001
 62
   253
370
    50
100
AcDbVertex
100
AcDb2dVertex
 10
74.193836
 20
150.165586
 30
0.0
  0
SEQEND
  5
236
330
235
100
AcDbEntity
  8
001
370
    50
  0
POLYLINE
  5
23C
330
1F
100
AcDbEntity
  8
001
 62
   253
370
    50
100
AcDb2dPolyline
 66
     1
 10
0.0
 20
0.0
 30
0.0
  0
VERTEX
  5
23E
330
23C
100
AcDbEntity
  8
001
 62
   253
370
    50
100
AcDbVertex
100
AcDb2dVertex
 10
78.785611
 20
155.635684
 30
0.0
  0
VERTEX
  5
23F
330
23C
100
AcDbEntity
  8
001
 62
   253
370
    50
100
AcDbVertex
100
AcDb2dVertex
 10
78.441469
 20
155.548337
 30
0.0
  0
VERTEX
  5
240
330
23C
100
AcDbEntity
  8
001
 62
   253
370
    50
100
AcDbVertex
100
AcDb2dVertex
 10
78.102167
 20
155.445991
 30
0.0
  0
VERTEX
  5
241
330
23C
100
AcDbEntity
  8
001
 62
   253
370
    50
100
AcDbVertex
100
AcDb2dVertex
 10
77.711386
 20
155.289756
 30
0.0
  0
VERTEX
  5
242
330
23C
100
AcDbEntity
  8
001
 62
   253
370
    50
100
AcDbVertex
100
AcDb2dVertex
 10
77.335699
 20
155.098278
 30
0.0
  0
VERTEX
  5
243
330
23C
100
AcDbEntity
  8
001
 62
   253
370
    50
100
AcDbVertex
100
AcDb2dVertex
 10
76.976892
 20
154.877325
 30
0.0
  0
VERTEX
  5
244
330
23C
100
AcDbEntity
  8
001
 62
   253
370
    50
100
AcDbVertex
100
AcDb2dVertex
 10
76.637944
 20
154.627694
 30
0.0
  0
VERTEX
  5
245
330
23C
100
AcDbEntity
  8
001
 62
   253
370
    50
100
AcDbVertex
100
AcDb2dVertex
 10
76.321574
 20
154.349288
 30
0.0
  0
VERTEX
  5
246
330
23C
100
AcDbEntity
  8
001
 62
   253
370
    50
100
AcDbVertex
100
AcDb2dVertex
 10
76.029815
 20
154.044833
 30
0.0
  0
VERTEX
  5
247
330
23C
100
AcDbEntity
  8
001
 62
   253
370
    50
100
AcDbVertex
100
AcDb2dVertex
 10
75.764275
 20
153.717199
 30
0.0
  0
VERTEX
  5
248
330
23C
100
AcDbEntity
  8
001
 62
   253
370
    50
100
AcDbVertex
100
AcDb2dVertex
 10
75.527528
 20
153.368504
 30
0.0
  0
VERTEX
  5
249
330
23C
100
AcDbEntity
  8
001
 62
   253
370
    50
100
AcDbVertex
100
AcDb2dVertex
 10
75.322123
 20
153.001598
 30
0.0
  0
VERTEX
  5
24A
330
23C
100
AcDbEntity
  8
001
 62
   253
370
    50
100
AcDbVertex
100
AcDb2dVertex
 10
75.147287
 20
152.618675
 30
0.0
  0
VERTEX
  5
24B
330
23C
100
AcDbEntity
  8
001
 62
   253
370
    50
100
AcDbVertex
100
AcDb2dVertex
 10
75.003524
 20
152.222672
 30
0.0
  0
VERTEX
  5
24C
330
23C
100
AcDbEntity
  8
001
 62
   253
370
    50
100
AcDbVertex
100
AcDb2dVertex
 10
74.896832
 20
151.816065
 30
0.0
  0
VERTEX
  5
24D
330
23C
100
AcDbEntity
  8
001
 62
   253
370
    50
100
AcDbVertex
100
AcDb2dVertex
 10
74.830276
 20
151.406896
 30
0.0
  0
VERTEX
  5
24E
330
23C
100
AcDbEntity
  8
001
 62
   253
370
    50
100
AcDbVertex
100
AcDb2dVertex
 10
74.785363
 20
150.993695
 30
0.0
  0
SEQEND
  5
23D
330
23C
100
AcDbEntity
  8
001
370
    50
  0
POLYLINE
  5
24F
330
1F
100
AcDbEntity
  8
001
 62
   253
370
    50
100
AcDb2dPolyline
 66
     1
 10
0.0
 20
0.0
 30
0.0
  0
VERTEX
  5
251
330
24F
100
AcDbEntity
  8
001
 62
   253
370
    50
100
AcDbVertex
100
AcDb2dVertex
 10
74.193836
 20
150.165586
 30
0.0
  0
VERTEX
  5
252
330
24F
100
AcDbEntity
  8
001
 62
   253
370
    50
100
AcDbVertex
100
AcDb2dVertex
 10
74.246629
 20
149.882205
 30
0.0
  0
VERTEX
  5
253
330
24F
100
AcDbEntity
  8
001
 62
   253
370
    50
100
AcDbVertex
100
AcDb2dVertex
 10
74.310791
 20
149.601637
 30
0.0
  0
VERTEX
  5
254
330
24F
100
AcDbEntity
  8
001
 62
   253
370
    50
100
AcDbVertex
100
AcDb2dVertex
 10
74.395057
 20
149.326755
 30
0.0
  0
VERTEX
  5
255
330
24F
100
AcDbEntity
  8
001
 62
   253
370
    50
100
AcDbVertex
100
AcDb2dVertex
 10
74.498472
 20
149.058087
 30
0.0
  0
VERTEX
  5
256
330
24F
100
AcDbEntity
  8
001
 62
   253
370
    50
100
AcDbVertex
100
AcDb2dVertex
 10
74.65251
 20
148.727716
 30
0.0
  0
VERTEX
  5
257
330
24F
100
AcDbEntity
  8
001
 62
   253
370
    50
100
AcDbVertex
100
AcDb2dVertex
 10
74.830791
 20
148.40994
 30
0.0
  0
VERTEX
  5
258
330
24F
100
AcDbEntity
  8
001
 62
   253
370
    50
100
AcDbVertex
100
AcDb2dVertex
 10
75.031945
 20
148.106866
 30
0.0
  0
VERTEX
  5
259
330
24F
100
AcDbEntity
  8
001
 62
   253
370
    50
100
AcDbVertex
100
AcDb2dVertex
 10
75.254686
 20
147.819215
 30
0.0
  0
VERTEX
  5
25A
330
24F
100
AcDbEntity
  8
001
 62
   253
370
    50
100
AcDbVertex
100
AcDb2dVertex
 10
75.527141
 20
147.517201
 30
0.0
  0
VERTEX
  5
25B
330
24F
100
AcDbEntity
  8
001
 62
   253
370
    50
100
AcDbVertex
100
AcDb2dVertex
 10
75.821831
 20
147.236764
 30
0.0
  0
VERTEX
  5
25C
330
24F
100
AcDbEntity
  8
001
 62
   253
370
    50
100
AcDbVertex
100
AcDb2dVertex
 10
76.136442
 20
146.978553
 30
0.0
  0
VERTEX
  5
25D
330
24F
100
AcDbEntity
  8
001
 62
   253
370
    50
100
AcDbVertex
100
AcDb2dVertex
 10
76.468704
 20
146.743615
 30
0.0
  0
VERTEX
  5
25E
330
24F
100
AcDbEntity
  8
001
 62
   253
370
    50
100
AcDbVertex
100
AcDb2dVertex
 10
76.733045
 20
146.580381
 30
0.0
  0
VERTEX
  5
25F
330
24F
100
AcDbEntity
  8
001
 62
   253
370
    50
100
AcDbVertex
100
AcDb2dVertex
 10
77.005564
 20
146.431246
 30
0.0
  0
VERTEX
  5
260
330
24F
100
AcDbEntity
  8
001
 62
   253
370
    50
100
AcDbVertex
100
AcDb2dVertex
 10
77.286615
 20
146.295654
 30
0.0
  0
VERTEX
  5
261
330
24F
100
AcDbEntity
  8
001
 62
   253
370
    50
100
AcDbVertex
100
AcDb2dVertex
 10
77.57415
 20
146.174395
 30
0.0
  0
VERTEX
  5
262
330
24F
100
AcDbEntity
  8
001
 62
   253
370
    50
100
AcDbVertex
100
AcDb2dVertex
 10
77.86718
 20
146.067663
 30
0.0
  0
VERTEX
  5
263
330
24F
100
AcDbEntity
  8
001
 62
   253
370
    50
100
AcDbVertex
100
AcDb2dVertex
 10
78.165141
 20
145.975609
 30
0.0
  0
VERTEX
  5
264
330
24F
100
AcDbEntity
  8
001
 62
   253
370
    50
100
AcDbVertex
100
AcDb2dVertex
 10
78.496544
 20
145.891799
 30
0.0
  0
VERTEX
  5
265
330
24F
100
AcDbEntity
  8
001
 62
   253
370
    50
100
AcDbVertex
100
AcDb2dVertex
 10
78.831991
 20
145.825821
 30
0.0
  0
VERTEX
  5
266
330
24F
100
AcDbEntity
  8
001
 62
   253
370
    50
100
AcDbVertex
100
AcDb2dVertex
 10
79.171969
 20
145.777373
 30
0.0
  0
VERTEX
  5
267
330
24F
100
AcDbEntity
  8
001
 62
   253
370
    50
100
AcDbVertex
100
AcDb2dVertex
 10
79.513914
 20
145.746596
 30
0.0
  0
VERTEX
  5
268
330
24F
100
AcDbEntity
  8
001
 62
   253
370
    50
100
AcDbVertex
100
AcDb2dVertex
 10
79.562236
 20
145.743637
 30
0.0
  0
VERTEX
  5
269
330
24F
100
AcDbEntity
  8
001
 62
   253
370
    50
100
AcDbVertex
100
AcDb2dVertex
 10
79.610567
 20
145.740851
 30
0.0
  0
SEQEND
  5
250
330
24F
100
AcDbEntity
  8
001
370
    50
  0
POLYLINE
  5
26A
330
1F
100
AcDbEntity
  8
001
 62
   253
370
    50
100
AcDb2dPolyline
 66
     1
 10
0.0
 20
0.0
 30
0.0
  0
VERTEX
  5
26C
330
26A
100
AcDbEntity
  8
001
 62
   253
370
    50
100
AcDbVertex
100
AcDb2dVertex
 10
79.610567
 20
145.740851
 30
0.0
  0
VERTEX
  5
26D
330
26A
100
AcDbEntity
  8
001
 62
   253
370
    50
100
AcDbVertex
100
AcDb2dVertex
 10
79.904734
 20
145.735748
 30
0.0
  0
VERTEX
  5
26E
330
26A
100
AcDbEntity
  8
001
 62
   253
370
    50
100
AcDbVertex
100
AcDb2dVertex
 10
80.198715
 20
145.73894
 30
0.0
  0
VERTEX
  5
26F
330
26A
100
AcDbEntity
  8
001
 62
   253
370
    50
100
AcDbVertex
100
AcDb2dVertex
 10
80.555373
 20
145.762939
 30
0.0
  0
VERTEX
  5
270
330
26A
100
AcDbEntity
  8
001
 62
   253
370
    50
100
AcDbVertex
100
AcDb2dVertex
 10
80.910238
 20
145.808214
 30
0.0
  0
VERTEX
  5
271
330
26A
100
AcDbEntity
  8
001
 62
   253
370
    50
100
AcDbVertex
100
AcDb2dVertex
 10
81.262776
 20
145.872334
 30
0.0
  0
VERTEX
  5
272
330
26A
100
AcDbEntity
  8
001
 62
   253
370
    50
100
AcDbVertex
100
AcDb2dVertex
 10
81.611241
 20
145.95529
 30
0.0
  0
VERTEX
  5
273
330
26A
100
AcDbEntity
  8
001
 62
   253
370
    50
100
AcDbVertex
100
AcDb2dVertex
 10
81.95275
 20
146.057081
 30
0.0
  0
VERTEX
  5
274
330
26A
100
AcDbEntity
  8
001
 62
   253
370
    50
100
AcDbVertex
100
AcDb2dVertex
 10
82.287923
 20
146.178184
 30
0.0
  0
VERTEX
  5
275
330
26A
100
AcDbEntity
  8
001
 62
   253
370
    50
100
AcDbVertex
100
AcDb2dVertex
 10
82.597127
 20
146.310024
 30
0.0
  0
VERTEX
  5
276
330
26A
100
AcDbEntity
  8
001
 62
   253
370
    50
100
AcDbVertex
100
AcDb2dVertex
 10
82.898604
 20
146.458665
 30
0.0
  0
VERTEX
  5
277
330
26A
100
AcDbEntity
  8
001
 62
   253
370
    50
100
AcDbVertex
100
AcDb2dVertex
 10
83.191746
 20
146.623996
 30
0.0
  0
VERTEX
  5
278
330
26A
100
AcDbEntity
  8
001
 62
   253
370
    50
100
AcDbVertex
100
AcDb2dVertex
 10
83.475111
 20
146.80559
 30
0.0
  0
VERTEX
  5
279
330
26A
100
AcDbEntity
  8
001
 62
   253
370
    50
100
AcDbVertex
100
AcDb2dVertex
 10
83.746311
 20
147.00229
 30
0.0
  0
VERTEX
  5
27A
330
26A
100
AcDbEntity
  8
001
 62
   253
370
    50
100
AcDbVertex
100
AcDb2dVertex
 10
84.005289
 20
147.214797
 30
0.0
  0
VERTEX
  5
27B
330
26A
100
AcDbEntity
  8
001
 62
   253
370
    50
100
AcDbVertex
100
AcDb2dVertex
 10
84.249063
 20
147.441339
 30
0.0
  0
VERTEX
  5
27C
330
26A
100
AcDbEntity
  8
001
 62
   253
370
    50
100
AcDbVertex
100
AcDb2dVertex
 10
84.478297
 20
147.6826
 30
0.0
  0
VERTEX
  5
27D
330
26A
100
AcDbEntity
  8
001
 62
   253
370
    50
100
AcDbVertex
100
AcDb2dVertex
 10
84.692868
 20
147.939006
 30
0.0
  0
VERTEX
  5
27E
330
26A
100
AcDbEntity
  8
001
 62
   253
370
    50
100
AcDbVertex
100
AcDb2dVertex
 10
84.890452
 20
148.208738
 30
0.0
  0
VERTEX
  5
27F
330
26A
100
AcDbEntity
  8
001
 62
   253
370
    50
100
AcDbVertex
100
AcDb2dVertex
 10
85.069165
 20
148.490175
 30
0.0
  0
VERTEX
  5
280
330
26A
100
AcDbEntity
  8
001
 62
   253
370
    50
100
AcDbVertex
100
AcDb2dVertex
 10
85.227856
 20
148.783301
 30
0.0
  0
VERTEX
  5
281
330
26A
100
AcDbEntity
  8
001
 62
   253
370
    50
100
AcDbVertex
100
AcDb2dVertex
 10
85.348501
 20
149.047508
 30
0.0
  0
VERTEX
  5
282
330
26A
100
AcDbEntity
  8
001
 62
   253
370
    50
100
AcDbVertex
100
AcDb2dVertex
 10
85.452205
 20
149.318823
 30
0.0
  0
VERTEX
  5
283
330
26A
100
AcDbEntity
  8
001
 62
   253
370
    50
100
AcDbVertex
100
AcDb2dVertex
 10
85.539093
 20
149.597835
 30
0.0
  0
VERTEX
  5
284
330
26A
100
AcDbEntity
  8
001
 62
   253
370
    50
100
AcDbVertex
100
AcDb2dVertex
 10
85.607956
 20
149.881831
 30
0.0
  0
VERTEX
  5
285
330
26A
100
AcDbEntity
  8
001
 62
   253
370
    50
100
AcDbVertex
100
AcDb2dVertex
 10
85.658042
 20
150.168765
 30
0.0
  0
VERTEX
  5
286
330
26A
100
AcDbEntity
  8
001
 62
   253
370
    50
100
AcDbVertex
100
AcDb2dVertex
 10
85.688792
 20
150.458409
 30
0.0
  0
VERTEX
  5
287
330
26A
100
AcDbEntity
  8
001
 62
   253
370
    50
100
AcDbVertex
100
AcDb2dVertex
 10
85.699038
 20
150.830672
 30
0.0
  0
VERTEX
  5
288
330
26A
100
AcDbEntity
  8
001
 62
   253
370
    50
100
AcDbVertex
100
AcDb2dVertex
 10
85.677319
 20
151.202589
 30
0.0
  0
VERTEX
  5
289
330
26A
100
AcDbEntity
  8
001
 62
   253
370
    50
100
AcDbVertex
100
AcDb2dVertex
 10
85.624583
 20
151.571053
 30
0.0
  0
VERTEX
  5
28A
330
26A
100
AcDbEntity
  8
001
 62
   253
370
    50
100
AcDbVertex
100
AcDb2dVertex
 10
85.541068
 20
151.933671
 30
0.0
  0
VERTEX
  5
28B
330
26A
100
AcDbEntity
  8
001
 62
   253
370
    50
100
AcDbVertex
100
AcDb2dVertex
 10
85.432427
 20
152.273641
 30
0.0
  0
VERTEX
  5
28C
330
26A
100
AcDbEntity
  8
001
 62
   253
370
    50
100
AcDbVertex
100
AcDb2dVertex
 10
85.297462
 20
152.604106
 30
0.0
  0
VERTEX
  5
28D
330
26A
100
AcDbEntity
  8
001
 62
   253
370
    50
100
AcDbVertex
100
AcDb2dVertex
 10
85.138315
 20
152.922755
 30
0.0
  0
VERTEX
  5
28E
330
26A
100
AcDbEntity
  8
001
 62
   253
370
    50
100
AcDbVertex
100
AcDb2dVertex
 10
84.955989
 20
153.228692
 30
0.0
  0
VERTEX
  5
28F
330
26A
100
AcDbEntity
  8
001
 62
   253
370
    50
100
AcDbVertex
100
AcDb2dVertex
 10
84.733581
 20
153.544397
 30
0.0
  0
VERTEX
  5
290
330
26A
100
AcDbEntity
  8
001
 62
   253
370
    50
100
AcDbVertex
100
AcDb2dVertex
 10
84.487737
 20
153.842297
 30
0.0
  0
VERTEX
  5
291
330
26A
100
AcDbEntity
  8
001
 62
   253
370
    50
100
AcDbVertex
100
AcDb2dVertex
 10
84.220982
 20
154.121233
 30
0.0
  0
VERTEX
  5
292
330
26A
100
AcDbEntity
  8
001
 62
   253
370
    50
100
AcDbVertex
100
AcDb2dVertex
 10
83.935009
 20
154.380397
 30
0.0
  0
VERTEX
  5
293
330
26A
100
AcDbEntity
  8
001
 62
   253
370
    50
100
AcDbVertex
100
AcDb2dVertex
 10
83.586314
 20
154.651709
 30
0.0
  0
VERTEX
  5
294
330
26A
100
AcDbEntity
  8
001
 62
   253
370
    50
100
AcDbVertex
100
AcDb2dVertex
 10
83.217678
 20
154.895409
 30
0.0
  0
VERTEX
  5
295
330
26A
100
AcDbEntity
  8
001
 62
   253
370
    50
100
AcDbVertex
100
AcDb2dVertex
 10
82.831113
 20
155.111495
 30
0.0
  0
VERTEX
  5
296
330
26A
100
AcDbEntity
  8
001
 62
   253
370
    50
100
AcDbVertex
100
AcDb2dVertex
 10
82.429863
 20
155.298715
 30
0.0
  0
VERTEX
  5
297
330
26A
100
AcDbEntity
  8
001
 62
   253
370
    50
100
AcDbVertex
100
AcDb2dVertex
 10
82.121073
 20
155.419654
 30
0.0
  0
VERTEX
  5
298
330
26A
100
AcDbEntity
  8
001
 62
   253
370
    50
100
AcDbVertex
100
AcDb2dVertex
 10
81.806328
 20
155.523933
 30
0.0
  0
VERTEX
  5
299
330
26A
100
AcDbEntity
  8
001
 62
   253
370
    50
100
AcDbVertex
100
AcDb2dVertex
 10
81.485016
 20
155.61199
 30
0.0
  0
VERTEX
  5
29A
330
26A
100
AcDbEntity
  8
001
 62
   253
370
    50
100
AcDbVertex
100
AcDb2dVertex
 10
81.159575
 20
155.683757
 30
0.0
  0
VERTEX
  5
29B
330
26A
100
AcDbEntity
  8
001
 62
   253
370
    50
100
AcDbVertex
100
AcDb2dVertex
 10
80.831329
 20
155.739217
 30
0.0
  0
VERTEX
  5
29C
330
26A
100
AcDbEntity
  8
001
 62
   253
370
    50
100
AcDbVertex
100
AcDb2dVertex
 10
80.500721
 20
155.776336
 30
0.0
  0
VERTEX
  5
29D
330
26A
100
AcDbEntity
  8
001
 62
   253
370
    50
100
AcDbVertex
100
AcDb2dVertex
 10
80.248679
 20
155.791826
 30
0.0
  0
VERTEX
  5
29E
330
26A
100
AcDbEntity
  8
001
 62
   253
370
    50
100
AcDbVertex
100
AcDb2dVertex
 10
79.996205
 20
155.801257
 30
0.0
  0
SEQEND
  5
26B
330
26A
100
AcDbEntity
  8
001
370
    50
  0
POLYLINE
  5
29F
330
1F
100
AcDbEntity
  8
001
 62
   253
370
    50
100
AcDb2dPolyline
 66
     1
 10
0.0
 20
0.0
 30
0.0
  0
VERTEX
  5
2A1
330
29F
100
AcDbEntity
  8
001
 62
   253
370
    50
100
AcDbVertex
100
AcDb2dVertex
 10
79.996205
 20
155.801257
 30
0.0
  0
VERTEX
  5
2A2
330
29F
100
AcDbEntity
  8
001
 62
   253
370
    50
100
AcDbVertex
100
AcDb2dVertex
 10
79.89898
 20
155.79998
 30
0.0
  0
VERTEX
  5
2A3
330
29F
100
AcDbEntity
  8
001
 62
   253
370
    50
100
AcDbVertex
100
AcDb2dVertex
 10
79.801759
 20
155.800058
 30
0.0
  0
VERTEX
  5
2A4
330
29F
100
AcDbEntity
  8
001
 62
   253
370
    50
100
AcDbVertex
100
AcDb2dVertex
 10
79.79578
 20
155.800137
 30
0.0
  0
VERTEX
  5
2A5
330
29F
100
AcDbEntity
  8
001
 62
   253
370
    50
100
AcDbVertex
100
AcDb2dVertex
 10
79.7898
 20
155.80022
 30
0.0
  0
SEQEND
  5
2A0
330
29F
100
AcDbEntity
  8
001
370
    50
  0
POLYLINE
  5
2A6
330
1F
100
AcDbEntity
  8
001
 62
   253
370
    50
100
AcDb2dPolyline
 66
     1
 10
0.0
 20
0.0
 30
0.0
  0
VERTEX
  5
2A8
330
2A6
100
AcDbEntity
  8
001
 62
   253
370
    50
100
AcDbVertex
100
AcDb2dVertex
 10
79.7898
 20
155.80022
 30
0.0
  0
VERTEX
  5
2A9
330
2A6
100
AcDbEntity
  8
001
 62
   253
370
    50
100
AcDbVertex
100
AcDb2dVertex
 10
79.445404
 20
155.780331
 30
0.0
  0
VERTEX
  5
2AA
330
2A6
100
AcDbEntity
  8
001
 62
   253
370
    50
100
AcDbVertex
100
AcDb2dVertex
 10
79.102176
 20
155.749153
 30
0.0
  0
VERTEX
  5
2AB
330
2A6
100
AcDbEntity
  8
001
 62
   253
370
    50
100
AcDbVertex
100
AcDb2dVertex
 10
78.756864
 20
155.696921
 30
0.0
  0
VERTEX
  5
2AC
330
2A6
100
AcDbEntity
  8
001
 62
   253
370
    50
100
AcDbVertex
100
AcDb2dVertex
 10
78.414986
 20
155.624297
 30
0.0
  0
VERTEX
  5
2AD
330
2A6
100
AcDbEntity
  8
001
 62
   253
370
    50
100
AcDbVertex
100
AcDb2dVertex
 10
78.076105
 20
155.533087
 30
0.0
  0
VERTEX
  5
2AE
330
2A6
100
AcDbEntity
  8
001
 62
   253
370
    50
100
AcDbVertex
100
AcDb2dVertex
 10
77.742774
 20
155.423677
 30
0.0
  0
VERTEX
  5
2AF
330
2A6
100
AcDbEntity
  8
001
 62
   253
370
    50
100
AcDbVertex
100
AcDb2dVertex
 10
77.415709
 20
155.295625
 30
0.0
  0
VERTEX
  5
2B0
330
2A6
100
AcDbEntity
  8
001
 62
   253
370
    50
100
AcDbVertex
100
AcDb2dVertex
 10
77.096366
 20
155.14926
 30
0.0
  0
VERTEX
  5
2B1
330
2A6
100
AcDbEntity
  8
001
 62
   253
370
    50
100
AcDbVertex
100
AcDb2dVertex
 10
76.787582
 20
154.985808
 30
0.0
  0
VERTEX
  5
2B2
330
2A6
100
AcDbEntity
  8
001
 62
   253
370
    50
100
AcDbVertex
100
AcDb2dVertex
 10
76.488974
 20
154.804491
 30
0.0
  0
VERTEX
  5
2B3
330
2A6
100
AcDbEntity
  8
001
 62
   253
370
    50
100
AcDbVertex
100
AcDb2dVertex
 10
76.207545
 20
154.609486
 30
0.0
  0
VERTEX
  5
2B4
330
2A6
100
AcDbEntity
  8
001
 62
   253
370
    50
100
AcDbVertex
100
AcDb2dVertex
 10
75.938382
 20
154.39786
 30
0.0
  0
VERTEX
  5
2B5
330
2A6
100
AcDbEntity
  8
001
 62
   253
370
    50
100
AcDbVertex
100
AcDb2dVertex
 10
75.681836
 20
154.169482
 30
0.0
  0
VERTEX
  5
2B6
330
2A6
100
AcDbEntity
  8
001
 62
   253
370
    50
100
AcDbVertex
100
AcDb2dVertex
 10
75.440023
 20
153.925518
 30
0.0
  0
VERTEX
  5
2B7
330
2A6
100
AcDbEntity
  8
001
 62
   253
370
    50
100
AcDbVertex
100
AcDb2dVertex
 10
75.215156
 20
153.667456
 30
0.0
  0
VERTEX
  5
2B8
330
2A6
100
AcDbEntity
  8
001
 62
   253
370
    50
100
AcDbVertex
100
AcDb2dVertex
 10
75.00825
 20
153.394906
 30
0.0
  0
VERTEX
  5
2B9
330
2A6
100
AcDbEntity
  8
001
 62
   253
370
    50
100
AcDbVertex
100
AcDb2dVertex
 10
74.797289
 20
153.068814
 30
0.0
  0
VERTEX
  5
2BA
330
2A6
100
AcDbEntity
  8
001
 62
   253
370
    50
100
AcDbVertex
100
AcDb2dVertex
 10
74.612279
 20
152.726875
 30
0.0
  0
VERTEX
  5
2BB
330
2A6
100
AcDbEntity
  8
001
 62
   253
370
    50
100
AcDbVertex
100
AcDb2dVertex
 10
74.454277
 20
152.370388
 30
0.0
  0
VERTEX
  5
2BC
330
2A6
100
AcDbEntity
  8
001
 62
   253
370
    50
100
AcDbVertex
100
AcDb2dVertex
 10
74.330037
 20
152.00164
 30
0.0
  0
VERTEX
  5
2BD
330
2A6
100
AcDbEntity
  8
001
 62
   253
370
    50
100
AcDbVertex
100
AcDb2dVertex
 10
74.254797
 20
151.687338
 30
0.0
  0
VERTEX
  5
2BE
330
2A6
100
AcDbEntity
  8
001
 62
   253
370
    50
100
AcDbVertex
100
AcDb2dVertex
 10
74.193836
 20
151.369301
 30
0.0
  0
SEQEND
  5
2A7
330
2A6
100
AcDbEntity
  8
001
370
    50
  0
POLYLINE
  5
2BF
330
1F
100
AcDbEntity
  8
001
 62
   253
370
    50
100
AcDb2dPolyline
 66
     1
 10
0.0
 20
0.0
 30
0.0
  0
VERTEX
  5
2C1
330
2BF
100
AcDbEntity
  8
001
 62
   253
370
    50
100
AcDbVertex
100
AcDb2dVertex
 10
89.962421
 20
149.410309
 30
0.0
  0
VERTEX
  5
2C2
330
2BF
100
AcDbEntity
  8
001
 62
   253
370
    50
100
AcDbVertex
100
AcDb2dVertex
 10
89.971709
 20
149.378335
 30
0.0
  0
VERTEX
  5
2C3
330
2BF
100
AcDbEntity
  8
001
 62
   253
370
    50
100
AcDbVertex
100
AcDb2dVertex
 10
89.981123
 20
149.346406
 30
0.0
  0
VERTEX
  5
2C4
330
2BF
100
AcDbEntity
  8
001
 62
   253
370
    50
100
AcDbVertex
100
AcDb2dVertex
 10
90.043066
 20
149.155538
 30
0.0
  0
VERTEX
  5
2C5
330
2BF
100
AcDbEntity
  8
001
 62
   253
370
    50
100
AcDbVertex
100
AcDb2dVertex
 10
90.113826
 20
148.967342
 30
0.0
  0
VERTEX
  5
2C6
330
2BF
100
AcDbEntity
  8
001
 62
   253
370
    50
100
AcDbVertex
100
AcDb2dVertex
 10
90.194283
 20
148.780398
 30
0.0
  0
VERTEX
  5
2C7
330
2BF
100
AcDbEntity
  8
001
 62
   253
370
    50
100
AcDbVertex
100
AcDb2dVertex
 10
90.2857
 20
148.600164
 30
0.0
  0
VERTEX
  5
2C8
330
2BF
100
AcDbEntity
  8
001
 62
   253
370
    50
100
AcDbVertex
100
AcDb2dVertex
 10
90.310299
 20
148.557099
 30
0.0
  0
VERTEX
  5
2C9
330
2BF
100
AcDbEntity
  8
001
 62
   253
370
    50
100
AcDbVertex
100
AcDb2dVertex
 10
90.336284
 20
148.513878
 30
0.0
  0
VERTEX
  5
2CA
330
2BF
100
AcDbEntity
  8
001
 62
   253
370
    50
100
AcDbVertex
100
AcDb2dVertex
 10
90.349912
 20
148.492398
 30
0.0
  0
VERTEX
  5
2CB
330
2BF
100
AcDbEntity
  8
001
 62
   253
370
    50
100
AcDbVertex
100
AcDb2dVertex
 10
90.364118
 20
148.472626
 30
0.0
  0
VERTEX
  5
2CC
330
2BF
100
AcDbEntity
  8
001
 62
   253
370
    50
100
AcDbVertex
100
AcDb2dVertex
 10
90.371466
 20
148.463669
 30
0.0
  0
VERTEX
  5
2CD
330
2BF
100
AcDbEntity
  8
001
 62
   253
370
    50
100
AcDbVertex
100
AcDb2dVertex
 10
90.379464
 20
148.453386
 30
0.0
  0
VERTEX
  5
2CE
330
2BF
100
AcDbEntity
  8
001
 62
   253
370
    50
100
AcDbVertex
100
AcDb2dVertex
 10
90.385323
 20
148.445779
 30
0.0
  0
VERTEX
  5
2CF
330
2BF
100
AcDbEntity
  8
001
 62
   253
370
    50
100
AcDbVertex
100
AcDb2dVertex
 10
90.391479
 20
148.442281
 30
0.0
  0
VERTEX
  5
2D0
330
2BF
100
AcDbEntity
  8
001
 62
   253
370
    50
100
AcDbVertex
100
AcDb2dVertex
 10
90.397005
 20
148.446094
 30
0.0
  0
VERTEX
  5
2D1
330
2BF
100
AcDbEntity
  8
001
 62
   253
370
    50
100
AcDbVertex
100
AcDb2dVertex
 10
90.401155
 20
148.453785
 30
0.0
  0
VERTEX
  5
2D2
330
2BF
100
AcDbEntity
  8
001
 62
   253
370
    50
100
AcDbVertex
100
AcDb2dVertex
 10
90.401526
 20
148.472399
 30
0.0
  0
VERTEX
  5
2D3
330
2BF
100
AcDbEntity
  8
001
 62
   253
370
    50
100
AcDbVertex
100
AcDb2dVertex
 10
90.394108
 20
148.489603
 30
0.0
  0
VERTEX
  5
2D4
330
2BF
100
AcDbEntity
  8
001
 62
   253
370
    50
100
AcDbVertex
100
AcDb2dVertex
 10
90.367675
 20
148.559743
 30
0.0
  0
VERTEX
  5
2D5
330
2BF
100
AcDbEntity
  8
001
 62
   253
370
    50
100
AcDbVertex
100
AcDb2dVertex
 10
90.349574
 20
148.631052
 30
0.0
  0
VERTEX
  5
2D6
330
2BF
100
AcDbEntity
  8
001
 62
   253
370
    50
100
AcDbVertex
100
AcDb2dVertex
 10
90.290863
 20
148.848187
 30
0.0
  0
VERTEX
  5
2D7
330
2BF
100
AcDbEntity
  8
001
 62
   253
370
    50
100
AcDbVertex
100
AcDb2dVertex
 10
90.224705
 20
149.064831
 30
0.0
  0
SEQEND
  5
2C0
330
2BF
100
AcDbEntity
  8
001
370
    50
  0
POLYLINE
  5
2D8
330
1F
100
AcDbEntity
  8
001
 62
   253
370
    50
100
AcDb2dPolyline
 66
     1
 10
0.0
 20
0.0
 30
0.0
  0
VERTEX
  5
2DA
330
2D8
100
AcDbEntity
  8
001
 62
   253
370
    50
100
AcDbVertex
100
AcDb2dVertex
 10
89.785363
 20
150.993695
 30
0.0
  0
VERTEX
  5
2DB
330
2D8
100
AcDbEntity
  8
001
 62
   253
370
    50
100
AcDbVertex
100
AcDb2dVertex
 10
89.787184
 20
150.582358
 30
0.0
  0
VERTEX
  5
2DC
330
2D8
100
AcDbEntity
  8
001
 62
   253
370
    50
100
AcDbVertex
100
AcDb2dVertex
 10
89.811336
 20
150.172662
 30
0.0
  0
VERTEX
  5
2DD
330
2D8
100
AcDbEntity
  8
001
 62
   253
370
    50
100
AcDbVertex
100
AcDb2dVertex
 10
89.839103
 20
149.963366
 30
0.0
  0
VERTEX
  5
2DE
330
2D8
100
AcDbEntity
  8
001
 62
   253
370
    50
100
AcDbVertex
100
AcDb2dVertex
 10
89.877999
 20
149.755764
 30
0.0
  0
VERTEX
  5
2DF
330
2D8
100
AcDbEntity
  8
001
 62
   253
370
    50
100
AcDbVertex
100
AcDb2dVertex
 10
89.918355
 20
149.582589
 30
0.0
  0
VERTEX
  5
2E0
330
2D8
100
AcDbEntity
  8
001
 62
   253
370
    50
100
AcDbVertex
100
AcDb2dVertex
 10
89.962421
 20
149.410309
 30
0.0
  0
SEQEND
  5
2D9
330
2D8
100
AcDbEntity
  8
001
370
    50
  0
POLYLINE
  5
2E1
330
1F
100
AcDbEntity
  8
001
 62
   253
370
    50
100
AcDb2dPolyline
 66
     1
 10
0.0
 20
0.0
 30
0.0
  0
VERTEX
  5
2E3
330
2E1
100
AcDbEntity
  8
001
 62
   253
370
    50
100
AcDbVertex
100
AcDb2dVertex
 10
93.785611
 20
155.635684
 30
0.0
  0
VERTEX
  5
2E4
330
2E1
100
AcDbEntity
  8
001
 62
   253
370
    50
100
AcDbVertex
100
AcDb2dVertex
 10
93.441492
 20
155.548292
 30
0.0
  0
VERTEX
  5
2E5
330
2E1
100
AcDbEntity
  8
001
 62
   253
370
    50
100
AcDbVertex
100
AcDb2dVertex
 10
93.102167
 20
155.445991
 30
0.0
  0
VERTEX
  5
2E6
330
2E1
100
AcDbEntity
  8
001
 62
   253
370
    50
100
AcDbVertex
100
AcDb2dVertex
 10
92.716735
 20
155.292457
 30
0.0
  0
VERTEX
  5
2E7
330
2E1
100
AcDbEntity
  8
001
 62
   253
370
    50
100
AcDbVertex
100
AcDb2dVertex
 10
92.346006
 20
155.104526
 30
0.0
  0
VERTEX
  5
2E8
330
2E1
100
AcDbEntity
  8
001
 62
   253
370
    50
100
AcDbVertex
100
AcDb2dVertex
 10
91.981811
 20
154.88087
 30
0.0
  0
VERTEX
  5
2E9
330
2E1
100
AcDbEntity
  8
001
 62
   253
370
    50
100
AcDbVertex
100
AcDb2dVertex
 10
91.637944
 20
154.627694
 30
0.0
  0
VERTEX
  5
2EA
330
2E1
100
AcDbEntity
  8
001
 62
   253
370
    50
100
AcDbVertex
100
AcDb2dVertex
 10
91.325743
 20
154.353633
 30
0.0
  0
VERTEX
  5
2EB
330
2E1
100
AcDbEntity
  8
001
 62
   253
370
    50
100
AcDbVertex
100
AcDb2dVertex
 10
91.037475
 20
154.05425
 30
0.0
  0
VERTEX
  5
2EC
330
2E1
100
AcDbEntity
  8
001
 62
   253
370
    50
100
AcDbVertex
100
AcDb2dVertex
 10
90.767718
 20
153.722253
 30
0.0
  0
VERTEX
  5
2ED
330
2E1
100
AcDbEntity
  8
001
 62
   253
370
    50
100
AcDbVertex
100
AcDb2dVertex
 10
90.527528
 20
153.368504
 30
0.0
  0
VERTEX
  5
2EE
330
2E1
100
AcDbEntity
  8
001
 62
   253
370
    50
100
AcDbVertex
100
AcDb2dVertex
 10
90.324605
 20
153.006993
 30
0.0
  0
VERTEX
  5
2EF
330
2E1
100
AcDbEntity
  8
001
 62
   253
370
    50
100
AcDbVertex
100
AcDb2dVertex
 10
90.151358
 20
152.629935
 30
0.0
  0
VERTEX
  5
2F0
330
2E1
100
AcDbEntity
  8
001
 62
   253
370
    50
100
AcDbVertex
100
AcDb2dVertex
 10
90.004994
 20
152.228512
 30
0.0
  0
VERTEX
  5
2F1
330
2E1
100
AcDbEntity
  8
001
 62
   253
370
    50
100
AcDbVertex
100
AcDb2dVertex
 10
89.896832
 20
151.816065
 30
0.0
  0
VERTEX
  5
2F2
330
2E1
100
AcDbEntity
  8
001
 62
   253
370
    50
100
AcDbVertex
100
AcDb2dVertex
 10
89.830363
 20
151.406862
 30
0.0
  0
VERTEX
  5
2F3
330
2E1
100
AcDbEntity
  8
001
 62
   253
370
    50
100
AcDbVertex
100
AcDb2dVertex
 10
89.785363
 20
150.993695
 30
0.0
  0
SEQEND
  5
2E2
330
2E1
100
AcDbEntity
  8
001
370
    50
  0
POLYLINE
  5
2F4
330
1F
100
AcDbEntity
  8
001
 62
   253
370
    50
100
AcDb2dPolyline
 66
     1
 10
0.0
 20
0.0
 30
0.0
  0
VERTEX
  5
2F6
330
2F4
100
AcDbEntity
  8
001
 62
   253
370
    50
100
AcDbVertex
100
AcDb2dVertex
 10
74.962966
 20
149.4084
 30
0.0
  0
VERTEX
  5
2F7
330
2F4
100
AcDbEntity
  8
001
 62
   253
370
    50
100
AcDbVertex
100
AcDb2dVertex
 10
74.971991
 20
149.377385
 30
0.0
  0
VERTEX
  5
2F8
330
2F4
100
AcDbEntity
  8
001
 62
   253
370
    50
100
AcDbVertex
100
AcDb2dVertex
 10
74.981123
 20
149.346406
 30
0.0
  0
VERTEX
  5
2F9
330
2F4
100
AcDbEntity
  8
001
 62
   253
370
    50
100
AcDbVertex
100
AcDb2dVertex
 10
75.043021
 20
149.154255
 30
0.0
  0
VERTEX
  5
2FA
330
2F4
100
AcDbEntity
  8
001
 62
   253
370
    50
100
AcDbVertex
100
AcDb2dVertex
 10
75.113882
 20
148.964847
 30
0.0
  0
VERTEX
  5
2FB
330
2F4
100
AcDbEntity
  8
001
 62
   253
370
    50
100
AcDbVertex
100
AcDb2dVertex
 10
75.194332
 20
148.779173
 30
0.0
  0
VERTEX
  5
2FC
330
2F4
100
AcDbEntity
  8
001
 62
   253
370
    50
100
AcDbVertex
100
AcDb2dVertex
 10
75.2857
 20
148.600164
 30
0.0
  0
VERTEX
  5
2FD
330
2F4
100
AcDbEntity
  8
001
 62
   253
370
    50
100
AcDbVertex
100
AcDb2dVertex
 10
75.310308
 20
148.557103
 30
0.0
  0
VERTEX
  5
2FE
330
2F4
100
AcDbEntity
  8
001
 62
   253
370
    50
100
AcDbVertex
100
AcDb2dVertex
 10
75.336284
 20
148.513878
 30
0.0
  0
VERTEX
  5
2FF
330
2F4
100
AcDbEntity
  8
001
 62
   253
370
    50
100
AcDbVertex
100
AcDb2dVertex
 10
75.349911
 20
148.492398
 30
0.0
  0
VERTEX
  5
300
330
2F4
100
AcDbEntity
  8
001
 62
   253
370
    50
100
AcDbVertex
100
AcDb2dVertex
 10
75.364118
 20
148.472626
 30
0.0
  0
VERTEX
  5
301
330
2F4
100
AcDbEntity
  8
001
 62
   253
370
    50
100
AcDbVertex
100
AcDb2dVertex
 10
75.371466
 20
148.463669
 30
0.0
  0
VERTEX
  5
302
330
2F4
100
AcDbEntity
  8
001
 62
   253
370
    50
100
AcDbVertex
100
AcDb2dVertex
 10
75.379464
 20
148.453386
 30
0.0
  0
VERTEX
  5
303
330
2F4
100
AcDbEntity
  8
001
 62
   253
370
    50
100
AcDbVertex
100
AcDb2dVertex
 10
75.385323
 20
148.445779
 30
0.0
  0
VERTEX
  5
304
330
2F4
100
AcDbEntity
  8
001
 62
   253
370
    50
100
AcDbVertex
100
AcDb2dVertex
 10
75.391479
 20
148.442281
 30
0.0
  0
VERTEX
  5
305
330
2F4
100
AcDbEntity
  8
001
 62
   253
370
    50
100
AcDbVertex
100
AcDb2dVertex
 10
75.397005
 20
148.446094
 30
0.0
  0
VERTEX
  5
306
330
2F4
100
AcDbEntity
  8
001
 62
   253
370
    50
100
AcDbVertex
100
AcDb2dVertex
 10
75.401155
 20
148.453785
 30
0.0
  0
VERTEX
  5
307
330
2F4
100
AcDbEntity
  8
001
 62
   253
370
    50
100
AcDbVertex
100
AcDb2dVertex
 10
75.401526
 20
148.472399
 30
0.0
  0
VERTEX
  5
308
330
2F4
100
AcDbEntity
  8
001
 62
   253
370
    50
100
AcDbVertex
100
AcDb2dVertex
 10
75.394108
 20
148.489603
 30
0.0
  0
VERTEX
  5
309
330
2F4
100
AcDbEntity
  8
001
 62
   253
370
    50
100
AcDbVertex
100
AcDb2dVertex
 10
75.367675
 20
148.559743
 30
0.0
  0
VERTEX
  5
30A
330
2F4
100
AcDbEntity
  8
001
 62
   253
370
    50
100
AcDbVertex
100
AcDb2dVertex
 10
75.349574
 20
148.631052
 30
0.0
  0
VERTEX
  5
30B
330
2F4
100
AcDbEntity
  8
001
 62
   253
370
    50
100
AcDbVertex
100
AcDb2dVertex
 10
75.290863
 20
148.848187
 30
0.0
  0
VERTEX
  5
30C
330
2F4
100
AcDbEntity
  8
001
 62
   253
370
    50
100
AcDbVertex
100
AcDb2dVertex
 10
75.224705
 20
149.064831
 30
0.0
  0
SEQEND
  5
2F5
330
2F4
100
AcDbEntity
  8
001
370
    50
  0
POLYLINE
  5
30D
330
1F
100
AcDbEntity
  8
001
 62
   253
370
    50
100
AcDb2dPolyline
 66
     1
 10
0.0
 20
0.0
 30
0.0
  0
VERTEX
  5
30F
330
30D
100
AcDbEntity
  8
001
 62
   253
370
    50
100
AcDbVertex
100
AcDb2dVertex
 10
74.785363
 20
150.993695
 30
0.0
  0
VERTEX
  5
310
330
30D
100
AcDbEntity
  8
001
 62
   253
370
    50
100
AcDbVertex
100
AcDb2dVertex
 10
74.782094
 20
150.715445
 30
0.0
  0
VERTEX
  5
311
330
30D
100
AcDbEntity
  8
001
 62
   253
370
    50
100
AcDbVertex
100
AcDb2dVertex
 10
74.788211
 20
150.437419
 30
0.0
  0
VERTEX
  5
312
330
30D
100
AcDbEntity
  8
001
 62
   253
370
    50
100
AcDbVertex
100
AcDb2dVertex
 10
74.811499
 20
150.160307
 30
0.0
  0
VERTEX
  5
313
330
30D
100
AcDbEntity
  8
001
 62
   253
370
    50
100
AcDbVertex
100
AcDb2dVertex
 10
74.853457
 20
149.885403
 30
0.0
  0
VERTEX
  5
314
330
30D
100
AcDbEntity
  8
001
 62
   253
370
    50
100
AcDbVertex
100
AcDb2dVertex
 10
74.904607
 20
149.646132
 30
0.0
  0
VERTEX
  5
315
330
30D
100
AcDbEntity
  8
001
 62
   253
370
    50
100
AcDbVertex
100
AcDb2dVertex
 10
74.962966
 20
149.4084
 30
0.0
  0
SEQEND
  5
30E
330
30D
100
AcDbEntity
  8
001
370
    50
  0
POLYLINE
  5
316
330
1F
100
AcDbEntity
  8
001
 62
   253
370
    50
100
AcDb2dPolyline
 66
     1
 10
0.0
 20
0.0
 30
0.0
  0
VERTEX
  5
318
330
316
100
AcDbEntity
  8
001
 62
   253
370
    50
100
AcDbVertex
100
AcDb2dVertex
 10
96.816335
 20
146.013668
 30
0.0
  0
VERTEX
  5
319
330
316
100
AcDbEntity
  8
001
 62
   253
370
    50
100
AcDbVertex
100
AcDb2dVertex
 10
97.139866
 20
146.125785
 30
0.0
  0
VERTEX
  5
31A
330
316
100
AcDbEntity
  8
001
 62
   253
370
    50
100
AcDbVertex
100
AcDb2dVertex
 10
97.458952
 20
146.248953
 30
0.0
  0
VERTEX
  5
31B
330
316
100
AcDbEntity
  8
001
 62
   253
370
    50
100
AcDbVertex
100
AcDb2dVertex
 10
97.770171
 20
146.391996
 30
0.0
  0
VERTEX
  5
31C
330
316
100
AcDbEntity
  8
001
 62
   253
370
    50
100
AcDbVertex
100
AcDb2dVertex
 10
98.072331
 20
146.55395
 30
0.0
  0
VERTEX
  5
31D
330
316
100
AcDbEntity
  8
001
 62
   253
370
    50
100
AcDbVertex
100
AcDb2dVertex
 10
98.363563
 20
146.731306
 30
0.0
  0
VERTEX
  5
31E
330
316
100
AcDbEntity
  8
001
 62
   253
370
    50
100
AcDbVertex
100
AcDb2dVertex
 10
98.644016
 20
146.92499
 30
0.0
  0
VERTEX
  5
31F
330
316
100
AcDbEntity
  8
001
 62
   253
370
    50
100
AcDbVertex
100
AcDb2dVertex
 10
98.910551
 20
147.134205
 30
0.0
  0
VERTEX
  5
320
330
316
100
AcDbEntity
  8
001
 62
   253
370
    50
100
AcDbVertex
100
AcDb2dVertex
 10
99.163776
 20
147.359444
 30
0.0
  0
VERTEX
  5
321
330
316
100
AcDbEntity
  8
001
 62
   253
370
    50
100
AcDbVertex
100
AcDb2dVertex
 10
99.403495
 20
147.600803
 30
0.0
  0
VERTEX
  5
322
330
316
100
AcDbEntity
  8
001
 62
   253
370
    50
100
AcDbVertex
100
AcDb2dVertex
 10
99.627418
 20
147.856862
 30
0.0
  0
VERTEX
  5
323
330
316
100
AcDbEntity
  8
001
 62
   253
370
    50
100
AcDbVertex
100
AcDb2dVertex
 10
99.833441
 20
148.126128
 30
0.0
  0
VERTEX
  5
324
330
316
100
AcDbEntity
  8
001
 62
   253
370
    50
100
AcDbVertex
100
AcDb2dVertex
 10
100.020635
 20
148.4088
 30
0.0
  0
VERTEX
  5
325
330
316
100
AcDbEntity
  8
001
 62
   253
370
    50
100
AcDbVertex
100
AcDb2dVertex
 10
100.205994
 20
148.740381
 30
0.0
  0
VERTEX
  5
326
330
316
100
AcDbEntity
  8
001
 62
   253
370
    50
100
AcDbVertex
100
AcDb2dVertex
 10
100.36425
 20
149.085817
 30
0.0
  0
VERTEX
  5
327
330
316
100
AcDbEntity
  8
001
 62
   253
370
    50
100
AcDbVertex
100
AcDb2dVertex
 10
100.494259
 20
149.443752
 30
0.0
  0
VERTEX
  5
328
330
316
100
AcDbEntity
  8
001
 62
   253
370
    50
100
AcDbVertex
100
AcDb2dVertex
 10
100.593573
 20
149.81129
 30
0.0
  0
VERTEX
  5
329
330
316
100
AcDbEntity
  8
001
 62
   253
370
    50
100
AcDbVertex
100
AcDb2dVertex
 10
100.66065
 20
150.188362
 30
0.0
  0
VERTEX
  5
32A
330
316
100
AcDbEntity
  8
001
 62
   253
370
    50
100
AcDbVertex
100
AcDb2dVertex
 10
100.694586
 20
150.569953
 30
0.0
  0
VERTEX
  5
32B
330
316
100
AcDbEntity
  8
001
 62
   253
370
    50
100
AcDbVertex
100
AcDb2dVertex
 10
100.695419
 20
150.953203
 30
0.0
  0
VERTEX
  5
32C
330
316
100
AcDbEntity
  8
001
 62
   253
370
    50
100
AcDbVertex
100
AcDb2dVertex
 10
100.662597
 20
151.334929
 30
0.0
  0
VERTEX
  5
32D
330
316
100
AcDbEntity
  8
001
 62
   253
370
    50
100
AcDbVertex
100
AcDb2dVertex
 10
100.601526
 20
151.686449
 30
0.0
  0
VERTEX
  5
32E
330
316
100
AcDbEntity
  8
001
 62
   253
370
    50
100
AcDbVertex
100
AcDb2dVertex
 10
100.512277
 20
152.031952
 30
0.0
  0
VERTEX
  5
32F
330
316
100
AcDbEntity
  8
001
 62
   253
370
    50
100
AcDbVertex
100
AcDb2dVertex
 10
100.396563
 20
152.368773
 30
0.0
  0
VERTEX
  5
330
330
316
100
AcDbEntity
  8
001
 62
   253
370
    50
100
AcDbVertex
100
AcDb2dVertex
 10
100.255173
 20
152.695594
 30
0.0
  0
VERTEX
  5
331
330
316
100
AcDbEntity
  8
001
 62
   253
370
    50
100
AcDbVertex
100
AcDb2dVertex
 10
100.082423
 20
153.022154
 30
0.0
  0
VERTEX
  5
332
330
316
100
AcDbEntity
  8
001
 62
   253
370
    50
100
AcDbVertex
100
AcDb2dVertex
 10
99.88514
 20
153.334575
 30
0.0
  0
VERTEX
  5
333
330
316
100
AcDbEntity
  8
001
 62
   253
370
    50
100
AcDbVertex
100
AcDb2dVertex
 10
99.665795
 20
153.631162
 30
0.0
  0
VERTEX
  5
334
330
316
100
AcDbEntity
  8
001
 62
   253
370
    50
100
AcDbVertex
100
AcDb2dVertex
 10
99.425711
 20
153.911191
 30
0.0
  0
VERTEX
  5
335
330
316
100
AcDbEntity
  8
001
 62
   253
370
    50
100
AcDbVertex
100
AcDb2dVertex
 10
99.131819
 20
154.206007
 30
0.0
  0
VERTEX
  5
336
330
316
100
AcDbEntity
  8
001
 62
   253
370
    50
100
AcDbVertex
100
AcDb2dVertex
 10
98.816193
 20
154.477567
 30
0.0
  0
VERTEX
  5
337
330
316
100
AcDbEntity
  8
001
 62
   253
370
    50
100
AcDbVertex
100
AcDb2dVertex
 10
98.48114
 20
154.725446
 30
0.0
  0
VERTEX
  5
338
330
316
100
AcDbEntity
  8
001
 62
   253
370
    50
100
AcDbVertex
100
AcDb2dVertex
 10
98.129183
 20
154.948511
 30
0.0
  0
VERTEX
  5
339
330
316
100
AcDbEntity
  8
001
 62
   253
370
    50
100
AcDbVertex
100
AcDb2dVertex
 10
97.851204
 20
155.101222
 30
0.0
  0
VERTEX
  5
33A
330
316
100
AcDbEntity
  8
001
 62
   253
370
    50
100
AcDbVertex
100
AcDb2dVertex
 10
97.56559
 20
155.239085
 30
0.0
  0
VERTEX
  5
33B
330
316
100
AcDbEntity
  8
001
 62
   253
370
    50
100
AcDbVertex
100
AcDb2dVertex
 10
97.271885
 20
155.362657
 30
0.0
  0
VERTEX
  5
33C
330
316
100
AcDbEntity
  8
001
 62
   253
370
    50
100
AcDbVertex
100
AcDb2dVertex
 10
96.972285
 20
155.471163
 30
0.0
  0
VERTEX
  5
33D
330
316
100
AcDbEntity
  8
001
 62
   253
370
    50
100
AcDbVertex
100
AcDb2dVertex
 10
96.66783
 20
155.564417
 30
0.0
  0
VERTEX
  5
33E
330
316
100
AcDbEntity
  8
001
 62
   253
370
    50
100
AcDbVertex
100
AcDb2dVertex
 10
96.359088
 20
155.642345
 30
0.0
  0
VERTEX
  5
33F
330
316
100
AcDbEntity
  8
001
 62
   253
370
    50
100
AcDbVertex
100
AcDb2dVertex
 10
96.020696
 20
155.709265
 30
0.0
  0
VERTEX
  5
340
330
316
100
AcDbEntity
  8
001
 62
   253
370
    50
100
AcDbVertex
100
AcDb2dVertex
 10
95.679171
 20
155.757733
 30
0.0
  0
VERTEX
  5
341
330
316
100
AcDbEntity
  8
001
 62
   253
370
    50
100
AcDbVertex
100
AcDb2dVertex
 10
95.334126
 20
155.787901
 30
0.0
  0
VERTEX
  5
342
330
316
100
AcDbEntity
  8
001
 62
   253
370
    50
100
AcDbVertex
100
AcDb2dVertex
 10
94.988055
 20
155.800959
 30
0.0
  0
VERTEX
  5
343
330
316
100
AcDbEntity
  8
001
 62
   253
370
    50
100
AcDbVertex
100
AcDb2dVertex
 10
94.961034
 20
155.801318
 30
0.0
  0
VERTEX
  5
344
330
316
100
AcDbEntity
  8
001
 62
   253
370
    50
100
AcDbVertex
100
AcDb2dVertex
 10
94.934015
 20
155.80163
 30
0.0
  0
SEQEND
  5
317
330
316
100
AcDbEntity
  8
001
370
    50
  0
LINE
  5
345
330
1F
100
AcDbEntity
  8
001
 62
   253
370
    50
100
AcDbLine
 10
94.934015
 20
155.80163
 30
0.0
 11
94.779926
 21
155.800007
 31
0.0
  0
POLYLINE
  5
346
330
1F
100
AcDbEntity
  8
001
 62
   253
370
    50
100
AcDb2dPolyline
 66
     1
 10
0.0
 20
0.0
 30
0.0
  0
VERTEX
  5
348
330
346
100
AcDbEntity
  8
001
 62
   253
370
    50
100
AcDbVertex
100
AcDb2dVertex
 10
94.779926
 20
155.800007
 30
0.0
  0
VERTEX
  5
349
330
346
100
AcDbEntity
  8
001
 62
   253
370
    50
100
AcDbVertex
100
AcDb2dVertex
 10
94.53888
 20
155.788475
 30
0.0
  0
VERTEX
  5
34A
330
346
100
AcDbEntity
  8
001
 62
   253
370
    50
100
AcDbVertex
100
AcDb2dVertex
 10
94.298268
 20
155.771463
 30
0.0
  0
VERTEX
  5
34B
330
346
100
AcDbEntity
  8
001
 62
   253
370
    50
100
AcDbVertex
100
AcDb2dVertex
 10
93.949413
 20
155.728881
 30
0.0
  0
VERTEX
  5
34C
330
346
100
AcDbEntity
  8
001
 62
   253
370
    50
100
AcDbVertex
100
AcDb2dVertex
 10
93.603418
 20
155.66592
 30
0.0
  0
VERTEX
  5
34D
330
346
100
AcDbEntity
  8
001
 62
   253
370
    50
100
AcDbVertex
100
AcDb2dVertex
 10
93.260794
 20
155.58474
 30
0.0
  0
VERTEX
  5
34E
330
346
100
AcDbEntity
  8
001
 62
   253
370
    50
100
AcDbVertex
100
AcDb2dVertex
 10
92.923094
 20
155.485396
 30
0.0
  0
VERTEX
  5
34F
330
346
100
AcDbEntity
  8
001
 62
   253
370
    50
100
AcDbVertex
100
AcDb2dVertex
 10
92.593166
 20
155.368072
 30
0.0
  0
VERTEX
  5
350
330
346
100
AcDbEntity
  8
001
 62
   253
370
    50
100
AcDbVertex
100
AcDb2dVertex
 10
92.270401
 20
155.232213
 30
0.0
  0
VERTEX
  5
351
330
346
100
AcDbEntity
  8
001
 62
   253
370
    50
100
AcDbVertex
100
AcDb2dVertex
 10
91.958102
 20
155.079014
 30
0.0
  0
VERTEX
  5
352
330
346
100
AcDbEntity
  8
001
 62
   253
370
    50
100
AcDbVertex
100
AcDb2dVertex
 10
91.655199
 20
154.907995
 30
0.0
  0
VERTEX
  5
353
330
346
100
AcDbEntity
  8
001
 62
   253
370
    50
100
AcDbVertex
100
AcDb2dVertex
 10
91.362293
 20
154.71922
 30
0.0
  0
VERTEX
  5
354
330
346
100
AcDbEntity
  8
001
 62
   253
370
    50
100
AcDbVertex
100
AcDb2dVertex
 10
91.081154
 20
154.513311
 30
0.0
  0
VERTEX
  5
355
330
346
100
AcDbEntity
  8
001
 62
   253
370
    50
100
AcDbVertex
100
AcDb2dVertex
 10
90.814323
 20
154.291628
 30
0.0
  0
VERTEX
  5
356
330
346
100
AcDbEntity
  8
001
 62
   253
370
    50
100
AcDbVertex
100
AcDb2dVertex
 10
90.56213
 20
154.053471
 30
0.0
  0
VERTEX
  5
357
330
346
100
AcDbEntity
  8
001
 62
   253
370
    50
100
AcDbVertex
100
AcDb2dVertex
 10
90.339163
 20
153.814047
 30
0.0
  0
VERTEX
  5
358
330
346
100
AcDbEntity
  8
001
 62
   253
370
    50
100
AcDbVertex
100
AcDb2dVertex
 10
90.131721
 20
153.561043
 30
0.0
  0
VERTEX
  5
359
330
346
100
AcDbEntity
  8
001
 62
   253
370
    50
100
AcDbVertex
100
AcDb2dVertex
 10
89.939831
 20
153.29391
 30
0.0
  0
VERTEX
  5
35A
330
346
100
AcDbEntity
  8
001
 62
   253
370
    50
100
AcDbVertex
100
AcDb2dVertex
 10
89.765793
 20
153.014797
 30
0.0
  0
VERTEX
  5
35B
330
346
100
AcDbEntity
  8
001
 62
   253
370
    50
100
AcDbVertex
100
AcDb2dVertex
 10
89.611324
 20
152.725423
 30
0.0
  0
VERTEX
  5
35C
330
346
100
AcDbEntity
  8
001
 62
   253
370
    50
100
AcDbVertex
100
AcDb2dVertex
 10
89.477588
 20
152.425971
 30
0.0
  0
VERTEX
  5
35D
330
346
100
AcDbEntity
  8
001
 62
   253
370
    50
100
AcDbVertex
100
AcDb2dVertex
 10
89.380704
 20
152.162268
 30
0.0
  0
VERTEX
  5
35E
330
346
100
AcDbEntity
  8
001
 62
   253
370
    50
100
AcDbVertex
100
AcDb2dVertex
 10
89.300486
 20
151.893017
 30
0.0
  0
VERTEX
  5
35F
330
346
100
AcDbEntity
  8
001
 62
   253
370
    50
100
AcDbVertex
100
AcDb2dVertex
 10
89.236794
 20
151.617734
 30
0.0
  0
VERTEX
  5
360
330
346
100
AcDbEntity
  8
001
 62
   253
370
    50
100
AcDbVertex
100
AcDb2dVertex
 10
89.19049
 20
151.339001
 30
0.0
  0
VERTEX
  5
361
330
346
100
AcDbEntity
  8
001
 62
   253
370
    50
100
AcDbVertex
100
AcDb2dVertex
 10
89.162085
 20
151.058879
 30
0.0
  0
VERTEX
  5
362
330
346
100
AcDbEntity
  8
001
 62
   253
370
    50
100
AcDbVertex
100
AcDb2dVertex
 10
89.151984
 20
150.777499
 30
0.0
  0
VERTEX
  5
363
330
346
100
AcDbEntity
  8
001
 62
   253
370
    50
100
AcDbVertex
100
AcDb2dVertex
 10
89.166759
 20
150.412526
 30
0.0
  0
VERTEX
  5
364
330
346
100
AcDbEntity
  8
001
 62
   253
370
    50
100
AcDbVertex
100
AcDb2dVertex
 10
89.212124
 20
150.049944
 30
0.0
  0
VERTEX
  5
365
330
346
100
AcDbEntity
  8
001
 62
   253
370
    50
100
AcDbVertex
100
AcDb2dVertex
 10
89.28683
 20
149.692763
 30
0.0
  0
VERTEX
  5
366
330
346
100
AcDbEntity
  8
001
 62
   253
370
    50
100
AcDbVertex
100
AcDb2dVertex
 10
89.390395
 20
149.342954
 30
0.0
  0
VERTEX
  5
367
330
346
100
AcDbEntity
  8
001
 62
   253
370
    50
100
AcDbVertex
100
AcDb2dVertex
 10
89.520083
 20
149.007573
 30
0.0
  0
VERTEX
  5
368
330
346
100
AcDbEntity
  8
001
 62
   253
370
    50
100
AcDbVertex
100
AcDb2dVertex
 10
89.675426
 20
148.683213
 30
0.0
  0
VERTEX
  5
369
330
346
100
AcDbEntity
  8
001
 62
   253
370
    50
100
AcDbVertex
100
AcDb2dVertex
 10
89.854144
 20
148.372
 30
0.0
  0
VERTEX
  5
36A
330
346
100
AcDbEntity
  8
001
 62
   253
370
    50
100
AcDbVertex
100
AcDb2dVertex
 10
90.055141
 20
148.074725
 30
0.0
  0
VERTEX
  5
36B
330
346
100
AcDbEntity
  8
001
 62
   253
370
    50
100
AcDbVertex
100
AcDb2dVertex
 10
90.300727
 20
147.764895
 30
0.0
  0
VERTEX
  5
36C
330
346
100
AcDbEntity
  8
001
 62
   253
370
    50
100
AcDbVertex
100
AcDb2dVertex
 10
90.569236
 20
147.474614
 30
0.0
  0
VERTEX
  5
36D
330
346
100
AcDbEntity
  8
001
 62
   253
370
    50
100
AcDbVertex
100
AcDb2dVertex
 10
90.85818
 20
147.204792
 30
0.0
  0
VERTEX
  5
36E
330
346
100
AcDbEntity
  8
001
 62
   253
370
    50
100
AcDbVertex
100
AcDb2dVertex
 10
91.165647
 20
146.95632
 30
0.0
  0
VERTEX
  5
36F
330
346
100
AcDbEntity
  8
001
 62
   253
370
    50
100
AcDbVertex
100
AcDb2dVertex
 10
91.538794
 20
146.698576
 30
0.0
  0
VERTEX
  5
370
330
346
100
AcDbEntity
  8
001
 62
   253
370
    50
100
AcDbVertex
100
AcDb2dVertex
 10
91.93085
 20
146.470412
 30
0.0
  0
VERTEX
  5
371
330
346
100
AcDbEntity
  8
001
 62
   253
370
    50
100
AcDbVertex
100
AcDb2dVertex
 10
92.339929
 20
146.271695
 30
0.0
  0
VERTEX
  5
372
330
346
100
AcDbEntity
  8
001
 62
   253
370
    50
100
AcDbVertex
100
AcDb2dVertex
 10
92.762464
 20
146.103761
 30
0.0
  0
VERTEX
  5
373
330
346
100
AcDbEntity
  8
001
 62
   253
370
    50
100
AcDbVertex
100
AcDb2dVertex
 10
93.082857
 20
145.999545
 30
0.0
  0
VERTEX
  5
374
330
346
100
AcDbEntity
  8
001
 62
   253
370
    50
100
AcDbVertex
100
AcDb2dVertex
 10
93.408313
 20
145.912535
 30
0.0
  0
VERTEX
  5
375
330
346
100
AcDbEntity
  8
001
 62
   253
370
    50
100
AcDbVertex
100
AcDb2dVertex
 10
93.73944
 20
145.842331
 30
0.0
  0
VERTEX
  5
376
330
346
100
AcDbEntity
  8
001
 62
   253
370
    50
100
AcDbVertex
100
AcDb2dVertex
 10
94.073779
 20
145.789347
 30
0.0
  0
VERTEX
  5
377
330
346
100
AcDbEntity
  8
001
 62
   253
370
    50
100
AcDbVertex
100
AcDb2dVertex
 10
94.409817
 20
145.753698
 30
0.0
  0
VERTEX
  5
378
330
346
100
AcDbEntity
  8
001
 62
   253
370
    50
100
AcDbVertex
100
AcDb2dVertex
 10
94.747203
 20
145.735691
 30
0.0
  0
VERTEX
  5
379
330
346
100
AcDbEntity
  8
001
 62
   253
370
    50
100
AcDbVertex
100
AcDb2dVertex
 10
95.096526
 20
145.735875
 30
0.0
  0
VERTEX
  5
37A
330
346
100
AcDbEntity
  8
001
 62
   253
370
    50
100
AcDbVertex
100
AcDb2dVertex
 10
95.445513
 20
145.75431
 30
0.0
  0
VERTEX
  5
37B
330
346
100
AcDbEntity
  8
001
 62
   253
370
    50
100
AcDbVertex
100
AcDb2dVertex
 10
95.794045
 20
145.790669
 30
0.0
  0
VERTEX
  5
37C
330
346
100
AcDbEntity
  8
001
 62
   253
370
    50
100
AcDbVertex
100
AcDb2dVertex
 10
96.139533
 20
145.847376
 30
0.0
  0
VERTEX
  5
37D
330
346
100
AcDbEntity
  8
001
 62
   253
370
    50
100
AcDbVertex
100
AcDb2dVertex
 10
96.47917
 20
145.924699
 30
0.0
  0
VERTEX
  5
37E
330
346
100
AcDbEntity
  8
001
 62
   253
370
    50
100
AcDbVertex
100
AcDb2dVertex
 10
96.816335
 20
146.013668
 30
0.0
  0
SEQEND
  5
347
330
346
100
AcDbEntity
  8
001
370
    50
  0
LINE
  5
37F
330
1F
100
AcDbEntity
  8
001
 62
   253
370
    50
100
AcDbLine
 10
101.925887
 20
168.267443
 30
0.0
 11
74.193836
 21
168.267443
 31
0.0
  0
LINE
  5
380
330
1F
100
AcDbEntity
  8
001
 62
   253
370
    50
100
AcDbLine
 10
74.193836
 20
133.267443
 30
0.0
 11
101.925887
 21
133.267443
 31
0.0
  0
LINE
  5
381
330
1F
100
AcDbEntity
  8
001
 62
   253
370
    50
100
AcDbLine
 10
73.693836
 20
168.133469
 30
0.0
 11
67.425887
 21
164.514666
 31
0.0
  0
LINE
  5
382
330
1F
100
AcDbEntity
  8
001
 62
   253
370
    50
100
AcDbLine
 10
67.425887
 20
137.02022
 30
0.0
 11
73.693836
 21
133.401418
 31
0.0
  0
ARC
  5
383
330
1F
100
AcDbEntity
  8
001
 62
   253
370
    50
100
AcDbCircle
 10
67.925887
 20
137.886245
 30
0.0
 40
0.9999999999999983
100
AcDbArc
 50
180.0
 51
240.0
  0
ARC
  5
384
330
1F
100
AcDbEntity
  8
001
 62
   253
370
    50
100
AcDbCircle
 10
67.925887
 20
163.648641
 30
0.0
 40
0.9999999999999983
100
AcDbArc
 50
120.0
 51
180.0
  0
LINE
  5
385
330
1F
100
AcDbEntity
  8
001
 62
   253
370
    50
100
AcDbLine
 10
66.925887
 20
137.886245
 30
0.0
 11
66.925887
 21
163.648641
 31
0.0
  0
ARC
  5
386
330
1F
100
AcDbEntity
  8
001
 62
   253
370
    50
100
AcDbCircle
 10
247.808208
 20
150.767443
 30
0.0
 40
20.0
100
AcDbArc
 50
203.794273
 51
156.205727
  0
LINE
  5
387
330
1F
100
AcDbEntity
  8
001
 62
   253
370
    50
100
AcDbLine
 10
229.508208
 20
142.698366
 30
0.0
 11
229.508208
 21
158.83652
 31
0.0
  0
CIRCLE
  5
388
330
1F
100
AcDbEntity
  8
001
 62
   253
370
    50
100
AcDbCircle
 10
247.808208
 20
150.767443
 30
0.0
 40
10.49999999999999
  0
CIRCLE
  5
389
330
1F
100
AcDbEntity
  8
001
 62
   253
370
    50
100
AcDbCircle
 10
247.808208
 20
150.767443
 30
0.0
 40
9.999999999999993
  0
CIRCLE
  5
38A
330
1F
100
AcDbEntity
  8
001
 62
   253
370
    50
100
AcDbCircle
 10
247.808208
 20
150.767443
 30
0.0
 40
23.5
  0
ARC
  5
38B
330
1F
100
AcDbEntity
  8
001
 62
   253
370
    50
100
AcDbCircle
 10
102.925887
 20
31.448801
 30
0.0
 40
0.9999999999999966
100
AcDbArc
 50
180.0
 51
270.0
  0
ARC
  5
38C
330
1F
100
AcDbEntity
  8
001
 62
   253
370
    50
100
AcDbCircle
 10
102.925887
 20
76.448801
 30
0.0
 40
0.9999999999999966
100
AcDbArc
 50
90.0
 51
180.0
  0
LINE
  5
38D
330
1F
100
AcDbEntity
  8
001
 62
   253
370
    50
100
AcDbLine
 10
101.925887
 20
76.448801
 30
0.0
 11
101.925887
 21
31.448801
 31
0.0
  0
ARC
  5
38E
330
1F
100
AcDbEntity
  8
001
 62
   253
370
    50
100
AcDbCircle
 10
105.925887
 20
76.448801
 30
0.0
 40
1.0
100
AcDbArc
 50
0.0
 51
90.0
  0
ARC
  5
38F
330
1F
100
AcDbEntity
  8
001
 62
   253
370
    50
100
AcDbCircle
 10
105.925887
 20
31.448801
 30
0.0
 40
1.0
100
AcDbArc
 50
270.0
 51
0.0
  0
LINE
  5
390
330
1F
100
AcDbEntity
  8
001
 62
   253
370
    50
100
AcDbLine
 10
106.925887
 20
31.448801
 30
0.0
 11
106.925887
 21
76.448801
 31
0.0
  0
LINE
  5
391
330
1F
100
AcDbEntity
  8
001
 62
   253
370
    50
100
AcDbLine
 10
105.925887
 20
77.448801
 30
0.0
 11
102.925887
 21
77.448801
 31
0.0
  0
LINE
  5
392
330
1F
100
AcDbEntity
  8
001
 62
   253
370
    50
100
AcDbLine
 10
102.925887
 20
30.448801
 30
0.0
 11
105.925887
 21
30.448801
 31
0.0
  0
LINE
  5
393
330
1F
100
AcDbEntity
  8
001
 62
   253
370
    50
100
AcDbLine
 10
109.925887
 20
33.948801
 30
0.0
 11
184.925887
 21
33.948801
 31
0.0
  0
ARC
  5
394
330
1F
100
AcDbEntity
  8
001
 62
   253
370
    50
100
AcDbCircle
 10
184.925887
 20
35.948801
 30
0.0
 40
2.0
100
AcDbArc
 50
270.0
 51
0.0
  0
LINE
  5
395
330
1F
100
AcDbEntity
  8
001
 62
   253
370
    50
100
AcDbLine
 10
186.925887
 20
71.948801
 30
0.0
 11
186.925887
 21
35.948801
 31
0.0
  0
LINE
  5
396
330
1F
100
AcDbEntity
  8
001
 62
   253
370
    50
100
AcDbLine
 10
106.925887
 20
34.448801
 30
0.0
 11
109.925887
 21
34.448801
 31
0.0
  0
LINE
  5
397
330
1F
100
AcDbEntity
  8
001
 62
   253
370
    50
100
AcDbLine
 10
186.925887
 20
71.948801
 30
0.0
 11
106.925887
 21
71.948801
 31
0.0
  0
POLYLINE
  5
398
330
1F
100
AcDbEntity
  8
001
 62
   253
370
    50
100
AcDb2dPolyline
 66
     1
 10
0.0
 20
0.0
 30
0.0
  0
VERTEX
  5
39A
330
398
100
AcDbEntity
  8
001
 62
   253
370
    50
100
AcDbVertex
100
AcDb2dVertex
 10
89.151973
 20
71.448801
 30
0.0
  0
VERTEX
  5
39B
330
398
100
AcDbEntity
  8
001
 62
   253
370
    50
100
AcDbVertex
100
AcDb2dVertex
 10
89.180898
 20
71.441648
 30
0.0
  0
VERTEX
  5
39C
330
398
100
AcDbEntity
  8
001
 62
   253
370
    50
100
AcDbVertex
100
AcDb2dVertex
 10
89.209828
 20
71.434511
 30
0.0
  0
VERTEX
  5
39D
330
398
100
AcDbEntity
  8
001
 62
   253
370
    50
100
AcDbVertex
100
AcDb2dVertex
 10
89.300074
 20
71.412466
 30
0.0
  0
VERTEX
  5
39E
330
398
100
AcDbEntity
  8
001
 62
   253
370
    50
100
AcDbVertex
100
AcDb2dVertex
 10
89.390395
 20
71.390729
 30
0.0
  0
VERTEX
  5
39F
330
398
100
AcDbEntity
  8
001
 62
   253
370
    50
100
AcDbVertex
100
AcDb2dVertex
 10
89.530741
 20
71.357563
 30
0.0
  0
VERTEX
  5
3A0
330
398
100
AcDbEntity
  8
001
 62
   253
370
    50
100
AcDbVertex
100
AcDb2dVertex
 10
89.671254
 20
71.325111
 30
0.0
  0
VERTEX
  5
3A1
330
398
100
AcDbEntity
  8
001
 62
   253
370
    50
100
AcDbVertex
100
AcDb2dVertex
 10
89.863044
 20
71.282061
 30
0.0
  0
VERTEX
  5
3A2
330
398
100
AcDbEntity
  8
001
 62
   253
370
    50
100
AcDbVertex
100
AcDb2dVertex
 10
90.055141
 20
71.240397
 30
0.0
  0
VERTEX
  5
3A3
330
398
100
AcDbEntity
  8
001
 62
   253
370
    50
100
AcDbVertex
100
AcDb2dVertex
 10
90.30884
 20
71.187621
 30
0.0
  0
VERTEX
  5
3A4
330
398
100
AcDbEntity
  8
001
 62
   253
370
    50
100
AcDbVertex
100
AcDb2dVertex
 10
90.563046
 20
71.137343
 30
0.0
  0
VERTEX
  5
3A5
330
398
100
AcDbEntity
  8
001
 62
   253
370
    50
100
AcDbVertex
100
AcDb2dVertex
 10
90.864017
 20
71.081233
 30
0.0
  0
VERTEX
  5
3A6
330
398
100
AcDbEntity
  8
001
 62
   253
370
    50
100
AcDbVertex
100
AcDb2dVertex
 10
91.165647
 20
71.02877
 30
0.0
  0
VERTEX
  5
3A7
330
398
100
AcDbEntity
  8
001
 62
   253
370
    50
100
AcDbVertex
100
AcDb2dVertex
 10
91.543088
 20
70.968521
 30
0.0
  0
VERTEX
  5
3A8
330
398
100
AcDbEntity
  8
001
 62
   253
370
    50
100
AcDbVertex
100
AcDb2dVertex
 10
91.921438
 20
70.914235
 30
0.0
  0
VERTEX
  5
3A9
330
398
100
AcDbEntity
  8
001
 62
   253
370
    50
100
AcDbVertex
100
AcDb2dVertex
 10
92.341505
 20
70.861241
 30
0.0
  0
VERTEX
  5
3AA
330
398
100
AcDbEntity
  8
001
 62
   253
370
    50
100
AcDbVertex
100
AcDb2dVertex
 10
92.762464
 20
70.815931
 30
0.0
  0
VERTEX
  5
3AB
330
398
100
AcDbEntity
  8
001
 62
   253
370
    50
100
AcDbVertex
100
AcDb2dVertex
 10
93.000532
 20
70.793806
 30
0.0
  0
VERTEX
  5
3AC
330
398
100
AcDbEntity
  8
001
 62
   253
370
    50
100
AcDbVertex
100
AcDb2dVertex
 10
93.238819
 20
70.774198
 30
0.0
  0
VERTEX
  5
3AD
330
398
100
AcDbEntity
  8
001
 62
   253
370
    50
100
AcDbVertex
100
AcDb2dVertex
 10
93.482322
 20
70.75679
 30
0.0
  0
VERTEX
  5
3AE
330
398
100
AcDbEntity
  8
001
 62
   253
370
    50
100
AcDbVertex
100
AcDb2dVertex
 10
93.726002
 20
70.742059
 30
0.0
  0
VERTEX
  5
3AF
330
398
100
AcDbEntity
  8
001
 62
   253
370
    50
100
AcDbVertex
100
AcDb2dVertex
 10
93.980076
 20
70.729593
 30
0.0
  0
VERTEX
  5
3B0
330
398
100
AcDbEntity
  8
001
 62
   253
370
    50
100
AcDbVertex
100
AcDb2dVertex
 10
94.234278
 20
70.720069
 30
0.0
  0
VERTEX
  5
3B1
330
398
100
AcDbEntity
  8
001
 62
   253
370
    50
100
AcDbVertex
100
AcDb2dVertex
 10
94.49071
 20
70.713436
 30
0.0
  0
VERTEX
  5
3B2
330
398
100
AcDbEntity
  8
001
 62
   253
370
    50
100
AcDbVertex
100
AcDb2dVertex
 10
94.747203
 20
70.709812
 30
0.0
  0
VERTEX
  5
3B3
330
398
100
AcDbEntity
  8
001
 62
   253
370
    50
100
AcDbVertex
100
AcDb2dVertex
 10
95.005792
 20
70.709227
 30
0.0
  0
VERTEX
  5
3B4
330
398
100
AcDbEntity
  8
001
 62
   253
370
    50
100
AcDbVertex
100
AcDb2dVertex
 10
95.264368
 20
70.71173
 30
0.0
  0
VERTEX
  5
3B5
330
398
100
AcDbEntity
  8
001
 62
   253
370
    50
100
AcDbVertex
100
AcDb2dVertex
 10
95.521839
 20
70.717275
 30
0.0
  0
VERTEX
  5
3B6
330
398
100
AcDbEntity
  8
001
 62
   253
370
    50
100
AcDbVertex
100
AcDb2dVertex
 10
95.779233
 20
70.725773
 30
0.0
  0
VERTEX
  5
3B7
330
398
100
AcDbEntity
  8
001
 62
   253
370
    50
100
AcDbVertex
100
AcDb2dVertex
 10
96.041086
 20
70.737436
 30
0.0
  0
VERTEX
  5
3B8
330
398
100
AcDbEntity
  8
001
 62
   253
370
    50
100
AcDbVertex
100
AcDb2dVertex
 10
96.302756
 20
70.752508
 30
0.0
  0
VERTEX
  5
3B9
330
398
100
AcDbEntity
  8
001
 62
   253
370
    50
100
AcDbVertex
100
AcDb2dVertex
 10
96.559609
 20
70.7707
 30
0.0
  0
VERTEX
  5
3BA
330
398
100
AcDbEntity
  8
001
 62
   253
370
    50
100
AcDbVertex
100
AcDb2dVertex
 10
96.816335
 20
70.790762
 30
0.0
  0
SEQEND
  5
399
330
398
100
AcDbEntity
  8
001
370
    50
  0
LINE
  5
3BB
330
1F
100
AcDbEntity
  8
001
 62
   253
370
    50
100
AcDbLine
 10
89.152795
 20
71.448801
 30
0.0
 11
85.684698
 21
71.448801
 31
0.0
  0
LINE
  5
3BC
330
1F
100
AcDbEntity
  8
001
 62
   253
370
    50
100
AcDbLine
 10
101.925887
 20
71.448801
 30
0.0
 11
100.686033
 21
71.448801
 31
0.0
  0
LINE
  5
3BD
330
1F
100
AcDbEntity
  8
001
 62
   253
370
    50
100
AcDbLine
 10
74.193836
 20
36.448801
 30
0.0
 11
101.925887
 21
36.448801
 31
0.0
  0
POLYLINE
  5
3BE
330
1F
100
AcDbEntity
  8
001
 62
   253
370
    50
100
AcDb2dPolyline
 66
     1
 10
0.0
 20
0.0
 30
0.0
  0
VERTEX
  5
3C0
330
3BE
100
AcDbEntity
  8
001
 62
   253
370
    50
100
AcDbVertex
100
AcDb2dVertex
 10
74.193836
 20
71.438449
 30
0.0
  0
VERTEX
  5
3C1
330
3BE
100
AcDbEntity
  8
001
 62
   253
370
    50
100
AcDbVertex
100
AcDb2dVertex
 10
74.251548
 20
71.42431
 30
0.0
  0
VERTEX
  5
3C2
330
3BE
100
AcDbEntity
  8
001
 62
   253
370
    50
100
AcDbVertex
100
AcDb2dVertex
 10
74.309279
 20
71.410244
 30
0.0
  0
VERTEX
  5
3C3
330
3BE
100
AcDbEntity
  8
001
 62
   253
370
    50
100
AcDbVertex
100
AcDb2dVertex
 10
74.403833
 20
71.387506
 30
0.0
  0
VERTEX
  5
3C4
330
3BE
100
AcDbEntity
  8
001
 62
   253
370
    50
100
AcDbVertex
100
AcDb2dVertex
 10
74.498472
 20
71.365118
 30
0.0
  0
VERTEX
  5
3C5
330
3BE
100
AcDbEntity
  8
001
 62
   253
370
    50
100
AcDbVertex
100
AcDb2dVertex
 10
74.662246
 20
71.327176
 30
0.0
  0
VERTEX
  5
3C6
330
3BE
100
AcDbEntity
  8
001
 62
   253
370
    50
100
AcDbVertex
100
AcDb2dVertex
 10
74.826245
 20
71.290211
 30
0.0
  0
VERTEX
  5
3C7
330
3BE
100
AcDbEntity
  8
001
 62
   253
370
    50
100
AcDbVertex
100
AcDb2dVertex
 10
75.040278
 20
71.243565
 30
0.0
  0
VERTEX
  5
3C8
330
3BE
100
AcDbEntity
  8
001
 62
   253
370
    50
100
AcDbVertex
100
AcDb2dVertex
 10
75.254686
 20
71.198669
 30
0.0
  0
VERTEX
  5
3C9
330
3BE
100
AcDbEntity
  8
001
 62
   253
370
    50
100
AcDbVertex
100
AcDb2dVertex
 10
75.534578
 20
71.142844
 30
0.0
  0
VERTEX
  5
3CA
330
3BE
100
AcDbEntity
  8
001
 62
   253
370
    50
100
AcDbVertex
100
AcDb2dVertex
 10
75.81507
 20
71.090104
 30
0.0
  0
VERTEX
  5
3CB
330
3BE
100
AcDbEntity
  8
001
 62
   253
370
    50
100
AcDbVertex
100
AcDb2dVertex
 10
76.141518
 20
71.032827
 30
0.0
  0
VERTEX
  5
3CC
330
3BE
100
AcDbEntity
  8
001
 62
   253
370
    50
100
AcDbVertex
100
AcDb2dVertex
 10
76.468704
 20
70.979914
 30
0.0
  0
VERTEX
  5
3CD
330
3BE
100
AcDbEntity
  8
001
 62
   253
370
    50
100
AcDbVertex
100
AcDb2dVertex
 10
76.871972
 20
70.920983
 30
0.0
  0
VERTEX
  5
3CE
330
3BE
100
AcDbEntity
  8
001
 62
   253
370
    50
100
AcDbVertex
100
AcDb2dVertex
 10
77.276197
 20
70.868976
 30
0.0
  0
VERTEX
  5
3CF
330
3BE
100
AcDbEntity
  8
001
 62
   253
370
    50
100
AcDbVertex
100
AcDb2dVertex
 10
77.720237
 20
70.820118
 30
0.0
  0
VERTEX
  5
3D0
330
3BE
100
AcDbEntity
  8
001
 62
   253
370
    50
100
AcDbVertex
100
AcDb2dVertex
 10
78.165141
 20
70.779973
 30
0.0
  0
VERTEX
  5
3D1
330
3BE
100
AcDbEntity
  8
001
 62
   253
370
    50
100
AcDbVertex
100
AcDb2dVertex
 10
78.411154
 20
70.761603
 30
0.0
  0
VERTEX
  5
3D2
330
3BE
100
AcDbEntity
  8
001
 62
   253
370
    50
100
AcDbVertex
100
AcDb2dVertex
 10
78.657353
 20
70.745953
 30
0.0
  0
VERTEX
  5
3D3
330
3BE
100
AcDbEntity
  8
001
 62
   253
370
    50
100
AcDbVertex
100
AcDb2dVertex
 10
78.907554
 20
70.732852
 30
0.0
  0
VERTEX
  5
3D4
330
3BE
100
AcDbEntity
  8
001
 62
   253
370
    50
100
AcDbVertex
100
AcDb2dVertex
 10
79.157889
 20
70.722602
 30
0.0
  0
VERTEX
  5
3D5
330
3BE
100
AcDbEntity
  8
001
 62
   253
370
    50
100
AcDbVertex
100
AcDb2dVertex
 10
79.41763
 20
70.715016
 30
0.0
  0
VERTEX
  5
3D6
330
3BE
100
AcDbEntity
  8
001
 62
   253
370
    50
100
AcDbVertex
100
AcDb2dVertex
 10
79.677444
 20
70.710518
 30
0.0
  0
VERTEX
  5
3D7
330
3BE
100
AcDbEntity
  8
001
 62
   253
370
    50
100
AcDbVertex
100
AcDb2dVertex
 10
79.93808
 20
70.709094
 30
0.0
  0
VERTEX
  5
3D8
330
3BE
100
AcDbEntity
  8
001
 62
   253
370
    50
100
AcDbVertex
100
AcDb2dVertex
 10
80.198715
 20
70.710787
 30
0.0
  0
VERTEX
  5
3D9
330
3BE
100
AcDbEntity
  8
001
 62
   253
370
    50
100
AcDbVertex
100
AcDb2dVertex
 10
80.462346
 20
70.715692
 30
0.0
  0
VERTEX
  5
3DA
330
3BE
100
AcDbEntity
  8
001
 62
   253
370
    50
100
AcDbVertex
100
AcDb2dVertex
 10
80.7259
 20
70.723776
 30
0.0
  0
VERTEX
  5
3DB
330
3BE
100
AcDbEntity
  8
001
 62
   253
370
    50
100
AcDbVertex
100
AcDb2dVertex
 10
80.986719
 20
70.734879
 30
0.0
  0
VERTEX
  5
3DC
330
3BE
100
AcDbEntity
  8
001
 62
   253
370
    50
100
AcDbVertex
100
AcDb2dVertex
 10
81.247388
 20
70.74907
 30
0.0
  0
VERTEX
  5
3DD
330
3BE
100
AcDbEntity
  8
001
 62
   253
370
    50
100
AcDbVertex
100
AcDb2dVertex
 10
81.511158
 20
70.766593
 30
0.0
  0
VERTEX
  5
3DE
330
3BE
100
AcDbEntity
  8
001
 62
   253
370
    50
100
AcDbVertex
100
AcDb2dVertex
 10
81.774702
 20
70.787239
 30
0.0
  0
VERTEX
  5
3DF
330
3BE
100
AcDbEntity
  8
001
 62
   253
370
    50
100
AcDbVertex
100
AcDb2dVertex
 10
82.031452
 20
70.810331
 30
0.0
  0
VERTEX
  5
3E0
330
3BE
100
AcDbEntity
  8
001
 62
   253
370
    50
100
AcDbVertex
100
AcDb2dVertex
 10
82.287923
 20
70.836332
 30
0.0
  0
VERTEX
  5
3E1
330
3BE
100
AcDbEntity
  8
001
 62
   253
370
    50
100
AcDbVertex
100
AcDb2dVertex
 10
82.515579
 20
70.861872
 30
0.0
  0
VERTEX
  5
3E2
330
3BE
100
AcDbEntity
  8
001
 62
   253
370
    50
100
AcDbVertex
100
AcDb2dVertex
 10
82.742973
 20
70.88966
 30
0.0
  0
VERTEX
  5
3E3
330
3BE
100
AcDbEntity
  8
001
 62
   253
370
    50
100
AcDbVertex
100
AcDb2dVertex
 10
82.961362
 20
70.918461
 30
0.0
  0
VERTEX
  5
3E4
330
3BE
100
AcDbEntity
  8
001
 62
   253
370
    50
100
AcDbVertex
100
AcDb2dVertex
 10
83.179474
 20
70.949288
 30
0.0
  0
VERTEX
  5
3E5
330
3BE
100
AcDbEntity
  8
001
 62
   253
370
    50
100
AcDbVertex
100
AcDb2dVertex
 10
83.392827
 20
70.981432
 30
0.0
  0
VERTEX
  5
3E6
330
3BE
100
AcDbEntity
  8
001
 62
   253
370
    50
100
AcDbVertex
100
AcDb2dVertex
 10
83.605887
 20
71.015467
 30
0.0
  0
VERTEX
  5
3E7
330
3BE
100
AcDbEntity
  8
001
 62
   253
370
    50
100
AcDbVertex
100
AcDb2dVertex
 10
83.805728
 20
71.049124
 30
0.0
  0
VERTEX
  5
3E8
330
3BE
100
AcDbEntity
  8
001
 62
   253
370
    50
100
AcDbVertex
100
AcDb2dVertex
 10
84.005289
 20
71.084399
 30
0.0
  0
VERTEX
  5
3E9
330
3BE
100
AcDbEntity
  8
001
 62
   253
370
    50
100
AcDbVertex
100
AcDb2dVertex
 10
84.182615
 20
71.117137
 30
0.0
  0
VERTEX
  5
3EA
330
3BE
100
AcDbEntity
  8
001
 62
   253
370
    50
100
AcDbVertex
100
AcDb2dVertex
 10
84.359706
 20
71.151122
 30
0.0
  0
VERTEX
  5
3EB
330
3BE
100
AcDbEntity
  8
001
 62
   253
370
    50
100
AcDbVertex
100
AcDb2dVertex
 10
84.520741
 20
71.183131
 30
0.0
  0
VERTEX
  5
3EC
330
3BE
100
AcDbEntity
  8
001
 62
   253
370
    50
100
AcDbVertex
100
AcDb2dVertex
 10
84.681573
 20
71.216142
 30
0.0
  0
VERTEX
  5
3ED
330
3BE
100
AcDbEntity
  8
001
 62
   253
370
    50
100
AcDbVertex
100
AcDb2dVertex
 10
84.829303
 20
71.247379
 30
0.0
  0
VERTEX
  5
3EE
330
3BE
100
AcDbEntity
  8
001
 62
   253
370
    50
100
AcDbVertex
100
AcDb2dVertex
 10
84.976856
 20
71.279445
 30
0.0
  0
VERTEX
  5
3EF
330
3BE
100
AcDbEntity
  8
001
 62
   253
370
    50
100
AcDbVertex
100
AcDb2dVertex
 10
85.102422
 20
71.30741
 30
0.0
  0
VERTEX
  5
3F0
330
3BE
100
AcDbEntity
  8
001
 62
   253
370
    50
100
AcDbVertex
100
AcDb2dVertex
 10
85.227856
 20
71.335957
 30
0.0
  0
VERTEX
  5
3F1
330
3BE
100
AcDbEntity
  8
001
 62
   253
370
    50
100
AcDbVertex
100
AcDb2dVertex
 10
85.313985
 20
71.35591
 30
0.0
  0
VERTEX
  5
3F2
330
3BE
100
AcDbEntity
  8
001
 62
   253
370
    50
100
AcDbVertex
100
AcDb2dVertex
 10
85.40005
 20
71.376137
 30
0.0
  0
VERTEX
  5
3F3
330
3BE
100
AcDbEntity
  8
001
 62
   253
370
    50
100
AcDbVertex
100
AcDb2dVertex
 10
85.467715
 20
71.392244
 30
0.0
  0
VERTEX
  5
3F4
330
3BE
100
AcDbEntity
  8
001
 62
   253
370
    50
100
AcDbVertex
100
AcDb2dVertex
 10
85.535342
 20
71.408513
 30
0.0
  0
VERTEX
  5
3F5
330
3BE
100
AcDbEntity
  8
001
 62
   253
370
    50
100
AcDbVertex
100
AcDb2dVertex
 10
85.5848
 20
71.420515
 30
0.0
  0
VERTEX
  5
3F6
330
3BE
100
AcDbEntity
  8
001
 62
   253
370
    50
100
AcDbVertex
100
AcDb2dVertex
 10
85.634237
 20
71.432609
 30
0.0
  0
VERTEX
  5
3F7
330
3BE
100
AcDbEntity
  8
001
 62
   253
370
    50
100
AcDbVertex
100
AcDb2dVertex
 10
85.661517
 20
71.439327
 30
0.0
  0
VERTEX
  5
3F8
330
3BE
100
AcDbEntity
  8
001
 62
   253
370
    50
100
AcDbVertex
100
AcDb2dVertex
 10
85.688792
 20
71.446073
 30
0.0
  0
VERTEX
  5
3F9
330
3BE
100
AcDbEntity
  8
001
 62
   253
370
    50
100
AcDbVertex
100
AcDb2dVertex
 10
85.694296
 20
71.447437
 30
0.0
  0
VERTEX
  5
3FA
330
3BE
100
AcDbEntity
  8
001
 62
   253
370
    50
100
AcDbVertex
100
AcDb2dVertex
 10
85.6998
 20
71.448801
 30
0.0
  0
SEQEND
  5
3BF
330
3BE
100
AcDbEntity
  8
001
370
    50
  0
POLYLINE
  5
3FB
330
1F
100
AcDbEntity
  8
001
 62
   253
370
    50
100
AcDb2dPolyline
 66
     1
 10
0.0
 20
0.0
 30
0.0
  0
VERTEX
  5
3FD
330
3FB
100
AcDbEntity
  8
001
 62
   253
370
    50
100
AcDbVertex
100
AcDb2dVertex
 10
96.816335
 20
70.790762
 30
0.0
  0
VERTEX
  5
3FE
330
3FB
100
AcDbEntity
  8
001
 62
   253
370
    50
100
AcDbVertex
100
AcDb2dVertex
 10
97.055528
 20
70.813117
 30
0.0
  0
VERTEX
  5
3FF
330
3FB
100
AcDbEntity
  8
001
 62
   253
370
    50
100
AcDbVertex
100
AcDb2dVertex
 10
97.294558
 20
70.83706
 30
0.0
  0
VERTEX
  5
400
330
3FB
100
AcDbEntity
  8
001
 62
   253
370
    50
100
AcDbVertex
100
AcDb2dVertex
 10
97.525871
 20
70.862961
 30
0.0
  0
VERTEX
  5
401
330
3FB
100
AcDbEntity
  8
001
 62
   253
370
    50
100
AcDbVertex
100
AcDb2dVertex
 10
97.75689
 20
70.891421
 30
0.0
  0
VERTEX
  5
402
330
3FB
100
AcDbEntity
  8
001
 62
   253
370
    50
100
AcDbVertex
100
AcDb2dVertex
 10
97.984887
 20
70.921719
 30
0.0
  0
VERTEX
  5
403
330
3FB
100
AcDbEntity
  8
001
 62
   253
370
    50
100
AcDbVertex
100
AcDb2dVertex
 10
98.212585
 20
70.954161
 30
0.0
  0
VERTEX
  5
404
330
3FB
100
AcDbEntity
  8
001
 62
   253
370
    50
100
AcDbVertex
100
AcDb2dVertex
 10
98.428453
 20
70.986982
 30
0.0
  0
VERTEX
  5
405
330
3FB
100
AcDbEntity
  8
001
 62
   253
370
    50
100
AcDbVertex
100
AcDb2dVertex
 10
98.644016
 20
71.021749
 30
0.0
  0
VERTEX
  5
406
330
3FB
100
AcDbEntity
  8
001
 62
   253
370
    50
100
AcDbVertex
100
AcDb2dVertex
 10
98.838462
 20
71.054796
 30
0.0
  0
VERTEX
  5
407
330
3FB
100
AcDbEntity
  8
001
 62
   253
370
    50
100
AcDbVertex
100
AcDb2dVertex
 10
99.032642
 20
71.089372
 30
0.0
  0
VERTEX
  5
408
330
3FB
100
AcDbEntity
  8
001
 62
   253
370
    50
100
AcDbVertex
100
AcDb2dVertex
 10
99.212037
 20
71.122696
 30
0.0
  0
VERTEX
  5
409
330
3FB
100
AcDbEntity
  8
001
 62
   253
370
    50
100
AcDbVertex
100
AcDb2dVertex
 10
99.391191
 20
71.157293
 30
0.0
  0
VERTEX
  5
40A
330
3FB
100
AcDbEntity
  8
001
 62
   253
370
    50
100
AcDbVertex
100
AcDb2dVertex
 10
99.559066
 20
71.190902
 30
0.0
  0
VERTEX
  5
40B
330
3FB
100
AcDbEntity
  8
001
 62
   253
370
    50
100
AcDbVertex
100
AcDb2dVertex
 10
99.726719
 20
71.225599
 30
0.0
  0
VERTEX
  5
40C
330
3FB
100
AcDbEntity
  8
001
 62
   253
370
    50
100
AcDbVertex
100
AcDb2dVertex
 10
99.873766
 20
71.256952
 30
0.0
  0
VERTEX
  5
40D
330
3FB
100
AcDbEntity
  8
001
 62
   253
370
    50
100
AcDbVertex
100
AcDb2dVertex
 10
100.020635
 20
71.289124
 30
0.0
  0
VERTEX
  5
40E
330
3FB
100
AcDbEntity
  8
001
 62
   253
370
    50
100
AcDbVertex
100
AcDb2dVertex
 10
100.190757
 20
71.327456
 30
0.0
  0
VERTEX
  5
40F
330
3FB
100
AcDbEntity
  8
001
 62
   253
370
    50
100
AcDbVertex
100
AcDb2dVertex
 10
100.360638
 20
71.366843
 30
0.0
  0
VERTEX
  5
410
330
3FB
100
AcDbEntity
  8
001
 62
   253
370
    50
100
AcDbVertex
100
AcDb2dVertex
 10
100.477168
 20
71.394491
 30
0.0
  0
VERTEX
  5
411
330
3FB
100
AcDbEntity
  8
001
 62
   253
370
    50
100
AcDbVertex
100
AcDb2dVertex
 10
100.593573
 20
71.422661
 30
0.0
  0
VERTEX
  5
412
330
3FB
100
AcDbEntity
  8
001
 62
   253
370
    50
100
AcDbVertex
100
AcDb2dVertex
 10
100.646694
 20
71.435702
 30
0.0
  0
VERTEX
  5
413
330
3FB
100
AcDbEntity
  8
001
 62
   253
370
    50
100
AcDbVertex
100
AcDb2dVertex
 10
100.6998
 20
71.448801
 30
0.0
  0
SEQEND
  5
3FC
330
3FB
100
AcDbEntity
  8
001
370
    50
  0
LINE
  5
414
330
1F
100
AcDbEntity
  8
001
 62
   253
370
    50
100
AcDbLine
 10
74.152814
 20
71.44796
 30
0.0
 11
74.193836
 21
71.438449
 31
0.0
  0
ARC
  5
415
330
1F
100
AcDbEntity
  8
001
 62
   253
370
    50
100
AcDbCircle
 10
74.193836
 20
37.448801
 30
0.0
 40
0.9999999999999966
100
AcDbArc
 50
240.0
 51
270.0
  0
ARC
  5
416
330
1F
100
AcDbEntity
  8
001
 62
   253
370
    50
100
AcDbCircle
 10
74.193836
 20
70.448801
 30
0.0
 40
0.9999999999999966
100
AcDbArc
 50
92.302593
 51
120.0
  0
LINE
  5
417
330
1F
100
AcDbEntity
  8
001
 62
   253
370
    50
100
AcDbLine
 10
73.693836
 20
71.314827
 30
0.0
 11
67.425887
 21
67.696025
 31
0.0
  0
LINE
  5
418
330
1F
100
AcDbEntity
  8
001
 62
   253
370
    50
100
AcDbLine
 10
67.425887
 20
40.201578
 30
0.0
 11
73.693836
 21
36.582776
 31
0.0
  0
ARC
  5
419
330
1F
100
AcDbEntity
  8
001
 62
   253
370
    50
100
AcDbCircle
 10
67.925887
 20
41.067604
 30
0.0
 40
0.9999999999999983
100
AcDbArc
 50
180.0
 51
240.0
  0
ARC
  5
41A
330
1F
100
AcDbEntity
  8
001
 62
   253
370
    50
100
AcDbCircle
 10
67.925887
 20
66.829999
 30
0.0
 40
0.9999999999999983
100
AcDbArc
 50
120.0
 51
180.0
  0
LINE
  5
41B
330
1F
100
AcDbEntity
  8
001
 62
   253
370
    50
100
AcDbLine
 10
66.925887
 20
66.829999
 30
0.0
 11
66.925887
 21
41.067604
 31
0.0
  0
LINE
  5
41C
330
1F
100
AcDbEntity
  8
001
  6
CENTER
370
     9
100
AcDbLine
 10
60.007047
 20
150.767443
 30
0.0
 11
193.347899
 21
150.767443
 31
0.0
  0
LINE
  5
41D
330
1F
100
AcDbEntity
  8
001
  6
CENTER
370
     9
100
AcDbLine
 10
60.007047
 20
53.948801
 30
0.0
 11
193.347899
 21
53.948801
 31
0.0
  0
LINE
  5
41E
330
1F
100
AcDbEntity
  8
001
  6
CENTER
 62
   253
370
     9
100
AcDbLine
 10
222.308208
 20
150.767443
 30
0.0
 11
273.308208
 21
150.767443
 31
0.0
  0
LINE
  5
41F
330
1F
100
AcDbEntity
  8
001
  6
CENTER
 62
   253
370
     9
100
AcDbLine
 10
247.808208
 20
125.267443
 30
0.0
 11
247.808208
 21
176.267443
 31
0.0
  0
LINE
  5
420
330
1F
100
AcDbEntity
  8
001
  6
CENTER
370
     9
100
AcDbLine
 10
94.925887
 20
74.998773
 30
0.0
 11
94.925887
 21
59.059857
 31
0.0
  0
LINE
  5
421
330
1F
100
AcDbEntity
  8
001
  6
CENTER
370
     9
100
AcDbLine
 10
79.925887
 20
74.998773
 30
0.0
 11
79.925887
 21
59.059857
 31
0.0
  0
LINE
  5
422
330
1F
100
AcDbEntity
  8
001
  6
DASHED
370
    50
100
AcDbLine
 10
66.925887
 20
63.948801
 30
0.0
 11
186.925887
 21
63.948801
 31
0.0
  0
LINE
  5
423
330
1F
100
AcDbEntity
  8
001
  6
DASHED
370
    50
100
AcDbLine
 10
66.925887
 20
43.948801
 30
0.0
 11
186.925887
 21
43.948801
 31
0.0
  0
LINE
  5
424
330
1F
100
AcDbEntity
  8
001
 62
   253
370
    50
100
AcDbLine
 10
109.925887
 20
33.948801
 30
0.0
 11
109.925887
 21
71.948801
 31
0.0
  0
LINE
  5
425
330
1F
100
AcDbEntity
  8
001
370
     9
100
AcDbLine
 10
109.925887
 20
158.83652
 30
0.0
 11
184.925887
 21
142.698366
 31
0.0
  0
LINE
  5
426
330
1F
100
AcDbEntity
  8
001
370
     9
100
AcDbLine
 10
184.925887
 20
158.83652
 30
0.0
 11
109.925887
 21
142.698366
 31
0.0
  0
LINE
  5
427
330
1F
100
AcDbEntity
  8
001
  6
DASHED
370
    30
100
AcDbLine
 10
99.925887
 20
71.268271
 30
0.0
 11
99.925887
 21
63.948801
 31
0.0
  0
LINE
  5
428
330
1F
100
AcDbEntity
  8
001
  6
DASHED
370
    30
100
AcDbLine
 10
99.175887
 20
71.115874
 30
0.0
 11
99.175887
 21
63.948801
 31
0.0
  0
LINE
  5
429
330
1F
100
AcDbEntity
  8
001
  6
DASHED
370
    30
100
AcDbLine
 10
89.925887
 20
71.268271
 30
0.0
 11
89.925887
 21
63.948801
 31
0.0
  0
LINE
  5
42A
330
1F
100
AcDbEntity
  8
001
  6
DASHED
370
    30
100
AcDbLine
 10
90.675887
 20
71.115874
 30
0.0
 11
90.675887
 21
63.948801
 31
0.0
  0
LINE
  5
42B
330
1F
100
AcDbEntity
  8
001
  6
DASHED
370
    30
100
AcDbLine
 10
84.925887
 20
71.268271
 30
0.0
 11
84.925887
 21
63.948801
 31
0.0
  0
LINE
  5
42C
330
1F
100
AcDbEntity
  8
001
  6
DASHED
370
    30
100
AcDbLine
 10
84.175887
 20
71.115874
 30
0.0
 11
84.175887
 21
63.948801
 31
0.0
  0
LINE
  5
42D
330
1F
100
AcDbEntity
  8
001
  6
DASHED
370
    30
100
AcDbLine
 10
74.925887
 20
71.268271
 30
0.0
 11
74.925887
 21
63.948801
 31
0.0
  0
LINE
  5
42E
330
1F
100
AcDbEntity
  8
001
  6
DASHED
370
    30
100
AcDbLine
 10
75.675887
 20
71.115874
 30
0.0
 11
75.675887
 21
63.948801
 31
0.0
  0
ENDSEC
  0
SECTION
  2
OBJECTS
  0
DICTIONARY
  5
C
330
0
100
AcDbDictionary
281
     1
  3
ACAD_GROUP
350
D
  3
ACAD_LAYOUT
350
1A
  3
ACAD_MLEADERSTYLE
350
432
  3
ACAD_MLINESTYLE
350
17
  3
ACAD_PLOTSETTINGS
350
19
  3
ACAD_PLOTSTYLENAME
350
E
  3
ACAD_SCALELIST
350
3B
  3
ACAD_TABLESTYLE
350
431
  3
ACAD_VISUALSTYLE
350
2A
  3
AcDbVariableDictionary
350
42F
  0
DICTIONARY
  5
D
102
{ACAD_REACTORS
330
C
102
}
330
C
100
AcDbDictionary
281
     1
  0
DICTIONARY
  5
1A
102
{ACAD_REACTORS
330
C
102
}
330
C
100
AcDbDictionary
281
     1
  3
Layout1
350
1E
  3
Layout2
350
26
  3
Model
350
22
  0
DICTIONARY
  5
432
102
{ACAD_REACTORS
330
C
102
}
330
C
100
AcDbDictionary
281
     1
  0
DICTIONARY
  5
17
102
{ACAD_REACTORS
330
C
102
}
330
C
100
AcDbDictionary
281
     1
  3
Standard
350
18
  0
DICTIONARY
  5
19
102
{ACAD_REACTORS
330
C
102
}
330
C
100
AcDbDictionary
281
     1
  0
ACDBDICTIONARYWDFLT
  5
E
102
{ACAD_REACTORS
330
C
102
}
330
C
100
AcDbDictionary
281
     1
  3
Normal
350
F
100
AcDbDictionaryWithDefault
340
F
  0
DICTIONARY
  5
3B
102
{ACAD_REACTORS
330
C
102
}
330
C
100
AcDbDictionary
281
     1
  3
A0
350
3C
  3
A1
350
3D
  3
A2
350
3E
  3
A3
350
3F
  3
A4
350
40
  3
A5
350
41
  3
A6
350
42
  3
A7
350
43
  3
A8
350
44
  3
A9
350
45
  3
B0
350
46
  3
B1
350
47
  3
B2
350
48
  3
B3
350
49
  3
B4
350
4A
  3
B5
350
4B
  3
B6
350
4C
  3
B7
350
4D
  3
B8
350
4E
  3
B9
350
4F
  3
C0
350
50
  3
C1
350
51
  3
C2
350
52
  3
C3
350
53
  3
C4
350
54
  3
C5
350
55
  3
C6
350
56
  3
C7
350
57
  3
C8
350
58
  3
C9
350
59
  3
D0
350
5A
  3
D1
350
5B
  3
D2
350
5C
  0
DICTIONARY
  5
431
102
{ACAD_REACTORS
330
C
102
}
330
C
100
AcDbDictionary
281
     1
  0
DICTIONARY
  5
2A
102
{ACAD_REACTORS
330
C
102
}
330
C
100
AcDbDictionary
281
     1
  3
2dWireframe
350
2F
  3
3D Hidden
350
31
  3
3dWireframe
350
30
  3
Basic
350
32
  3
Brighten
350
36
  3
ColorChange
350
3A
  3
Conceptual
350
34
  3
Dim
350
35
  3
Facepattern
350
39
  3
Flat
350
2B
  3
FlatWithEdges
350
2C
  3
Gouraud
350
2D
  3
GouraudWithEdges
350
2E
  3
Linepattern
350
38
  3
Realistic
350
33
  3
Thicken
350
37
  0
DICTIONARY
  5
42F
102
{ACAD_REACTORS
330
C
102
}
330
C
100
AcDbDictionary
281
     1
  3
CANNOSCALE
350
430
  3
PSOLHEIGHT
350
434
  3
PSOLWIDTH
350
433
  0
LAYOUT
  5
1E
102
{ACAD_REACTORS
330
1A
102
}
330
1A
100
AcDbPlotSettings
  1

  2
none_device
  4

  6

 40
0.0
 41
0.0
 42
0.0
 43
0.0
 44
0.0
 45
0.0
 46
0.0
 47
0.0
 48
0.0
 49
0.0
140
0.0
141
0.0
142
1.0
143
1.0
 70
   688
 72
     0
 73
     0
 74
     5
  7

 75
    16
147
1.0
148
0.0
149
0.0
100
AcDbLayout
  1
Layout1
 70
     1
 71
     1
 10
0.0
 20
0.0
 11
12.0
 21
9.0
 12
0.0
 22
0.0
 32
0.0
 14
1.000000E+20
 24
1.000000E+20
 34
0.0
 15
-1.000000E+20
 25
-1.000000E+20
 35
0.0
146
0.0
 13
0.0
 23
0.0
 33
0.0
 16
1.0
 26
0.0
 36
0.0
 17
0.0
 27
1.0
 37
0.0
 76
     0
330
1B
  0
LAYOUT
  5
26
102
{ACAD_REACTORS
330
1A
102
}
330
1A
100
AcDbPlotSettings
  1

  2
none_device
  4

  6

 40
0.0
 41
0.0
 42
0.0
 43
0.0
 44
0.0
 45
0.0
 46
0.0
 47
0.0
 48
0.0
 49
0.0
140
0.0
141
0.0
142
1.0
143
1.0
 70
   688
 72
     0
 73
     0
 74
     5
  7

 75
    16
147
1.0
148
0.0
149
0.0
100
AcDbLayout
  1
Layout2
 70
     1
 71
     2
 10
0.0
 20
0.0
 11
0.0
 21
0.0
 12
0.0
 22
0.0
 32
0.0
 14
0.0
 24
0.0
 34
0.0
 15
0.0
 25
0.0
 35
0.0
146
0.0
 13
0.0
 23
0.0
 33
0.0
 16
1.0
 26
0.0
 36
0.0
 17
0.0
 27
1.0
 37
0.0
 76
     0
330
23
  0
LAYOUT
  5
22
102
{ACAD_REACTORS
330
1A
102
}
330
1A
100
AcDbPlotSettings
  1

  2
none_device
  4

  6

 40
0.0
 41
0.0
 42
0.0
 43
0.0
 44
0.0
 45
0.0
 46
0.0
 47
0.0
 48
0.0
 49
0.0
140
0.0
141
0.0
142
1.0
143
1.0
 70
  1712
 72
     0
 73
     0
 74
     0
  7

 75
     0
147
1.0
148
0.0
149
0.0
100
AcDbLayout
  1
Model
 70
     1
 71
     0
 10
0.0
 20
0.0
 11
12.0
 21
9.0
 12
0.0
 22
0.0
 32
0.0
 14
-13.748291
 24
7.85788
 34
0.0
 15
273.308197
 25
222.014221
 35
0.0
146
0.0
 13
0.0
 23
0.0
 33
0.0
 16
1.0
 26
0.0
 36
0.0
 17
0.0
 27
1.0
 37
0.0
 76
     0
330
1F
331
29
  0
MLINESTYLE
  5
18
102
{ACAD_REACTORS
330
17
102
}
330
17
100
AcDbMlineStyle
  2
Standard
 70
     0
  3

 62
   256
 51
90.0
 52
90.0
 71
     2
 49
0.5
 62
   256
  6
BYLAYER
 49
-0.5
 62
   256
  6
BYLAYER
  0
ACDBPLACEHOLDER
  5
F
102
{ACAD_REACTORS
330
E
102
}
330
E
  0
SCALE
  5
3C
102
{ACAD_REACTORS
330
3B
102
}
330
3B
100
AcDbScale
 70
     0
300
1:1
140
1.0
141
1.0
290
     1
  0
SCALE
  5
3D
102
{ACAD_REACTORS
330
3B
102
}
330
3B
100
AcDbScale
 70
     0
300
1:2
140
1.0
141
2.0
290
     0
  0
SCALE
  5
3E
102
{ACAD_REACTORS
330
3B
102
}
330
3B
100
AcDbScale
 70
     0
300
1:4
140
1.0
141
4.0
290
     0
  0
SCALE
  5
3F
102
{ACAD_REACTORS
330
3B
102
}
330
3B
100
AcDbScale
 70
     0
300
1:5
140
1.0
141
5.0
290
     0
  0
SCALE
  5
40
102
{ACAD_REACTORS
330
3B
102
}
330
3B
100
AcDbScale
 70
     0
300
1:8
140
1.0
141
8.0
290
     0
  0
SCALE
  5
41
102
{ACAD_REACTORS
330
3B
102
}
330
3B
100
AcDbScale
 70
     0
300
1:10
140
1.0
141
10.0
290
     0
  0
SCALE
  5
42
102
{ACAD_REACTORS
330
3B
102
}
330
3B
100
AcDbScale
 70
     0
300
1:16
140
1.0
141
16.0
290
     0
  0
SCALE
  5
43
102
{ACAD_REACTORS
330
3B
102
}
330
3B
100
AcDbScale
 70
     0
300
1:20
140
1.0
141
20.0
290
     0
  0
SCALE
  5
44
102
{ACAD_REACTORS
330
3B
102
}
330
3B
100
AcDbScale
 70
     0
300
1:30
140
1.0
141
30.0
290
     0
  0
SCALE
  5
45
102
{ACAD_REACTORS
330
3B
102
}
330
3B
100
AcDbScale
 70
     0
300
1:40
140
1.0
141
40.0
290
     0
  0
SCALE
  5
46
102
{ACAD_REACTORS
330
3B
102
}
330
3B
100
AcDbScale
 70
     0
300
1:50
140
1.0
141
50.0
290
     0
  0
SCALE
  5
47
102
{ACAD_REACTORS
330
3B
102
}
330
3B
100
AcDbScale
 70
     0
300
1:100
140
1.0
141
100.0
290
     0
  0
SCALE
  5
48
102
{ACAD_REACTORS
330
3B
102
}
330
3B
100
AcDbScale
 70
     0
300
2:1
140
2.0
141
1.0
290
     0
  0
SCALE
  5
49
102
{ACAD_REACTORS
330
3B
102
}
330
3B
100
AcDbScale
 70
     0
300
4:1
140
4.0
141
1.0
290
     0
  0
SCALE
  5
4A
102
{ACAD_REACTORS
330
3B
102
}
330
3B
100
AcDbScale
 70
     0
300
8:1
140
8.0
141
1.0
290
     0
  0
SCALE
  5
4B
102
{ACAD_REACTORS
330
3B
102
}
330
3B
100
AcDbScale
 70
     0
300
10:1
140
10.0
141
1.0
290
     0
  0
SCALE
  5
4C
102
{ACAD_REACTORS
330
3B
102
}
330
3B
100
AcDbScale
 70
     0
300
100:1
140
100.0
141
1.0
290
     0
  0
SCALE
  5
4D
102
{ACAD_REACTORS
330
3B
102
}
330
3B
100
AcDbScale
 70
     0
300
1/128" = 1'-0"
140
0.007812
141
12.0
290
     0
  0
SCALE
  5
4E
102
{ACAD_REACTORS
330
3B
102
}
330
3B
100
AcDbScale
 70
     0
300
1/64" = 1'-0"
140
0.015625
141
12.0
290
     0
  0
SCALE
  5
4F
102
{ACAD_REACTORS
330
3B
102
}
330
3B
100
AcDbScale
 70
     0
300
1/32" = 1'-0"
140
0.03125
141
12.0
290
     0
  0
SCALE
  5
50
102
{ACAD_REACTORS
330
3B
102
}
330
3B
100
AcDbScale
 70
     0
300
1/16" = 1'-0"
140
0.0625
141
12.0
290
     0
  0
SCALE
  5
51
102
{ACAD_REACTORS
330
3B
102
}
330
3B
100
AcDbScale
 70
     0
300
3/32" = 1'-0"
140
0.09375
141
12.0
290
     0
  0
SCALE
  5
52
102
{ACAD_REACTORS
330
3B
102
}
330
3B
100
AcDbScale
 70
     0
300
1/8" = 1'-0"
140
0.125
141
12.0
290
     0
  0
SCALE
  5
53
102
{ACAD_REACTORS
330
3B
102
}
330
3B
100
AcDbScale
 70
     0
300
3/16" = 1'-0"
140
0.1875
141
12.0
290
     0
  0
SCALE
  5
54
102
{ACAD_REACTORS
330
3B
102
}
330
3B
100
AcDbScale
 70
     0
300
1/4" = 1'-0"
140
0.25
141
12.0
290
     0
  0
SCALE
  5
55
102
{ACAD_REACTORS
330
3B
102
}
330
3B
100
AcDbScale
 70
     0
300
3/8" = 1'-0"
140
0.375
141
12.0
290
     0
  0
SCALE
  5
56
102
{ACAD_REACTORS
330
3B
102
}
330
3B
100
AcDbScale
 70
     0
300
1/2" = 1'-0"
140
0.5
141
12.0
290
     0
  0
SCALE
  5
57
102
{ACAD_REACTORS
330
3B
102
}
330
3B
100
AcDbScale
 70
     0
300
3/4" = 1'-0"
140
0.75
141
12.0
290
     0
  0
SCALE
  5
58
102
{ACAD_REACTORS
330
3B
102
}
330
3B
100
AcDbScale
 70
     0
300
1" = 1'-0"
140
1.0
141
12.0
290
     0
  0
SCALE
  5
59
102
{ACAD_REACTORS
330
3B
102
}
330
3B
100
AcDbScale
 70
     0
300
1-1/2" = 1'-0"
140
1.5
141
12.0
290
     0
  0
SCALE
  5
5A
102
{ACAD_REACTORS
330
3B
102
}
330
3B
100
AcDbScale
 70
     0
300
3" = 1'-0"
140
3.0
141
12.0
290
     0
  0
SCALE
  5
5B
102
{ACAD_REACTORS
330
3B
102
}
330
3B
100
AcDbScale
 70
     0
300
6" = 1'-0"
140
6.0
141
12.0
290
     0
  0
SCALE
  5
5C
102
{ACAD_REACTORS
330
3B
102
}
330
3B
100
AcDbScale
 70
     0
300
1'-0" = 1'-0"
140
12.0
141
12.0
290
     0
  0
VISUALSTYLE
  5
2F
102
{ACAD_REACTORS
330
2A
102
}
330
2A
100
AcDbVisualStyle
  2
2dWireframe
 70
     4
 71
     0
 72
     2
 73
     0
 90
        0
 40
-0.6
 41
-30.0
 62
     5
 63
     7
 74
     1
 91
        4
 64
     7
 65
   257
 75
     1
175
     1
 42
1.0
 92
        0
 66
   257
 43
1.0
 76
     1
 77
     6
 78
     2
 67
     7
 79
     5
170
     0
171
     0
290
     0
174
     0
 93
        1
 44
0.0
173
     0
291
     0
 45
0.0
1001
ACAD
1000
AcDbSavedByObjectVersion
1070
     0
  0
VISUALSTYLE
  5
31
102
{ACAD_REACTORS
330
2A
102
}
330
2A
100
AcDbVisualStyle
  2
3D Hidden
 70
     6
 71
     1
 72
     2
 73
     2
 90
        0
 40
-0.6
 41
-30.0
 62
     5
 63
     7
 74
     2
 91
        2
 64
     7
 65
   257
 75
     2
175
     1
 42
40.0
 92
        0
 66
   257
 43
1.0
 76
     1
 77
     6
 78
     2
 67
     7
 79
     3
170
     0
171
     0
290
     0
174
     0
 93
        1
 44
0.0
173
     0
291
     0
 45
0.0
1001
ACAD
1000
AcDbSavedByObjectVersion
1070
     0
  0
VISUALSTYLE
  5
30
102
{ACAD_REACTORS
330
2A
102
}
330
2A
100
AcDbVisualStyle
  2
3dWireframe
 70
     5
 71
     0
 72
     2
 73
     0
 90
        0
 40
-0.6
 41
-30.0
 62
     5
 63
     7
 74
     1
 91
        4
 64
     7
 65
   257
 75
     1
175
     1
 42
1.0
 92
        0
 66
   257
 43
1.0
 76
     1
 77
     6
 78
     2
 67
     7
 79
     5
170
     0
171
     0
290
     0
174
     0
 93
        1
 44
0.0
173
     0
291
     0
 45
0.0
1001
ACAD
1000
AcDbSavedByObjectVersion
1070
     0
  0
VISUALSTYLE
  5
32
102
{ACAD_REACTORS
330
2A
102
}
330
2A
100
AcDbVisualStyle
  2
Basic
 70
     7
 71
     1
 72
     0
 73
     1
 90
        0
 40
-0.6
 41
-30.0
 62
     5
 63
     7
 74
     0
 91
        4
 64
     7
 65
   257
 75
     1
175
     1
 42
1.0
 92
        8
 66
     7
 43
1.0
 76
     1
 77
     6
 78
     2
 67
     7
 79
     5
170
     0
171
     0
290
     0
174
     0
 93
        1
 44
0.0
173
     0
291
     1
 45
0.0
1001
ACAD
1000
AcDbSavedByObjectVersion
1070
     0
  0
VISUALSTYLE
  5
36
102
{ACAD_REACTORS
330
2A
102
}
330
2A
100
AcDbVisualStyle
  2
Brighten
 70
    12
 71
     2
 72
     2
 73
     0
 90
        0
 40
-0.6
 41
-30.0
 62
     5
 63
     7
 74
     1
 91
        4
 64
     7
 65
   257
 75
     1
175
     1
 42
1.0
 92
        8
 66
     7
 43
1.0
 76
     1
 77
     6
 78
     2
 67
     7
 79
     5
170
     0
171
     0
290
     0
174
     0
 93
        1
 44
50.0
173
     0
291
     1
 45
0.0
1001
ACAD
1000
AcDbSavedByObjectVersion
1070
     0
  0
VISUALSTYLE
  5
3A
102
{ACAD_REACTORS
330
2A
102
}
330
2A
100
AcDbVisualStyle
  2
ColorChange
 70
    16
 71
     2
 72
     2
 73
     3
 90
        0
 40
-0.6
 41
-30.0
 62
     5
 63
     8
 74
     1
 91
        4
 64
     7
 65
   257
 75
     1
175
     1
 42
1.0
 92
        8
 66
     8
 43
1.0
 76
     1
 77
     6
 78
     2
 67
     7
 79
     5
170
     0
171
     0
290
     0
174
     0
 93
        1
 44
0.0
173
     0
291
     1
 45
0.0
1001
ACAD
1000
AcDbSavedByObjectVersion
1070
     0
  0
VISUALSTYLE
  5
34
102
{ACAD_REACTORS
330
2A
102
}
330
2A
100
AcDbVisualStyle
  2
Conceptual
 70
     9
 71
     3
 72
     2
 73
     0
 90
        0
 40
-0.6
 41
-30.0
 62
     5
 63
     7
 74
     2
 91
        2
 64
     7
 65
   257
 75
     1
175
     1
 42
40.0
 92
        8
 66
     7
 43
1.0
 76
     1
 77
     6
 78
     2
 67
     7
 79
     3
170
     0
171
     0
290
     0
174
     0
 93
        1
 44
0.0
173
     0
291
     0
 45
0.0
1001
ACAD
1000
AcDbSavedByObjectVersion
1070
     0
  0
VISUALSTYLE
  5
35
102
{ACAD_REACTORS
330
2A
102
}
330
2A
100
AcDbVisualStyle
  2
Dim
 70
    11
 71
     2
 72
     2
 73
     0
 90
        0
 40
-0.6
 41
-30.0
 62
     5
 63
     7
 74
     1
 91
        4
 64
     7
 65
   257
 75
     1
175
     1
 42
1.0
 92
        8
 66
     7
 43
1.0
 76
     1
 77
     6
 78
     2
 67
     7
 79
     5
170
     0
171
     0
290
     0
174
     0
 93
        1
 44
-50.0
173
     0
291
     1
 45
0.0
1001
ACAD
1000
AcDbSavedByObjectVersion
1070
     0
  0
VISUALSTYLE
  5
39
102
{ACAD_REACTORS
330
2A
102
}
330
2A
100
AcDbVisualStyle
  2
Facepattern
 70
    15
 71
     2
 72
     2
 73
     0
 90
        0
 40
-0.6
 41
-30.0
 62
     5
 63
     7
 74
     1
 91
        4
 64
     7
 65
   257
 75
     1
175
     1
 42
1.0
 92
        8
 66
     7
 43
1.0
 76
     1
 77
     6
 78
     2
 67
     7
 79
     5
170
     0
171
     0
290
     0
174
     0
 93
        1
 44
0.0
173
     0
291
     1
 45
0.0
1001
ACAD
1000
AcDbSavedByObjectVersion
1070
     0
  0
VISUALSTYLE
  5
2B
102
{ACAD_REACTORS
330
2A
102
}
330
2A
100
AcDbVisualStyle
  2
Flat
 70
     0
 71
     2
 72
     1
 73
     1
 90
        2
 40
-0.6
 41
30.0
 62
     5
 63
     7
 74
     0
 91
        4
 64
     7
 65
   257
 75
     1
175
     1
 42
1.0
 92
        8
 66
     7
 43
1.0
 76
     1
 77
     6
 78
     2
 67
     7
 79
     5
170
     0
171
     0
290
     0
174
     0
 93
       13
 44
0.0
173
     0
291
     1
 45
0.0
1001
ACAD
1000
AcDbSavedByObjectVersion
1070
     0
  0
VISUALSTYLE
  5
2C
102
{ACAD_REACTORS
330
2A
102
}
330
2A
100
AcDbVisualStyle
  2
FlatWithEdges
 70
     1
 71
     2
 72
     1
 73
     1
 90
        2
 40
-0.6
 41
30.0
 62
     5
 63
     7
 74
     1
 91
        4
 64
     7
 65
   257
 75
     1
175
     1
 42
1.0
 92
        0
 66
   257
 43
1.0
 76
     1
 77
     6
 78
     2
 67
     7
 79
     5
170
     0
171
     0
290
     0
174
     0
 93
       13
 44
0.0
173
     0
291
     1
 45
0.0
1001
ACAD
1000
AcDbSavedByObjectVersion
1070
     0
  0
VISUALSTYLE
  5
2D
102
{ACAD_REACTORS
330
2A
102
}
330
2A
100
AcDbVisualStyle
  2
Gouraud
 70
     2
 71
     2
 72
     2
 73
     1
 90
        2
 40
-0.6
 41
30.0
 62
     5
 63
     7
 74
     0
 91
        4
 64
     7
 65
   257
 75
     1
175
     1
 42
1.0
 92
        0
 66
     7
 43
1.0
 76
     1
 77
     6
 78
     2
 67
     7
 79
     5
170
     0
171
     0
290
     0
174
     0
 93
       13
 44
0.0
173
     0
291
     1
 45
0.0
1001
ACAD
1000
AcDbSavedByObjectVersion
1070
     0
  0
VISUALSTYLE
  5
2E
102
{ACAD_REACTORS
330
2A
102
}
330
2A
100
AcDbVisualStyle
  2
GouraudWithEdges
 70
     3
 71
     2
 72
     2
 73
     1
 90
        2
 40
-0.6
 41
30.0
 62
     5
 63
     7
 74
     1
 91
        4
 64
     7
 65
   257
 75
     1
175
     1
 42
1.0
 92
        0
 66
   257
 43
1.0
 76
     1
 77
     6
 78
     2
 67
     7
 79
     5
170
     0
171
     0
290
     0
174
     0
 93
       13
 44
0.0
173
     0
291
     1
 45
0.0
1001
ACAD
1000
AcDbSavedByObjectVersion
1070
     0
  0
VISUALSTYLE
  5
38
102
{ACAD_REACTORS
330
2A
102
}
330
2A
100
AcDbVisualStyle
  2
Linepattern
 70
    14
 71
     2
 72
     2
 73
     0
 90
        0
 40
-0.6
 41
-30.0
 62
     5
 63
     7
 74
     1
 91
        4
 64
     7
 65
   257
 75
     7
175
     7
 42
1.0
 92
        8
 66
     7
 43
1.0
 76
     1
 77
     6
 78
     2
 67
     7
 79
     5
170
     0
171
     0
290
     0
174
     0
 93
        1
 44
0.0
173
     0
291
     1
 45
0.0
1001
ACAD
1000
AcDbSavedByObjectVersion
1070
     0
  0
VISUALSTYLE
  5
33
102
{ACAD_REACTORS
330
2A
102
}
330
2A
100
AcDbVisualStyle
  2
Realistic
 70
     8
 71
     2
 72
     2
 73
     0
 90
        0
 40
-0.6
 41
-30.0
 62
     5
 63
     7
 74
     1
 91
        0
 64
     7
 65
   257
 75
     1
175
     1
 42
1.0
 92
        8
 66
     8
 43
1.0
 76
     1
 77
     6
 78
     2
 67
     7
 79
     5
170
     0
171
     0
290
     0
174
     0
 93
       13
 44
0.0
173
     0
291
     0
 45
0.0
1001
ACAD
1000
AcDbSavedByObjectVersion
1070
     0
  0
VISUALSTYLE
  5
37
102
{ACAD_REACTORS
330
2A
102
}
330
2A
100
AcDbVisualStyle
  2
Thicken
 70
    13
 71
     2
 72
     2
 73
     0
 90
        0
 40
-0.6
 41
-30.0
 62
     5
 63
     7
 74
     1
 91
        4
 64
     7
 65
   257
 75
     1
175
     1
 42
1.0
 92
       12
 66
     7
 43
1.0
 76
     1
 77
     6
 78
     2
 67
     7
 79
     5
170
     0
171
     0
290
     0
174
     0
 93
        1
 44
0.0
173
     0
291
     1
 45
0.0
1001
ACAD
1000
AcDbSavedByObjectVersion
1070
     0
  0
DICTIONARYVAR
  5
430
102
{ACAD_REACTORS
330
42F
102
}
330
42F
100
DictionaryVariables
280
     0
  1
1:1
  0
DICTIONARYVAR
  5
434
102
{ACAD_REACTORS
330
42F
102
}
330
42F
100
DictionaryVariables
280
     0
  1
80.000000
  0
DICTIONARYVAR
  5
433
102
{ACAD_REACTORS
330
42F
102
}
330
42F
100
DictionaryVariables
280
     0
  1
5.000000
  0
ENDSEC
  0
EOF
